osu file format v14

[General]
AudioFilename: audio.mp3
AudioLeadIn: 0
PreviewTime: 11528
Countdown: 0
SampleSet: Normal
StackLeniency: 0.7
Mode: 0
LetterboxInBreaks: 0
WidescreenStoryboard: 0

[Editor]
DistanceSpacing: 0.8
BeatDivisor: 4
GridSize: 4
TimelineZoom: 2.7

[Metadata]
Title:Yumeiro Toridori Parade
TitleUnicode:夢色トリドリパレード♫
Artist:Earth Star Dream
ArtistUnicode:アース・スター ドリーム
Creator:Moester
Version:Hard
Source:魔法少女なんてもういいですから。
Tags:Mahou Shoujo Nante Mouiidesukara
BeatmapID:964447
BeatmapSetID:438957

[Difficulty]
HPDrainRate:5
CircleSize:3
OverallDifficulty:5
ApproachRate:7
SliderMultiplier:1.6
SliderTickRate:1

[Events]
//Background and Video events
0,0,"BG.jpg",0,0
Video,761,"video.flv"
//Break Periods
//Storyboard Layer 0 (Background)
//Storyboard Layer 1 (Fail)
//Storyboard Layer 2 (Pass)
//Storyboard Layer 3 (Foreground)
//Storyboard Sound Samples

[TimingPoints]
1094,434.782608695652,4,2,0,50,1,0
11528,-100,4,1,0,50,0,0
24572,-133.333333333333,4,1,0,50,0,0
25007,-133.333333333333,4,1,1,50,0,0
25441,-100,4,1,0,50,0,0

[Colours]
Combo1 : 192,192,192
Combo2 : 255,128,128
Combo3 : 255,255,85

[HitObjects]
344,288,1094,6,0,P|380:280|412:264,2,53.3333333333333,0|0|0,0:0|0:0|0:0,0:0:0:0:
280,288,1528,2,0,P|204:280|120:292,1,160,2|0,0:0|0:0,0:0:0:0:
121,291,2398,1,2,0:0:0:0:
60,108,2833,6,0,P|138:120|212:93,1,160,0|2,0:0|0:0,0:0:0:0:
336,52,3557,1,0,0:0:0:0:
336,52,3702,2,0,L|508:68,1,160,0|2,0:0|0:0,0:0:0:0:
396,232,4572,6,0,P|396:292|400:308,2,53.3333333333333,0|0|0,0:0|0:0|0:0,0:0:0:0:
416,172,5007,2,0,L|309:183,1,106.666666666667,2|0,0:0|0:0,0:0:0:0:
248,192,5441,1,2,0:0:0:0:
152,176,5659,1,0,0:0:0:0:
168,80,5876,1,2,0:0:0:0:
264,96,6093,1,0,0:0:0:0:
152,176,6311,6,0,P|72:196|32:188,1,120,0|0,0:0|0:0,0:0:0:0:
36,189,6746,2,0,L|52:301,1,80,2|0,0:0|0:0,0:0:0:0:
124,324,7180,1,0,0:0:0:0:
216,344,7398,1,0,0:0:0:0:
312,324,7615,1,2,0:0:0:0:
392,268,7833,1,0,0:0:0:0:
452,192,8050,6,0,P|436:141|442:88,1,106.666666666667,6|0,0:0|0:0,0:0:0:0:
476,31,8485,2,0,P|425:47|372:41,1,106.666666666667,2|0,0:0|0:0,0:0:0:0:
307,27,8920,2,0,P|323:78|317:131,1,106.666666666667,6|0,0:0|0:0,0:0:0:0:
283,188,9355,2,0,P|334:172|387:178,1,106.666666666667,2|0,0:0|0:0,0:0:0:0:
344,268,9789,1,0,1:0:0:0:
344,268,10224,5,2,0:0:0:0:
248,264,10659,1,2,0:0:0:0:
152,260,11093,1,2,0:0:0:0:
68,76,11528,6,0,P|132:60|164:68,1,80,4|0,0:0|0:0,0:0:0:0:
236,96,11963,2,0,P|300:112|332:104,1,80,8|0,0:2|0:0,0:0:0:0:
396,64,12398,2,0,P|376:152|400:196,1,120,0|0,0:0|0:0,0:0:0:0:
432,160,12833,2,0,P|424:120|448:80,1,80,8|0,0:2|0:0,0:0:0:0:
458,235,13267,2,0,P|470:293|448:347,1,120,0|0,0:0|0:0,0:0:0:0:
403,325,13702,2,0,P|420:290|412:252,1,80,8|0,0:2|0:0,0:0:0:0:
320,280,14137,5,0,0:0:0:0:
232,240,14354,1,0,0:0:0:0:
164,308,14572,1,8,0:2:0:0:
72,276,14789,1,0,0:0:0:0:
36,188,15007,6,0,P|28:132|64:48,1,120,0|0,0:0|0:0,0:0:0:0:
80,36,15441,2,0,L|164:28,1,80,8|0,0:2|0:0,0:0:0:0:
256,20,15876,1,0,0:0:0:0:
344,56,16093,1,0,0:0:0:0:
308,144,16311,1,8,0:0:0:0:
220,108,16528,1,0,0:0:0:0:
344,56,16746,6,0,P|396:72|472:72,1,120,0|0,0:0|0:0,0:0:0:0:
461,73,17180,2,0,L|449:157,1,80,8|0,0:2|0:0,0:0:0:0:
432,248,17615,1,0,0:0:0:0:
412,344,17833,1,0,0:0:0:0:
344,276,18050,1,8,0:0:0:0:
412,344,18268,1,8,0:2:0:0:
320,364,18485,6,0,P|259:361|177:322,1,120,4|0,0:0|0:0,0:0:0:0:
156,332,18920,2,0,P|92:332|48:340,1,80,8|0,0:2|0:0,0:0:0:0:
28,252,19354,2,0,P|44:208|44:164,1,80,0|0,0:0|0:0,0:0:0:0:
128,104,19789,2,0,P|130:143|145:180,1,80,8|0,0:2|0:0,0:0:0:0:
256,116,20224,6,0,P|256:60|200:12,1,120,0|0,2:0|2:0,2:0:0:0:
160,96,20659,2,0,P|162:135|177:172,1,80,8|0,2:2|2:0,2:0:0:0:
244,232,21093,1,0,0:0:0:0:
152,256,21311,1,0,0:0:0:0:
244,232,21528,1,8,0:2:0:0:
336,264,21746,1,0,0:0:0:0:
424,300,21963,6,0,P|464:277|496:221,1,80
468,204,22289,2,0,P|456:140|488:68,1,120,8|0,0:2|0:0,0:0:0:0:
380,88,22833,6,0,P|333:96|279:82,1,80,0|0,0:0|0:0,0:0:0:0:
256,84,23159,2,0,P|209:75|148:92,1,80,8|0,0:2|0:0,0:0:0:0:
139,90,23485,1,0,0:0:0:0:
139,90,23920,5,8,0:3:0:0:
41,66,24138,1,8,0:3:0:0:
116,183,24355,1,8,0:3:0:0:
21,159,24572,2,0,P|19:217|59:262,1,120.000004577637,0|4,0:0|0:1,0:0:0:0:
236,316,25441,6,0,P|280:304|332:304,1,80,4|0,0:0|0:0,0:0:0:0:
364,220,25876,2,0,P|328:220|284:210,1,80,8|0,0:2|0:0,0:0:0:0:
243,124,26311,2,0,P|206:170|191:228,1,120
200,276,26746,2,0,P|204:336|196:356,1,80,8|0,0:0|0:0,0:0:0:0:
304,328,27180,2,0,P|258:291|200:276,1,120,0|0,0:0|0:0,0:0:0:0:
152,285,27615,2,0,P|92:289|72:281,1,80,8|0,0:2|0:0,0:0:0:0:
44,192,28050,5,0,0:0:0:0:
72,100,28267,1,0,0:0:0:0:
156,48,28485,1,8,0:2:0:0:
252,40,28702,1,0,0:0:0:0:
212,128,28920,6,0,P|208:188|264:248,1,120,0|0,0:0|0:0,0:0:0:0:
280,260,29354,2,0,L|364:244,1,80,8|0,0:0|0:0,0:0:0:0:
256,340,29789,1,0,0:0:0:0:
160,324,30007,1,0,0:0:0:0:
256,340,30224,1,8,0:0:0:0:
352,324,30441,1,0,0:0:0:0:
444,300,30659,6,0,P|452:248|436:160,1,120,0|0,0:0|0:0,0:0:0:0:
443,181,31093,2,0,L|360:208,1,80,8|0,0:0|0:0,0:0:0:0:
292,268,31528,5,0,0:0:0:0:
200,236,31746,1,0,0:0:0:0:
276,176,31963,1,8,0:0:0:0:
292,268,32180,1,8,0:0:0:0:
200,236,32398,6,0,P|136:232|96:240,1,80,4|0,0:0|0:0,0:0:0:0:
156,324,32833,2,0,P|92:328|52:320,1,80,8|0,0:0|0:0,0:0:0:0:
32,232,33267,2,0,P|28:192|40:136,1,80
122,155,33702,2,0,P|126:195|114:251,1,80,8|0,0:0|0:0,0:0:0:0:
34,151,34137,6,0,P|62:100|114:70,1,120
164,68,34572,2,0,P|224:72|312:56,1,120,8|0,0:0|0:0,0:0:0:0:
328,48,35007,1,0,0:0:0:0:
312,144,35224,1,0,0:0:0:0:
396,188,35441,1,8,0:0:0:0:
412,284,35658,1,0,0:0:0:0:
327,328,35876,6,0,P|292:345|252:346,1,80,0|0,0:0|0:0,0:0:0:0:
228,256,36311,2,0,P|263:238|303:237,1,80,8|0,0:0|0:0,0:0:0:0:
172,320,36746,1,0,0:0:0:0:
80,296,36963,1,0,0:0:0:0:
172,320,37180,1,8,0:2:0:0:
156,192,37615,5,0,0:0:0:0:
256,192,37833,12,0,40659,0:0:0:0:
348,236,41311,6,0,L|360:320,1,80,0|8,0:0|0:2,0:0:0:0:
348,236,41746,1,8,0:2:0:0:
256,260,42180,2,0,L|256:348,1,80,0|8,0:0|0:0,0:0:0:0:
256,260,42615,1,8,0:0:0:0:
164,236,43050,2,0,L|152:320,1,80,0|8,0:0|0:0,0:0:0:0:
164,236,43485,1,0,0:0:0:0:
204,148,43702,5,8,0:0:0:0:
256,68,43920,1,8,0:0:0:0:
308,148,44137,1,0,0:0:0:0:
256,68,44354,1,8,0:0:0:0:
256,228,44572,1,4,0:0:0:0:
