osu file format v14

[General]
AudioFilename: yumeiro.mp3
AudioLeadIn: 0
PreviewTime: 9586
Countdown: 0
SampleSet: Soft
StackLeniency: 0.4
Mode: 0
LetterboxInBreaks: 0
WidescreenStoryboard: 0

[Editor]
DistanceSpacing: 1.2
BeatDivisor: 4
GridSize: 4
TimelineZoom: 2.2

[Metadata]
Title:Yumeiro Toridori Parade
TitleUnicode:夢色トリドリパレード♫
Artist:Earth Star Dream
ArtistUnicode:アース・スター ドリーム
Creator:Agatsu
Version:pkhg's Hard
Source:魔法少女なんてもういいですから。
Tags:mahou shoujo nante mou iidesukara op opening anime tv size akitoshi pkhg
BeatmapID:1124532
BeatmapSetID:520404

[Difficulty]
HPDrainRate:5
CircleSize:3.5
OverallDifficulty:6.5
ApproachRate:7
SliderMultiplier:1.5
SliderTickRate:1

[Events]
//Background and Video events
0,0,"BG.jpg",0,0
Video,0,"video.flv"
//Break Periods
//Storyboard Layer 0 (Background)
//Storyboard Layer 1 (Fail)
//Storyboard Layer 2 (Pass)
//Storyboard Layer 3 (Foreground)
//Storyboard Sound Samples

[TimingPoints]
565,434.782608695652,4,2,2,40,1,0
565,-100,4,2,2,40,0,0
4043,-100,4,2,2,50,0,0
7521,-100,4,2,2,60,0,0
9260,-166.666666666667,4,2,2,40,0,0
10999,-100,4,2,2,75,0,0
24478,-100,4,2,2,60,0,0
24912,-100,4,2,2,75,0,0
37195,-100,4,2,2,60,0,0
38825,-100,4,2,2,75,0,0
40782,-100,4,2,2,65,0,0

[Colours]
Combo1 : 251,157,253
Combo2 : 254,132,73
Combo3 : 140,137,199
Combo4 : 116,192,250

[HitObjects]
136,260,565,6,0,L|76:264,2,50,2|0|2,0:0|0:0|0:0,0:0:0:0:
200,308,999,2,0,B|264:316|264:316|304:308,1,100,2|0,0:0|0:0,0:0:0:0:
364,260,1434,2,0,B|380:220|364:184|364:184|348:148|363:114,1,150,2|0,0:0|0:0,0:0:0:0:
362,114,2304,6,0,P|354:50|294:90,1,150,2|2,0:0|0:0,0:0:0:0:
336,192,3028,1,0,0:0:0:0:
336,192,3173,2,0,B|388:204|420:172|420:172|456:176|468:208,1,150,2|2,0:0|0:0,0:0:0:0:
466,204,4043,6,0,L|472:268,1,50,10|0,0:0|0:0,0:0:0:0:
428,320,4333,1,0,0:0:0:0:
428,320,4478,2,0,P|384:340|328:328,1,100,10|0,0:0|0:0,0:0:0:0:
276,280,4912,2,0,P|240:268|184:276,1,75,8|8,0:0|0:0,0:0:0:0:
136,332,5347,2,0,P|100:344|44:336,1,75,10|8,0:0|0:0,0:0:0:0:
0,276,5782,6,0,B|-12:168|-12:168|2:129,1,150,10|2,0:0|0:0,0:0:0:0:
2,129,6651,2,0,P|37:117|74:118,1,75,2|0,0:0|0:0,0:0:0:0:
150,168,7086,1,2,0:0:0:0:
213,103,7304,1,8,0:0:0:0:
219,93,7412,1,8,0:0:0:0:
227,85,7521,6,0,P|301:75|348:131,1,150,4|0,0:0|0:0,0:0:0:0:
347,127,8391,2,0,B|332:161|348:197|348:197|364:233|348:273,1,150,4|0,0:0|0:0,0:0:0:0:
348,272,9260,1,0,0:0:0:0:
424,161,9695,6,0,P|464:149|512:161,2,89.9999972534181,2|2|2,0:0|0:0|0:0,0:0:0:0:
348,272,10999,6,0,P|312:284|256:276,1,75,4|8,0:0|0:0,0:0:0:0:
212,212,11434,2,0,P|176:200|120:208,1,75,0|8,0:0|0:0,0:0:0:0:
80,272,11869,2,0,L|92:120,1,150
152,56,12521,1,8,0:0:0:0:
232,100,12738,6,0,P|269:101|304:89,1,75,0|8,0:0|0:0,0:0:0:0:
372,28,13173,2,0,L|448:36,1,75,0|8,0:0|0:0,0:0:0:0:
508,108,13608,1,0,0:0:0:0:
508,108,13825,1,8,0:0:0:0:
444,168,14043,2,0,P|432:204|440:260,1,75,0|8,0:0|0:0,0:0:0:0:
492,332,14478,6,0,P|418:320|340:316,1,150
264,360,15130,1,8,0:0:0:0:
200,296,15347,2,0,L|124:304,1,75,0|8,0:0|0:0,0:0:0:0:
48,256,15782,2,0,P|36:220|37:183,1,75,0|8,0:0|0:0,0:0:0:0:
100,108,16217,6,0,B|134:93|170:109|170:109|206:125|246:109,1,150
308,44,16869,1,8,0:0:0:0:
388,88,17086,2,0,P|400:124|399:161,1,75,0|8,0:0|0:0,0:0:0:0:
324,212,17521,2,0,P|312:248|313:285,1,75,0|8,0:0|0:0,0:0:0:0:
436,308,17956,6,0,P|448:272|447:235,2,75,4|8|0,0:0|0:0|0:0,0:0:0:0:
360,360,18608,1,8,0:0:0:0:
312,284,18825,2,0,B|272:268|236:284|236:284|200:300|166:285,1,150
104,220,19478,1,8,0:0:0:0:
24,256,19695,6,0,P|12:292|13:329,2,75,0|8|0,0:0|0:0|0:0,0:0:0:0:
104,220,20347,1,8,0:0:0:0:
166,285,20564,2,0,P|203:285|238:273,1,75,0|8,0:0|0:0,0:0:0:0:
296,204,20999,2,0,L|372:212,1,75,4|8,0:0|0:0,0:0:0:0:
456,164,21434,6,0,P|468:128|467:91,1,75,0|8,0:0|0:0,0:0:0:0:
459,71,21760,2,0,P|412:44|357:51,1,112.5,0|8,0:0|0:0,0:0:0:0:
292,112,22304,2,0,P|256:123|219:123,1,75,0|8,0:0|0:0,0:0:0:0:
208,116,22630,1,8,0:0:0:0:
198,109,22738,1,8,0:0:0:0:
99,40,22956,6,0,P|111:114|115:192,1,150,4|8,0:0|0:0,0:0:0:0:
67,264,23608,1,4,0:0:0:0:
143,312,23825,1,4,0:0:0:0:
195,236,24043,2,0,B|229:221|265:237|265:237|301:253|341:237,1,150,4|2,0:0|0:0,0:0:0:0:
340,237,24912,6,0,P|328:273|329:310,2,75,4|8|0,0:0|0:0|0:0,0:0:0:0:
415,288,25564,1,8,0:0:0:0:
419,196,25782,2,0,P|361:151|289:163,1,150
244,240,26434,1,8,0:0:0:0:
164,284,26651,6,0,P|126:283|90:273,1,75,0|8,0:0|0:0,0:0:0:0:
44,196,27086,2,0,P|44:158|54:122,1,75,0|8,0:0|0:0,0:0:0:0:
120,60,27521,1,0,0:0:0:0:
120,60,27738,1,8,0:0:0:0:
196,108,27956,2,0,P|233:107|269:97,1,75,0|8,0:0|0:0,0:0:0:0:
364,20,28391,6,0,P|351:94|347:172,1,150
408,236,29043,1,8,0:0:0:0:
344,300,29260,2,0,L|268:308,1,75,0|8,0:0|0:0,0:0:0:0:
200,252,29695,2,0,L|124:244,1,75,0|8,0:0|0:0,0:0:0:0:
64,308,30130,6,0,B|49:274|65:238|65:238|81:202|65:162,1,150
0,100,30782,1,8,0:0:0:0:
64,36,30999,2,0,P|99:25|137:25,1,75,0|8,0:0|0:0,0:0:0:0:
208,80,31434,2,0,P|243:90|281:90,1,75,0|8,0:0|0:0,0:0:0:0:
409,9,31869,6,0,P|371:9|336:20,1,75,4|8,0:0|0:0,0:0:0:0:
281,90,32304,1,0,0:0:0:0:
356,140,32521,2,0,L|364:216,1,75,8|0,0:0|0:0,0:0:0:0:
296,276,32956,2,0,L|288:352,2,75,8|0|8,0:0|0:0|0:0,0:0:0:0:
232,196,33608,6,0,P|196:185|158:185,1,75,0|8,0:0|0:0,0:0:0:0:
80,136,34043,2,0,P|69:100|69:62,1,75,0|8,0:0|0:0,0:0:0:0:
136,0,34478,1,0,0:0:0:0:
212,48,34695,2,0,P|286:60|364:64,1,150,8|8,0:0|0:0,0:0:0:0:
468,132,35347,6,0,P|478:167|478:205,1,75,0|8,0:0|0:0,0:0:0:0:
420,272,35782,2,0,L|344:280,1,75,0|8,0:0|0:0,0:0:0:0:
284,344,36217,1,0,0:0:0:0:
284,344,36434,1,8,0:0:0:0:
208,296,36651,2,0,P|197:260|197:222,1,75,0|8,0:0|0:0,0:0:0:0:
228,112,37086,6,0,L|265:106,7,37.5,6|0|2|0|2|0|2|0,0:0|0:0|0:0|0:0|0:0|0:0|0:0|0:0,0:0:0:0:
288,134,37956,2,0,L|325:139,7,37.5,2|0|2|0|2|0|2|0,0:0|0:0|0:0|0:0|0:0|0:0|0:0|0:0,0:0:0:0:
356,116,38825,6,0,L|393:110,7,37.5,6|0|2|0|2|0|2|0,0:0|0:0|0:0|0:0|0:0|0:0|0:0|0:0,0:0:0:0:
416,138,39695,2,0,L|453:143,7,37.5,2|0|2|0|2|0|2|0,0:0|0:0|0:0|0:0|0:0|0:0|0:0|0:0,0:0:0:0:
484,128,40564,1,10,0:0:0:0:
512,228,40782,6,0,P|511:265|500:301,1,75,10|0,0:0|0:0,0:0:0:0:
428,356,41217,1,10,0:0:0:0:
428,356,41651,2,0,L|353:348,1,75,10|0,0:0|0:0,0:0:0:0:
284,288,42086,1,10,0:0:0:0:
284,288,42521,5,10,0:0:0:0:
220,224,42738,2,0,P|184:213|146:212,1,75,0|10,0:0|0:0,0:0:0:0:
97,282,43173,1,2,0:0:0:0:
14,254,43391,1,10,0:0:0:0:
14,169,43608,1,2,0:0:0:0:
97,142,43825,1,10,0:0:0:0:
146,212,44043,1,6,0:0:0:0:
