osu file format v14

[General]
AudioFilename: audio.mp3
AudioLeadIn: 0
PreviewTime: 1798
Countdown: 0
SampleSet: None
StackLeniency: 0.7
Mode: 3
LetterboxInBreaks: 0
SpecialStyle: 0
WidescreenStoryboard: 1

[Editor]
Bookmarks: 8285,14771
DistanceSpacing: 1.3
BeatDivisor: 8
GridSize: 32
TimelineZoom: 2.5

[Metadata]
Title:Kaiun! Soufuku! Entenka
TitleUnicode:開運!招福!炎天歌
Artist:Earth Star Dream
ArtistUnicode:Earth Star Dream
Creator:wtfamidoing
Version:Harder
Source:Teekyuu 9
Tags:Teekyu 9 ED ass
BeatmapID:1385405
BeatmapSetID:653536

[Difficulty]
HPDrainRate:9
CircleSize:4
OverallDifficulty:8
ApproachRate:5
SliderMultiplier:1.4
SliderTickRate:1

[Events]
//Background and Video events
0,0,"bg.jpg",0,0
//Break Periods
//Storyboard Layer 0 (Background)
//Storyboard Layer 1 (Fail)
//Storyboard Layer 2 (Pass)
//Storyboard Layer 3 (Foreground)
//Storyboard Sound Samples

[TimingPoints]
177,405.405405405405,4,1,0,50,1,0
1798,-100,4,1,0,17,0,1
14771,-100,4,1,0,17,0,0

[HitObjects]
448,192,177,5,2,0:0:0:0:
192,192,177,1,0,0:0:0:0:
64,192,177,1,0,0:0:0:0:
64,192,312,1,0,0:0:0:0:
192,192,312,1,0,0:0:0:0:
448,192,312,1,2,0:0:0:0:
192,192,447,1,0,0:0:0:0:
64,192,447,1,0,0:0:0:0:
448,192,447,1,2,0:0:0:0:
64,192,717,1,0,0:0:0:0:
192,192,717,1,0,0:0:0:0:
448,192,717,1,2,0:0:0:0:
192,192,852,1,0,0:0:0:0:
64,192,852,1,0,0:0:0:0:
448,192,852,1,2,0:0:0:0:
64,192,987,1,0,0:0:0:0:
192,192,987,1,0,0:0:0:0:
448,192,987,1,2,0:0:0:0:
448,192,1190,128,0,1291:0:0:0:0:
320,192,1291,1,0,0:0:0:0:
64,192,1393,1,0,0:0:0:0:
192,192,1393,1,0,0:0:0:0:
448,192,1393,1,2,0:0:0:0:
448,192,1494,128,2,1595:0:0:0:0:
192,192,1595,1,0,0:0:0:0:
64,192,1595,1,0,0:0:0:0:
448,192,1697,1,0,0:0:0:0:
448,192,1798,128,2,2609:0:0:0:0:
64,192,1798,1,0,0:0:0:0:
320,192,1798,1,0,0:0:0:0:
64,192,1899,1,0,0:0:0:0:
192,192,2001,1,0,0:0:0:0:
192,192,2102,1,0,0:0:0:0:
320,192,2204,1,8,0:0:0:0:
192,192,2204,1,0,0:0:0:0:
64,192,2204,1,0,0:0:0:0:
64,192,2305,1,0,0:0:0:0:
192,192,2406,1,0,0:0:0:0:
192,192,2508,1,0,0:0:0:0:
320,192,2609,1,0,0:0:0:0:
64,192,2609,1,0,0:0:0:0:
320,192,2710,1,0,0:0:0:0:
64,192,2812,1,0,0:0:0:0:
448,192,2812,1,0,0:0:0:0:
64,192,2913,1,0,0:0:0:0:
448,192,2913,1,0,0:0:0:0:
64,192,3014,1,0,0:0:0:0:
192,192,3014,1,0,0:0:0:0:
320,192,3014,1,0,0:0:0:0:
448,192,3014,1,0,0:0:0:0:
448,192,3116,1,0,0:0:0:0:
320,192,3217,1,0,0:0:0:0:
192,192,3318,1,0,0:0:0:0:
192,192,3420,1,0,0:0:0:0:
64,192,3420,1,0,0:0:0:0:
64,192,3521,1,0,0:0:0:0:
320,192,3622,1,0,0:0:0:0:
320,192,3724,1,0,0:0:0:0:
320,192,3825,1,0,0:0:0:0:
192,192,3825,1,0,0:0:0:0:
448,192,3825,1,0,0:0:0:0:
64,192,3825,1,0,0:0:0:0:
192,192,3926,1,0,0:0:0:0:
320,192,4028,1,0,0:0:0:0:
192,192,4129,1,0,0:0:0:0:
64,192,4231,1,0,0:0:0:0:
192,192,4231,1,0,0:0:0:0:
64,192,4332,1,0,0:0:0:0:
448,192,4433,1,0,0:0:0:0:
448,192,4535,1,0,0:0:0:0:
64,192,4535,1,0,0:0:0:0:
192,192,4535,1,0,0:0:0:0:
448,192,4636,1,0,0:0:0:0:
320,192,4636,1,0,0:0:0:0:
64,192,4636,1,0,0:0:0:0:
192,192,4636,1,0,0:0:0:0:
64,192,4737,1,0,0:0:0:0:
192,192,4839,1,0,0:0:0:0:
192,192,4940,1,0,0:0:0:0:
64,192,5041,1,0,0:0:0:0:
320,192,5041,1,0,0:0:0:0:
192,192,5041,1,0,0:0:0:0:
448,192,5041,1,0,0:0:0:0:
64,192,5143,1,0,0:0:0:0:
320,192,5244,1,0,0:0:0:0:
64,192,5244,1,0,0:0:0:0:
320,192,5345,1,0,0:0:0:0:
64,192,5345,1,0,0:0:0:0:
64,192,5447,1,0,0:0:0:0:
192,192,5447,1,0,0:0:0:0:
448,192,5447,1,0,0:0:0:0:
320,192,5447,1,0,0:0:0:0:
448,192,5548,1,0,0:0:0:0:
320,192,5649,1,0,0:0:0:0:
320,192,5751,1,0,0:0:0:0:
192,192,5852,1,0,0:0:0:0:
448,192,5852,1,0,0:0:0:0:
64,192,5954,1,0,0:0:0:0:
320,192,5954,1,0,0:0:0:0:
64,192,6055,1,0,0:0:0:0:
320,192,6055,1,0,0:0:0:0:
64,192,6156,1,0,0:0:0:0:
320,192,6156,1,0,0:0:0:0:
320,192,6258,1,0,0:0:0:0:
448,192,6258,1,0,0:0:0:0:
192,192,6258,1,0,0:0:0:0:
64,192,6258,1,0,0:0:0:0:
320,192,6359,1,0,0:0:0:0:
320,192,6460,1,0,0:0:0:0:
192,192,6562,1,0,0:0:0:0:
192,192,6663,1,0,0:0:0:0:
64,192,6663,1,0,0:0:0:0:
448,192,6764,1,0,0:0:0:0:
320,192,6764,1,0,0:0:0:0:
448,192,6866,1,0,0:0:0:0:
320,192,6866,1,0,0:0:0:0:
448,192,6967,1,0,0:0:0:0:
320,192,6967,1,0,0:0:0:0:
448,192,7068,1,0,0:0:0:0:
320,192,7068,1,0,0:0:0:0:
192,192,7068,1,0,0:0:0:0:
64,192,7068,1,0,0:0:0:0:
320,192,7170,1,0,0:0:0:0:
192,192,7271,1,0,0:0:0:0:
64,192,7372,1,0,0:0:0:0:
192,192,7474,1,0,0:0:0:0:
64,192,7474,1,0,0:0:0:0:
320,192,7474,1,0,0:0:0:0:
448,192,7575,1,0,0:0:0:0:
320,192,7676,1,0,0:0:0:0:
192,192,7778,1,0,0:0:0:0:
320,192,7778,1,0,0:0:0:0:
64,192,7778,1,0,0:0:0:0:
448,192,7879,1,0,0:0:0:0:
320,192,7879,1,0,0:0:0:0:
64,192,7879,1,0,0:0:0:0:
192,192,7879,1,0,0:0:0:0:
192,192,8082,1,0,0:0:0:0:
64,192,8082,1,0,0:0:0:0:
320,192,8133,1,0,0:0:0:0:
64,192,8183,1,0,0:0:0:0:
192,192,8183,1,0,0:0:0:0:
448,192,8234,1,0,0:0:0:0:
192,192,8285,1,0,0:0:0:0:
64,192,8285,1,0,0:0:0:0:
64,192,8487,1,4,0:0:0:0:
448,192,8487,1,0,0:0:0:0:
192,192,8487,1,0,0:0:0:0:
320,192,8487,1,0,0:0:0:0:
192,192,8690,1,0,0:0:0:0:
64,192,8690,1,4,0:0:0:0:
448,192,8690,1,0,0:0:0:0:
320,192,8690,1,0,0:0:0:0:
320,192,8893,1,0,0:0:0:0:
448,192,8893,1,0,0:0:0:0:
192,192,8943,1,0,0:0:0:0:
320,192,8994,1,0,0:0:0:0:
448,192,8994,1,0,0:0:0:0:
64,192,9045,1,0,0:0:0:0:
320,192,9095,1,0,0:0:0:0:
448,192,9095,1,0,0:0:0:0:
64,192,9298,1,4,0:0:0:0:
448,192,9298,1,0,0:0:0:0:
192,192,9298,1,0,0:0:0:0:
320,192,9298,1,0,0:0:0:0:
64,192,9501,1,4,0:0:0:0:
448,192,9501,1,0,0:0:0:0:
192,192,9501,1,0,0:0:0:0:
320,192,9501,1,0,0:0:0:0:
64,192,9704,1,0,0:0:0:0:
448,192,9754,1,0,0:0:0:0:
64,192,9805,1,0,0:0:0:0:
448,192,9856,1,0,0:0:0:0:
64,192,9906,1,0,0:0:0:0:
320,192,9906,1,0,0:0:0:0:
192,192,10109,1,0,0:0:0:0:
320,192,10160,1,0,0:0:0:0:
192,192,10210,1,0,0:0:0:0:
320,192,10261,1,0,0:0:0:0:
192,192,10312,1,0,0:0:0:0:
448,192,10312,1,0,0:0:0:0:
448,192,10514,1,0,0:0:0:0:
64,192,10565,1,0,0:0:0:0:
448,192,10616,1,0,0:0:0:0:
64,192,10666,1,0,0:0:0:0:
448,192,10717,1,0,0:0:0:0:
192,192,10717,1,0,0:0:0:0:
192,192,10920,1,0,0:0:0:0:
64,192,10920,1,0,0:0:0:0:
320,192,10970,1,0,0:0:0:0:
448,192,10970,1,0,0:0:0:0:
192,192,11021,1,0,0:0:0:0:
64,192,11021,1,0,0:0:0:0:
320,192,11072,1,0,0:0:0:0:
448,192,11072,1,0,0:0:0:0:
64,192,11122,1,0,0:0:0:0:
192,192,11122,1,0,0:0:0:0:
448,192,11224,1,0,0:0:0:0:
448,192,11325,1,0,0:0:0:0:
448,192,11426,1,0,0:0:0:0:
448,192,11528,1,0,0:0:0:0:
64,192,11528,1,0,0:0:0:0:
192,192,11528,1,0,0:0:0:0:
64,192,11629,1,0,0:0:0:0:
192,192,11629,1,0,0:0:0:0:
64,192,11731,1,0,0:0:0:0:
192,192,11731,1,0,0:0:0:0:
64,192,11832,1,0,0:0:0:0:
192,192,11832,1,0,0:0:0:0:
64,192,11933,1,0,0:0:0:0:
448,192,11933,1,0,0:0:0:0:
320,192,11933,1,0,0:0:0:0:
448,192,12035,1,0,0:0:0:0:
320,192,12035,1,0,0:0:0:0:
448,192,12136,1,0,0:0:0:0:
320,192,12136,1,0,0:0:0:0:
448,192,12237,1,0,0:0:0:0:
320,192,12237,1,0,0:0:0:0:
448,192,12339,1,0,0:0:0:0:
192,192,12339,1,0,0:0:0:0:
64,192,12339,1,0,0:0:0:0:
64,192,12440,1,0,0:0:0:0:
320,192,12440,1,0,0:0:0:0:
64,192,12541,1,0,0:0:0:0:
448,192,12541,1,0,0:0:0:0:
64,192,12643,1,0,0:0:0:0:
320,192,12643,1,0,0:0:0:0:
448,192,12744,1,0,0:0:0:0:
64,192,12744,1,0,0:0:0:0:
192,192,12744,1,0,0:0:0:0:
320,192,12845,1,0,0:0:0:0:
320,192,12947,1,0,0:0:0:0:
320,192,13048,1,0,0:0:0:0:
192,192,13149,1,0,0:0:0:0:
64,192,13149,1,0,0:0:0:0:
448,192,13149,1,0,0:0:0:0:
320,192,13149,1,0,0:0:0:0:
192,192,13454,1,0,0:0:0:0:
64,192,13454,1,0,0:0:0:0:
448,192,13454,1,0,0:0:0:0:
320,192,13454,1,0,0:0:0:0:
448,192,13758,1,0,0:0:0:0:
320,192,13808,1,0,0:0:0:0:
192,192,13859,1,0,0:0:0:0:
64,192,13910,1,0,0:0:0:0:
448,192,13960,1,0,0:0:0:0:
320,192,13960,1,0,0:0:0:0:
64,192,14163,1,0,0:0:0:0:
320,192,14163,1,0,0:0:0:0:
192,192,14163,1,0,0:0:0:0:
64,192,14366,1,0,0:0:0:0:
320,192,14366,1,0,0:0:0:0:
448,192,14366,1,0,0:0:0:0:
192,192,14366,1,0,0:0:0:0:
64,192,14771,1,4,0:0:0:0:
192,192,14771,1,0,0:0:0:0:
320,192,14872,1,0,0:0:0:0:
448,192,14974,1,0,0:0:0:0:
192,192,15075,1,0,0:0:0:0:
64,192,15075,1,0,0:0:0:0:
192,192,15176,1,0,0:0:0:0:
64,192,15176,1,0,0:0:0:0:
320,192,15278,1,0,0:0:0:0:
448,192,15379,1,0,0:0:0:0:
320,192,15481,1,0,0:0:0:0:
192,192,15481,1,0,0:0:0:0:
320,192,15582,1,0,0:0:0:0:
192,192,15582,1,0,0:0:0:0:
64,192,15683,1,0,0:0:0:0:
192,192,15785,1,0,0:0:0:0:
448,192,15886,1,0,0:0:0:0:
320,192,15886,1,0,0:0:0:0:
448,192,15987,1,0,0:0:0:0:
320,192,15987,1,0,0:0:0:0:
192,192,16089,1,0,0:0:0:0:
320,192,16190,1,0,0:0:0:0:
64,192,16291,1,0,0:0:0:0:
192,192,16291,1,0,0:0:0:0:
64,192,16393,1,0,0:0:0:0:
192,192,16393,1,0,0:0:0:0:
320,192,16494,1,0,0:0:0:0:
448,192,16595,1,0,0:0:0:0:
320,192,16697,1,0,0:0:0:0:
448,192,16798,1,0,0:0:0:0:
320,192,16849,1,0,0:0:0:0:
192,192,16899,1,0,0:0:0:0:
64,192,16950,1,0,0:0:0:0:
448,192,17001,1,0,0:0:0:0:
320,192,17102,1,0,0:0:0:0:
64,192,17204,1,0,0:0:0:0:
192,192,17254,1,0,0:0:0:0:
320,192,17305,1,0,0:0:0:0:
448,192,17356,1,0,0:0:0:0:
192,192,17406,1,0,0:0:0:0:
448,192,17508,1,0,0:0:0:0:
320,192,17508,1,0,0:0:0:0:
64,192,17508,1,0,0:0:0:0:
192,192,17609,1,0,0:0:0:0:
192,192,17710,1,0,0:0:0:0:
320,192,17710,1,0,0:0:0:0:
448,192,17710,1,0,0:0:0:0:
64,192,17812,1,0,0:0:0:0:
192,192,17913,1,0,0:0:0:0:
64,192,17913,1,0,0:0:0:0:
320,192,17913,1,0,0:0:0:0:
448,192,18014,1,4,0:0:0:0:
320,192,18014,1,0,0:0:0:0:
192,192,18014,1,0,0:0:0:0:
320,192,18116,1,0,0:0:0:0:
192,192,18217,1,0,0:0:0:0:
320,192,18318,1,0,0:0:0:0:
448,192,18318,1,0,0:0:0:0:
320,192,18420,1,0,0:0:0:0:
448,192,18420,1,0,0:0:0:0:
192,192,18521,1,0,0:0:0:0:
64,192,18622,1,0,0:0:0:0:
192,192,18724,1,0,0:0:0:0:
320,192,18724,1,0,0:0:0:0:
192,192,18825,1,0,0:0:0:0:
320,192,18825,1,0,0:0:0:0:
448,192,18926,1,0,0:0:0:0:
320,192,19028,1,0,0:0:0:0:
64,192,19129,1,0,0:0:0:0:
192,192,19129,1,0,0:0:0:0:
64,192,19231,1,0,0:0:0:0:
192,192,19231,1,0,0:0:0:0:
320,192,19332,1,0,0:0:0:0:
192,192,19433,1,0,0:0:0:0:
320,192,19535,1,0,0:0:0:0:
64,192,19636,1,0,0:0:0:0:
192,192,19687,1,0,0:0:0:0:
320,192,19737,1,0,0:0:0:0:
448,192,19788,1,0,0:0:0:0:
64,192,19839,1,0,0:0:0:0:
192,192,19940,1,0,0:0:0:0:
64,192,20041,1,0,0:0:0:0:
192,192,20092,1,0,0:0:0:0:
320,192,20143,1,0,0:0:0:0:
448,192,20193,1,0,0:0:0:0:
192,192,20244,1,0,0:0:0:0:
320,192,20345,1,0,0:0:0:0:
448,192,20447,1,0,0:0:0:0:
320,192,20497,1,0,0:0:0:0:
448,192,20548,128,0,20751:0:0:0:0:
192,192,20548,1,0,0:0:0:0:
64,192,20599,1,0,0:0:0:0:
192,192,20649,128,0,20852:0:0:0:0:
320,192,20751,128,0,20954:0:0:0:0:
64,192,20852,128,0,21055:0:0:0:0:
448,192,20852,1,0,0:0:0:0:
192,192,20954,1,0,0:0:0:0:
320,192,21055,1,0,0:0:0:0:
448,192,21055,1,0,0:0:0:0:
192,192,21106,1,0,0:0:0:0:
320,192,21156,1,0,0:0:0:0:
448,192,21156,1,0,0:0:0:0:
64,192,21207,1,0,0:0:0:0:
320,192,21258,1,0,0:0:0:0:
448,192,21258,1,0,0:0:0:0:
320,192,21460,1,0,0:0:0:0:
192,192,21460,1,0,0:0:0:0:
64,192,21460,1,4,0:0:0:0:
192,192,21663,1,4,0:0:0:0:
320,192,21663,1,0,0:0:0:0:
448,192,21663,1,0,0:0:0:0:
64,192,21866,1,0,0:0:0:0:
192,192,21866,1,0,0:0:0:0:
320,192,21916,1,0,0:0:0:0:
192,192,21967,1,0,0:0:0:0:
64,192,21967,1,0,0:0:0:0:
448,192,22018,1,0,0:0:0:0:
192,192,22068,1,0,0:0:0:0:
64,192,22068,1,0,0:0:0:0:
192,192,22271,1,0,0:0:0:0:
64,192,22271,1,4,0:0:0:0:
320,192,22271,1,0,0:0:0:0:
192,192,22474,1,4,0:0:0:0:
320,192,22474,1,0,0:0:0:0:
448,192,22474,1,0,0:0:0:0:
192,192,22676,1,0,0:0:0:0:
320,192,22727,1,0,0:0:0:0:
448,192,22778,1,0,0:0:0:0:
64,192,22778,1,0,0:0:0:0:
192,192,22829,1,0,0:0:0:0:
320,192,22879,1,0,0:0:0:0:
448,192,22879,1,0,0:0:0:0:
64,192,22879,1,4,0:0:0:0:
64,192,23082,1,0,0:0:0:0:
320,192,23133,1,0,0:0:0:0:
192,192,23183,1,0,0:0:0:0:
448,192,23234,1,0,0:0:0:0:
64,192,23285,1,4,0:0:0:0:
320,192,23285,1,0,0:0:0:0:
192,192,23285,1,0,0:0:0:0:
448,192,23487,1,0,0:0:0:0:
192,192,23538,1,0,0:0:0:0:
320,192,23589,1,0,0:0:0:0:
64,192,23639,1,0,0:0:0:0:
192,192,23690,1,0,0:0:0:0:
448,192,23690,1,0,0:0:0:0:
320,192,23690,1,0,0:0:0:0:
320,192,23893,1,0,0:0:0:0:
64,192,23893,1,0,0:0:0:0:
192,192,24095,1,0,0:0:0:0:
448,192,24095,1,0,0:0:0:0:
64,192,24095,1,4,0:0:0:0:
320,192,24298,1,0,0:0:0:0:
448,192,24298,1,0,0:0:0:0:
320,192,24501,1,0,0:0:0:0:
448,192,24501,1,0,0:0:0:0:
64,192,24704,1,0,0:0:0:0:
320,192,24704,1,0,0:0:0:0:
192,192,24906,1,0,0:0:0:0:
64,192,24906,1,0,0:0:0:0:
448,192,25109,1,0,0:0:0:0:
320,192,25109,1,0,0:0:0:0:
64,192,25312,1,0,0:0:0:0:
192,192,25312,1,0,0:0:0:0:
320,192,25312,1,0,0:0:0:0:
320,192,25514,1,0,0:0:0:0:
448,192,25514,1,0,0:0:0:0:
64,192,25514,1,0,0:0:0:0:
192,192,25616,1,0,0:0:0:0:
320,192,25717,1,0,0:0:0:0:
448,192,25717,1,0,0:0:0:0:
64,192,25818,1,0,0:0:0:0:
192,192,25818,1,0,0:0:0:0:
320,192,25920,1,0,0:0:0:0:
448,192,25920,1,0,0:0:0:0:
64,192,26021,1,0,0:0:0:0:
192,192,26021,1,0,0:0:0:0:
320,192,26122,1,0,0:0:0:0:
448,192,26122,1,0,0:0:0:0:
64,192,26122,1,0,0:0:0:0:
64,192,26224,1,0,0:0:0:0:
192,192,26224,1,0,0:0:0:0:
64,192,26426,128,0,26731:0:0:0:0:
448,192,26426,128,0,26731:0:0:0:0:
320,192,26731,1,0,0:0:0:0:
192,192,26731,1,12,0:0:0:0:
192,192,26832,1,8,0:0:0:0:
320,192,26832,1,0,0:0:0:0:
448,192,26933,1,0,0:0:0:0:
64,192,26933,1,0,0:0:0:0:
320,192,27035,1,0,0:0:0:0:
64,192,27035,1,0,0:0:0:0:
192,192,27237,128,0,27541:0:0:0:0:
448,192,27237,128,0,27541:0:0:0:0:
64,192,27541,1,0,0:0:0:0:
320,192,27541,1,12,0:0:0:0:
320,192,27643,1,8,0:0:0:0:
64,192,27643,1,0,0:0:0:0:
192,192,27744,1,0,0:0:0:0:
448,192,27744,1,0,0:0:0:0:
64,192,27744,1,0,0:0:0:0:
448,192,27947,1,0,0:0:0:0:
320,192,27947,1,0,0:0:0:0:
192,192,27947,1,0,0:0:0:0:
192,192,28149,1,0,0:0:0:0:
320,192,28149,1,0,0:0:0:0:
64,192,28149,1,0,0:0:0:0:
64,192,28352,1,0,0:0:0:0:
192,192,28352,1,0,0:0:0:0:
320,192,28403,1,0,0:0:0:0:
448,192,28454,1,0,0:0:0:0:
192,192,28504,1,0,0:0:0:0:
320,192,28555,1,0,0:0:0:0:
448,192,28555,1,0,0:0:0:0:
64,192,28555,1,0,0:0:0:0:
192,192,28758,128,0,28960:0:0:0:0:
320,192,28960,1,0,0:0:0:0:
448,192,28960,1,0,0:0:0:0:
