osu file format v14

[General]
AudioFilename: audio.mp3
AudioLeadIn: 0
PreviewTime: 1798
Countdown: 0
SampleSet: None
StackLeniency: 0.7
Mode: 3
LetterboxInBreaks: 0
SpecialStyle: 0
WidescreenStoryboard: 1

[Editor]
Bookmarks: 8285,14771
DistanceSpacing: 1.3
BeatDivisor: 4
GridSize: 32
TimelineZoom: 2.5

[Metadata]
Title:Kaiun! Soufuku! Entenka
TitleUnicode:開運!招福!炎天歌
Artist:Earth Star Dream
ArtistUnicode:Earth Star Dream
Creator:wtfamidoing
Version:Easy
Source:Teekyuu 9
Tags:Teekyuu 9 ED ass
BeatmapID:1385403
BeatmapSetID:653536

[Difficulty]
HPDrainRate:6
CircleSize:4
OverallDifficulty:6
ApproachRate:5
SliderMultiplier:1.4
SliderTickRate:1

[Events]
//Background and Video events
0,0,"bg.jpg",0,0
//Break Periods
//Storyboard Layer 0 (Background)
//Storyboard Layer 1 (Fail)
//Storyboard Layer 2 (Pass)
//Storyboard Layer 3 (Foreground)
//Storyboard Sound Samples

[TimingPoints]
177,405.405405405405,4,1,0,50,1,0
1798,-100,4,1,0,17,0,1
14771,-100,4,1,0,17,0,0

[HitObjects]
192,192,177,5,0,0:0:0:0:
320,192,312,1,0,0:0:0:0:
64,192,447,1,0,0:0:0:0:
320,192,717,1,0,0:0:0:0:
192,192,852,1,0,0:0:0:0:
448,192,987,1,0,0:0:0:0:
64,192,1258,1,0,0:0:0:0:
192,192,1393,1,0,0:0:0:0:
448,192,1595,1,0,0:0:0:0:
64,192,1798,128,0,2609:0:0:0:0:
192,192,2204,1,0,0:0:0:0:
448,192,2204,1,0,0:0:0:0:
320,192,2609,128,0,3420:0:0:0:0:
64,192,3014,1,0,0:0:0:0:
192,192,3014,1,0,0:0:0:0:
448,192,3420,1,0,0:0:0:0:
64,192,3825,1,0,0:0:0:0:
320,192,3825,1,0,0:0:0:0:
448,192,4231,1,0,0:0:0:0:
192,192,4231,128,0,4535:0:0:0:0:
448,192,4535,1,0,0:0:0:0:
64,192,4535,1,0,0:0:0:0:
448,192,5041,128,0,5852:0:0:0:0:
320,192,5447,1,0,0:0:0:0:
64,192,5447,1,0,0:0:0:0:
192,192,5852,128,0,6663:0:0:0:0:
448,192,6258,1,0,0:0:0:0:
320,192,6258,1,0,0:0:0:0:
64,192,6663,1,0,0:0:0:0:
448,192,7068,1,0,0:0:0:0:
192,192,7068,1,0,0:0:0:0:
64,192,7474,1,0,0:0:0:0:
320,192,7474,128,0,7778:0:0:0:0:
64,192,7778,1,0,0:0:0:0:
448,192,7778,1,0,0:0:0:0:
192,192,8082,1,0,0:0:0:0:
448,192,8285,1,0,0:0:0:0:
64,192,8487,1,0,0:0:0:0:
320,192,8487,1,0,0:0:0:0:
64,192,8690,1,0,0:0:0:0:
448,192,8690,1,0,0:0:0:0:
320,192,8893,1,0,0:0:0:0:
192,192,9095,1,0,0:0:0:0:
64,192,9298,1,0,0:0:0:0:
448,192,9298,1,0,0:0:0:0:
320,192,9501,1,0,0:0:0:0:
64,192,9501,1,0,0:0:0:0:
64,192,9906,1,0,0:0:0:0:
192,192,9906,1,0,0:0:0:0:
320,192,10312,1,0,0:0:0:0:
448,192,10312,1,0,0:0:0:0:
64,192,10717,1,0,0:0:0:0:
320,192,10717,1,0,0:0:0:0:
192,192,11122,1,0,0:0:0:0:
448,192,11122,1,0,0:0:0:0:
64,192,11528,128,0,13149:0:0:0:0:
320,192,11528,1,0,0:0:0:0:
448,192,11933,1,0,0:0:0:0:
192,192,11933,1,0,0:0:0:0:
320,192,12339,1,0,0:0:0:0:
192,192,12744,1,0,0:0:0:0:
320,192,12744,1,0,0:0:0:0:
448,192,13149,1,0,0:0:0:0:
320,192,13454,1,0,0:0:0:0:
64,192,13758,1,0,0:0:0:0:
64,192,13960,1,0,0:0:0:0:
320,192,14163,1,0,0:0:0:0:
448,192,14366,1,0,0:0:0:0:
64,192,14771,128,0,17204:0:0:0:0:
320,192,15176,1,0,0:0:0:0:
448,192,15176,1,0,0:0:0:0:
320,192,15582,1,0,0:0:0:0:
192,192,15987,1,0,0:0:0:0:
448,192,15987,1,0,0:0:0:0:
448,192,16393,1,0,0:0:0:0:
320,192,16798,1,0,0:0:0:0:
192,192,16798,1,0,0:0:0:0:
192,192,17204,1,0,0:0:0:0:
320,192,17204,1,0,0:0:0:0:
448,192,17812,1,0,0:0:0:0:
448,192,18014,128,0,20447:0:0:0:0:
192,192,18420,1,0,0:0:0:0:
64,192,18420,1,0,0:0:0:0:
192,192,18825,1,0,0:0:0:0:
320,192,19231,1,0,0:0:0:0:
64,192,19231,1,0,0:0:0:0:
64,192,19636,1,0,0:0:0:0:
192,192,20041,1,0,0:0:0:0:
320,192,20041,1,0,0:0:0:0:
320,192,20447,1,0,0:0:0:0:
192,192,20447,1,0,0:0:0:0:
64,192,21055,128,0,21866:0:0:0:0:
448,192,21460,1,0,0:0:0:0:
320,192,21663,1,0,0:0:0:0:
192,192,21663,1,0,0:0:0:0:
448,192,21866,128,0,22879:0:0:0:0:
64,192,22271,1,0,0:0:0:0:
192,192,22474,1,0,0:0:0:0:
320,192,22474,1,0,0:0:0:0:
64,192,22879,1,0,0:0:0:0:
192,192,22879,1,0,0:0:0:0:
64,192,23285,1,0,0:0:0:0:
192,192,23285,1,0,0:0:0:0:
320,192,23690,1,0,0:0:0:0:
448,192,23690,1,0,0:0:0:0:
64,192,24095,1,0,0:0:0:0:
448,192,24095,1,0,0:0:0:0:
192,192,24501,128,0,26122:0:0:0:0:
320,192,25717,128,0,26122:0:0:0:0:
64,192,26122,1,0,0:0:0:0:
320,192,26426,1,0,0:0:0:0:
192,192,26426,1,0,0:0:0:0:
448,192,26731,1,0,0:0:0:0:
64,192,26933,1,0,0:0:0:0:
192,192,27237,1,0,0:0:0:0:
320,192,27237,1,0,0:0:0:0:
64,192,27541,1,0,0:0:0:0:
448,192,27744,1,0,0:0:0:0:
320,192,27947,1,0,0:0:0:0:
192,192,28149,1,0,0:0:0:0:
64,192,28352,1,0,0:0:0:0:
448,192,28555,1,0,0:0:0:0:
320,192,28555,1,0,0:0:0:0:
64,192,28960,1,0,0:0:0:0:
192,192,28960,1,0,0:0:0:0:
