osu file format v14

[General]
AudioFilename: audio.mp3
AudioLeadIn: 0
PreviewTime: 1798
Countdown: 0
SampleSet: None
StackLeniency: 0.7
Mode: 3
LetterboxInBreaks: 0
SpecialStyle: 0
WidescreenStoryboard: 1

[Editor]
Bookmarks: 8285,14771
DistanceSpacing: 1.3
BeatDivisor: 4
GridSize: 32
TimelineZoom: 2.5

[Metadata]
Title:Kaiun! Soufuku! Entenka
TitleUnicode:開運!招福!炎天歌
Artist:Earth Star Dream
ArtistUnicode:Earth Star Dream
Creator:wtfamidoing
Version:4k LN
Source:Teekyuu 9
Tags:Teekyuu 9 ED ass
BeatmapID:1385402
BeatmapSetID:653536

[Difficulty]
HPDrainRate:10
CircleSize:4
OverallDifficulty:6
ApproachRate:5
SliderMultiplier:1.4
SliderTickRate:1

[Events]
//Background and Video events
0,0,"bg.jpg",0,0
//Break Periods
//Storyboard Layer 0 (Background)
//Storyboard Layer 1 (Fail)
//Storyboard Layer 2 (Pass)
//Storyboard Layer 3 (Foreground)
//Storyboard Sound Samples

[TimingPoints]
177,405.405405405405,4,1,0,50,1,0
1798,-100,4,1,0,17,0,1
14771,-100,4,1,0,17,0,0

[HitObjects]
448,192,177,5,2,0:0:0:0:
64,192,177,1,0,0:0:0:0:
192,192,177,1,0,0:0:0:0:
448,192,312,1,2,0:0:0:0:
192,192,312,1,0,0:0:0:0:
64,192,312,1,0,0:0:0:0:
448,192,447,1,2,0:0:0:0:
64,192,447,1,0,0:0:0:0:
192,192,447,1,0,0:0:0:0:
448,192,717,1,2,0:0:0:0:
192,192,717,1,0,0:0:0:0:
64,192,717,1,0,0:0:0:0:
448,192,852,1,2,0:0:0:0:
64,192,852,1,0,0:0:0:0:
192,192,852,1,0,0:0:0:0:
448,192,987,1,2,0:0:0:0:
192,192,987,1,0,0:0:0:0:
64,192,987,1,0,0:0:0:0:
448,192,1190,128,0,1291:0:0:0:0:
320,192,1291,1,0,0:0:0:0:
448,192,1393,1,2,0:0:0:0:
192,192,1393,1,0,0:0:0:0:
64,192,1393,1,0,0:0:0:0:
448,192,1494,128,2,1595:0:0:0:0:
64,192,1595,1,0,0:0:0:0:
192,192,1595,1,0,0:0:0:0:
448,192,1697,1,0,0:0:0:0:
64,192,1798,128,0,2406:0:0:0:0:
192,192,1798,1,0,0:0:0:0:
448,192,1798,128,0,2204:0:0:0:0:
320,192,1798,128,0,2001:0:0:0:0:
192,192,2001,128,0,2204:0:0:0:0:
320,192,2204,128,0,2406:0:0:0:0:
192,192,2406,128,0,2609:0:0:0:0:
448,192,2406,1,0,0:0:0:0:
320,192,2609,128,0,3217:0:0:0:0:
64,192,2609,1,0,0:0:0:0:
448,192,2609,128,0,2812:0:0:0:0:
192,192,2812,128,0,3014:0:0:0:0:
448,192,3014,128,0,3217:0:0:0:0:
64,192,3217,128,0,3420:0:0:0:0:
192,192,3217,1,0,0:0:0:0:
448,192,3420,128,0,3622:0:0:0:0:
320,192,3420,1,0,0:0:0:0:
320,192,3622,128,0,3825:0:0:0:0:
192,192,3622,1,0,0:0:0:0:
192,192,3825,128,0,4028:0:0:0:0:
64,192,3825,1,0,0:0:0:0:
448,192,4028,128,0,4231:0:0:0:0:
320,192,4028,1,0,0:0:0:0:
320,192,4231,128,0,4433:0:0:0:0:
192,192,4231,1,0,0:0:0:0:
64,192,4231,128,0,4737:0:0:0:0:
448,192,4433,128,0,4737:0:0:0:0:
320,192,4535,128,0,4737:0:0:0:0:
192,192,4839,1,0,0:0:0:0:
448,192,4839,1,0,0:0:0:0:
64,192,4940,1,0,0:0:0:0:
320,192,4940,1,0,0:0:0:0:
448,192,5041,128,0,5649:0:0:0:0:
320,192,5041,1,0,0:0:0:0:
64,192,5041,128,0,5447:0:0:0:0:
192,192,5041,128,0,5244:0:0:0:0:
320,192,5244,128,0,5447:0:0:0:0:
192,192,5447,128,0,5649:0:0:0:0:
320,192,5649,128,0,5852:0:0:0:0:
64,192,5649,1,0,0:0:0:0:
192,192,5852,128,0,6460:0:0:0:0:
448,192,5852,1,0,0:0:0:0:
64,192,5852,128,0,6055:0:0:0:0:
320,192,6055,128,0,6258:0:0:0:0:
64,192,6258,128,0,6460:0:0:0:0:
320,192,6460,1,0,0:0:0:0:
448,192,6460,128,0,7372:0:0:0:0:
192,192,6663,128,0,6764:0:0:0:0:
320,192,6663,128,0,6967:0:0:0:0:
64,192,6663,128,0,7170:0:0:0:0:
192,192,6866,128,0,7372:0:0:0:0:
320,192,7068,128,0,7372:0:0:0:0:
64,192,7271,128,0,7474:0:0:0:0:
192,192,7474,128,0,7676:0:0:0:0:
320,192,7474,1,0,0:0:0:0:
448,192,7474,128,0,7981:0:0:0:0:
64,192,7676,128,0,7981:0:0:0:0:
192,192,7778,128,0,7981:0:0:0:0:
448,192,8082,1,0,0:0:0:0:
320,192,8082,1,0,0:0:0:0:
64,192,8082,1,0,0:0:0:0:
448,192,8183,1,0,0:0:0:0:
192,192,8183,1,0,0:0:0:0:
64,192,8183,1,0,0:0:0:0:
192,192,8285,1,0,0:0:0:0:
448,192,8285,1,0,0:0:0:0:
64,192,8285,1,0,0:0:0:0:
64,192,8487,1,4,0:0:0:0:
448,192,8487,1,0,0:0:0:0:
192,192,8487,1,0,0:0:0:0:
320,192,8487,1,0,0:0:0:0:
192,192,8690,1,0,0:0:0:0:
64,192,8690,1,4,0:0:0:0:
448,192,8690,1,0,0:0:0:0:
320,192,8690,1,0,0:0:0:0:
64,192,8893,1,0,0:0:0:0:
448,192,8893,1,0,0:0:0:0:
192,192,8893,1,0,0:0:0:0:
64,192,8994,1,0,0:0:0:0:
320,192,8994,1,0,0:0:0:0:
448,192,8994,1,0,0:0:0:0:
64,192,9095,1,0,0:0:0:0:
320,192,9095,1,0,0:0:0:0:
448,192,9095,1,0,0:0:0:0:
64,192,9298,1,4,0:0:0:0:
448,192,9298,1,0,0:0:0:0:
192,192,9298,1,0,0:0:0:0:
320,192,9298,1,0,0:0:0:0:
64,192,9501,1,4,0:0:0:0:
448,192,9501,1,0,0:0:0:0:
192,192,9501,1,0,0:0:0:0:
320,192,9501,1,0,0:0:0:0:
64,192,9704,1,0,0:0:0:0:
192,192,9906,128,0,10616:0:0:0:0:
448,192,9906,128,0,10210:0:0:0:0:
320,192,10109,128,0,10413:0:0:0:0:
448,192,10312,128,0,10616:0:0:0:0:
64,192,10312,128,0,11224:0:0:0:0:
320,192,10514,128,0,10818:0:0:0:0:
192,192,10717,128,0,11021:0:0:0:0:
448,192,10717,128,0,11021:0:0:0:0:
320,192,10920,128,0,12237:0:0:0:0:
192,192,11122,128,0,11832:0:0:0:0:
448,192,11122,128,0,11426:0:0:0:0:
64,192,11325,128,0,11832:0:0:0:0:
448,192,11528,128,0,12845:0:0:0:0:
64,192,11933,1,0,0:0:0:0:
192,192,11933,128,0,12237:0:0:0:0:
192,192,12339,1,0,0:0:0:0:
320,192,12339,128,0,12643:0:0:0:0:
320,192,12744,1,0,0:0:0:0:
448,192,12947,1,0,0:0:0:0:
192,192,13149,1,0,0:0:0:0:
64,192,13149,1,0,0:0:0:0:
448,192,13149,1,0,0:0:0:0:
320,192,13149,128,0,13454:0:0:0:0:
192,192,13454,1,0,0:0:0:0:
64,192,13454,1,0,0:0:0:0:
448,192,13454,128,0,13758:0:0:0:0:
320,192,13758,1,0,0:0:0:0:
192,192,13758,1,0,0:0:0:0:
64,192,13758,128,0,13960:0:0:0:0:
192,192,13960,1,0,0:0:0:0:
448,192,13960,1,0,0:0:0:0:
320,192,13960,128,0,14163:0:0:0:0:
64,192,14163,1,0,0:0:0:0:
448,192,14163,1,0,0:0:0:0:
192,192,14163,128,0,14366:0:0:0:0:
64,192,14366,1,0,0:0:0:0:
448,192,14366,1,0,0:0:0:0:
320,192,14366,1,0,0:0:0:0:
64,192,14771,128,0,15379:0:0:0:0:
448,192,14771,128,0,14974:0:0:0:0:
320,192,14872,128,0,14974:0:0:0:0:
192,192,14974,1,0,0:0:0:0:
448,192,15075,1,0,0:0:0:0:
192,192,15176,128,0,15379:0:0:0:0:
448,192,15278,128,0,15379:0:0:0:0:
320,192,15379,128,0,15582:0:0:0:0:
192,192,15481,1,0,0:0:0:0:
448,192,15582,128,0,15987:0:0:0:0:
64,192,15582,128,0,15785:0:0:0:0:
192,192,15683,128,0,15785:0:0:0:0:
320,192,15785,1,0,0:0:0:0:
64,192,15886,1,0,0:0:0:0:
320,192,15987,128,0,16190:0:0:0:0:
192,192,15987,128,0,16190:0:0:0:0:
448,192,16089,128,0,16190:0:0:0:0:
64,192,16190,128,0,16393:0:0:0:0:
192,192,16393,128,0,16697:0:0:0:0:
320,192,16393,128,0,16697:0:0:0:0:
448,192,16393,128,0,17204:0:0:0:0:
320,192,16798,128,0,17204:0:0:0:0:
64,192,16798,128,0,17102:0:0:0:0:
192,192,16798,128,0,17102:0:0:0:0:
192,192,17204,128,0,17305:0:0:0:0:
64,192,17204,128,0,17305:0:0:0:0:
448,192,17305,128,0,17406:0:0:0:0:
192,192,17406,128,0,17508:0:0:0:0:
320,192,17508,128,0,17609:0:0:0:0:
448,192,17508,128,0,17609:0:0:0:0:
64,192,17609,128,0,17710:0:0:0:0:
192,192,17710,128,0,17812:0:0:0:0:
320,192,17710,128,0,17812:0:0:0:0:
448,192,17812,128,0,17913:0:0:0:0:
64,192,17812,128,0,17913:0:0:0:0:
192,192,17913,128,0,18014:0:0:0:0:
64,192,18014,128,0,18622:0:0:0:0:
448,192,18014,128,0,18217:0:0:0:0:
320,192,18014,1,0,0:0:0:0:
192,192,18116,128,0,18217:0:0:0:0:
320,192,18217,1,0,0:0:0:0:
448,192,18318,1,0,0:0:0:0:
192,192,18420,128,0,18622:0:0:0:0:
448,192,18521,128,0,18622:0:0:0:0:
320,192,18622,128,0,18825:0:0:0:0:
192,192,18724,1,0,0:0:0:0:
448,192,18825,128,0,19231:0:0:0:0:
64,192,18825,128,0,19028:0:0:0:0:
192,192,18926,128,0,19028:0:0:0:0:
320,192,19028,1,0,0:0:0:0:
64,192,19129,1,0,0:0:0:0:
320,192,19231,128,0,19433:0:0:0:0:
192,192,19231,128,0,19433:0:0:0:0:
448,192,19332,128,0,19433:0:0:0:0:
64,192,19433,128,0,19636:0:0:0:0:
192,192,19636,128,0,19940:0:0:0:0:
320,192,19636,128,0,19940:0:0:0:0:
448,192,19636,128,0,20447:0:0:0:0:
320,192,20041,128,0,20447:0:0:0:0:
64,192,20041,128,0,20345:0:0:0:0:
192,192,20041,128,0,20345:0:0:0:0:
192,192,20447,128,0,20548:0:0:0:0:
64,192,20447,128,0,20548:0:0:0:0:
320,192,20548,128,0,20751:0:0:0:0:
448,192,20649,128,0,20852:0:0:0:0:
64,192,20751,128,0,20954:0:0:0:0:
192,192,20852,128,0,21055:0:0:0:0:
320,192,20852,1,0,0:0:0:0:
448,192,20954,1,0,0:0:0:0:
64,192,21055,1,0,0:0:0:0:
320,192,21055,1,0,0:0:0:0:
320,192,21258,1,0,0:0:0:0:
64,192,21258,128,0,21663:0:0:0:0:
320,192,21460,1,0,0:0:0:0:
192,192,21460,1,0,0:0:0:0:
448,192,21460,1,0,0:0:0:0:
192,192,21663,1,4,0:0:0:0:
320,192,21663,1,0,0:0:0:0:
448,192,21663,1,0,0:0:0:0:
64,192,21866,1,0,0:0:0:0:
320,192,21866,1,0,0:0:0:0:
192,192,22068,1,0,0:0:0:0:
448,192,22068,128,0,22474:0:0:0:0:
192,192,22271,1,0,0:0:0:0:
64,192,22271,1,4,0:0:0:0:
320,192,22271,1,0,0:0:0:0:
192,192,22474,1,4,0:0:0:0:
320,192,22474,1,0,0:0:0:0:
64,192,22474,1,0,0:0:0:0:
192,192,22676,128,0,22879:0:0:0:0:
320,192,22879,1,0,0:0:0:0:
448,192,22879,1,0,0:0:0:0:
64,192,22879,1,4,0:0:0:0:
320,192,23082,128,0,23285:0:0:0:0:
192,192,23285,1,0,0:0:0:0:
64,192,23285,1,4,0:0:0:0:
448,192,23285,1,0,0:0:0:0:
192,192,23487,1,0,0:0:0:0:
448,192,23487,128,0,23690:0:0:0:0:
64,192,23690,1,4,0:0:0:0:
320,192,23690,1,0,0:0:0:0:
192,192,23690,128,0,23893:0:0:0:0:
320,192,23893,1,0,0:0:0:0:
64,192,23893,128,0,24298:0:0:0:0:
192,192,24095,1,0,0:0:0:0:
448,192,24095,1,0,0:0:0:0:
320,192,24095,128,0,24298:0:0:0:0:
448,192,24298,1,0,0:0:0:0:
192,192,24298,1,0,0:0:0:0:
64,192,24501,128,0,25413:0:0:0:0:
448,192,24501,128,0,25514:0:0:0:0:
192,192,24704,128,0,25008:0:0:0:0:
320,192,24906,128,0,25210:0:0:0:0:
192,192,25109,128,0,25514:0:0:0:0:
320,192,25312,128,0,25413:0:0:0:0:
64,192,25514,1,0,0:0:0:0:
320,192,25514,128,0,25616:0:0:0:0:
192,192,25616,1,0,0:0:0:0:
448,192,25616,128,0,25717:0:0:0:0:
320,192,25717,1,0,0:0:0:0:
64,192,25717,128,0,25818:0:0:0:0:
448,192,25818,1,0,0:0:0:0:
192,192,25818,128,0,25920:0:0:0:0:
64,192,25920,1,0,0:0:0:0:
320,192,25920,128,0,26021:0:0:0:0:
448,192,26021,128,0,26122:0:0:0:0:
192,192,26021,128,0,26122:0:0:0:0:
64,192,26122,1,0,0:0:0:0:
320,192,26122,128,0,26224:0:0:0:0:
64,192,26224,1,0,0:0:0:0:
192,192,26224,1,0,0:0:0:0:
64,192,26426,128,0,26731:0:0:0:0:
448,192,26426,128,0,26731:0:0:0:0:
320,192,26731,1,0,0:0:0:0:
192,192,26731,1,12,0:0:0:0:
192,192,26832,1,8,0:0:0:0:
448,192,26933,1,0,0:0:0:0:
64,192,26933,1,0,0:0:0:0:
320,192,27035,1,0,0:0:0:0:
64,192,27035,1,0,0:0:0:0:
192,192,27237,128,0,27541:0:0:0:0:
448,192,27237,128,0,27541:0:0:0:0:
64,192,27541,1,0,0:0:0:0:
320,192,27541,1,12,0:0:0:0:
320,192,27643,1,8,0:0:0:0:
192,192,27744,1,0,0:0:0:0:
448,192,27744,1,0,0:0:0:0:
64,192,27744,1,0,0:0:0:0:
448,192,27947,1,0,0:0:0:0:
320,192,27947,1,0,0:0:0:0:
192,192,27947,1,0,0:0:0:0:
192,192,28149,1,0,0:0:0:0:
320,192,28149,1,0,0:0:0:0:
64,192,28149,1,0,0:0:0:0:
64,192,28352,1,0,0:0:0:0:
192,192,28352,1,0,0:0:0:0:
448,192,28352,1,0,0:0:0:0:
320,192,28555,1,0,0:0:0:0:
192,192,28555,1,0,0:0:0:0:
64,192,28555,128,0,28960:0:0:0:0:
448,192,28555,128,0,28960:0:0:0:0:
192,192,28758,128,0,28960:0:0:0:0:
320,192,28960,1,0,0:0:0:0:
