osu file format v14

[General]
AudioFilename: audio.mp3
AudioLeadIn: 0
PreviewTime: 135584
Countdown: 0
SampleSet: Soft
StackLeniency: 0.5
Mode: 0
LetterboxInBreaks: 0
WidescreenStoryboard: 0

[Editor]
DistanceSpacing: 1.2
BeatDivisor: 4
GridSize: 32
TimelineZoom: 3

[Metadata]
Title:Arakajime Ushinawareta Bokura no Ballad
TitleUnicode:予め失われた僕らのバラッド
Artist:EARPHONES
ArtistUnicode:イヤホンズ
Creator:Mordred
Version:Eternal Torment
Source:神獄塔 メアリスケルター
Tags:Ayyri eiri- Mary Skelter: Nightmares Skelter Idea Factory International IF Compile Heart CH Kangokutou Mearisukeruta Our Last Divine Prison Tower
BeatmapID:1690244
BeatmapSetID:805167

[Difficulty]
HPDrainRate:7.2
CircleSize:4.2
OverallDifficulty:9.4
ApproachRate:9.6
SliderMultiplier:1.8
SliderTickRate:1

[Events]
//Background and Video events
0,0,"mirqatjoy.jpg",0,0
//Break Periods
//Storyboard Layer 0 (Background)
//Storyboard Layer 1 (Fail)
//Storyboard Layer 2 (Pass)
//Storyboard Layer 3 (Foreground)
//Storyboard Sound Samples

[TimingPoints]
1115,303.030303030303,4,2,1,30,1,0
1115,-200,4,2,1,30,0,0
20508,-200,4,2,1,40,0,0
22857,-200,4,2,1,5,0,0
22933,-200,4,2,1,40,0,0
32554,-200,4,2,1,5,0,0
32630,-200,4,2,1,40,0,0
39675,-200,4,2,1,5,0,0
39751,-200,4,2,1,40,0,0
39827,-200,4,2,1,5,0,0
39902,-142.857142857143,4,2,1,50,0,0
49372,-142.857142857143,4,2,1,5,0,0
49448,-142.857142857143,4,2,1,50,0,0
49524,-142.857142857143,4,2,1,5,0,0
49599,-142.857142857143,4,2,1,50,0,0
66569,-142.857142857143,4,2,1,50,0,0
66721,-142.857142857143,4,2,1,54,0,0
66872,-142.857142857143,4,2,1,58,0,0
67024,-142.857142857143,4,2,1,62,0,0
67175,-142.857142857143,4,2,1,66,0,0
67327,-142.857142857143,4,2,1,70,0,0
68387,-100,4,2,1,70,0,0
68993,-83.3333333333333,4,2,1,70,0,0
69221,-83.3333333333333,4,2,1,5,0,0
69296,-83.3333333333333,4,2,1,70,0,0
71645,-83.3333333333333,4,2,1,5,0,0
71721,-83.3333333333333,4,2,1,70,0,0
74069,-83.3333333333333,4,2,1,5,0,0
74145,-83.3333333333333,4,2,1,70,0,0
77478,-83.3333333333333,4,2,1,80,0,0
78236,-83.3333333333333,4,2,1,70,0,0
78387,-250,4,2,1,70,0,0
78614,-250,4,2,1,5,0,0
78690,-100,4,2,1,70,0,0
78918,-100,4,2,1,5,0,0
78993,-100,4,2,1,60,0,0
87175,-100,4,2,1,50,0,0
87402,-100,4,2,1,5,0,0
87478,-83.3333333333333,4,2,1,60,0,0
87705,-83.3333333333333,4,2,1,5,0,0
87781,-76.9230769230769,4,2,1,70,0,0
88008,-76.9230769230769,4,2,1,5,0,0
88084,-71.4285714285714,4,2,1,80,0,0
88311,-71.4285714285714,4,2,1,5,0,0
88387,-100,4,2,1,70,0,0
88614,-100,4,2,1,5,0,0
88690,-100,4,2,1,60,0,0
91039,-100,4,2,1,5,0,0
91114,-100,4,2,1,60,0,0
91493,-100,4,2,1,5,0,0
91568,-100,4,2,1,60,0,0
91948,-100,4,2,1,5,0,0
92023,-100,4,2,1,60,0,0
94675,-100,4,2,1,5,0,0
94750,-100,4,2,1,60,0,0
98084,-125,4,2,1,60,0,0
105357,-125,4,2,1,50,0,0
105584,-125,4,2,1,5,0,0
105660,-111.111111111111,4,2,1,60,0,0
105887,-111.111111111111,4,2,1,5,0,0
105963,-100,4,2,1,70,0,0
106190,-100,4,2,1,5,0,0
106266,-90.9090909090909,4,2,1,80,0,0
106493,-90.9090909090909,4,2,1,5,0,0
106569,-90.9090909090909,4,2,1,70,0,0
107781,-83.3333333333333,4,2,1,80,0,0
110205,-83.3333333333333,4,2,1,50,0,0
110281,-83.3333333333333,4,2,1,20,0,0
110508,-83.3333333333333,4,2,1,40,0,0
110584,-83.3333333333333,4,2,1,44,0,0
110660,-83.3333333333333,4,2,1,48,0,0
110736,-83.3333333333333,4,2,1,52,0,0
110811,-83.3333333333333,4,2,1,56,0,0
110963,-83.3333333333333,4,2,1,60,0,0
111114,-83.3333333333333,4,2,1,64,0,0
111266,-83.3333333333333,4,2,1,68,0,0
111418,-76.9230769230769,4,2,1,80,0,1
116948,-76.9230769230769,4,2,1,5,0,1
117024,-76.9230769230769,4,2,1,80,0,1
120508,-76.9230769230769,4,2,1,70,0,0
121114,-76.9230769230769,4,2,1,80,0,1
121342,-76.9230769230769,4,2,1,5,0,1
121418,-76.9230769230769,4,2,1,80,0,1
126190,-76.9230769230769,4,2,1,5,0,1
126266,-76.9230769230769,4,2,1,80,0,1
126645,-76.9230769230769,4,2,1,5,0,1
126721,-76.9230769230769,4,2,1,80,0,1
127099,-76.9230769230769,4,2,1,5,0,1
127175,-76.9230769230769,4,2,1,80,0,1
127857,-76.9230769230769,4,2,1,5,0,1
127933,-76.9230769230769,4,2,1,80,0,1
128311,-76.9230769230769,4,2,1,5,0,1
128387,-76.9230769230769,4,2,1,80,0,1
128614,-76.9230769230769,4,2,1,5,0,1
128690,-76.9230769230769,4,2,1,80,0,1
129069,-76.9230769230769,4,2,1,5,0,1
129145,-76.9230769230769,4,2,1,80,0,1
129524,-76.9230769230769,4,2,1,5,0,1
129599,-76.9230769230769,4,2,1,80,0,1
129827,-76.9230769230769,4,2,1,5,0,1
129902,-76.9230769230769,4,2,1,80,0,1
130508,-76.9230769230769,4,2,1,80,0,0
130811,-76.9230769230769,4,2,1,80,0,1
130887,-76.9230769230769,4,2,1,80,0,0
131418,-76.9230769230769,4,2,1,80,0,1
131493,-76.9230769230769,4,2,1,80,0,0
132024,-76.9230769230769,4,2,1,80,0,1
135660,-76.9230769230769,4,2,1,70,0,0
138311,-76.9230769230769,4,2,1,5,0,0
138387,-76.9230769230769,4,2,1,70,0,0
143160,-76.9230769230769,4,2,1,5,0,0
143236,-76.9230769230769,4,2,1,70,0,0
145584,-76.9230769230769,4,2,1,5,0,0
145660,-76.9230769230769,4,2,1,70,0,0
148008,-76.9230769230769,4,2,1,5,0,0
148084,-76.9230769230769,4,2,1,70,0,0
153842,-76.9230769230769,4,2,1,80,0,0
154599,-76.9230769230769,4,2,1,70,0,0
154751,-250,4,2,1,70,0,0
154978,-250,4,2,1,5,0,0
155054,-100,4,2,1,70,0,0
155281,-100,4,2,1,5,0,0
155357,-100,4,2,1,60,0,0
156493,-100,4,2,1,5,0,0
156569,-100,4,2,1,60,0,0
156948,-100,4,2,1,5,0,0
157024,-100,4,2,1,60,0,0
157402,-100,4,2,1,5,0,0
157478,-100,4,2,1,60,0,0
157705,-100,4,2,1,5,0,0
157781,-100,4,2,1,60,0,0
163539,-100,4,2,1,50,0,0
163766,-100,4,2,1,5,0,0
163842,-83.3333333333333,4,2,1,60,0,0
164069,-83.3333333333333,4,2,1,5,0,0
164145,-76.9230769230769,4,2,1,70,0,0
164372,-76.9230769230769,4,2,1,5,0,0
164448,-71.4285714285714,4,2,1,80,0,0
164675,-71.4285714285714,4,2,1,5,0,0
164751,-100,4,2,1,60,0,0
167857,-100,4,2,1,5,0,0
167933,-100,4,2,1,60,0,0
168311,-100,4,2,1,5,0,0
168387,-100,4,2,1,60,0,0
168614,-100,4,2,1,5,0,0
168690,-100,4,2,1,60,0,0
169827,-100,4,2,1,5,0,0
169902,-100,4,2,1,60,0,0
170736,-100,4,2,1,5,0,0
170811,-100,4,2,1,60,0,0
174145,-142.857142857143,4,2,1,60,0,0
174448,-100,4,2,1,60,0,0
175963,-125,4,2,1,60,0,0
181721,-125,4,2,1,50,0,0
181948,-125,4,2,1,5,0,0
182024,-111.111111111111,4,2,1,60,0,0
182251,-111.111111111111,4,2,1,5,0,0
182327,-100,4,2,1,70,0,0
182554,-100,4,2,1,5,0,0
182630,-90.9090909090909,4,2,1,80,0,0
182857,-90.9090909090909,4,2,1,5,0,0
182933,-90.9090909090909,4,2,1,70,0,0
185357,-90.9090909090909,4,2,1,50,0,0
186266,-90.9090909090909,4,2,1,40,0,0
186569,-90.9090909090909,4,2,1,52,0,0
186645,-90.9090909090909,4,2,1,53,0,0
186721,-90.9090909090909,4,2,1,54,0,0
186796,-90.9090909090909,4,2,1,55,0,0
186872,-90.9090909090909,4,2,1,56,0,0
186948,-90.9090909090909,4,2,1,57,0,0
187024,-90.9090909090909,4,2,1,58,0,0
187099,-90.9090909090909,4,2,1,59,0,0
187175,-90.9090909090909,4,2,1,60,0,0
187327,-90.9090909090909,4,2,1,65,0,0
187478,-90.9090909090909,4,2,1,70,0,0
187630,-90.9090909090909,4,2,1,75,0,0
187781,-76.9230769230769,4,2,1,80,0,1
192857,-76.9230769230769,4,2,1,5,0,1
192933,-76.9230769230769,4,2,1,80,0,1
196872,-76.9230769230769,4,2,1,80,0,0
197478,-76.9230769230769,4,2,1,80,0,1
197705,-76.9230769230769,4,2,1,5,0,1
197781,-76.9230769230769,4,2,1,80,0,1
202554,-76.9230769230769,4,2,1,5,0,1
202630,-76.9230769230769,4,2,1,80,0,1
203008,-76.9230769230769,4,2,1,5,0,1
203084,-76.9230769230769,4,2,1,80,0,1
204221,-76.9230769230769,4,2,1,5,0,1
204296,-76.9230769230769,4,2,1,80,0,1
204675,-76.9230769230769,4,2,1,5,0,1
204751,-76.9230769230769,4,2,1,80,0,1
204978,-76.9230769230769,4,2,1,5,0,1
205054,-76.9230769230769,4,2,1,80,0,1
205433,-76.9230769230769,4,2,1,5,0,1
205508,-76.9230769230769,4,2,1,80,0,1
206342,-76.9230769230769,4,2,1,5,0,1
206418,-76.9230769230769,4,2,1,80,0,1
207175,-125,4,2,1,80,0,0
209599,-76.9230769230769,4,2,1,80,0,1
209675,-76.9230769230769,4,2,1,80,0,0
210205,-76.9230769230769,4,2,1,80,0,1
210281,-76.9230769230769,4,2,1,80,0,0
210811,-76.9230769230769,4,2,1,80,0,1
212024,-100,4,2,1,60,0,0
216872,-250,4,2,1,50,0,0
253236,-250,4,2,1,45,0,0
254751,-250,4,2,1,50,0,0
255660,-250,4,2,1,55,0,0
257175,-250,4,2,1,60,0,0
258084,-250,4,2,1,65,0,0
259296,-250,4,2,1,70,0,0
260508,-83.3333333333333,4,2,1,70,0,0
260811,-83.3333333333333,4,2,1,50,0,0
260887,-83.3333333333333,4,2,1,53,0,0
260963,-83.3333333333333,4,2,1,56,0,0
261039,-83.3333333333333,4,2,1,59,0,0
261114,-83.3333333333333,4,2,1,62,0,0
261190,-83.3333333333333,4,2,1,65,0,0
261266,-83.3333333333333,4,2,1,68,0,0
261342,-83.3333333333333,4,2,1,71,0,0
261418,-83.3333333333333,4,2,1,74,0,0
261493,-83.3333333333333,4,2,1,77,0,0
261569,-83.3333333333333,4,2,1,80,0,0
261645,-83.3333333333333,4,2,1,80,0,0
261721,-83.3333333333333,4,2,1,80,0,0
262933,-76.9230769230769,4,2,1,80,0,1
268463,-76.9230769230769,4,2,1,5,0,1
268539,-76.9230769230769,4,2,1,80,0,1
272024,-76.9230769230769,4,2,1,80,0,0
272630,-76.9230769230769,4,2,1,80,0,1
272857,-76.9230769230769,4,2,1,5,0,1
272933,-76.9230769230769,4,2,1,80,0,1
277705,-76.9230769230769,4,2,1,5,0,1
277781,-76.9230769230769,4,2,1,80,0,1
278160,-76.9230769230769,4,2,1,5,0,1
278236,-76.9230769230769,4,2,1,80,0,1
279372,-76.9230769230769,4,2,1,5,0,1
279448,-76.9230769230769,4,2,1,80,0,1
279827,-76.9230769230769,4,2,1,5,0,1
279902,-76.9230769230769,4,2,1,80,0,1
280130,-76.9230769230769,4,2,1,5,0,1
280205,-76.9230769230769,4,2,1,80,0,1
280584,-76.9230769230769,4,2,1,5,0,1
280660,-76.9230769230769,4,2,1,80,0,1
282327,-125,4,2,1,70,0,1
284448,-125,4,2,1,70,0,0
284751,-125,4,2,1,70,0,1
284827,-125,4,2,1,80,0,0
285357,-125,4,2,1,80,0,1
285433,-125,4,2,1,80,0,0
285963,-125,4,2,1,80,0,1
287175,-100,4,2,1,70,0,0
289599,-100,4,2,1,60,0,0
292327,-100,4,2,1,55,0,0
292630,-100,4,2,1,50,0,0
292933,-100,4,2,1,45,0,0
293236,-100,4,2,1,70,0,0
293766,-100,4,2,1,5,0,0
293842,-100,4,2,1,70,0,0
294372,-100,4,2,1,5,0,0
294448,-100,4,2,1,70,0,0
294524,-100,4,2,1,5,0,0
298387,-200,4,2,1,10,0,0
298993,-200,4,2,1,15,0,0
299599,-200,4,2,1,20,0,0
300205,-200,4,2,1,25,0,0
300811,-200,4,2,1,30,0,0
301418,-200,4,2,1,35,0,0
302024,-200,4,2,1,40,0,0
302630,-200,4,2,1,45,0,0
303236,-133.333333333333,4,2,1,50,0,0
304448,-133.333333333333,4,2,1,55,0,0
305054,-133.333333333333,4,2,1,60,0,0
305660,-133.333333333333,4,2,1,65,0,0
306266,-133.333333333333,4,2,1,70,0,0
306569,-133.333333333333,4,2,1,75,0,0

[Colours]
Combo1 : 255,128,128
Combo2 : 255,128,192
Combo3 : 140,26,255
Combo4 : 128,128,255

[HitObjects]
3,90,1115,6,0,L|0:41,2,45,2|0|0,0:2|0:2|0:2,0:2:0:0:
93,155,2024,1,0,0:2:0:0:
93,155,2327,2,0,L|96:106,2,45,0|0|0,0:2|0:2|0:2,0:2:0:0:
192,32,2933,1,2,0:2:0:0:
509,90,3539,6,0,L|512:41,2,45,2|0|0,0:2|0:2|0:2,0:2:0:0:
419,155,4448,1,0,0:2:0:0:
419,155,4751,2,0,L|415:106,2,45,0|0|0,0:2|0:2|0:2,0:2:0:0:
320,32,5357,1,2,0:2:0:0:
509,294,5963,6,0,L|512:342,2,45,2|0|0,0:2|0:2|0:2,0:2:0:0:
419,229,6872,1,0,0:2:0:0:
419,229,7175,2,0,L|415:277,2,45,0|0|0,0:2|0:2|0:2,0:2:0:0:
320,352,7781,1,2,0:2:0:0:
3,294,8387,6,0,L|0:342,2,45,2|0|0,0:2|0:2|0:2,0:2:0:0:
93,229,9296,1,2,0:2:0:0:
93,229,9599,2,0,L|96:277,2,45,2|0|0,0:2|0:2|0:2,0:2:0:0:
192,352,10205,1,2,0:2:0:0:
24,70,10811,6,0,L|87:75,1,45,2|0,0:2|0:2,0:2:0:0:
158,80,11115,1,0,0:2:0:0:
158,80,11721,1,0,0:2:0:0:
158,80,12024,6,0,L|221:85,1,45,0|0,0:2|0:2,0:2:0:0:
292,90,12328,1,0,0:2:0:0:
292,90,12630,1,2,0:2:0:0:
490,160,13236,6,0,L|427:165,1,45,2|0,0:2|0:2,0:2:0:0:
356,170,13540,1,0,0:2:0:0:
356,170,14146,1,0,0:2:0:0:
356,170,14449,6,0,L|293:175,1,45,0|0,0:2|0:2,0:2:0:0:
222,180,14751,1,0,0:2:0:0:
222,180,15055,1,2,0:2:0:0:
8,266,15660,6,0,L|71:271,1,45,2|0,0:2|0:2,0:2:0:0:
142,276,15964,1,0,0:2:0:0:
142,276,16266,1,0,0:2:0:0:
256,224,16569,1,0,0:2:0:0:
307,293,16872,2,0,L|370:288,1,45,2|0,0:2|0:2,0:2:0:0:
441,283,17176,5,0,0:2:0:0:
481,203,17478,1,2,0:2:0:0:
432,129,17781,1,0,0:2:0:0:
343,134,18084,1,2,0:2:0:0:
302,213,18387,1,2,0:2:0:0:
213,216,18690,1,2,0:2:0:0:
165,140,18993,1,2,0:2:0:0:
206,60,19296,1,2,0:2:0:0:
206,60,19902,6,0,L|208:121,1,45,2|2,0:2|0:2,0:2:0:0:
288,160,20205,2,0,L|285:221,1,45,2|2,0:2|0:2,0:2:0:0:
227,319,20508,6,0,P|146:360|27:244,1,270,2|2,0:2|0:2,0:2:0:0:
72,144,21721,1,0,0:2:0:0:
31,32,22024,1,2,0:2:0:0:
160,23,22327,2,0,P|197:25|283:113,1,157.5,2|0,0:2|0:2,0:2:0:0:
345,226,22933,6,0,P|346:180|364:46,1,180,2|2,0:2|0:2,0:2:0:0:
492,0,23842,1,2,0:2:0:0:
465,119,24145,2,0,L|463:178,1,45,0|0,0:2|0:2,0:2:0:0:
507,245,24448,2,0,L|509:304,1,45,0|0,0:2|0:2,0:2:0:0:
465,371,24751,1,0,0:2:0:0:
350,384,25054,1,0,0:2:0:0:
278,288,25357,6,0,P|232:289|97:307,1,180,2|0,0:2|0:2,0:2:0:0:
16,376,26266,1,2,0:2:0:0:
143,381,26569,2,0,L|201:383,1,45,0|0,0:2|0:2,0:2:0:0:
274,384,26872,1,2,0:2:0:0:
398,339,27175,2,0,P|406:302|412:239,1,90,2|0,0:2|0:2,0:2:0:0:
319,208,27781,6,0,P|313:164|306:15,1,180,2|2,0:2|0:2,0:2:0:0:
160,0,28690,1,2,0:2:0:0:
71,83,28993,2,0,L|66:141,1,45,0|0,0:2|0:2,0:2:0:0:
150,215,29296,2,0,L|146:170,1,45,0|0,0:2|0:2,0:2:0:0:
70,257,29599,1,0,0:2:0:0:
85,346,29902,2,0,L|137:348,1,45,2|0,0:2|0:2,0:2:0:0:
224,256,30205,6,0,P|227:206|246:63,1,180,2|0,0:2|0:2,0:2:0:0:
336,6,31114,1,2,0:2:0:0:
433,73,31418,1,0,0:2:0:0:
399,185,31721,1,2,0:2:0:0:
433,297,32024,2,0,P|355:276|270:305,1,157.5,2|0,0:2|0:2,0:2:0:0:
179,357,32630,6,0,P|90:361|-7:355,1,180,2|2,0:2|0:2,0:2:0:0:
0,240,33539,1,2,0:2:0:0:
63,141,33842,2,0,L|122:138,1,45,0|0,0:2|0:2,0:2:0:0:
223,212,34145,2,0,L|164:209,1,45,0|0,0:2|0:2,0:2:0:0:
293,140,34448,1,0,0:2:0:0:
397,192,34751,1,0,0:2:0:0:
343,295,35054,6,0,P|356:336|479:357,1,180,2|0,0:2|0:2,0:2:0:0:
511,247,35963,1,2,0:2:0:0:
414,181,36266,2,0,L|411:125,1,45,0|0,0:2|0:2,0:2:0:0:
463,46,36569,1,0,0:2:0:0:
351,10,36872,2,0,P|311:9|246:12,1,90,2|2,0:2|0:2,0:2:0:0:
126,0,37478,6,0,L|119:50,1,45,2|0,0:2|0:2,0:2:0:0:
102,154,37781,1,0,0:2:0:0:
86,269,38084,1,0,0:2:0:0:
70,384,38387,1,0,0:2:0:0:
185,347,38690,5,0,0:2:0:0:
185,347,38842,1,0,0:2:0:0:
273,299,38993,2,0,L|332:302,1,45,2|0,0:2|0:2,0:2:0:0:
394,355,39296,2,0,L|438:352,1,45,2|0,0:2|0:2,0:2:0:0:
481,281,39599,2,0,L|483:249,1,22.5,2|0,0:2|0:2,0:2:0:0:
449,217,39751,2,0,L|447:185,1,22.5,2|0,0:2|0:2,0:2:0:0:
501,116,39902,6,0,P|464:101|374:132,1,125.999996154785,6|0,3:2|0:2,0:2:0:0:
368,147,40306,1,0,0:2:0:0:
349,170,40407,1,0,0:2:0:0:
322,183,40508,2,0,P|285:198|195:167,1,125.999996154785,10|2,0:2|0:2,0:2:0:0:
181,159,40912,1,0,0:2:0:0:
152,151,41013,1,0,0:2:0:0:
122,153,41115,1,8,0:2:0:0:
59,250,41418,2,0,L|61:317,1,41.9999987182618,2|0,0:2|0:2,0:2:0:0:
121,343,41620,1,0,0:2:0:0:
147,355,41721,2,0,L|195:353,2,41.9999987182618,10|0|0,0:2|0:2|0:2,0:2:0:0:
197,266,42024,2,0,L|149:268,2,41.9999987182618,8|0|0,0:2|0:2|0:2,0:2:0:0:
275,315,42327,6,0,P|280:258|297:173,1,125.999996154785,6|2,3:2|0:2,0:2:0:0:
317,174,42731,1,0,0:2:0:0:
332,149,42832,1,0,0:2:0:0:
338,120,42933,2,0,P|281:110|195:104,1,125.999996154785,10|2,0:2|0:2,0:2:0:0:
188,88,43337,1,0,0:2:0:0:
176,61,43438,1,0,0:2:0:0:
177,31,43539,1,10,0:2:0:0:
287,0,43842,2,0,L|354:2,1,41.9999987182618,0|0,0:2|0:2,0:2:0:0:
380,62,44044,1,0,0:2:0:0:
392,88,44145,2,0,L|390:136,5,41.9999987182618,10|0|0|0|0|0,0:2|0:2|0:2|0:2|0:2|0:2,0:2:0:0:
468,184,44751,6,0,P|479:245|485:308,1,125.999996154785,6|0,3:2|0:2,0:2:0:0:
468,332,45155,1,0,0:2:0:0:
440,342,45256,1,0,0:2:0:0:
411,349,45357,2,0,P|349:337|286:331,1,125.999996154785,8|2,0:2|0:2,0:2:0:0:
260,344,45761,1,0,0:2:0:0:
231,348,45862,1,0,0:2:0:0:
201,344,45963,1,8,0:2:0:0:
109,278,46266,2,0,L|111:211,1,41.9999987182618,2|0,0:2|0:2,0:2:0:0:
171,185,46468,1,0,0:2:0:0:
197,173,46569,2,0,L|245:175,2,41.9999987182618,10|0|0,0:2|0:2|0:2,0:2:0:0:
266,89,46872,2,0,L|314:91,2,41.9999987182618,8|0|0,0:2|0:2|0:2,0:2:0:0:
168,80,47175,6,0,P|123:72|31:69,1,125.999996154785,6|0,3:2|0:2,0:2:0:0:
28,93,47579,1,0,0:2:0:0:
22,121,47680,1,0,0:2:0:0:
23,150,47781,2,0,P|31:195|34:287,1,125.999996154785,10|2,0:2|0:2,0:2:0:0:
24,302,48185,1,0,0:2:0:0:
19,331,48286,1,0,0:2:0:0:
23,360,48387,1,8,0:2:0:0:
134,335,48690,2,0,L|209:338,1,62.9999980773926,2|0,0:2|0:2,0:2:0:0:
338,279,48993,2,0,L|275:281,1,62.9999980773926,2|0,0:2|0:2,0:2:0:0:
196,223,49296,2,0,L|193:185,1,31.4999990386963,2|0,0:2|0:2,0:2:0:0:
205,172,49448,2,0,L|207:134,1,31.4999990386963,2|0,0:2|0:2,0:2:0:0:
152,63,49599,6,0,P|189:48|279:79,1,125.999996154785,6|0,3:2|0:2,0:2:0:0:
285,94,50003,1,0,0:2:0:0:
304,117,50104,1,0,0:2:0:0:
331,130,50205,2,0,P|368:145|458:114,1,125.999996154785,10|2,0:2|0:2,0:2:0:0:
453,152,50609,1,0,0:2:0:0:
457,180,50710,1,0,0:2:0:0:
462,208,50811,1,8,0:2:0:0:
512,310,51115,2,0,L|510:377,1,41.9999987182618,2|0,0:2|0:2,0:2:0:0:
417,368,51317,1,0,0:2:0:0:
391,380,51418,2,0,L|343:378,2,41.9999987182618,10|0|0,0:2|0:2|0:2,0:2:0:0:
386,283,51721,2,0,L|434:281,2,41.9999987182618,8|0|0,0:2|0:2|0:2,0:2:0:0:
285,296,52024,6,0,P|236:297|141:309,1,125.999996154785,6|0,3:2|0:2,0:2:0:0:
141,328,52428,1,0,0:2:0:0:
115,342,52529,1,0,0:2:0:0:
86,347,52630,2,0,P|85:298|73:203,1,125.999996154785,10|2,0:2|0:2,0:2:0:0:
59,197,53034,1,0,0:2:0:0:
51,168,53135,1,0,0:2:0:0:
52,138,53236,1,8,0:2:0:0:
111,41,53539,2,0,L|114:-4,2,41.9999987182618,2|0|0,0:2|0:2|0:2,0:2:0:0:
162,144,53842,2,0,L|165:189,2,41.9999987182618,10|0|0,0:2|0:2|0:2,0:2:0:0:
265,140,54145,2,0,L|262:185,2,41.9999987182618,8|0|0,0:2|0:2|0:2,0:2:0:0:
227,47,54448,6,0,P|289:52|360:65,1,125.999996154785,6|0,3:2|0:2,0:2:0:0:
362,90,54852,1,0,0:2:0:0:
364,119,54953,1,0,0:2:0:0:
360,148,55054,2,0,P|297:158|235:164,1,125.999996154785,8|0,0:2|0:2,0:2:0:0:
218,188,55458,1,0,0:2:0:0:
210,216,55559,1,0,0:2:0:0:
206,245,55660,1,8,0:2:0:0:
271,337,55963,2,0,L|312:339,2,41.9999987182618,2|0|0,0:2|0:2|0:2,0:2:0:0:
394,295,56266,2,0,L|417:259,2,41.9999987182618,2|0|0,0:2|0:2|0:2,0:2:0:0:
421,168,56569,2,0,L|402:130,2,41.9999987182618,2|0|0,0:2|0:2|0:2,0:2:0:0:
324,81,56872,5,10,0:2:0:0:
248,86,57175,1,8,0:2:0:0:
172,91,57478,1,8,0:2:0:0:
96,96,57781,1,8,0:2:0:0:
20,102,58084,5,8,0:2:0:0:
15,131,58185,1,8,0:2:0:0:
11,160,58286,1,8,0:2:0:0:
61,210,58387,5,8,0:2:0:0:
65,236,58488,1,8,0:2:0:0:
69,262,58589,1,8,0:2:0:0:
20,314,58690,5,8,0:3:0:0:
16,337,58791,1,8,0:3:0:0:
14,361,58892,1,8,0:3:0:0:
82,381,58993,6,0,L|195:385,1,83.9999974365235,8|0,0:3|0:2,0:2:0:0:
288,320,59296,5,6,0:2:0:0:
288,320,60508,5,8,0:3:0:0:
380,313,60963,1,8,0:3:0:0:
472,306,61418,1,8,0:3:0:0:
368,154,61721,5,6,0:2:0:0:
319,193,62478,1,8,0:0:0:0:
319,193,62553,1,8,0:0:0:0:
319,193,62629,1,8,0:0:0:0:
319,193,62705,1,8,0:0:0:0:
319,193,62781,1,8,0:0:0:0:
319,193,62856,1,8,0:0:0:0:
319,193,62933,5,8,0:0:0:0:
402,149,63084,1,0,3:2:0:0:
323,100,63236,1,0,3:2:0:0:
398,242,63387,1,8,0:2:0:0:
481,198,63539,1,0,3:2:0:0:
485,105,63690,1,0,3:2:0:0:
477,291,63842,1,8,0:2:0:0:
244,51,64145,5,6,0:2:0:0:
244,51,64902,1,0,3:2:0:0:
169,150,65054,1,8,0:2:0:0:
167,172,65130,1,8,0:2:0:0:
166,193,65205,1,8,0:2:0:0:
65,267,65357,5,8,0:2:0:0:
83,267,65432,1,8,0:2:0:0:
102,268,65508,1,8,0:2:0:0:
121,269,65584,1,8,0:2:0:0:
140,269,65660,1,8,0:2:0:0:
159,270,65735,1,8,0:2:0:0:
178,271,65811,1,10,0:2:0:0:
197,271,65887,1,8,0:2:0:0:
216,272,65963,6,8,L|254:273,1,31.4999990386963,10|10,0:0|0:0,0:0:0:0:
365,171,66114,2,8,L|326:172,1,31.4999990386963,10|10,0:0|0:0,0:0:0:0:
240,147,66266,2,8,L|241:178,1,31.4999990386963,10|10,0:0|0:0,0:0:0:0:
341,296,66417,2,8,L|342:264,1,31.4999990386963,10|10,0:0|0:0,0:0:0:0:
404,86,66569,5,10,0:2:0:0:
160,142,66721,1,10,0:2:0:0:
306,367,66872,1,10,0:2:0:0:
450,155,67024,1,10,0:2:0:0:
108,297,67175,1,10,0:2:0:0:
429,345,67327,1,10,0:2:0:0:
432,314,67402,1,8,0:2:0:0:
435,282,67478,1,10,0:2:0:0:
438,250,67554,1,8,0:2:0:0:
442,218,67630,1,10,0:2:0:0:
446,187,67705,1,8,0:2:0:0:
450,155,67781,1,10,0:2:0:0:
457,162,68236,1,0,3:2:0:0:
457,162,68311,1,0,3:2:0:0:
457,162,68387,6,0,P|386:163|322:167,1,135,10|0,0:2|0:2,0:2:0:0:
308,190,68690,2,0,P|237:189|173:185,1,135,10|0,0:2|0:2,0:2:0:0:
105,165,68993,6,0,P|90:103|123:1,1,161.999995056153,6|0,0:2|0:2,0:2:0:0:
186,0,69296,2,0,L|300:2,1,107.999996704102,8|0,0:2|0:2,0:2:0:0:
440,72,69599,1,0,3:2:0:0:
440,72,69751,1,0,3:2:0:0:
292,216,69902,1,10,0:2:0:0:
367,34,70054,1,2,0:2:0:0:
412,248,70205,6,0,P|412:310|409:365,1,107.999996704102,2|0,3:2|0:2,0:2:0:0:
292,216,70508,2,0,P|345:183|394:160,1,107.999996704102,10|0,0:2|3:2,0:2:0:0:
325,336,70811,2,0,P|270:305|225:274,1,107.999996704102,2|0,0:2|3:2,0:2:0:0:
64,96,71114,1,10,0:2:0:0:
48,336,71266,1,8,0:2:0:0:
241,167,71418,6,0,P|246:99|206:9,1,161.999995056153,2|0,3:2|0:2,0:2:0:0:
140,1,71721,2,0,L|33:5,1,107.999996704102,8|0,0:2|0:2,0:2:0:0:
0,192,72024,1,0,3:2:0:0:
0,192,72175,1,0,3:2:0:0:
232,280,72327,1,10,0:2:0:0:
101,77,72478,1,2,0:2:0:0:
88,319,72630,6,0,P|139:363|194:383,1,107.999996704102,2|0,3:2|0:2,0:2:0:0:
210,153,72933,2,0,P|146:175|101:212,1,107.999996704102,10|0,0:2|3:2,0:2:0:0:
292,341,73236,2,0,P|304:274|294:217,1,107.999996704102,2|0,0:2|3:2,0:2:0:0:
111,18,73539,2,0,L|230:17,1,107.999996704102,14|0,0:2|0:2,0:2:0:0:
413,28,73842,6,0,B|448:54|448:54|461:190,1,161.999995056153,6|0,0:2|0:2,0:2:0:0:
459,242,74145,2,0,L|456:366,1,107.999996704102,8|0,0:2|0:2,0:2:0:0:
288,384,74448,1,0,3:2:0:0:
288,384,74599,1,0,3:2:0:0:
256,192,74751,1,10,0:2:0:0:
368,272,74902,1,2,0:2:0:0:
176,304,75054,6,0,P|133:266|116:204,1,107.999996704102,2|0,3:2|3:2,0:2:0:0:
231,69,75357,2,0,P|219:124|174:170,1,107.999996704102,10|0,0:2|3:2,0:2:0:0:
0,138,75660,2,0,P|53:120|115:136,1,107.999996704102,2|0,0:2|3:2,0:2:0:0:
316,268,75963,1,10,0:2:0:0:
342,270,76039,1,8,0:2:0:0:
368,272,76114,1,8,0:2:0:0:
496,128,76266,6,0,L|376:131,1,107.999996704102,14|0,0:2|3:2,0:2:0:0:
371,144,76493,1,0,3:2:0:0:
354,157,76569,1,0,3:2:0:0:
216,4,76721,1,14,0:2:0:0:
337,170,76872,1,0,3:2:0:0:
353,9,77024,1,0,3:2:0:0:
426,275,77175,2,0,L|416:382,1,107.999996704102,14|0,0:2|0:2,0:2:0:0:
64,352,77478,5,14,0:2:0:0:
94,0,77630,1,14,0:2:0:0:
446,30,77781,1,14,0:2:0:0:
416,382,77933,1,14,0:2:0:0:
416,382,78236,1,0,3:2:0:0:
339,320,78387,6,0,L|274:322,1,54,14|0,0:2|0:2,0:2:0:0:
266,347,78690,6,0,L|130:343,1,135,6|0,0:2|0:2,0:2:0:0:
107,330,78993,1,10,0:2:0:0:
32,192,79145,1,2,0:2:0:0:
16,368,79296,2,0,L|10:268,1,90,2|0,3:2|3:2,0:2:0:0:
136,128,79599,2,0,L|130:217,1,90,10|0,0:2|0:2,0:2:0:0:
32,48,79902,6,0,L|121:42,1,90,2|0,3:2|0:2,0:2:0:0:
256,128,80205,1,10,0:2:0:0:
130,217,80357,2,0,L|136:128,1,90,2|0,3:2|0:2,0:2:0:0:
262,39,80660,1,2,3:2:0:0:
250,217,80811,2,0,L|244:306,1,90,10|0,0:2|0:2,0:2:0:0:
368,384,81114,5,2,3:2:0:0:
482,262,81266,1,2,0:2:0:0:
320,224,81418,1,10,0:2:0:0:
368,384,81569,1,2,0:2:0:0:
416,200,81721,1,2,3:2:0:0:
416,200,81873,1,0,3:2:0:0:
297,317,82024,2,0,L|208:320,1,90,10|0,0:2|0:2,0:2:0:0:
96,192,82327,5,2,3:2:0:0:
96,192,82478,1,0,3:2:0:0:
31,350,82630,1,8,0:2:0:0:
9,173,82781,2,0,P|8:127|9:73,1,90,2|0,0:2|3:2,0:2:0:0:
64,16,83084,1,0,3:2:0:0:
177,147,83236,1,10,0:2:0:0:
267,33,83387,2,0,L|217:35,1,45,10|8,0:2|0:2,0:2:0:0:
94,161,83539,5,2,3:2:0:0:
123,325,83690,1,2,0:2:0:0:
287,296,83841,1,10,0:2:0:0:
259,132,83993,1,2,0:2:0:0:
108,243,84145,2,0,L|7:238,1,90,2|0,3:2|3:2,0:2:0:0:
86,384,84448,2,0,L|187:379,1,90,10|0,0:2|0:2,0:2:0:0:
273,214,84751,5,2,3:2:0:0:
273,55,84902,2,0,L|378:59,1,90,2|8,0:2|0:2,0:2:0:0:
421,240,85205,1,2,0:2:0:0:
286,140,85357,2,0,L|181:144,1,90,2|0,3:2|3:2,0:2:0:0:
112,0,85660,1,10,0:2:0:0:
306,21,85811,2,0,L|299:65,1,45,8|8,0:2|0:2,0:2:0:0:
273,214,85963,5,2,3:2:0:0:
192,72,86114,1,2,0:2:0:0:
12,268,86266,1,10,0:2:0:0:
31,105,86418,1,2,0:2:0:0:
161,336,86569,2,0,L|262:334,1,90,2|0,3:2|3:2,0:2:0:0:
460,268,86872,2,0,L|358:266,1,90,10|0,0:2|0:2,0:2:0:0:
100,232,87175,6,0,L|82:88,1,135,6|0,3:2|0:2,0:2:0:0:
182,211,87478,6,0,L|176:36,1,161.999995056153,14|0,3:2|0:2,0:2:0:0:
265,197,87781,6,0,L|275:6,1,175.499991966248,14|0,3:2|0:2,0:2:0:0:
377,4,88084,6,0,L|349:191,1,188.999994232178,14|0,3:2|0:2,0:2:0:0:
344,263,88387,6,0,P|371:332|439:334,1,135,14|0,3:2|0:2,0:2:0:0:
471,284,88690,2,0,L|465:194,1,90,10|0,0:2|0:2,0:2:0:0:
256,295,88993,2,0,L|250:384,1,90,2|0,0:2|3:2,0:2:0:0:
501,273,89296,2,0,L|495:183,1,90,10|0,0:2|0:2,0:2:0:0:
280,92,89599,5,2,3:2:0:0:
430,21,89751,1,2,0:2:0:0:
415,186,89902,1,10,0:2:0:0:
334,12,90054,1,2,0:2:0:0:
320,177,90206,1,2,3:2:0:0:
327,0,90357,1,2,3:2:0:0:
470,108,90508,2,0,P|492:173|497:219,1,90,10|0,0:2|0:2,0:2:0:0:
439,331,90811,6,0,P|371:332|304:338,1,135,2|0,3:2|0:2,0:2:0:0:
282,360,91114,1,10,0:2:0:0:
74,232,91266,2,0,P|141:233|208:239,1,135,2|0,3:2|0:2,0:2:0:0:
230,262,91569,1,2,3:2:0:0:
439,133,91721,2,0,P|371:134|304:140,1,135,10|0,0:2|0:2,0:2:0:0:
243,179,92024,6,0,P|243:233|247:378,1,180,2|8,3:2|0:2,0:2:0:0:
14,217,92478,2,0,P|14:163|10:18,1,180,2|0,0:2|3:2,0:2:0:0:
0,304,92933,1,10,0:2:0:0:
172,118,93084,1,2,0:2:0:0:
247,359,93236,6,0,P|339:359|440:363,1,180,2|8,3:2|0:2,0:2:0:0:
510,225,93690,2,0,P|511:175|510:111,1,90,2|0,3:2|0:2,0:2:0:0:
384,0,93993,1,2,3:2:0:0:
261,117,94145,2,0,P|216:118|172:118,1,90,10|0,0:2|0:2,0:2:0:0:
0,0,94448,6,0,P|77:2|151:9,1,135,2|0,3:2|0:2,0:2:0:0:
163,24,94751,1,10,0:2:0:0:
278,203,94902,2,0,P|185:205|96:213,1,180,2|0,3:2|3:2,0:2:0:0:
0,352,95357,2,0,P|71:354|103:352,1,90,10|0,0:2|0:2,0:2:0:0:
333,313,95660,5,2,3:2:0:0:
160,151,95812,1,2,3:2:0:0:
206,384,95963,1,10,0:2:0:0:
305,169,96115,1,2,0:2:0:0:
97,284,96266,1,2,3:2:0:0:
97,284,96417,1,0,3:2:0:0:
333,313,96569,2,0,L|456:310,1,90,14|0,0:2|0:2,0:2:0:0:
506,134,96872,5,2,3:2:0:0:
453,51,97024,1,8,0:2:0:0:
365,227,97175,1,8,0:2:0:0:
462,222,97327,1,8,0:3:0:0:
354,58,97478,1,8,0:2:0:0:
311,146,97630,1,8,0:2:0:0:
506,134,97781,1,2,0:2:0:0:
256,64,97933,1,2,0:2:0:0:
10,138,98084,5,6,3:2:0:0:
10,138,98235,1,0,3:2:0:0:
89,378,98539,1,2,3:2:0:0:
89,378,98614,1,0,3:2:0:0:
89,378,98690,1,10,0:2:0:0:
256,288,98993,1,2,3:2:0:0:
89,378,99145,6,0,P|90:329|99:214,1,144,2|0,3:2|3:2,0:2:0:0:
160,64,99599,2,0,P|211:60|253:61,1,72,2|0,0:2|0:2,0:2:0:0:
360,202,99902,5,10,0:2:0:0:
128,149,100054,1,0,3:2:0:0:
353,75,100205,5,10,0:2:0:0:
305,306,100357,1,8,0:2:0:0:
423,302,100508,5,6,3:2:0:0:
247,145,100660,1,2,3:2:0:0:
200,376,100811,1,2,0:2:0:0:
430,309,100963,1,2,3:2:0:0:
430,309,101039,1,0,3:2:0:0:
430,309,101114,2,0,P|469:307|523:299,1,72,10|0,0:2|0:2,0:2:0:0:
415,98,101418,1,2,3:2:0:0:
242,206,101569,1,10,0:2:0:0:
491,205,101721,6,0,P|497:167|500:122,1,72,2|0,3:2|0:2,0:2:0:0:
304,46,102024,5,2,3:2:0:0:
162,54,102175,1,2,3:2:0:0:
79,174,102327,5,10,0:2:0:0:
221,184,102478,1,2,3:2:0:0:
304,304,102630,5,10,0:2:0:0:
162,314,102781,1,2,0:2:0:0:
162,54,102933,5,6,3:2:0:0:
162,54,103084,1,0,3:2:0:0:
384,32,103387,1,2,3:2:0:0:
384,32,103463,1,0,3:2:0:0:
384,32,103539,1,10,0:2:0:0:
416,192,103842,1,2,3:2:0:0:
384,32,103993,6,0,P|339:28|225:29,1,144,2|0,3:2|3:2,0:2:0:0:
83,111,104448,2,0,L|77:209,1,72,10|0,0:2|0:2,0:2:0:0:
201,325,104751,2,0,L|196:253,1,72,10|0,0:2|3:2,0:2:0:0:
170,131,104978,1,8,0:2:0:0:
164,115,105054,1,10,0:2:0:0:
288,64,105205,1,0,3:2:0:0:
312,272,105357,6,0,L|419:278,1,108,6|0,3:2|0:2,0:2:0:0:
305,260,105660,6,0,L|433:255,1,121.499996292114,8|0,0:2|0:2,0:2:0:0:
298,248,105963,6,0,L|437:230,1,135,8|0,0:2|0:2,0:2:0:0:
291,236,106266,6,0,L|442:203,1,148.50000453186,8|0,0:2|0:2,0:2:0:0:
486,119,106569,5,8,0:2:0:0:
466,114,106721,1,8,0:2:0:0:
446,109,106872,1,8,0:2:0:0:
426,104,107024,1,8,0:2:0:0:
406,99,107175,1,8,0:2:0:0:
256,224,107327,1,8,0:2:0:0:
256,192,107402,1,8,0:2:0:0:
256,160,107478,1,8,0:2:0:0:
256,128,107554,1,8,0:2:0:0:
256,96,107630,2,0,L|256:32,1,49.5000015106202,10|8,0:2|0:2,0:2:0:0:
42,39,107781,6,0,L|33:146,1,107.999996704102,6|0,3:2|0:2,0:2:0:0:
470,345,108084,2,0,L|480:225,1,107.999996704102,6|0,3:2|0:2,0:2:0:0:
33,237,108387,2,0,L|42:345,1,107.999996704102,14|0,0:2|0:2,0:2:0:0:
478,146,108690,2,0,L|470:39,1,107.999996704102,14|0,0:2|0:2,0:2:0:0:
256,384,108993,1,6,3:2:0:0:
177,329,110205,6,0,L|174:388,3,53.9999983520508,2|0|0|0,3:2|0:2|0:2|0:2,0:2:0:0:
140,170,110508,5,8,0:2:0:0:
122,157,110584,1,8,0:2:0:0:
104,144,110660,1,8,0:2:0:0:
86,131,110736,1,8,0:2:0:0:
68,118,110812,6,8,L|121:124,1,53.9999983520508,10|8,0:2|0:2,0:2:0:0:
242,243,110963,2,8,L|172:251,1,53.9999983520508,10|8,0:2|0:2,0:2:0:0:
50,105,111114,2,8,L|134:115,1,53.9999983520508,10|8,0:2|0:2,0:2:0:0:
259,255,111266,2,8,L|175:265,1,53.9999983520508,10|8,0:2|0:2,0:2:0:0:
32,92,111418,5,6,3:2:0:0:
170,0,111569,1,0,3:2:0:0:
76,254,111721,1,8,0:2:0:0:
214,162,111872,2,0,L|465:156,1,233.999989288331,0|0,3:2|3:2,0:2:0:0:
310,383,112327,2,0,L|184:380,1,116.999994644165,8|0,0:2|0:2,0:2:0:0:
6,288,112630,2,0,L|131:285,1,116.999994644165,2|0,3:2|0:2,0:2:0:0:
358,268,112933,6,0,P|376:211|364:143,1,116.999994644165,10|0,0:2|0:2,0:2:0:0:
184,54,113236,2,0,P|224:98|289:121,1,116.999994644165,2|0,3:2|3:2,0:2:0:0:
456,10,113539,2,0,P|397:22|344:67,1,116.999994644165,10|0,0:2|0:2,0:2:0:0:
175,289,113842,6,0,P|68:322|10:232,1,233.999989288331,2|8,3:2|0:2,0:2:0:0:
96,0,114296,1,2,3:2:0:0:
304,187,114448,2,0,L|312:318,1,116.999994644165,2|0,3:2|3:2,0:2:0:0:
101,232,114751,2,0,L|108:115,1,116.999994644165,8|0,0:2|0:2,0:2:0:0:
320,0,115054,6,0,P|413:18|482:159,1,233.999989288331,2|8,3:2|0:2,0:2:0:0:
448,352,115508,1,2,0:2:0:0:
256,160,115660,2,0,L|375:165,1,116.999994644165,2|0,3:2|3:2,0:2:0:0:
256,352,115963,2,0,L|137:357,1,116.999994644165,8|0,0:2|0:2,0:2:0:0:
32,128,116266,5,6,3:2:0:0:
292,250,116418,1,2,3:2:0:0:
0,265,116569,1,10,0:2:0:0:
312,232,116721,2,0,P|312:166|256:50,1,175.499991966248,2|0,3:2|0:0,0:0:0:0:
205,36,117024,1,2,3:2:0:0:
0,265,117175,2,2,L|116:258,1,116.999994644165,10|2,0:2|0:2,0:2:0:0:
320,32,117478,5,2,3:2:0:0:
352,352,117630,1,2,3:2:0:0:
496,176,117781,1,10,0:2:0:0:
176,208,117933,2,0,P|115:172|118:7,1,233.999989288331,2|2,3:2|3:2,0:2:0:0:
320,32,118387,2,0,L|333:161,1,116.999994644165,10|0,0:2|0:2,0:2:0:0:
176,368,118690,5,2,3:2:0:0:
144,48,118842,1,2,3:2:0:0:
0,224,118993,1,10,0:2:0:0:
320,192,119145,2,0,P|397:198|488:317,1,233.999989288331,2|2,3:2|3:2,0:2:0:0:
176,368,119599,2,0,L|162:238,1,116.999994644165,10|0,0:2|0:2,0:2:0:0:
288,0,119902,2,0,L|276:116,1,116.999994644165,2|0,3:2|3:2,0:2:0:0:
0,128,120205,2,0,B|59:120|59:120|132:132,1,116.999994644165,12|0,0:2|0:2,0:2:0:0:
314,308,120508,6,8,L|388:304,1,58.4999973220826,10|8,0:2|0:2,0:2:0:0:
482,155,120660,2,8,L|408:151,1,58.4999973220826,10|8,0:2|0:2,0:2:0:0:
295,324,120811,2,8,L|385:319,1,58.4999973220826,10|8,0:2|0:2,0:2:0:0:
500,138,120963,2,8,L|410:133,1,58.4999973220826,10|8,0:2|0:2,0:2:0:0:
276,341,121114,6,0,B|206:347|206:347|64:318,1,175.499991966248,6|0,3:2|0:2,0:2:0:0:
55,272,121418,1,8,0:2:0:0:
288,107,121569,2,0,L|276:341,1,233.999989288331,0|0,3:2|3:2,0:2:0:0:
55,272,122024,2,0,L|49:155,1,116.999994644165,8|0,0:2|0:2,0:2:0:0:
192,0,122327,5,2,3:2:0:0:
176,253,122478,1,0,3:2:0:0:
396,75,122630,6,0,P|449:53|507:57,1,116.999994644165,10|0,0:2|0:2,0:2:0:0:
289,160,122933,2,0,P|242:123|216:72,1,116.999994644165,2|0,3:2|3:2,0:2:0:0:
416,210,123236,2,0,P|408:267|375:315,1,116.999994644165,10|0,0:2|0:2,0:2:0:0:
96,384,123539,6,0,B|77:312|77:312|100:141,1,233.999989288331,2|8,3:2|0:2,0:2:0:0:
192,0,123993,1,0,3:2:0:0:
243,282,124145,2,0,L|477:290,1,233.999989288331,2|8,3:2|0:2,0:2:0:0:
512,80,124599,1,2,0:2:0:0:
192,0,124751,5,2,3:2:0:0:
321,258,124902,1,2,3:2:0:0:
16,192,125054,2,0,L|6:61,1,116.999994644165,14|0,0:2|0:2,0:2:0:0:
254,124,125357,5,2,3:2:0:0:
125,382,125508,1,2,3:2:0:0:
430,316,125660,1,14,0:2:0:0:
189,253,125811,1,2,0:2:0:0:
487,226,125963,6,0,B|496:160|496:160|472:42,1,175.499991966248,6|0,3:2|0:2,0:2:0:0:
427,0,126266,1,10,0:2:0:0:
290,264,126418,2,0,L|109:271,1,175.499991966248,2|0,3:2|0:2,0:2:0:0:
54,307,126721,1,2,3:2:0:0:
0,64,126872,2,0,L|175:69,1,175.499991966248,10|0,0:2|0:2,0:2:0:0:
236,106,127175,5,2,3:2:0:0:
64,384,127327,1,2,3:2:0:0:
366,261,127478,1,10,0:2:0:0:
50,183,127630,2,0,P|43:123|79:4,1,175.499991966248,2|0,3:2|0:2,0:2:0:0:
142,0,127933,1,2,3:2:0:0:
438,13,128084,2,0,P|466:95|462:183,1,175.499991966248,10|0,0:2|0:2,0:2:0:0:
416,236,128387,6,0,L|236:240,1,175.499991966248,2|0,3:2|0:2,0:2:0:0:
177,207,128690,1,10,0:2:0:0:
16,381,128842,2,0,L|191:384,1,175.499991966248,2|0,3:2|0:2,0:2:0:0:
255,352,129145,1,2,3:2:0:0:
326,150,129296,2,0,P|240:149|177:207,1,175.499991966248,14|0,0:2|0:2,0:2:0:0:
131,260,129599,6,0,L|127:77,1,175.499991966248,6|0,3:2|0:2,0:2:0:0:
170,28,129902,2,0,L|318:18,1,116.999994644165,8|0,0:2|0:2,0:2:0:0:
503,163,130205,1,8,0:2:0:0:
459,160,130280,1,8,0:2:0:0:
415,157,130356,1,8,0:2:0:0:
371,154,130432,1,8,0:2:0:0:
327,151,130508,1,10,0:2:0:0:
131,260,130660,1,2,0:2:0:0:
32,0,130811,5,6,3:2:0:0:
64,384,131114,1,2,0:2:0:0:
480,0,131418,5,6,3:2:0:0:
448,384,131721,1,2,0:2:0:0:
108,65,132024,5,14,0:2:0:0:
129,318,132175,1,2,3:2:0:0:
403,65,132327,1,10,0:2:0:0:
382,318,132478,1,2,3:2:0:0:
85,47,132630,6,0,L|92:169,1,116.999994644165,10|0,0:2|3:2,0:2:0:0:
420,163,132933,2,0,L|427:47,1,116.999994644165,10|0,0:2|3:2,0:2:0:0:
154,250,133236,5,14,0:0:0:0:
357,250,133387,1,0,3:0:0:0:
256,75,133539,1,0,3:0:0:0:
256,308,133690,5,12,0:0:0:0:
154,133,133841,1,0,3:0:0:0:
357,133,133993,1,0,3:0:0:0:
103,249,134145,5,12,0:0:0:0:
408,250,134296,1,8,0:0:0:0:
256,384,134448,5,8,0:2:0:0:
256,288,134599,1,8,0:2:0:0:
256,192,134751,1,8,0:2:0:0:
256,96,134902,1,8,0:2:0:0:
256,0,135054,5,8,0:3:0:0:
227,5,135130,1,8,0:3:0:0:
198,10,135205,1,8,0:3:0:0:
169,15,135281,1,8,0:3:0:0:
140,20,135357,5,8,0:2:0:0:
196,37,135433,1,8,0:2:0:0:
251,54,135508,1,8,0:2:0:0:
306,71,135584,1,8,0:2:0:0:
361,88,135660,6,0,P|292:46|162:116,1,233.999989288331,6|10,3:2|0:2,0:2:0:0:
173,335,136114,1,2,3:2:0:0:
269,158,136266,1,2,0:2:0:0:
72,265,136418,1,2,3:2:0:0:
277,141,136569,1,10,0:2:0:0:
164,351,136721,1,2,0:2:0:0:
285,124,136872,2,0,P|341:119|413:116,1,116.999994644165,2|0,3:2|3:2,0:2:0:0:
192,32,137175,2,0,P|136:27|64:24,1,116.999994644165,10|0,0:2|0:2,0:2:0:0:
0,224,137478,6,0,L|9:348,1,116.999994644165,2|0,3:2|3:2,0:2:0:0:
160,384,137781,1,8,0:2:0:0:
192,128,137933,1,2,0:2:0:0:
343,363,138084,6,0,P|407:370|495:290,1,175.499991966248,2|0,3:2|0:2,0:2:0:0:
506,229,138387,1,8,0:2:0:0:
288,96,138539,2,0,L|297:230,1,116.999994644165,0|0,3:2|0:2,0:2:0:0:
343,363,138842,1,2,3:2:0:0:
160,384,138993,2,0,L|169:267,1,116.999994644165,10|0,0:2|0:2,0:2:0:0:
288,96,139296,1,2,3:2:0:0:
288,96,139448,1,0,3:2:0:0:
116,3,139599,2,0,L|-2:8,1,116.999994644165,8|0,0:2|0:2,0:2:0:0:
42,287,139902,5,2,3:2:0:0:
336,176,140054,1,2,3:2:0:0:
33,93,140205,1,10,0:2:0:0:
234,342,140357,1,2,0:2:0:0:
215,25,140508,6,0,P|312:-3|461:42,1,233.999989288331,2|8,3:2|0:2,0:2:0:0:
512,224,140963,1,2,3:2:0:0:
311,88,141114,2,0,P|214:60|65:105,1,233.999989288331,2|0,0:2|3:2,0:2:0:0:
0,288,141569,1,2,0:2:0:0:
256,192,141721,1,2,3:2:0:0:
256,192,141872,1,0,3:2:0:0:
136,362,142024,2,0,L|131:223,1,116.999994644165,8|0,0:2|0:2,0:2:0:0:
191,44,142327,5,2,3:2:0:0:
426,132,142479,1,2,3:2:0:0:
183,199,142630,1,10,0:2:0:0:
344,0,142782,1,2,0:2:0:0:
329,253,142933,6,0,P|350:316|468:341,1,175.499991966248,2|0,3:2|0:2,0:2:0:0:
501,295,143236,2,0,L|503:166,1,116.999994644165,8|0,0:2|0:2,0:2:0:0:
448,0,143539,1,0,3:2:0:0:
448,0,143690,1,0,3:2:0:0:
288,160,143842,2,0,L|161:164,1,116.999994644165,10|0,0:2|0:2,0:2:0:0:
32,32,144145,1,2,3:2:0:0:
32,32,144296,1,0,3:2:0:0:
40,302,144448,5,8,0:2:0:0:
302,24,144599,1,10,0:2:0:0:
171,163,144751,1,2,3:2:0:0:
310,294,144902,1,10,0:2:0:0:
339,296,144978,1,8,0:2:0:0:
368,298,145054,1,10,0:2:0:0:
441,155,145205,1,10,0:3:0:0:
430,368,145357,6,0,B|368:379|368:379|256:364,1,175.499991966248,6|0,3:2|0:2,0:2:0:0:
192,323,145660,1,10,0:2:0:0:
236,93,145811,1,2,3:2:0:0:
448,192,145963,2,0,L|316:200,1,116.999994644165,2|0,0:2|3:2,0:2:0:0:
75,315,146266,2,0,L|192:323,1,116.999994644165,8|0,0:2|0:2,0:2:0:0:
371,286,146569,1,0,3:2:0:0:
371,286,146721,1,0,3:2:0:0:
435,24,146872,5,10,0:2:0:0:
238,99,147024,1,2,0:2:0:0:
454,12,147175,1,2,3:2:0:0:
288,177,147327,1,2,3:2:0:0:
473,0,147478,1,10,0:2:0:0:
188,21,147630,1,2,0:2:0:0:
338,255,147781,6,0,P|269:262|203:182,1,175.499991966248,2|0,3:2|0:2,0:2:0:0:
224,114,148084,1,8,0:2:0:0:
448,192,148236,2,0,L|448:324,1,116.999994644165,0|0,3:2|0:2,0:2:0:0:
256,384,148539,1,2,3:2:0:0:
32,256,148690,6,0,L|27:96,1,116.999994644165,10|0,0:2|0:2,0:2:0:0:
128,0,148993,1,0,3:2:0:0:
128,0,149145,1,0,3:2:0:0:
173,239,149296,2,0,L|305:244,1,116.999994644165,8|0,0:2|0:2,0:2:0:0:
442,55,149599,5,2,3:2:0:0:
148,166,149751,1,2,3:2:0:0:
451,249,149902,1,10,0:2:0:0:
250,0,150054,1,2,0:2:0:0:
269,317,150205,2,0,P|162:357|24:316,1,233.999989288331,2|8,3:2|0:2,0:2:0:0:
0,64,150660,1,2,3:2:0:0:
206,224,150811,2,0,P|264:232|323:226,1,116.999994644165,2|0,0:2|3:2,0:2:0:0:
512,64,151114,2,0,P|454:56|395:62,1,116.999994644165,10|0,0:2|0:2,0:2:0:0:
206,224,151418,5,2,3:2:0:0:
266,28,151569,1,2,3:2:0:0:
406,177,151721,1,10,0:2:0:0:
66,75,151872,1,10,0:2:0:0:
288,6,152024,1,2,3:2:0:0:
213,254,152175,1,2,3:2:0:0:
36,66,152327,1,10,0:2:0:0:
33,37,152402,1,8,0:2:0:0:
31,7,152478,1,10,0:2:0:0:
251,131,152630,5,14,0:2:0:0:
176,379,152781,1,0,3:2:0:0:
173,95,152933,5,14,0:2:0:0:
248,343,153084,1,0,3:2:0:0:
243,45,153236,5,14,0:2:0:0:
181,299,153387,1,0,3:2:0:0:
165,10,153539,5,14,0:2:0:0:
253,263,153690,1,0,3:2:0:0:
417,0,153842,5,14,0:2:0:0:
65,30,153994,1,14,0:2:0:0:
95,382,154145,1,14,0:2:0:0:
447,352,154297,1,14,0:2:0:0:
447,352,154599,1,0,3:2:0:0:
481,275,154751,6,0,L|479:210,1,54,14|0,0:2|0:2,0:2:0:0:
455,200,155054,6,0,L|457:61,1,135,6|0,3:2|0:2,0:2:0:0:
476,39,155357,1,10,0:2:0:0:
322,10,155508,2,0,P|260:7|134:19,1,180,2|0,3:2|3:2,0:2:0:0:
32,128,155963,2,2,L|27:223,1,90,10|0,0:2|0:2,0:2:0:0:
64,352,156266,6,0,P|122:343|216:356,1,135,2|0,3:2|0:2,0:2:0:0:
219,373,156569,1,10,0:2:0:0:
367,234,156721,2,0,P|309:225|215:238,1,135,2|0,3:2|0:2,0:2:0:0:
212,255,157024,1,2,3:2:0:0:
64,116,157175,2,0,P|122:107|216:120,1,135,10|0,0:2|0:2,0:2:0:0:
223,132,157478,6,0,P|293:149|374:118,1,135,2|0,3:2|0:2,0:2:0:0:
371,107,157781,1,10,0:2:0:0:
448,224,157933,1,2,0:2:0:0:
422,37,158084,2,0,P|374:27|324:35,1,90,2|0,3:2|3:2,0:2:0:0:
223,132,158387,1,10,0:2:0:0:
128,0,158539,1,2,0:2:0:0:
32,160,158690,6,0,L|28:271,1,90,0|0,3:2|3:2,0:2:0:0:
160,384,158993,1,8,0:2:0:0:
112,176,159145,1,8,0:2:0:0:
57,366,159296,2,0,L|168:370,1,90,2|0,3:2|3:2,0:2:0:0:
250,223,159599,1,2,0:2:0:0:
428,299,159751,2,0,L|427:255,1,45,10|8,0:2|0:2,0:2:0:0:
372,70,159902,6,0,P|428:70|469:83,1,90,2|0,3:2|0:2,0:2:0:0:
274,135,160205,2,0,P|274:78|287:37,1,90,10|0,0:2|0:2,0:2:0:0:
339,232,160508,2,0,P|282:232|241:219,1,90,2|0,3:2|3:2,0:2:0:0:
436,167,160811,2,0,P|436:224|423:265,1,90,10|0,0:2|0:2,0:2:0:0:
192,352,161114,5,2,3:2:0:0:
0,320,161266,1,2,0:2:0:0:
32,128,161418,1,10,0:2:0:0:
224,160,161569,1,2,0:2:0:0:
96,336,161721,2,0,L|-9:338,1,90,2|0,3:2|3:2,0:2:0:0:
211,260,162024,2,0,L|316:262,1,90,10|8,0:2|0:2,0:2:0:0:
395,306,162251,1,8,0:2:0:0:
410,326,162327,6,0,L|413:234,1,90,2|0,3:2|0:2,0:2:0:0:
320,64,162630,2,0,L|323:153,1,90,10|0,0:2|0:2,0:2:0:0:
256,352,162933,2,0,L|145:359,1,90,2|0,3:2|3:2,0:2:0:0:
0,276,163236,2,0,L|111:283,1,90,10|0,0:2|0:2,0:2:0:0:
40,29,163539,6,0,L|22:173,1,135,6|0,3:2|0:2,0:2:0:0:
122,50,163842,6,0,L|116:225,1,161.999995056153,14|0,3:2|0:2,0:2:0:0:
205,64,164145,6,0,L|215:255,1,175.499991966248,14|0,3:2|0:2,0:2:0:0:
317,257,164448,6,0,L|289:70,1,188.999994232178,14|0,3:2|0:2,0:2:0:0:
331,11,164751,5,6,3:2:0:0:
482,155,164902,1,2,0:2:0:0:
317,257,165054,1,10,0:2:0:0:
406,83,165205,1,2,0:2:0:0:
485,281,165357,2,0,L|480:374,1,90,2|0,3:2|3:2,0:2:0:0:
362,170,165660,2,0,L|471:177,1,90,10|0,0:2|0:2,0:2:0:0:
264,363,165963,5,2,3:2:0:0:
127,224,166114,1,2,0:2:0:0:
317,257,166266,1,10,0:2:0:0:
144,341,166418,1,2,0:2:0:0:
234,172,166569,2,0,P|239:110|239:69,1,90,2|0,3:2|3:2,0:2:0:0:
96,0,166872,2,0,P|97:44|101:89,1,90,10|0,0:2|0:2,0:2:0:0:
34,297,167175,5,2,3:2:0:0:
234,172,167327,1,2,0:2:0:0:
13,176,167478,1,10,0:2:0:0:
213,301,167630,2,0,P|305:305|377:306,1,135,2|0,3:2|0:2,0:2:0:0:
376,291,167933,1,2,3:2:0:0:
470,134,168084,2,0,P|402:135|335:138,1,135,10|0,0:2|0:2,0:2:0:0:
285,191,168387,6,0,P|291:128|285:36,1,135,2|0,3:2|0:2,0:2:0:0:
299,26,168690,2,0,P|347:28|394:30,1,90,8|0,0:2|0:2,0:2:0:0:
160,0,168993,2,0,P|112:1|65:3,1,90,2|4,3:2|3:2,0:2:0:0:
160,224,169296,1,10,0:2:0:0:
0,32,169448,1,2,0:2:0:0:
0,298,169599,6,0,P|49:294|150:303,1,135,6|0,3:2|0:2,0:2:0:0:
154,324,169902,1,10,0:2:0:0:
338,214,170054,2,0,P|248:210|160:224,1,180,2|0,3:2|3:2,0:2:0:0:
25,64,170508,2,0,P|74:60|175:69,1,135,10|0,0:2|0:2,0:2:0:0:
181,89,170811,5,2,3:2:0:0:
288,0,170963,1,0,3:2:0:0:
351,183,171114,2,0,L|404:185,1,45,10|0,0:2|0:2,0:2:0:0:
500,69,171266,2,0,P|422:60|320:94,1,180,2|0,3:2|3:2,0:2:0:0:
240,272,171721,2,0,P|197:276|145:275,1,90,10|0,0:2|0:2,0:2:0:0:
4,100,172024,5,2,3:2:0:0:
231,158,172175,1,2,3:2:0:0:
14,244,172327,1,14,0:2:0:0:
138,47,172479,1,2,0:2:0:0:
154,279,172630,1,2,3:2:0:0:
154,279,172781,1,0,3:2:0:0:
278,82,172933,2,0,L|376:77,1,90,14|0,0:2|0:2,0:2:0:0:
512,192,173236,5,2,3:2:0:0:
344,274,173387,1,8,0:2:0:0:
299,271,173462,1,8,0:2:0:0:
254,269,173538,1,8,0:3:0:0:
349,184,173690,1,8,0:3:0:0:
434,279,173842,1,8,0:3:0:0:
339,364,173993,1,8,0:3:0:0:
254,269,174145,6,0,P|194:271|173:275,1,62.9999980773926,2|8,0:2|0:2,0:2:0:0:
171,296,174372,1,8,0:2:0:0:
151,321,174448,5,6,3:2:0:0:
158,328,174902,1,2,3:2:0:0:
158,328,174978,1,0,3:2:0:0:
158,328,175054,1,10,0:2:0:0:
158,328,175357,1,2,3:2:0:0:
32,256,175508,6,0,B|19:208|19:208|41:74,1,180,6|0,3:2|3:2,0:2:0:0:
169,3,175963,2,0,L|249:2,1,72,2|0,0:2|3:2,0:2:0:0:
352,160,176266,1,10,0:2:0:0:
352,160,176418,1,0,3:2:0:0:
480,32,176569,1,10,0:2:0:0:
224,96,176721,1,8,0:2:0:0:
480,147,176872,5,6,3:2:0:0:
205,92,177024,1,2,3:2:0:0:
382,279,177175,1,2,0:2:0:0:
339,17,177327,1,2,3:2:0:0:
339,17,177402,1,0,3:2:0:0:
339,17,177478,2,0,P|285:8|241:5,1,72,10|0,0:2|0:2,0:2:0:0:
64,32,177781,1,2,3:2:0:0:
179,180,177933,1,10,0:2:0:0:
0,206,178084,5,6,3:2:0:0:
9,191,178387,1,0,3:2:0:0:
126,321,178539,1,0,3:2:0:0:
122,107,178690,1,8,0:2:0:0:
52,275,178842,1,0,3:2:0:0:
256,192,178993,1,10,0:2:0:0:
19,107,179145,1,10,0:2:0:0:
288,0,179296,5,6,3:2:0:0:
288,0,179448,1,0,3:2:0:0:
448,160,179751,1,2,3:2:0:0:
448,160,179827,1,0,3:2:0:0:
448,160,179902,1,10,0:2:0:0:
448,160,180205,1,2,3:2:0:0:
288,0,180357,6,0,P|276:43|257:156,1,144,6|0,3:2|3:2,0:2:0:0:
292,342,180811,2,0,L|384:347,1,72,10|0,0:2|3:2,0:2:0:0:
512,271,181114,2,0,L|420:276,1,72,10|0,0:2|3:2,0:2:0:0:
326,208,181342,1,8,0:2:0:0:
307,194,181418,1,10,0:2:0:0:
292,342,181569,1,0,3:2:0:0:
200,272,181721,6,0,L|93:278,1,108,6|0,3:2|0:2,0:2:0:0:
207,260,182024,6,0,L|79:255,1,121.499996292114,8|0,0:2|0:2,0:2:0:0:
214,248,182327,6,0,L|75:230,1,135,8|0,0:2|0:2,0:2:0:0:
221,236,182630,6,0,L|70:203,1,148.50000453186,8|0,0:2|0:2,0:2:0:0:
26,119,182933,5,8,0:2:0:0:
46,114,183085,1,8,0:2:0:0:
66,109,183236,1,8,0:2:0:0:
86,104,183388,1,8,0:2:0:0:
106,99,183539,1,8,0:2:0:0:
205,79,183690,1,8,0:2:0:0:
318,139,183842,1,8,0:2:0:0:
326,188,183918,1,8,0:2:0:0:
333,235,183993,1,10,0:2:0:0:
341,284,184069,1,8,0:2:0:0:
349,332,184145,5,14,0:2:0:0:
69,325,185357,6,0,L|75:205,1,99.0000030212403,12|0,0:2|3:2,0:2:0:0:
97,234,185584,1,0,3:2:0:0:
120,241,185660,1,0,3:2:0:0:
4,99,185811,1,12,0:2:0:0:
203,138,185963,1,0,3:2:0:0:
119,46,186114,1,0,3:2:0:0:
143,248,186266,5,10,0:3:0:0:
166,255,186342,1,8,0:3:0:0:
189,262,186418,1,8,0:3:0:0:
212,269,186493,1,8,0:3:0:0:
235,276,186569,5,10,0:2:0:0:
236,227,186644,1,8,0:2:0:0:
261,184,186720,1,8,0:2:0:0:
302,158,186796,1,8,0:2:0:0:
351,153,186872,1,8,0:2:0:0:
396,172,186947,1,8,0:2:0:0:
427,210,187023,1,8,0:2:0:0:
438,258,187099,1,8,0:2:0:0:
425,305,187175,6,8,L|373:309,1,49.5000015106202,10|8,0:2|0:2,0:2:0:0:
149,127,187327,2,8,L|198:130,1,49.5000015106202,10|8,0:2|0:2,0:2:0:0:
376,78,187478,2,8,L|372:127,1,49.5000015106202,10|8,0:2|0:2,0:2:0:0:
198,354,187629,2,8,L|194:302,1,49.5000015106202,10|8,0:2|0:2,0:2:0:0:
119,46,187781,5,6,3:2:0:0:
296,82,187933,1,0,3:2:0:0:
0,181,188084,1,8,0:2:0:0:
177,217,188236,2,0,L|446:223,1,233.999989288331,0|0,3:2|3:2,0:2:0:0:
512,32,188690,2,0,L|377:35,1,116.999994644165,8|0,0:2|0:2,0:2:0:0:
91,127,188993,2,0,L|225:130,1,116.999994644165,2|0,3:2|0:2,0:2:0:0:
482,110,189296,6,0,P|484:169|455:232,1,116.999994644165,10|0,0:2|0:2,0:2:0:0:
258,271,189599,2,0,P|308:238|376:233,1,116.999994644165,2|0,3:2|3:2,0:2:0:0:
509,384,189902,2,0,P|455:357|415:299,1,116.999994644165,10|0,0:2|0:2,0:2:0:0:
307,70,190205,6,0,P|260:22|81:55,1,233.999989288331,2|8,3:2|0:2,0:2:0:0:
0,256,190660,1,2,3:2:0:0:
270,187,190811,2,0,L|408:197,1,116.999994644165,2|0,3:2|3:2,0:2:0:0:
224,352,191114,2,0,L|86:362,1,116.999994644165,8|0,0:2|0:2,0:2:0:0:
32,128,191418,6,0,P|59:64|216:39,1,233.999989288331,2|8,3:2|0:2,0:2:0:0:
416,128,191872,1,2,0:2:0:0:
151,256,192024,2,0,L|147:140,1,116.999994644165,2|0,3:2|3:2,0:2:0:0:
336,0,192327,2,0,L|332:115,1,116.999994644165,8|0,0:2|0:2,0:2:0:0:
512,335,192630,6,0,P|446:311|333:333,1,175.499991966248,6|0,3:2|0:2,0:2:0:0:
289,371,192933,1,10,0:2:0:0:
92,202,193084,2,0,P|138:185|217:200,1,116.999994644165,2|0,3:2|0:2,0:2:0:0:
289,371,193387,1,2,3:2:0:0:
464,224,193539,2,0,P|472:162|467:105,1,116.999994644165,10|0,0:2|0:2,0:2:0:0:
256,0,193842,5,2,3:2:0:0:
224,320,193993,1,2,3:2:0:0:
93,31,194145,1,10,0:2:0:0:
408,63,194296,2,0,P|450:113|414:283,1,233.999989288331,2|2,3:2|3:2,0:2:0:0:
92,202,194751,1,10,0:2:0:0:
389,169,194902,1,8,0:2:0:0:
175,373,195054,5,2,3:2:0:0:
207,53,195205,1,2,3:2:0:0:
338,342,195357,1,10,0:2:0:0:
23,310,195508,2,0,P|-16:257|17:90,1,233.999989288331,2|2,3:2|3:2,0:2:0:0:
336,16,195963,2,0,L|350:146,1,116.999994644165,10|0,0:2|0:2,0:2:0:0:
224,384,196266,2,0,L|236:268,1,116.999994644165,2|0,3:2|3:2,0:2:0:0:
512,256,196569,2,0,B|453:264|453:264|380:252,1,116.999994644165,14|0,0:2|0:2,0:2:0:0:
198,76,196872,6,8,L|124:80,1,58.4999973220826,10|8,0:2|0:2,0:2:0:0:
30,229,197024,2,8,L|104:233,1,58.4999973220826,10|8,0:2|0:2,0:2:0:0:
217,60,197175,2,8,L|127:65,1,58.4999973220826,10|8,0:2|0:2,0:2:0:0:
12,246,197327,2,8,L|102:251,1,58.4999973220826,10|8,0:2|0:2,0:2:0:0:
236,43,197478,6,0,B|306:37|306:37|448:66,1,175.499991966248,6|0,3:2|0:2,0:2:0:0:
457,112,197782,1,8,0:2:0:0:
249,276,197933,2,0,L|236:43,1,233.999989288331,0|0,3:2|3:2,0:2:0:0:
416,192,198387,2,0,L|409:308,1,116.999994644165,8|0,0:2|0:2,0:2:0:0:
224,384,198690,5,2,3:2:0:0:
333,158,198842,1,0,3:2:0:0:
111,279,198993,6,0,P|58:301|0:297,1,116.999994644165,10|0,0:2|0:2,0:2:0:0:
218,194,199296,2,0,P|265:231|291:282,1,116.999994644165,2|0,3:2|3:2,0:2:0:0:
91,144,199599,2,0,P|99:87|132:39,1,116.999994644165,10|0,0:2|0:2,0:2:0:0:
384,0,199902,6,0,B|422:52|422:52|411:229,1,233.999989288331,2|8,3:2|0:2,0:2:0:0:
352,352,200357,1,0,0:2:0:0:
183,164,200508,2,0,L|310:161,1,116.999994644165,2|0,3:2|3:2,0:2:0:0:
132,38,200811,1,8,0:2:0:0:
289,320,200963,1,10,0:2:0:0:
320,0,201114,5,2,3:2:0:0:
191,258,201265,1,2,3:2:0:0:
496,192,201417,2,0,L|506:61,1,116.999994644165,14|0,0:2|0:2,0:2:0:0:
258,124,201721,5,2,3:2:0:0:
387,382,201871,1,2,3:2:0:0:
82,316,202023,1,14,0:2:0:0:
323,253,202174,1,2,0:2:0:0:
28,118,202327,6,0,B|71:90|71:90|214:97,1,175.499991966248,6|0,3:2|0:2,0:2:0:0:
258,124,202630,1,10,0:2:0:0:
485,25,202781,2,0,B|441:-2|441:-2|298:4,1,175.499991966248,2|0,3:2|0:2,0:2:0:0:
255,31,203084,1,2,3:2:0:0:
459,160,203236,2,0,L|465:302,1,116.999994644165,10|0,0:2|0:2,0:2:0:0:
249,384,203539,5,2,3:2:0:0:
77,106,203690,1,2,3:2:0:0:
379,229,203842,1,10,0:2:0:0:
63,307,203993,2,0,L|56:119,1,175.499991966248,2|0,3:2|0:2,0:2:0:0:
101,76,204296,1,2,3:2:0:0:
365,0,204448,2,0,L|372:176,1,175.499991966248,10|0,0:2|0:2,0:2:0:0:
327,232,204751,6,0,P|385:208|498:251,1,175.499991966248,2|0,3:2|0:2,0:2:0:0:
512,308,205054,1,10,0:2:0:0:
256,256,205205,2,0,P|198:232|85:275,1,175.499991966248,2|0,3:2|0:2,0:2:0:0:
64,328,205508,1,2,3:2:0:0:
288,384,205660,1,10,0:2:0:0:
224,128,205811,1,8,0:2:0:0:
57,344,205963,1,2,0:2:0:0:
50,360,206039,1,2,0:2:0:0:
43,376,206114,6,0,B|108:363|108:363|145:377|145:377|229:370,1,175.499991966248,14|0,0:2|0:2,0:2:0:0:
288,384,206418,1,0,3:2:0:0:
448,288,206569,2,0,L|456:226,1,58.4999973220826,10|0,0:2|0:2,0:2:0:0:
384,64,206721,2,0,L|391:122,1,58.4999973220826,10|0,0:2|0:2,0:2:0:0:
320,256,206872,1,2,0:2:0:0:
202,263,207024,1,2,0:2:0:0:
89,274,207175,5,2,3:2:0:0:
89,274,207327,1,0,3:2:0:0:
177,172,207478,1,2,0:2:0:0:
75,115,207630,1,0,3:2:0:0:
75,115,207705,1,0,3:2:0:0:
74,115,207781,6,0,P|38:118|2:119,1,72,10|0,0:2|0:2,0:2:0:0:
183,48,208084,2,0,P|147:45|111:44,1,72,2|8,3:2|0:2,0:2:0:0:
271,128,208387,2,0,P|235:131|199:132,1,72,2|8,3:2|0:2,0:2:0:0:
384,64,208690,2,0,P|348:61|312:60,1,72,2|0,3:2|3:2,0:2:0:0:
484,141,208993,2,0,P|448:144|412:145,1,72,10|8,0:2|0:2,0:2:0:0:
480,0,209296,1,6,3:2:0:0:
256,192,209448,1,2,0:2:0:0:
32,0,209599,5,6,3:2:0:0:
64,384,209902,1,2,0:2:0:0:
480,0,210205,5,6,3:2:0:0:
448,384,210508,1,2,0:2:0:0:
108,65,210811,5,10,0:2:0:0:
129,318,210963,1,2,3:2:0:0:
403,65,211114,1,2,3:2:0:0:
382,318,211266,1,10,0:2:0:0:
93,52,211418,6,0,L|100:174,1,116.999994644165,2|0,3:2|3:2,0:2:0:0:
135,188,211645,1,0,3:2:0:0:
170,208,211721,2,0,L|176:91,1,116.999994644165,10|0,3:2|0:2,0:2:0:0:
419,52,212024,5,14,0:2:0:0:
420,69,212327,1,8,0:2:0:0:
421,86,212630,1,8,0:2:0:0:
422,103,212933,1,8,0:2:0:0:
423,120,213236,1,8,0:2:0:0:
424,137,213539,1,8,0:2:0:0:
425,154,213842,1,8,0:2:0:0:
426,171,214145,1,8,0:2:0:0:
427,188,214448,5,8,0:0:0:0:
216,169,214599,1,8,0:0:0:0:
402,110,214751,1,8,0:0:0:0:
240,246,214902,1,8,0:0:0:0:
330,73,215054,1,8,0:0:0:0:
312,284,215205,1,8,0:0:0:0:
253,97,215357,1,8,0:0:0:0:
389,259,215508,1,8,0:0:0:0:
215,241,215660,5,10,0:2:0:0:
212,232,215735,1,8,0:2:0:0:
210,223,215811,1,8,0:2:0:0:
208,214,215887,1,8,0:2:0:0:
207,205,215963,1,8,0:2:0:0:
206,196,216038,1,8,0:2:0:0:
205,187,216114,1,8,0:2:0:0:
205,178,216190,1,8,0:2:0:0:
213,150,216266,5,10,0:3:0:0:
195,191,216342,1,8,0:3:0:0:
187,236,216417,1,8,0:3:0:0:
187,280,216493,1,8,0:3:0:0:
192,325,216569,5,6,0:3:0:0:
235,274,216644,1,6,0:3:0:0:
298,251,216720,1,6,0:3:0:0:
363,263,216796,1,6,0:3:0:0:
414,307,216872,6,0,L|499:312,1,72,6|0,3:2|3:2,0:2:0:0:
512,96,217478,1,10,0:2:0:0:
312,180,217781,2,0,L|227:185,1,72,2|0,3:2|3:2,0:2:0:0:
40,100,218387,1,2,3:2:0:0:
68,316,218690,2,0,L|153:321,1,72,10|0,0:2|0:2,0:2:0:0:
312,180,219296,6,0,L|317:95,1,72,2|0,3:2|3:2,0:2:0:0:
512,0,219902,1,10,0:2:0:0:
480,224,220205,2,0,L|484:295,1,72,2|0,3:2|0:2,0:2:0:0:
320,384,220811,1,2,3:2:0:0:
192,224,221114,2,0,L|196:152,1,72,10|0,0:2|0:2,0:2:0:0:
480,32,221721,6,0,L|408:27,1,72,6|0,3:2|3:2,0:2:0:0:
288,192,222327,1,10,0:2:0:0:
408,356,222630,2,0,L|480:352,1,72,2|0,3:2|0:2,0:2:0:0:
512,192,223236,1,2,3:2:0:0:
256,192,223539,1,10,0:2:0:0:
0,192,223842,1,2,0:2:0:0:
384,320,224145,5,2,3:2:0:0:
128,64,224448,1,2,3:2:0:0:
128,320,224751,1,10,0:2:0:0:
384,64,225054,1,2,0:2:0:0:
384,320,225357,2,0,L|471:325,1,72,0|0,3:2|3:2,0:2:0:0:
512,160,225963,5,14,0:2:0:0:
494,157,226039,1,2,0:2:0:0:
476,155,226114,1,2,0:2:0:0:
458,155,226190,1,2,0:2:0:0:
440,156,226266,1,2,0:2:0:0:
422,159,226342,1,2,0:2:0:0:
404,163,226418,1,2,0:2:0:0:
387,168,226493,1,2,0:2:0:0:
371,175,226569,6,0,L|289:172,1,72,6|0,3:2|3:2,0:2:0:0:
128,64,227175,1,10,0:2:0:0:
64,256,227478,2,0,L|145:253,1,72,2|0,3:2|0:2,0:2:0:0:
288,384,228084,1,2,3:2:0:0:
448,256,228387,2,0,L|366:253,1,72,10|0,0:2|0:2,0:2:0:0:
160,160,228993,6,0,L|165:75,1,72,2|0,3:2|3:2,0:2:0:0:
320,0,229599,1,10,0:2:0:0:
448,160,229902,2,0,L|452:231,1,72,2|0,3:2|0:2,0:2:0:0:
352,384,230508,1,2,3:2:0:0:
64,256,230811,2,0,L|145:253,1,72,14|0,0:2|0:2,0:2:0:0:
448,64,231418,6,0,L|367:61,1,72,6|0,3:2|3:2,0:2:0:0:
192,0,232024,1,10,0:2:0:0:
96,160,232327,2,0,L|177:157,1,72,2|0,3:2|0:2,0:2:0:0:
352,288,232933,1,2,3:2:0:0:
384,64,233236,1,10,0:2:0:0:
160,32,233539,1,2,0:2:0:0:
128,256,233842,6,0,L|124:327,1,72,2|0,3:2|3:2,0:2:0:0:
288,384,234448,1,10,0:2:0:0:
384,224,234751,2,0,L|380:153,1,72,2|0,3:2|3:2,0:2:0:0:
224,0,235357,2,0,L|221:49,1,36,2|0,3:2|0:2,0:2:0:0:
256,160,235660,1,10,0:2:0:0:
97,3,235811,1,8,0:2:0:0:
131,127,235963,2,0,L|133:176,1,36,2|2,0:2|0:2,0:2:0:0:
127,180,236165,1,2,0:2:0:0:
121,197,236216,1,2,0:2:0:0:
115,213,236266,6,0,L|110:291,1,72,6|0,3:2|3:2,0:2:0:0:
224,384,236872,1,10,0:2:0:0:
288,224,237175,2,0,L|283:152,1,72,2|0,3:2|0:2,0:2:0:0:
352,0,237781,1,2,3:2:0:0:
484,120,238084,2,0,L|480:192,1,72,10|0,0:2|0:2,0:2:0:0:
384,384,238690,5,2,3:2:0:0:
96,320,238993,1,2,3:2:0:0:
352,192,239296,1,10,0:2:0:0:
64,96,239599,1,2,3:2:0:0:
320,0,239902,6,0,L|391:2,1,72,2|0,0:2|3:2,0:2:0:0:
512,128,240508,2,0,L|440:130,1,72,10|0,0:2|0:2,0:2:0:0:
224,32,241114,5,6,3:2:0:0:
96,224,241418,1,2,3:2:0:0:
288,352,241721,1,10,0:2:0:0:
416,160,242024,2,0,L|487:162,1,72,2|0,3:2|0:2,0:2:0:0:
448,352,242630,1,2,3:2:0:0:
256,224,242933,1,10,0:2:0:0:
64,352,243236,1,2,0:2:0:0:
32,128,243539,6,0,L|27:56,1,72,2|0,3:2|3:2,0:2:0:0:
192,0,244145,1,10,0:2:0:0:
256,160,244448,2,0,L|251:231,1,72,2|0,3:2|0:2,0:2:0:0:
160,352,245054,6,0,L|212:354,1,36,2|0,3:2|0:2,0:2:0:0:
288,320,245357,2,0,L|340:318,1,36,14|0,0:2|0:2,0:2:0:0:
416,352,245660,1,2,0:2:0:0:
419,334,245736,1,2,0:2:0:0:
422,316,245811,1,2,0:2:0:0:
423,298,245887,1,2,0:2:0:0:
424,280,245963,6,0,L|419:208,1,72,6|0,3:2|3:2,0:2:0:0:
320,64,246569,1,10,0:2:0:0:
224,224,246872,2,0,L|219:295,1,72,2|0,3:2|0:2,0:2:0:0:
96,384,247478,1,2,3:2:0:0:
0,224,247781,2,0,L|-4:152,1,72,10|0,0:2|0:2,0:2:0:0:
128,11,248387,5,2,3:2:0:0:
191,299,248690,1,2,3:2:0:0:
320,43,248993,1,10,0:2:0:0:
416,331,249296,1,2,3:2:0:0:
512,96,249599,6,0,L|509:24,1,72,2|0,3:2|3:2,0:2:0:0:
64,0,250205,1,10,0:2:0:0:
480,192,250508,1,8,0:2:0:0:
64,384,250811,5,6,3:2:0:0:
32,96,251114,1,2,3:2:0:0:
320,64,251417,1,10,0:2:0:0:
352,352,251721,2,0,L|423:354,1,72,2|0,3:2|0:2,0:2:0:0:
512,224,252327,1,2,3:2:0:0:
512,224,252478,1,0,3:2:0:0:
288,192,252630,1,14,0:2:0:0:
427,15,252782,1,8,0:2:0:0:
400,208,252933,2,0,L|400:255,1,36,2|0,3:2|0:2,0:2:0:0:
288,352,253236,5,6,3:2:0:0:
259,355,253539,1,8,0:2:0:0:
230,358,253842,1,8,0:2:0:0:
201,361,254145,1,8,0:2:0:0:
172,365,254448,1,8,0:2:0:0:
32,224,254751,5,10,0:2:0:0:
66,227,255054,1,10,0:2:0:0:
101,231,255357,1,10,0:2:0:0:
320,128,255660,5,10,0:2:0:0:
279,132,255963,1,8,0:2:0:0:
238,136,256266,1,8,0:2:0:0:
198,140,256569,1,8,0:2:0:0:
157,146,256872,1,8,0:2:0:0:
0,32,257175,5,10,0:2:0:0:
48,36,257478,1,10,0:2:0:0:
99,42,257781,1,10,0:2:0:0:
320,0,258084,5,14,0:2:0:0:
320,0,258387,1,8,0:2:0:0:
323,35,258539,1,8,0:2:0:0:
326,70,258690,1,8,0:2:0:0:
329,105,258842,1,8,0:2:0:0:
332,140,258993,1,10,0:2:0:0:
488,180,259145,1,10,0:2:0:0:
316,219,259296,5,10,0:2:0:0:
267,270,259397,1,8,0:2:0:0:
197,279,259498,1,8,0:2:0:0:
111,237,259599,5,8,0:3:0:0:
58,243,259700,1,8,0:3:0:0:
21,282,259801,1,8,0:3:0:0:
26,380,259902,5,4,0:3:0:0:
49,381,260003,1,4,0:3:0:0:
72,382,260104,1,4,0:3:0:0:
154,343,260205,5,10,0:3:0:0:
320,384,260357,1,2,0:2:0:0:
480,224,260508,6,0,B|406:210|406:210|257:238,1,215.999993408203,6|8,3:2|0:2,0:2:0:0:
244,249,260887,1,8,0:2:0:0:
224,268,260963,1,8,0:2:0:0:
197,275,261039,1,8,0:2:0:0:
171,268,261114,1,8,0:2:0:0:
154,239,261190,1,8,0:2:0:0:
160,201,261266,1,8,0:2:0:0:
193,173,261342,1,8,0:2:0:0:
227,138,261418,1,8,0:2:0:0:
242,86,261493,1,8,0:2:0:0:
224,29,261569,1,8,0:2:0:0:
164,1,261645,1,8,0:2:0:0:
96,0,261721,5,14,0:2:0:0:
256,384,261872,1,14,0:2:0:0:
416,0,262024,1,14,0:2:0:0:
208,284,262933,5,6,3:2:0:0:
56,384,263084,1,0,3:2:0:0:
159,105,263236,1,8,0:2:0:0:
6,205,263387,2,0,L|251:200,1,233.999989288331,0|0,3:2|3:2,0:2:0:0:
353,15,263842,2,0,L|230:12,1,116.999994644165,8|0,0:2|0:2,0:2:0:0:
383,226,264145,2,0,L|505:223,1,116.999994644165,2|0,3:2|0:2,0:2:0:0:
141,383,264448,6,0,P|123:329|126:271,1,116.999994644165,10|0,0:2|0:2,0:2:0:0:
332,148,264751,2,0,P|295:191|242:217,1,116.999994644165,2|0,3:2|3:2,0:2:0:0:
33,100,265054,2,0,P|91:109|139:141,1,116.999994644165,10|0,0:2|0:2,0:2:0:0:
320,352,265357,6,0,P|403:365|505:266,1,233.999989288331,2|8,3:2|0:2,0:2:0:0:
512,32,265811,1,2,3:2:0:0:
358,220,265963,2,0,L|239:217,1,116.999994644165,2|0,3:2|3:2,0:2:0:0:
0,96,266266,2,0,L|119:93,1,116.999994644165,8|0,0:2|0:2,0:2:0:0:
370,32,266569,6,0,P|422:81|435:249,1,233.999989288331,2|8,3:2|0:2,0:2:0:0:
256,384,267024,1,2,0:2:0:0:
243,123,267175,2,0,L|255:6,1,116.999994644165,2|0,3:2|3:2,0:2:0:0:
480,0,267478,1,8,0:2:0:0:
320,224,267630,1,8,0:2:0:0:
261,225,267705,1,8,0:2:0:0:
203,226,267781,5,6,3:2:0:0:
480,160,267933,1,2,3:2:0:0:
224,64,268084,1,10,0:2:0:0:
230,379,268236,2,0,P|134:382|32:366,1,175.499991966248,2|0,3:2|0:2,0:2:0:0:
0,328,268539,1,2,3:2:0:0:
0,116,268690,2,0,L|13:-6,1,116.999994644165,10|0,0:2|0:2,0:2:0:0:
352,0,268993,5,2,3:2:0:0:
288,336,269145,1,2,3:2:0:0:
158,21,269296,1,10,0:2:0:0:
510,85,269448,2,0,P|514:204|464:320,1,233.999989288331,2|2,3:2|3:2,0:2:0:0:
222,336,269902,1,10,0:2:0:0:
410,59,270054,1,8,0:2:0:0:
215,353,270205,5,2,3:2:0:0:
96,32,270357,1,2,0:2:0:0:
362,197,270508,1,10,0:2:0:0:
0,85,270660,2,0,P|-4:204|46:320,1,233.999989288331,2|2,3:2|3:2,0:2:0:0:
313,384,271115,2,0,L|327:254,1,116.999994644165,10|0,0:2|0:2,0:2:0:0:
201,16,271418,2,0,L|213:132,1,116.999994644165,2|0,3:2|3:2,0:2:0:0:
489,144,271721,1,14,0:2:0:0:
431,136,271796,1,8,0:2:0:0:
373,145,271872,1,8,0:2:0:0:
186,307,272024,6,8,L|112:303,1,58.4999973220826,10|8,0:2|0:2,0:2:0:0:
18,128,272176,2,8,L|92:124,1,58.4999973220826,10|8,0:2|0:2,0:2:0:0:
205,323,272327,2,8,L|115:318,1,58.4999973220826,10|8,0:2|0:2,0:2:0:0:
0,111,272479,2,8,L|90:106,1,58.4999973220826,10|8,0:2|0:2,0:2:0:0:
224,340,272630,6,0,B|294:346|294:346|436:317,1,175.499991966248,6|0,3:2|0:2,0:2:0:0:
445,271,272934,1,8,0:2:0:0:
302,34,273084,2,0,L|290:268,1,233.999989288331,0|0,3:2|3:2,0:2:0:0:
96,384,273539,2,0,L|90:267,1,116.999994644165,8|0,0:2|0:2,0:2:0:0:
0,64,273842,5,2,3:2:0:0:
192,192,273993,1,0,3:2:0:0:
401,39,274145,6,0,P|458:15|521:19,1,116.999994644165,10|0,0:2|0:2,0:2:0:0:
285,130,274448,2,0,P|234:89|206:34,1,116.999994644165,2|0,3:2|3:2,0:2:0:0:
422,185,274751,2,0,P|413:246|377:298,1,116.999994644165,10|0,0:2|0:2,0:2:0:0:
96,384,275054,6,0,B|60:331|60:331|71:130,1,233.999989288331,2|8,3:2|0:2,0:2:0:0:
128,0,275508,1,0,3:2:0:0:
248,235,275660,2,0,L|481:226,1,233.999989288331,2|8,3:2|0:2,0:2:0:0:
512,32,276115,1,2,0:2:0:0:
224,0,276266,5,2,3:2:0:0:
365,283,276417,1,2,3:2:0:0:
30,211,276569,2,0,L|19:66,1,116.999994644165,14|0,0:2|0:2,0:2:0:0:
296,99,276872,5,2,3:2:0:0:
154,382,277023,1,2,3:2:0:0:
489,310,277175,1,14,0:2:0:0:
192,224,277326,1,2,0:2:0:0:
512,76,277478,6,0,B|465:41|465:41|346:51,1,175.499991966248,6|0,3:2|0:2,0:2:0:0:
296,99,277781,1,10,0:2:0:0:
27,25,277933,2,0,B|74:-10|74:-10|193:0,1,175.499991966248,2|0,3:2|0:2,0:2:0:0:
243,48,278236,1,2,3:2:0:0:
160,320,278387,1,10,0:2:0:0:
99,63,278539,1,8,0:2:0:0:
384,160,278690,5,2,3:2:0:0:
9,235,278842,1,2,3:2:0:0:
393,145,278993,1,10,0:2:0:0:
0,250,279145,2,0,P|10:309|126:359,1,175.499991966248,2|0,3:2|0:2,0:2:0:0:
172,344,279448,1,2,3:2:0:0:
305,118,279599,2,0,P|353:69|472:90,1,175.499991966248,10|0,0:2|0:2,0:2:0:0:
488,136,279902,6,0,L|494:319,1,175.499991966248,2|0,3:2|0:2,0:2:0:0:
474,379,280205,1,10,0:2:0:0:
274,217,280357,2,0,P|214:182|105:233,1,175.499991966248,2|0,3:2|0:2,0:2:0:0:
87,276,280660,1,2,3:2:0:0:
272,384,280811,1,14,0:2:0:0:
340,161,280963,1,8,0:2:0:0:
345,114,281039,1,8,0:2:0:0:
351,67,281115,5,14,0:2:0:0:
205,5,281266,1,0,3:2:0:0:
175,4,281342,1,0,3:2:0:0:
145,3,281418,1,0,3:2:0:0:
0,64,281569,1,0,3:2:0:0:
45,239,281721,5,8,0:2:0:0:
94,269,281796,1,8,0:2:0:0:
151,280,281872,1,8,0:2:0:0:
209,272,281948,1,8,0:2:0:0:
260,244,282024,2,0,L|325:243,1,58.4999973220826,10|8,0:3|0:3,0:2:0:0:
391,323,282175,2,0,L|455:324,1,58.4999973220826,10|8,0:3|0:3,0:2:0:0:
512,128,282327,6,0,L|515:48,1,72,6|0,3:2|3:2,0:2:0:0:
384,0,282630,2,0,L|387:71,1,72,2|0,0:2|3:2,0:2:0:0:
256,128,282933,2,0,L|259:56,1,72,10|0,0:2|0:2,0:2:0:0:
128,0,283236,2,0,L|131:71,1,72,2|8,3:2|0:2,0:2:0:0:
112,110,283463,1,8,0:2:0:0:
93,148,283539,5,10,0:2:0:0:
0,0,283690,1,8,0:2:0:0:
74,186,283842,2,0,L|70:257,1,72,2|0,3:2|3:2,0:2:0:0:
79,277,284069,1,0,3:2:0:0:
88,296,284145,1,10,0:2:0:0:
224,352,284296,1,0,3:2:0:0:
288,192,284448,1,10,0:2:0:0:
290,163,284524,1,8,0:2:0:0:
292,134,284599,2,0,L|287:71,1,36,10|8,0:3|0:3,0:2:0:0:
32,0,284751,5,6,3:2:0:0:
64,384,285054,1,2,0:2:0:0:
480,0,285357,5,6,3:2:0:0:
448,384,285660,1,2,0:2:0:0:
76,38,285963,5,14,0:2:0:0:
102,345,286115,1,2,3:2:0:0:
435,38,286266,1,10,0:2:0:0:
409,345,286418,1,10,0:2:0:0:
256,96,286569,5,10,0:3:0:0:
208,103,286645,1,8,0:3:0:0:
161,111,286721,1,8,0:3:0:0:
114,118,286796,1,8,0:3:0:0:
67,126,286872,5,10,0:2:0:0:
139,137,286948,1,8,0:2:0:0:
210,148,287024,1,10,0:2:0:0:
282,159,287099,1,8,0:2:0:0:
353,171,287175,5,14,0:2:0:0:
71,305,288387,6,8,L|73:273,1,22.5,8|8,0:2|0:2,0:2:0:0:
84,145,288539,1,0,3:2:0:0:
216,248,288690,1,0,3:2:0:0:
203,88,288842,2,8,L|201:65,1,22.5,8|8,0:2|0:2,0:2:0:0:
361,191,288993,1,0,0:2:0:0:
480,112,289145,1,0,3:2:0:0:
480,112,289221,1,0,3:2:0:0:
480,112,289296,2,0,L|488:212,1,90,8|0,0:2|3:2,0:2:0:0:
448,352,289599,5,14,0:2:0:0:
419,364,289902,1,8,0:2:0:0:
361,368,290205,1,8,0:2:0:0:
273,346,290508,1,8,0:2:0:0:
214,247,290811,1,8,0:2:0:0:
202,117,291114,1,8,0:2:0:0:
344,0,291418,5,8,0:2:0:0:
426,145,291569,1,8,0:2:0:0:
275,76,291721,1,8,0:2:0:0:
438,44,291872,1,8,0:2:0:0:
325,166,292024,5,10,0:2:0:0:
320,224,292125,1,8,0:2:0:0:
316,283,292226,1,8,0:2:0:0:
240,269,292327,5,8,0:2:0:0:
237,222,292428,1,8,0:2:0:0:
233,176,292529,1,8,0:2:0:0:
157,185,292630,5,8,0:3:0:0:
154,222,292731,1,8,0:3:0:0:
151,259,292832,1,8,0:3:0:0:
71,256,292933,5,4,0:3:0:0:
68,226,293034,1,4,0:3:0:0:
66,196,293135,1,4,0:3:0:0:
53,103,293236,6,0,P|88:42|307:72,1,315,6|0,3:2|0:2,0:2:0:0:
468,200,293842,2,0,P|433:139|214:169,1,315,6|0,3:2|0:2,0:2:0:0:
53,297,294448,5,6,3:2:0:0:
256,192,294524,12,0,298084,0:2:0:0:
48,115,298387,6,0,L|43:80,2,30,0|0|0,0:2|0:2|0:2,0:2:0:0:
48,115,298690,1,8,0:2:0:0:
167,60,298993,6,0,L|172:25,2,30,0|0|0,0:2|0:2|0:2,0:2:0:0:
167,60,299296,1,8,0:2:0:0:
345,60,299599,6,0,L|340:30,2,30,0|0|0,0:2|0:2|0:2,0:2:0:0:
345,60,299902,1,8,0:2:0:0:
464,115,300205,6,0,L|468:85,2,30,0|0|0,0:2|0:2|0:2,0:2:0:0:
464,115,300508,1,8,0:2:0:0:
464,269,300811,6,0,L|468:298,2,30,0|0|0,0:2|0:2|0:2,0:2:0:0:
464,269,301114,1,8,0:2:0:0:
345,324,301417,6,0,L|340:353,2,30,0|0|0,0:2|0:2|0:2,0:2:0:0:
345,324,301720,1,8,0:2:0:0:
167,324,302023,6,0,L|171:353,2,30,0|0|0,0:2|0:2|0:2,0:2:0:0:
167,324,302326,1,8,0:2:0:0:
48,269,302629,6,0,L|43:298,2,30,0|0|0,0:2|0:2|0:2,0:2:0:0:
48,269,302932,1,8,0:2:0:0:
48,115,303236,6,0,L|41:68,2,45.0000017166138,0|0|0,0:2|0:2|0:2,0:2:0:0:
126,76,303539,2,0,L|123:29,2,45.0000017166138,8|0|0,0:2|0:2|0:2,0:2:0:0:
206,44,303842,2,0,L|207:-2,2,45.0000017166138,0|0|0,0:2|0:2|0:2,0:2:0:0:
206,44,304145,1,8,0:2:0:0:
464,115,304448,6,0,L|470:68,2,45.0000017166138,0|0|0,0:2|0:2|0:2,0:2:0:0:
464,115,304751,1,8,0:2:0:0:
346,61,305054,6,0,L|339:14,2,45.0000017166138,0|0|0,0:2|0:2|0:2,0:2:0:0:
346,61,305357,1,8,0:2:0:0:
166,61,305660,6,0,L|172:14,2,45.0000017166138,0|0|0,0:2|0:2|0:2,0:2:0:0:
166,61,305963,1,8,0:2:0:0:
48,115,306266,6,0,L|41:68,2,45.0000017166138,0|0|0,0:2|0:2|0:2,0:2:0:0:
44,277,306569,5,12,0:2:0:0:
