osu file format v14

[General]
AudioFilename: audio.mp3
AudioLeadIn: 0
PreviewTime: 20390
Countdown: 0
SampleSet: Soft
StackLeniency: 0.6
Mode: 0
LetterboxInBreaks: 0
WidescreenStoryboard: 0

[Editor]
DistanceSpacing: 1.2
BeatDivisor: 4
GridSize: 8
TimelineZoom: 3.199999

[Metadata]
Title:Arakajime Ushinawareta Bokura No Ballad
TitleUnicode:Arakajime Ushinawareta Bokura No Ballad
Artist:Earphones
ArtistUnicode:Earphones
Creator:[ Faust ]
Version:Nightmare
Source:Mary Skelter: Nightmares
Tags:Earphones arakajime ushinawareta bokura no ballad
BeatmapID:1419063
BeatmapSetID:671093

[Difficulty]
HPDrainRate:5
CircleSize:4
OverallDifficulty:8
ApproachRate:9.8
SliderMultiplier:2.21999990463256
SliderTickRate:1

[Events]
//Background and Video events
0,0,"BG.jpg",0,0
//Break Periods
//Storyboard Layer 0 (Background)
//Storyboard Layer 1 (Fail)
//Storyboard Layer 2 (Pass)
//Storyboard Layer 3 (Foreground)
//Storyboard Sound Samples

[TimingPoints]
1600,606.060606060606,4,2,0,75,1,0
1600,-200,4,2,0,75,0,0
2509,-133.333333333333,4,2,0,75,0,0
5235,-100,4,2,0,75,0,0
5993,-133.333333333333,4,2,0,75,0,0
8872,-66.6666666666667,4,2,0,75,0,0
9933,-100,4,2,0,75,0,0
11300,303.030303030303,4,2,0,100,1,0
11300,-200,4,2,0,100,0,0
12057,-100,4,2,0,100,0,0
13724,-200,4,2,0,100,0,0
14481,-100,4,2,0,100,0,0
16148,-200,4,2,0,100,0,0
17057,-100,4,2,0,100,0,0
53724,-100,4,2,0,100,0,1
71906,-100,4,2,0,100,0,0

[Colours]
Combo1 : 255,0,210
Combo2 : 204,0,255

[HitObjects]
144,160,1600,22,0,P|218:168|328:192,1,166.499992847442
424,248,2812,2,0,P|392:200|368:176,1,83.2499995994565
384,95,3418,2,0,P|337:61|306:47,1,83.2499995994565
200,48,4024,6,0,P|136:96|80:152,1,145.687499299049
48,232,4781,1,0,0:0:0:0:
64,224,4856,1,0,0:0:0:0:
80,217,4932,1,0,0:0:0:0:
97,211,5008,1,0,0:0:0:0:
114,207,5084,1,0,0:0:0:0:
132,203,5159,1,0,0:0:0:0:
150,201,5236,2,0,L|128:136,2,55.499997615814
176,288,5690,22,0,L|120:328,2,55.499997615814
248,240,6145,1,0,0:0:0:0:
434,111,6448,6,0,P|384:120|264:152,1,166.499999198913
144,192,7357,1,0,0:0:0:0:
164,191,7432,1,0,0:0:0:0:
184,196,7508,1,0,0:0:0:0:
304,248,7812,5,0,0:0:0:0:
323,254,7887,1,0,0:0:0:0:
344,257,7963,1,0,0:0:0:0:
364,256,8039,1,0,0:0:0:0:
385,251,8115,1,0,0:0:0:0:
403,242,8190,5,0,0:0:0:0:
420,230,8266,1,0,0:0:0:0:
434,215,8342,1,0,0:0:0:0:
445,197,8418,1,0,0:0:0:0:
453,178,8493,1,0,0:0:0:0:
456,157,8569,5,0,0:0:0:0:
456,136,8645,1,0,0:0:0:0:
451,116,8721,1,0,0:0:0:0:
443,97,8796,1,0,0:0:0:0:
432,80,8872,6,0,P|392:72|352:32,1,83.2499995994565
151,45,9175,2,0,P|143:85|103:125,1,83.2499995994565
116,325,9478,2,0,P|156:333|196:373,1,83.2499995994565
396,359,9781,2,0,P|404:319|444:279,1,83.2499995994565
432,80,10084,1,0,0:0:0:0:
128,120,10690,5,0,0:0:0:0:
384,120,10993,1,0,0:0:0:0:
256,336,11300,2,0,P|208:208|312:104,1,277.49998807907
424,144,12209,1,0,0:0:0:0:
320,240,12360,1,0,0:0:0:0:
192,288,12512,2,0,P|136:256|96:208,1,110.999995231628
320,288,12815,2,0,P|376:256|416:208,1,110.999995231628
222,264,13118,2,0,P|175:218|148:161,1,110.999995231628
282,264,13421,2,0,P|327:218|354:161,1,110.999995231628
360,24,13724,6,0,P|248:80|168:208,1,277.49998807907
200,336,14633,1,0,0:0:0:0:
312,272,14784,1,0,0:0:0:0:
368,152,14936,2,0,P|320:104|312:24,1,110.999995231628
174,63,15239,2,0,P|126:111|46:119,1,110.999995231628
85,256,15542,2,0,P|133:304|141:384,1,110.999995231628
278,344,15845,2,0,P|326:296|406:288,1,110.999995231628
366,150,16148,6,0,P|296:104|128:240,1,332.999985694884
216,336,17209,1,0,0:0:0:0:
336,288,17360,2,0,P|352:224|416:192,1,110.999995231628
385,64,17663,2,0,P|321:48|289:-16,1,110.999995231628
162,5,17966,2,0,P|146:69|82:101,1,110.999995231628
112,228,18269,2,0,P|176:244|208:308,1,110.999995231628
