osu file format v14

[General]
AudioFilename: audio.mp3
AudioLeadIn: 0
PreviewTime: 89224
Countdown: 0
SampleSet: Soft
StackLeniency: 0.7
Mode: 0
LetterboxInBreaks: 0
WidescreenStoryboard: 1

[Editor]
Bookmarks: 32044,46480,60916,75352,104224,118660,133096,147532,160164,167382,181818,196254,210690,219713
DistanceSpacing: 0.5
BeatDivisor: 8
GridSize: 32
TimelineZoom: 2.600001

[Metadata]
Title:Marigolds
TitleUnicode:Marigolds
Artist:Early Eyes
ArtistUnicode:Early Eyes
Creator:wafer
Version:Normal
Source:
Tags:english bedroom pop indie goopert kami no kotoba gigarobloxian21 hhjkl hypercyte xandeez nuts [poke] wetdog123 cirnop alternative
BeatmapID:3351752
BeatmapSetID:1638064

[Difficulty]
HPDrainRate:3
CircleSize:3
OverallDifficulty:4
ApproachRate:5.5
SliderMultiplier:1.1
SliderTickRate:1

[Events]
//Background and Video events
0,0,"terriell-scrimager-8VBP8XuG1AI-unsplash.jpg",0,0
//Break Periods
2,75565,79565
2,147727,158964
//Storyboard Layer 0 (Background)
//Storyboard Layer 1 (Fail)
//Storyboard Layer 2 (Pass)
//Storyboard Layer 3 (Foreground)
//Storyboard Layer 4 (Overlay)
//Storyboard Sound Samples

[TimingPoints]
471,566.037735849057,4,2,1,30,1,0
612,477.707006369427,4,2,1,30,1,0
2522,582.52427184466,4,2,1,30,1,0
2667,528.63436123348,4,2,1,30,1,0
3459,517.241379310345,4,2,1,30,1,0
4234,540.540540540541,4,2,1,30,1,0
4774,508.474576271186,4,2,1,30,1,0
5790,476.190476190476,4,2,1,30,1,0
6147,550.45871559633,4,2,1,30,1,0
6559,631.578947368421,4,2,1,30,1,0
6874,428.571428571429,4,2,1,30,1,0
6927,493.827160493827,4,2,1,30,1,0
7914,545.454545454546,4,2,1,30,1,0
8323,441.176470588235,4,2,1,30,1,0
8653,472.44094488189,4,2,1,30,1,0
9007,571.428571428571,4,2,1,30,1,0
10435,428.571428571429,4,2,1,30,1,0
10488,534.283170080142,4,2,1,30,1,0
11022,512.820512820513,4,2,1,30,1,0
12560,560.747663551402,4,2,1,30,1,0
13120,431.654676258993,4,2,1,30,1,0
13173,512.820512820513,4,2,1,30,1,0
14198,444.444444444444,4,2,1,30,1,0
14531,528.63436123348,4,2,1,30,1,0
15059,530.973451327434,4,2,1,30,1,0
17182,600,4,2,1,30,1,0
17332,461.538461538462,4,2,1,30,1,0
18024,432.432432432432,4,2,1,30,1,0
18672,468.75,4,2,1,30,1,0
19140,454.545454545455,4,2,1,30,1,0
19821,434.782608695652,4,2,1,30,1,0
20473,484.848484848485,4,2,1,30,1,0
20957,478.08764940239,4,2,1,30,1,0
22152,428.571428571429,4,2,1,30,1,0
22580,470.588235294118,4,2,1,30,1,0
23756,428.571428571429,4,2,1,30,1,0
24398,576.923076923077,4,2,1,30,1,0
24686,451.127819548872,4,2,1,30,1,0
25362,453.857791225416,4,2,1,30,1,0
26496,451.807228915663,4,2,1,30,1,0
27399,476.190476190476,4,2,1,30,1,0
27875,468.75,4,2,1,30,1,0
28343,495.867768595041,4,2,1,30,1,0
28838,582.52427184466,4,2,1,30,1,0
29274,476.190476190476,4,2,1,30,1,0
29512,434.782608695652,4,2,1,30,1,0
29946,476.190476190476,4,2,1,30,1,0
31612,432.588320115357,4,2,1,30,1,0
32044,451.127819548872,4,2,1,50,1,0
32156,-100,4,2,1,60,0,0
37908,447.761194029851,4,2,1,60,1,0
39363,497.92531120332,4,2,1,60,1,0
39487,451.127819548872,4,2,1,60,1,0
39712,451.127819548872,4,2,1,60,1,0
41065,451.127819548872,4,2,1,60,1,0
44901,-100,4,2,1,40,0,0
46478,-111.111111111111,4,2,1,50,0,0
49185,437.956204379562,4,2,1,50,1,0
49185,-111.111111111111,4,2,1,50,0,0
49622,465.116279069767,4,2,1,50,1,0
50087,451.127819548872,4,2,1,50,1,0
50087,-111.111111111111,4,2,1,50,0,0
56628,431.654676258993,4,2,1,50,1,0
56628,-111.111111111111,4,2,1,50,0,0
56843,462.60601387818,4,2,1,50,1,0
57305,451.127819548872,4,2,1,45,1,0
57305,-111.111111111111,4,2,1,45,0,0
60914,-100,4,2,1,60,0,0
63620,441.176470588235,4,2,1,60,1,0
64061,462.42774566474,4,2,1,60,1,0
64523,450.619601952685,4,2,1,60,1,0
68127,452.830188679245,4,2,1,60,1,0
68127,-111.111111111111,4,2,1,60,0,0
69032,441.176470588235,4,2,1,60,1,0
69032,-111.111111111111,4,2,1,60,0,0
69473,463.320463320463,4,2,1,60,1,0
69936,451.127819548872,4,2,1,60,1,0
69936,-111.111111111111,4,2,1,60,0,0
71740,452.830188679245,4,2,1,45,1,0
71740,-111.111111111111,4,2,1,45,0,0
73551,458.015267175573,4,2,1,45,1,0
74467,442.80442804428,4,2,1,45,1,0
75131,468.75,4,2,1,45,1,0
75352,-111.111111111111,4,2,1,40,0,0
75365,458.015267175573,4,2,1,40,1,0
75823,451.127819548872,4,2,1,40,1,0
77176,448.681996634885,4,2,1,40,1,0
80765,451.127819548872,4,2,1,45,1,0
80765,-111.111111111111,4,2,1,45,0,0
81668,-111.111111111111,4,2,1,50,0,0
82569,-90.9090909090908,4,2,1,70,0,0
88885,441.176470588235,4,2,1,70,1,0
89326,461.538461538462,4,2,1,70,1,0
89326,-90.9090909090909,4,2,1,70,0,0
89787,451.127819548872,4,2,1,70,1,0
89787,-90.9090909090909,4,2,1,70,0,0
102418,455.235204855842,4,2,1,70,1,0
102418,-90.9090909090909,4,2,1,70,0,0
103773,-90.9090909090908,4,2,1,40,0,0
103783,440.528634361234,4,2,1,40,1,0
104223,451.127819548872,4,2,1,50,1,0
104223,-100,4,2,1,50,0,0
110989,441.176470588235,4,2,1,50,1,0
111540,504.201680672269,4,2,1,50,1,0
111666,451.127819548872,4,2,1,50,1,0
111891,451.127819548872,4,2,1,50,1,0
113244,451.127819548872,4,2,1,50,1,0
117532,-100,4,2,1,40,0,0
118660,-111.111111111111,4,2,1,50,0,0
123619,472.44094488189,4,2,1,50,1,0
124091,431.654676258993,4,2,1,50,1,0
124091,-111.111111111111,4,2,1,50,0,0
124522,451.127819548872,4,2,1,50,1,0
125875,452.830188679245,4,2,1,50,1,0
125875,-111.111111111111,4,2,1,50,0,0
127686,450.281425891182,4,2,1,50,1,0
127686,-111.111111111111,4,2,1,50,0,0
129487,451.127819548872,4,2,1,50,1,0
129712,-111.111111111111,4,2,1,50,0,0
132193,422.535211267606,4,2,1,50,1,0
132615,437.956204379562,4,2,1,50,1,0
133052,468.75,4,2,1,60,1,0
133096,-100,4,2,1,60,0,0
133403,566.037735849057,4,2,1,60,1,0
133544,451.127819548872,4,2,1,60,1,0
134897,451.127819548872,4,2,1,60,1,0
140310,-111.111111111111,4,2,1,60,0,0
143918,-111.111111111111,4,2,1,45,0,0
145723,-111.111111111111,4,2,1,50,0,0
146626,437.956204379562,4,2,1,50,1,0
146626,-111.111111111111,4,2,1,50,0,0
147392,545.454545454546,4,2,1,50,1,0
147528,458.015267175573,4,2,1,40,1,0
147532,-111.111111111111,4,2,1,40,0,0
150276,483.870967741935,4,2,1,40,1,0
151243,405.405405405405,4,2,1,40,1,0
152053,454.545454545455,4,2,1,40,1,0
152962,441.501103752759,4,2,1,40,1,0
154286,458.015267175573,4,2,1,40,1,0
154744,451.127819548872,4,2,1,40,1,0
160157,457.317073170732,4,2,1,45,1,0
160164,-111.111111111111,4,2,1,45,0,0
161528,437.158469945355,4,2,1,45,1,0
161965,451.127819548872,4,2,1,50,1,0
161965,-111.111111111111,4,2,1,50,0,0
163769,455.407969639469,4,2,1,55,1,0
163769,-100,4,2,1,55,0,0
164675,-100,4,2,1,57,0,0
165135,451.127819548872,4,2,1,58,1,0
165135,-100,4,2,1,58,0,0
165577,-100,4,2,1,60,0,0
165586,447.761194029851,4,2,1,60,1,0
166028,-100,4,2,1,63,0,0
166480,-100,4,2,1,66,0,0
166931,-100,4,2,1,68,0,0
167377,476.190476190476,4,2,1,50,1,0
167382,-90.9090909090908,4,2,1,50,0,0
167853,439.56043956044,4,2,1,50,1,0
168292,452.830188679245,4,2,1,50,1,0
169197,437.956204379562,4,2,1,50,1,0
169634,454.545454545455,4,2,1,50,1,0
170997,449.438202247191,4,2,1,50,1,0
173693,451.127819548872,4,2,1,50,1,0
173693,-90.9090909090909,4,2,1,50,0,0
174595,451.127819548872,4,2,1,70,1,0
174595,-90.9090909090909,4,2,1,50,0,0
174600,-90.9090909090908,4,2,1,70,0,0
180008,447.761194029851,4,2,1,70,1,0
180008,-90.9090909090909,4,2,1,50,0,0
180903,428.571428571429,4,2,1,70,1,0
181117,461.538461538462,4,2,1,70,1,0
181347,437.956204379562,4,2,1,70,1,0
181347,-90.9090909090909,4,2,1,50,0,0
181784,483.870967741935,4,2,1,70,1,0
181784,-90.9090909090909,4,2,1,50,0,0
182267,451.127819548872,4,2,1,70,1,0
182267,-90.9090909090909,4,2,1,50,0,0
183619,-90.9090909090909,4,2,1,50,0,0
183620,451.127819548872,4,2,1,70,1,0
183620,-90.9090909090909,4,2,1,70,0,0
193544,-90.9090909090908,4,2,1,72,0,0
194447,453.686200378072,4,2,1,75,1,0
194447,-90.9090909090908,4,2,1,75,0,0
195354,448.765893792072,4,2,1,75,1,0
195802,-90.9090909090908,4,2,1,80,0,0
196251,451.127819548872,4,2,1,90,1,0
196251,-86.9565217391304,4,2,1,90,0,0
207529,454.545454545455,4,2,1,90,1,0
207529,-86.9565217391304,4,2,1,90,0,0
208438,451.127819548872,4,2,1,90,1,0
208889,451.127819548872,4,2,1,90,1,0
208889,-86.9565217391304,4,2,1,90,0,0
210690,-100,4,2,1,70,0,0
211367,-100,4,2,1,65,0,0
212269,-100,4,2,1,50,0,0
213397,-100,4,2,1,40,0,0
214299,-100,4,2,1,30,0,0
215201,-100,4,2,1,20,0,0
216104,-100,4,2,1,10,0,0
217457,-100,4,2,1,5,0,0
219713,-100,4,2,1,5,0,0

[Colours]
Combo1 : 174,196,142
Combo2 : 234,213,94
Combo3 : 136,188,118
Combo4 : 218,167,48

[HitObjects]
110,60,32044,6,0,P|159:67|177:113,2,82.5,4|2|2,1:0|0:0|0:0,0:0:0:0:
23,144,33171,1,2,0:0:0:0:
56,194,33397,2,0,L|65:251,1,55,8|4,0:0|0:0,0:0:0:0:
81,306,33848,1,0,1:0:0:0:
166,335,34186,1,2,0:0:0:0:
253,308,34525,2,0,B|325:320|287:333|370:343,1,110,2|2,0:0|0:0,0:0:0:0:
408,310,35201,1,8,0:0:0:0:
480,213,35653,6,0,P|473:164|427:146,2,82.5,0|2|2,1:0|0:0|0:0,0:0:0:0:
408,310,36780,1,2,0:0:0:0:
357,276,37006,2,0,L|348:219,1,55,8|2,0:0|0:0,0:0:0:0:
305,178,37457,2,0,B|274:175|274:175|249:185|249:185|195:183,1,110,4|8,1:0|0:0,0:0:0:0:
116,141,38243,2,0,P|106:97|98:75,2,55,2|2|2,0:1|0:1|0:1,0:0:0:0:
82,191,38915,2,0,L|37:210,1,27.5,2|6,0:1|0:1,0:0:0:0:
9,313,39487,6,0,P|-1:338|0:365,2,55,4|8|0,1:0|0:0|1:0,0:0:0:0:
122,270,40388,2,2,P|171:293|184:298,1,55,2|8,0:0|0:0,0:1:0:0:
276,353,41065,1,4,1:0:0:0:
349,300,41403,1,2,0:0:0:0:
313,216,41741,2,0,B|325:144|338:182|348:99,1,110,2|2,0:0|0:2,0:0:0:0:
329,54,42418,1,8,0:0:0:0:
211,25,42870,6,0,P|180:50|178:90,2,82.5,4|2|2,1:0|0:0|0:0,0:0:0:0:
329,54,43997,1,2,0:0:0:0:
378,89,44223,2,0,L|435:80,1,55,8|2,0:0|0:0,0:0:0:0:
479,118,44674,2,0,B|493:146|493:146|460:177|473:232,1,110,6|0,1:0|0:0,0:0:0:0:
360,363,45802,1,4,1:0:0:0:
360,363,46027,1,8,0:0:0:0:
258,321,46478,6,0,P|254:280|246:235,1,74.2499977340699,0|2,1:2|0:0,0:0:0:0:
300,184,47155,1,0,0:0:0:0:
338,145,47380,2,0,P|349:114|311:61,1,98.9999969787599,0|8,1:0|0:0,0:0:0:0:
208,39,48282,2,0,B|138:53|189:54|101:70,1,98.9999969787599,2|8,1:2|0:0,0:0:0:0:
72,102,48959,1,2,0:0:0:0:
72,102,49185,2,0,P|80:149|89:204,1,98.9999969787599,0|8,1:0|0:0,0:0:0:0:
36,295,50087,6,0,P|77:299|110:334,1,74.2499977340699,0|2,1:2|0:0,0:0:0:0:
223,257,50989,2,0,P|231:233|254:180,2,74.2499977340699,0|2|2,1:0|0:0|0:0,0:0:0:0:
256,299,51891,2,0,B|326:313|275:314|363:330,1,98.9999969787599,2|8,1:2|0:0,0:0:0:0:
452,289,52793,2,0,P|442:242|435:187,1,98.9999969787599,0|8,1:0|0:0,0:0:0:0:
468,140,53470,1,0,0:0:0:0:
468,140,53696,6,0,P|445:94|391:93,1,98.9999969787599,2|8,1:2|0:0,0:0:0:0:
309,30,54598,2,0,P|257:34|236:83,1,98.9999969787599,2|8,1:2|0:0,0:0:0:0:
127,80,55500,2,0,P|109:128|145:168,1,98.9999969787599,2|8,1:2|0:0,0:0:0:0:
205,246,56402,1,0,1:0:0:0:
257,231,56628,2,0,L|320:221,1,49.4999984893799,4|8,0:0|0:0,0:0:0:0:
385,298,57305,6,0,B|432:301|473:239|390:155|318:173|279:245|214:216|343:35|462:70|439:166|422:176,1,395.999987915039,2|4,1:2|1:0,0:0:0:0:
512,108,59560,2,0,P|508:60|482:1,2,98.9999969787599,8|0|8,0:0|1:0|0:0,0:0:0:0:
425,173,60914,5,6,1:0:0:0:
359,109,61252,2,0,P|351:82|346:22,1,82.5,2|2,0:0|0:0,0:0:0:0:
289,4,61816,1,2,1:2:0:0:
221,64,62154,2,0,B|173:73|209:75|136:92,1,82.5,0|2,0:0|3:2,0:0:0:0:
95,52,62718,1,2,1:2:0:0:
27,152,63169,1,10,0:0:0:0:
85,257,63620,1,2,1:2:0:0:
85,257,63840,2,0,P|125:267|147:277,1,55,6|8,0:0|0:0,0:0:0:0:
239,337,64523,5,2,1:0:0:0:
311,281,64860,2,0,P|310:256|259:214,1,82.5,2|2,0:0|0:0,0:0:0:0:
214,198,65424,1,2,1:2:0:0:
147,136,65762,1,0,0:0:0:0:
204,65,66100,1,2,3:2:0:0:
258,39,66325,2,0,B|291:44|291:44|300:52|300:52|366:68,2,110,2|10|2,1:2|0:0|1:2,0:0:0:0:
204,65,67451,1,6,0:0:0:0:
204,65,67677,2,0,L|140:48,1,55,8|2,0:0|0:0,0:0:0:0:
91,77,68127,6,0,P|74:125|112:164,1,98.9999969787599,6|8,1:2|0:0,0:0:0:0:
125,267,69032,2,0,P|164:300|214:281,1,98.9999969787599,2|8,1:2|0:0,0:0:0:0:
289,360,69936,2,0,P|335:338|338:285,1,98.9999969787599,2|8,1:2|0:0,0:0:0:0:
264,193,70838,1,0,1:0:0:0:
264,193,71063,2,2,L|201:203,1,49.4999984893799,6|8,0:0|0:0,0:1:0:0:
92,159,71740,6,0,P|76:127|107:69,3,98.9999969787599,2|2|2|0,1:2|0:0|0:2|0:0,0:0:0:0:
218,21,73551,1,0,3:0:0:0:
277,134,74009,1,0,3:0:0:0:
343,244,74467,1,2,3:2:0:0:
411,353,74909,1,2,3:2:0:0:
337,247,75365,1,2,3:0:0:0:
374,78,80765,5,8,0:0:0:0:
323,97,80990,2,0,L|270:109,1,49.4999984893799,8|4,0:0|0:3,0:0:0:0:
238,153,81442,1,4,0:3:0:0:
238,153,81667,2,2,L|191:137,1,49.4999984893799,0|0,1:0|1:0,0:1:0:0:
136,142,82118,1,0,1:0:0:0:
136,142,82343,1,0,1:0:0:0:
90,190,82569,6,0,B|97:258|122:224|133:308,1,121.000003692627,6|8,1:2|0:0,0:0:0:0:
189,334,83247,2,0,L|262:350,1,60.5000018463135,2|0,3:2|3:0,0:0:0:0:
365,283,83923,1,8,0:2:0:0:
421,162,84374,2,0,P|457:155|490:151,2,60.5000018463135,4|2|10,1:0|3:2|0:0,0:0:0:0:
368,130,85051,1,2,0:0:0:0:
368,130,85277,2,0,P|338:125|308:119,1,60.5000018463135,2|2,1:2|3:2,0:1:0:0:
258,163,85728,1,10,0:0:0:0:
155,78,86179,6,0,P|85:86|8:238,1,242.000007385254,4|2,1:0|1:2,0:0:0:0:
5,223,87306,1,2,3:2:0:0:
52,269,87532,1,10,0:2:0:0:
173,215,87983,2,0,L|241:232,1,60.5000018463135,4|2,1:0|0:0,0:0:0:0:
264,287,88434,1,10,0:0:0:0:
380,352,88885,1,0,1:0:0:0:
437,317,89105,1,12,0:3:0:0:
437,317,89326,2,0,P|445:263|453:236,1,60.5000018463135,10|2,0:2|3:2,0:0:0:0:
406,204,89787,6,0,B|338:211|372:236|288:247,1,121.000003692627,6|8,1:2|0:0,0:1:0:0:
255,300,90464,2,2,L|182:284,1,60.5000018463135,2|2,0:0|1:2,0:1:0:0:
81,219,91140,1,10,0:1:0:0:
113,90,91591,2,0,P|176:104|197:165,1,121.000003692627,4|10,1:0|0:0,0:0:0:0:
248,194,92268,2,2,P|272:182|314:170,1,60.5000018463135,2|0,0:0|1:0,0:1:0:0:
426,108,92945,1,10,0:0:0:0:
426,108,93170,1,6,3:2:0:0:
394,48,93396,5,4,1:1:0:0:
266,87,93847,1,10,0:0:0:0:
201,203,94298,1,2,1:2:0:0:
201,203,94524,2,2,P|155:211|138:215,1,60.5000018463135,2|8,0:0|0:0,0:1:0:0:
89,255,94975,1,6,0:0:0:0:
31,287,95200,2,0,P|27:242|11:167,1,121.000003692627,4|8,1:0|0:0,0:0:0:0:
84,56,96103,5,6,1:0:0:0:
150,58,96328,1,2,0:1:0:0:
204,95,96554,2,2,L|231:162,1,60.5000018463135,10|2,0:1|3:1,0:1:0:0:
280,190,97005,6,0,B|341:184|312:153|400:146,1,121.000003692627,4|8,1:0|0:0,0:0:0:0:
448,179,97682,2,0,L|464:252,1,60.5000018463135,2|0,3:2|1:0,0:0:0:0:
385,347,98358,1,8,0:2:0:0:
255,313,98809,2,0,P|262:277|266:244,2,60.5000018463135,4|2|10,1:0|3:2|0:0,0:0:0:0:
194,335,99486,1,2,0:0:0:0:
194,335,99712,2,0,P|164:340|134:346,1,60.5000018463135,2|2,1:2|3:2,0:1:0:0:
84,302,100163,1,10,0:0:0:0:
82,168,100614,6,0,B|223:181|151:239|321:268,1,242.000007385254,4|2,1:0|1:2,0:0:0:0:
352,302,101742,1,2,3:2:0:0:
413,275,101967,1,10,0:2:0:0:
504,195,102418,6,0,L|487:127,1,60.5000018463135,2|2,1:0|0:1,0:0:0:0:
437,94,102873,1,10,1:0:0:0:
468,35,103100,1,2,0:1:0:0:
408,4,103328,1,14,1:0:0:0:
175,92,104223,6,0,P|150:61|156:11,2,82.5,4|2|2,1:0|0:0|0:0,0:0:0:0:
77,163,105350,1,2,0:0:0:0:
39,210,105576,2,0,L|48:267,1,55,12|0,0:0|0:0,0:0:0:0:
64,322,106027,5,4,1:0:0:0:
149,351,106365,1,2,0:0:0:0:
232,315,106704,2,0,B|304:327|266:340|349:350,1,110,2|2,0:0|0:0,0:0:0:0:
388,318,107380,1,8,0:0:0:0:
467,226,107832,6,0,P|460:177|414:159,2,82.5,4|2|2,1:0|0:0|0:0,0:0:0:0:
388,318,108959,1,2,0:0:0:0:
352,268,109185,2,2,L|343:211,1,55,8|0,0:2|0:0,0:1:0:0:
291,181,109636,2,0,B|226:177|248:154|181:152,1,110,4|8,1:0|0:0,0:0:0:0:
104,113,110426,2,0,P|94:69|86:47,2,55,2|2|2,0:1|0:1|0:1,0:0:0:0:
70,163,111099,2,0,L|25:182,1,27.5,2|6,0:1|0:1,0:0:0:0:
8,289,111666,6,0,P|-2:314|-1:341,2,55,4|8|0,1:0|0:0|1:0,0:0:0:0:
127,267,112566,2,2,P|176:290|189:295,1,55,2|8,0:0|0:0,0:1:0:0:
279,354,113243,5,4,1:0:0:0:
350,298,113581,1,2,0:0:0:0:
298,224,113920,1,2,0:0:0:0:
325,169,114146,2,0,L|342:112,1,55,2|2,1:2|0:2,0:0:0:0:
328,57,114596,1,8,0:0:0:0:
211,25,115048,6,0,P|180:50|178:90,2,82.5,4|2|2,1:0|0:0|0:0,0:0:0:0:
329,54,116175,1,2,0:0:0:0:
378,89,116401,2,0,L|435:80,1,55,8|2,0:0|0:0,0:0:0:0:
479,118,116852,2,0,B|492:147|492:147|473:232,1,110,6|0,1:0|0:0,0:0:0:0:
180,364,118657,5,4,1:0:0:0:
152,287,118995,1,0,1:0:0:0:
177,209,119334,1,2,0:0:0:0:
177,209,119559,2,0,P|188:178|150:125,1,98.9999969787599,8|2,0:0|1:2,0:0:0:0:
60,70,120461,2,0,B|130:56|79:55|167:39,1,98.9999969787599,2|2,3:2|1:2,0:0:0:0:
154,41,121138,1,0,1:0:0:0:
207,48,121363,2,0,P|254:56|309:65,1,98.9999969787599,10|0,0:0|3:0,0:0:0:0:
413,64,122266,6,0,P|417:23|452:-10,2,74.2499977340699,4|0|0,3:0|1:0|3:0,0:0:0:0:
443,109,123168,1,10,0:0:0:0:
414,214,123619,1,2,1:2:0:0:
372,314,124091,2,0,B|302:328|353:329|265:345,1,98.9999969787599,2|2,0:0|1:2,0:0:0:0:
177,298,124973,1,10,0:0:0:0:
73,330,125424,1,0,3:0:0:0:
9,241,125875,6,0,P|32:195|86:194,1,98.9999969787599,0|0,1:0|0:0,0:0:0:0:
121,90,126780,2,0,P|173:94|194:143,1,98.9999969787599,8|0,3:2|1:0,0:0:0:0:
301,114,127686,2,0,P|319:162|283:202,1,98.9999969787599,2|0,1:2|1:0,0:0:0:0:
345,292,128586,1,8,0:0:0:0:
345,292,128811,2,0,L|439:342,1,98.9999969787599,0|0,1:0|0:0,0:0:0:0:
471,301,129487,5,0,1:0:0:0:
471,301,129712,2,0,B|444:211|500:256|526:193|370:142|344:164|335:206,1,247.4999924469,2|0,0:1|1:2,0:0:0:0:
232,166,131291,2,0,P|207:111|173:64,2,98.9999969787599,2|0|8,0:0|1:2|0:2,0:0:0:0:
213,216,132404,2,0,B|151:231|179:245|105:258,1,111.683,4|4,0:3|0:3,0:0:0:0:
72,219,133052,5,6,1:0:0:0:
16,146,133403,2,0,P|24:119|29:59,1,71.1259999999999,2|2,0:0|0:0,0:0:0:0:
81,34,133995,1,2,1:2:0:0:
168,57,134333,2,0,B|216:66|180:68|253:85,1,82.5,2|2,0:0|3:2,0:0:0:0:
303,64,134897,1,2,1:2:0:0:
371,164,135347,1,10,0:0:0:0:
313,269,135798,1,2,1:2:0:0:
313,269,136024,2,0,P|273:279|251:289,1,55,2|8,0:1|0:0,0:0:0:0:
158,350,136701,5,2,1:0:0:0:
87,293,137039,2,0,P|88:268|139:226,1,82.5,2|2,0:0|0:0,0:0:0:0:
184,210,137603,1,2,1:2:0:0:
270,124,138055,1,8,0:0:0:0:
178,45,138506,1,2,1:2:0:0:
63,84,138957,1,10,0:0:0:0:
181,60,139408,1,2,1:2:0:0:
224,17,139633,1,2,0:1:0:0:
224,17,139859,2,0,L|288:34,1,55,10|6,0:0|0:0,0:0:0:0:
333,43,140310,6,0,P|350:91|312:130,1,98.9999969787599,6|8,1:2|0:0,0:0:0:0:
372,223,141212,2,0,P|333:256|283:237,1,98.9999969787599,2|8,1:2|0:0,0:0:0:0:
239,340,142114,2,0,P|193:318|190:265,1,98.9999969787599,2|8,1:2|0:0,0:0:0:0:
120,195,143016,1,0,1:0:0:0:
10,190,143468,2,0,P|14:164|41:137,1,49.4999984893799,8|0,0:0|0:0,0:0:0:0:
65,105,143919,6,0,L|119:96,1,49.4999984893799,2|2,1:2|0:0,0:0:0:0:
151,57,144370,1,10,0:0:0:0:
255,26,144821,2,2,B|343:75|283:113|251:95|232:131|287:190,1,197.99999395752,2|4,1:2|1:0,0:1:0:0:
373,241,146175,6,0,L|431:248,2,49.4999984893799,0|0|4,1:0|1:0|0:3,0:0:0:0:
326,269,146844,2,0,L|307:303,1,24.74999924469,4|8,0:3|0:0,0:0:0:0:
210,323,147392,2,0,L|191:289,1,27.4266666666666,8|8,0:0|0:0,0:0:0:0:
64,96,160157,5,0,1:0:0:0:
169,67,160614,1,0,1:0:0:0:
204,169,161071,1,0,1:0:0:0:
99,198,161528,1,0,1:0:0:0:
206,179,161965,6,0,P|246:194|257:258,1,98.9999969787599,4|0,1:0|1:0,0:0:0:0:
226,286,162641,1,0,0:0:0:0:
226,286,162867,1,0,1:0:0:0:
325,329,163318,1,0,1:0:0:0:
446,276,163769,5,2,1:0:0:0:
446,276,163996,1,2,1:2:0:0:
411,219,164224,2,0,L|424:153,1,55,2|2,1:0|1:2,0:0:0:0:
463,121,164679,1,2,1:0:0:0:
463,121,164907,1,2,1:2:0:0:
508,81,165135,2,0,L|495:15,1,55,2|2,1:0|1:2,0:0:0:0:
438,12,165586,5,4,1:0:0:0:
337,79,166033,2,0,L|277:62,1,55,2|2,1:2|1:2,0:0:0:0:
244,110,166481,1,10,1:2:0:0:
187,130,166705,1,2,1:2:0:0:
147,178,166929,1,10,1:2:0:0:
88,193,167153,1,10,1:2:0:0:
52,249,167377,5,6,1:0:0:0:
106,97,169197,5,6,1:0:0:0:
307,133,170997,5,6,1:0:0:0:
383,309,172794,5,4,1:0:0:0:
383,309,173693,2,2,B|371:286|371:286|376:246,1,60.5000018463135,8|0,1:0|1:0,0:1:0:0:
422,204,174144,1,8,1:0:0:0:
473,162,174369,1,0,1:0:0:0:
453,98,174595,6,0,B|373:100|424:126|319:134,1,121.000003692627,6|8,1:2|0:0,0:0:0:0:
289,87,175272,2,0,L|216:71,1,60.5000018463135,2|0,3:2|3:0,0:0:0:0:
106,38,175948,2,0,P|63:46|65:124,1,121.000003692627,10|4,0:2|1:0,0:1:0:0:
109,151,176625,6,0,P|142:160|187:175,2,60.5000018463135,2|10|2,3:2|0:0|0:0,0:0:0:0:
69,203,177302,2,0,P|74:233|80:263,1,60.5000018463135,2|2,1:2|3:2,0:1:0:0:
41,316,177753,1,10,0:0:0:0:
172,341,178204,6,0,P|189:271|337:252,1,242.000007385254,4|2,1:0|1:2,0:0:0:0:
380,302,179332,1,2,3:2:0:0:
444,288,179557,1,10,0:2:0:0:
476,159,180008,2,0,L|408:142,1,60.5000018463135,4|2,1:0|0:0,0:0:0:0:
367,100,180455,1,10,0:0:0:0:
275,196,180903,1,0,1:0:0:0:
221,166,181117,1,12,0:3:0:0:
221,166,181347,2,0,P|213:112|205:85,1,60.5000018463135,10|2,0:2|3:2,0:0:0:0:
150,78,181784,6,0,B|82:85|116:110|32:121,1,121.000003692627,6|8,1:2|0:0,0:1:0:0:
2,176,182492,2,2,L|18:249,1,60.5000018463135,2|2,0:0|1:2,0:1:0:0:
83,350,183169,1,10,0:1:0:0:
183,262,183620,2,0,P|246:276|267:337,1,121.000003692627,4|10,1:0|0:0,0:0:0:0:
326,354,184296,2,2,P|350:342|392:330,1,60.5000018463135,2|0,0:0|1:0,0:1:0:0:
493,256,184973,1,10,0:0:0:0:
493,256,185198,1,6,3:2:0:0:
471,192,185424,5,4,1:1:0:0:
381,93,185875,1,10,0:0:0:0:
254,135,186326,1,2,1:2:0:0:
199,173,186552,2,2,P|153:165|136:161,1,60.5000018463135,2|8,0:0|0:0,0:1:0:0:
98,214,187003,1,6,0:0:0:0:
98,214,187228,2,0,P|94:169|78:94,1,121.000003692627,4|8,1:0|0:0,0:0:0:0:
179,8,188131,5,6,1:0:0:0:
245,10,188356,1,2,0:1:0:0:
299,47,188582,2,2,B|312:79|312:79|312:112,1,60.5000018463135,10|2,0:1|3:1,0:1:0:0:
285,165,189033,6,0,B|224:171|253:202|165:209,1,121.000003692627,4|8,1:0|0:0,0:0:0:0:
113,234,189710,2,0,L|97:307,1,60.5000018463135,2|0,3:2|1:0,0:0:0:0:
215,358,190386,1,8,0:2:0:0:
339,310,190837,2,0,P|332:274|328:241,2,60.5000018463135,4|2|10,1:0|3:2|0:0,0:0:0:0:
398,351,191514,1,2,0:0:0:0:
398,351,191740,2,0,P|428:346|452:321,1,60.5000018463135,2|2,1:2|3:2,0:1:0:0:
491,274,192191,1,10,0:0:0:0:
426,157,192642,6,0,B|321:175|375:234|256:247,1,181.500005538941,4|2,1:0|3:2,0:0:0:0:
220,204,193544,2,0,B|202:99|143:153|130:34,1,181.500005538941,2|0,1:2|3:0,0:1:0:0:
68,33,194447,2,0,P|41:59|51:101,1,60.5000018463135,2|2,1:0|0:1,0:0:0:0:
28,146,194900,2,0,P|55:172|45:214,1,60.5000018463135,10|2,1:0|0:1,0:0:0:0:
20,249,195354,1,2,0:1:0:0:
20,249,195578,1,2,0:1:0:0:
41,311,195802,1,8,0:0:0:0:
174,351,196251,6,0,B|257:338|208:319|307:303,1,126.500002412796,4|8,1:0|0:0,0:0:0:0:
347,266,196927,2,10,P|351:238|363:193,1,63.250001206398,2|0,0:0|3:0,0:1:0:0:
475,126,197604,1,10,0:0:0:0:
356,198,198055,2,0,P|293:184|272:117,1,126.500002412796,4|10,1:0|0:0,0:0:0:0:
211,93,198732,2,2,P|207:66|194:25,1,63.250001206398,2|0,0:0|1:0,0:1:0:0:
79,103,199409,1,10,0:0:0:0:
40,160,199634,1,6,3:2:0:0:
69,223,199860,5,6,1:1:0:0:
149,336,200311,1,10,0:0:0:0:
257,249,200762,1,2,1:2:0:0:
257,249,200988,2,2,P|303:257|324:263,1,63.250001206398,2|12,0:0|0:0,0:1:0:0:
375,311,201439,1,6,0:0:0:0:
375,311,201665,2,0,P|429:298|434:221,1,126.500002412796,4|8,1:0|0:0,0:0:0:0:
370,115,202567,5,6,1:0:0:0:
300,118,202792,1,2,0:1:0:0:
243,158,203018,1,10,0:1:0:0:
215,221,203244,1,2,3:1:0:0:
192,286,203469,6,0,B|131:292|160:323|72:330,1,126.500002412796,4|8,1:0|0:0,0:0:0:0:
31,275,204146,2,2,L|46:195,1,63.250001206398,2|0,0:0|1:0,0:1:0:0:
133,107,204822,2,0,P|209:108|233:49,1,126.500002412796,8|4,0:2|1:0,0:1:0:0:
285,25,205499,1,2,3:2:0:0:
285,25,205725,2,2,P|335:37|353:53,1,63.250001206398,10|2,0:0|0:0,0:1:0:0:
401,81,206176,2,0,P|428:65|459:62,2,63.250001206398,2|2|10,1:2|3:2|0:0,0:1:0:0:
332,201,207078,5,4,1:0:0:0:
308,338,207529,2,0,P|296:262|256:74,1,253.000004825592,10|8,0:0|0:0,0:0:0:0:
129,41,208889,6,0,P|97:52|80:81,1,63.250001206398,2|2,1:0|0:1,0:0:0:0:
65,143,209340,1,10,1:0:0:0:
57,211,209565,1,2,0:1:0:0:
110,255,209791,2,0,P|142:266|159:295,1,63.250001206398,2|2,1:1|0:1,0:1:0:0:
211,334,210242,1,14,0:1:0:0:
296,248,210693,6,0,P|366:284|375:314,1,110,4|8,1:0|3:2,0:0:0:0:
425,341,211370,2,0,P|481:321|475:257,1,110,4|8,1:0|3:2,0:0:0:0:
486,276,212046,1,8,3:2:0:0:
468,217,212272,1,4,1:0:0:0:
256,192,212498,12,0,217911,0:0:0:0:
