osu file format v14

[General]
AudioFilename: audio.mp3
AudioLeadIn: 0
PreviewTime: 1271
Countdown: 0
SampleSet: Soft
StackLeniency: 0.7
Mode: 0
LetterboxInBreaks: 0
WidescreenStoryboard: 1

[Editor]
Bookmarks: 2443,5977,6446,39412,52886
DistanceSpacing: 2.3
BeatDivisor: 8
GridSize: 16
TimelineZoom: 3.199999

[Metadata]
Title:Loosie
TitleUnicode:Loosie
Artist:Earl Sweatshirt
ArtistUnicode:Earl Sweatshirt
Creator:Everything Dust
Version:Tongue-tip Soliloquy
Source:
Tags:Thebe Neruda Kgositsile Sly Tendencies Odd Future Wolf Gang Kill Them All OFWGKTA Some Rap Songs
BeatmapID:2069183
BeatmapSetID:989254

[Difficulty]
HPDrainRate:5
CircleSize:4
OverallDifficulty:5
ApproachRate:8.5
SliderMultiplier:2.2
SliderTickRate:1

[Events]
//Background and Video events
0,0,"Earl3.png",0,0
//Break Periods
//Storyboard Layer 0 (Background)
//Storyboard Layer 1 (Fail)
//Storyboard Layer 2 (Pass)
//Storyboard Layer 3 (Foreground)
//Storyboard Sound Samples

[TimingPoints]
100,468.75,4,2,0,60,1,0
2600,-100,4,2,0,30,0,0
2795,-50,4,2,0,60,0,0
2853,-100,4,2,0,5,0,0
2971,468.75,4,2,0,60,1,0
2971,-100,4,2,0,60,0,0
3205,-100,4,2,0,5,0,0
3322,-100,4,2,0,60,0,0
3849,468.75,4,2,0,60,1,0
3849,-133.333333333333,4,2,0,60,0,0
4317,-50,4,2,0,60,0,0
4395,-50,4,2,0,5,0,0
4786,-50,4,2,0,60,0,0
4864,-50,4,2,0,5,0,0
5255,-50,4,2,0,60,0,0
5333,-50,4,2,0,5,0,0
5665,468.75,4,2,0,60,1,0
6133,-133.333333333333,4,2,0,60,0,0
6602,-133.333333333333,4,2,0,5,0,0
6662,434.782608695652,4,2,0,60,1,0
6662,-200,4,2,0,60,0,0
6770,-200,4,2,0,5,0,0
6879,-200,4,2,0,60,0,0
6988,-200,4,2,0,5,0,0
7096,-200,4,2,0,60,0,0
7205,-200,4,2,0,5,0,0
7314,-200,4,2,0,60,0,0
7422,-200,4,2,0,5,0,0
7599,468.75,4,2,0,60,1,0
7599,-100,4,2,0,60,0,0
7950,-100,4,2,0,5,0,0
8067,-50,4,2,0,60,0,0
8145,-50,4,2,0,5,0,0
8536,-50,4,2,0,60,0,0
8614,-50,4,2,0,5,0,0
9005,-50,4,2,0,60,0,0
9083,-50,4,2,0,5,0,0
9395,-100,4,2,0,60,0,0
10411,434.782608695652,4,2,0,60,1,0
10411,-200,4,2,0,60,0,0
10519,-200,4,2,0,5,0,0
10628,-200,4,2,0,60,0,0
10737,-200,4,2,0,5,0,0
10845,-200,4,2,0,60,0,0
10954,-200,4,2,0,5,0,0
11063,-200,4,2,0,60,0,0
11171,-200,4,2,0,5,0,0
11348,468.75,4,2,0,60,1,0
11348,-100,4,2,0,60,0,0
11816,-50,4,2,0,60,0,0
11894,-50,4,2,0,5,0,0
11973,-100,4,2,0,60,0,0
12051,-100,4,2,0,5,0,0
12129,-200,4,2,0,60,0,0
12285,-200,4,2,0,5,0,0
12363,-100,4,2,0,60,0,0
12461,-100,4,2,0,5,0,0
12637,-100,4,2,0,60,0,0
12832,-100,4,2,0,5,0,0
12988,-200,4,2,0,60,0,0
13105,-200,4,2,0,5,0,0
13223,-200,4,2,0,60,0,0
13457,-133.333333333333,4,2,0,5,0,0
13574,-100,4,2,0,60,0,0
13808,454.75,4,2,0,60,1,0
14511,468.75,4,2,0,60,1,0
14512,-133.333333333333,4,2,0,60,0,0
14629,468.75,4,2,0,60,1,0
14746,-100,4,2,0,5,0,0
15098,-50,4,2,0,60,0,0
15176,-50,4,2,0,5,0,0
15566,-50,4,2,0,60,0,0
15644,-50,4,2,0,5,0,0
16035,-50,4,2,0,60,0,0
16113,-50,4,2,0,5,0,0
16387,-100,4,2,0,60,0,0
16504,-400,4,2,0,60,0,0
16738,-400,4,2,0,5,0,0
16855,-133.333333333333,4,2,0,60,0,0
16973,-133.333333333333,4,2,0,5,0,0
17090,-133.333333333333,4,2,0,60,0,0
17324,-100,4,2,0,5,0,0
17383,-100,4,2,0,60,0,0
17558,-200,4,2,0,60,0,0
17734,-100,4,2,0,5,0,0
17793,-200,4,2,0,60,0,0
17969,-200,4,2,0,5,0,0
18027,-200,4,2,0,60,0,0
18203,-200,4,2,0,5,0,0
18262,-200,4,2,0,60,0,0
18555,-200,4,2,0,5,0,0
18613,-200,4,2,0,60,0,0
18848,-100,4,2,0,60,0,0
19199,-100,4,2,0,5,0,0
19316,-50,4,2,0,60,0,0
19394,-50,4,2,0,5,0,0
19785,-50,4,2,0,60,0,0
19863,-50,4,2,0,5,0,0
20254,-50,4,2,0,60,0,0
20332,-50,4,2,0,5,0,0
20605,-100,4,2,0,60,0,0
21074,-100,4,2,0,5,0,0
21133,-200,4,2,0,60,0,0
21543,-200,4,2,0,5,0,0
21661,434.782608695652,4,2,0,60,1,0
21661,-200,4,2,0,60,0,0
21769,-200,4,2,0,5,0,0
21878,-200,4,2,0,60,0,0
21987,-200,4,2,0,5,0,0
22095,-200,4,2,0,60,0,0
22204,-200,4,2,0,5,0,0
22313,-200,4,2,0,60,0,0
22421,-200,4,2,0,5,0,0
22598,468.75,4,2,0,60,1,0
22832,-100,4,2,0,5,0,0
22910,-200,4,2,0,60,0,0
23066,-100,4,2,0,5,0,0
23125,-100,4,2,0,60,0,0
23301,-100,4,2,0,5,0,0
23379,-100,4,2,0,60,0,0
23769,-100,4,2,0,5,0,0
23887,-100,4,2,0,60,0,0
24121,-100,4,2,0,5,0,0
24238,-200,4,2,0,60,0,0
24707,-303.030303030303,4,2,0,60,0,0
24941,-303.030303030303,4,2,0,5,0,0
25058,-303.030303030303,4,2,0,60,0,0
25293,-303.030303030303,4,2,0,5,0,0
25410,434.782608695652,4,2,0,60,1,0
25410,-200,4,2,0,60,0,0
25518,-200,4,2,0,5,0,0
25627,-200,4,2,0,60,0,0
25736,-200,4,2,0,5,0,0
25844,-200,4,2,0,60,0,0
25953,-200,4,2,0,5,0,0
26062,-200,4,2,0,60,0,0
26170,-200,4,2,0,5,0,0
26347,468.75,4,2,0,60,1,0
26815,-200,4,2,0,60,0,0
27108,-100,4,2,0,5,0,0
27284,-100,4,2,0,60,0,0
27440,-200,4,2,0,60,0,0
27675,-200,4,2,0,5,0,0
27753,-100,4,2,0,60,0,0
28456,-303.030303030303,4,2,0,60,0,0
28690,-303.030303030303,4,2,0,5,0,0
28807,-303.030303030303,4,2,0,60,0,0
29042,-303.030303030303,4,2,0,5,0,0
29159,434.782608695652,4,2,0,60,1,0
29159,-200,4,2,0,60,0,0
29267,-200,4,2,0,5,0,0
29376,-200,4,2,0,60,0,0
29485,-200,4,2,0,5,0,0
29593,-200,4,2,0,60,0,0
29702,-200,4,2,0,5,0,0
29811,-200,4,2,0,60,0,0
29919,-200,4,2,0,5,0,0
30097,468.75,4,2,0,60,1,0
30097,-100,4,2,0,60,0,0
30448,-100,4,2,0,5,0,0
30565,-50,4,2,0,60,0,0
30643,-50,4,2,0,5,0,0
31034,-50,4,2,0,60,0,0
31112,-50,4,2,0,5,0,0
31503,-303.030303030303,4,2,0,60,0,0
31737,-303.030303030303,4,2,0,5,0,0
31854,-100,4,2,0,60,0,0
32050,-100,4,2,0,5,0,0
32128,-303.030303030303,4,2,0,60,0,0
32362,-303.030303030303,4,2,0,5,0,0
32440,-100,4,2,0,60,0,0
32753,-100,4,2,0,5,0,0
32909,434.782608695652,4,2,0,60,1,0
32909,-200,4,2,0,60,0,0
33017,-200,4,2,0,5,0,0
33126,-200,4,2,0,60,0,0
33235,-200,4,2,0,5,0,0
33343,-200,4,2,0,60,0,0
33452,-200,4,2,0,5,0,0
33846,468.75,4,2,0,60,1,0
33846,-100,4,2,0,60,0,0
34197,-100,4,2,0,5,0,0
34314,-100,4,2,0,60,0,0
34431,-100,4,2,0,5,0,0
34549,-100,4,2,0,60,0,0
34666,-100,4,2,0,5,0,0
34783,-100,4,2,0,60,0,0
35096,-100,4,2,0,5,0,0
35174,-100,4,2,0,60,0,0
35408,-100,4,2,0,5,0,0
35486,-100,4,2,0,60,0,0
35642,-100,4,2,0,5,0,0
35721,-100,4,2,0,60,0,0
36111,-100,4,2,0,5,0,0
36189,-100,4,2,0,60,0,0
36346,-100,4,2,0,5,0,0
36424,-100,4,2,0,60,0,0
36580,-100,4,2,0,5,0,0
36659,434.782608695652,4,2,0,60,1,0
36659,-200,4,2,0,60,0,0
36767,-200,4,2,0,5,0,0
36876,-200,4,2,0,60,0,0
36985,-200,4,2,0,5,0,0
37093,-200,4,2,0,60,0,0
37202,-200,4,2,0,5,0,0
37311,-200,4,2,0,60,0,0
37419,-200,4,2,0,5,0,0
37596,468.75,4,2,0,60,1,0
37596,-50,4,2,0,60,0,0
37674,-50,4,2,0,5,0,0
37830,-200,4,2,0,60,0,0
38142,-100,4,2,0,60,0,0
38455,-100,4,2,0,5,0,0
38533,-100,4,2,0,60,0,0
38767,-100,4,2,0,5,0,0
38846,-133.333333333333,4,2,0,60,0,0
39158,-100,4,2,0,5,0,0
39412,-100,4,2,0,60,0,0
39588,-100,4,2,0,5,0,0
39705,-100,4,2,0,60,0,0
39822,-100,4,2,0,5,0,0
39881,-100,4,2,0,60,0,0
40056,-100,4,2,0,5,0,0
40115,-100,4,2,0,60,0,0
40232,-100,4,2,0,5,0,0
40291,-100,4,2,0,60,0,0
40467,-100,4,2,0,5,0,0
40525,-133.333333333333,4,1,0,60,0,0
40877,-100,4,2,0,5,0,0
40994,-133.333333333333,4,2,0,60,0,0
41170,-100,4,2,0,5,0,0
41228,-100,4,2,0,60,0,0
41287,-100,4,2,0,5,0,0
41345,-133.333333333333,4,2,0,60,0,0
41638,-100,4,2,0,5,0,0
41696,-100,4,2,0,60,0,0
41873,-100,4,2,0,5,0,0
41931,-100,4,2,0,60,0,0
42107,-100,4,2,0,5,0,0
42166,-100,4,2,0,60,0,0
42312,-100,4,2,0,5,0,0
42361,-50,4,2,0,60,0,0
42400,-50,4,2,0,5,0,0
42596,-100,4,2,0,60,0,0
42752,-100,4,2,0,60,0,0
43142,-100,4,2,0,5,0,0
43221,-100,4,2,0,60,0,0
43572,-100,4,2,0,5,0,0
43689,-400,4,2,0,60,0,0
44041,-400,4,2,0,5,0,0
44158,434.782608695652,4,2,0,60,1,0
44158,-200,4,2,0,60,0,0
44266,-200,4,2,0,5,0,0
44375,-200,4,2,0,60,0,0
44484,-200,4,2,0,5,0,0
44592,-200,4,2,0,60,0,0
44701,-200,4,2,0,5,0,0
44918,-200,4,2,0,60,0,0
45095,468.75,4,2,0,60,1,0
45095,-100,4,2,0,60,0,0
45446,-100,4,2,0,5,0,0
45563,-50,4,2,0,60,0,0
45641,-50,4,2,0,5,0,0
46032,-50,4,2,0,60,0,0
46110,-50,4,2,0,5,0,0
46442,-100,4,2,0,60,0,0
46794,-100,4,2,0,5,0,0
46911,-200,4,2,0,60,0,0
47262,-100,4,2,0,5,0,0
47380,-100,4,2,0,60,0,0
47790,-100,4,2,0,5,0,0
47907,434.782608695652,4,2,0,60,1,0
47907,-200,4,2,0,60,0,0
48015,-200,4,2,0,5,0,0
48124,-200,4,2,0,60,0,0
48233,-200,4,2,0,5,0,0
48341,-200,4,2,0,60,0,0
48450,-200,4,2,0,5,0,0
48559,-200,4,2,0,60,0,0
48667,-200,4,2,0,5,0,0
48844,468.75,4,2,0,60,1,0
48844,-100,4,2,0,60,0,0
49195,-100,4,2,0,5,0,0
49312,-50,4,2,0,60,0,0
49395,-50,4,2,0,5,0,0
49781,-50,4,2,0,60,0,0
49859,-50,4,2,0,5,0,0
50250,-100,4,2,0,60,0,0
50484,-100,4,2,0,5,0,0
50601,-100,4,2,0,60,0,0
50719,-200,4,2,0,60,0,0
50836,-200,4,2,0,5,0,0
50953,-200,4,2,0,60,0,0
51070,-200,4,2,0,5,0,0
51187,-200,4,2,0,60,0,0
51304,-200,4,2,0,5,0,0
51421,-200,4,2,0,60,0,0
51539,-200,4,2,0,5,0,0
51656,-200,4,2,0,60,0,0
51773,-200,4,2,0,5,0,0
51890,-200,4,2,0,60,0,0
52125,-200,4,2,0,5,0,0
52242,-200,4,2,0,60,0,0
52476,-200,4,2,0,5,0,0
52594,-100,4,2,0,60,0,0
53004,-100,4,2,0,5,0,0
53062,-50,4,2,0,40,0,0
53140,-50,4,2,0,5,0,0
53531,-50,4,2,0,60,0,0
53609,-50,4,2,0,5,0,0
54000,-50,4,2,0,60,0,0
54078,-50,4,2,0,5,0,0
54410,-100,4,2,0,60,0,0
54820,-100,4,2,0,5,0,0
54937,-100,4,2,0,60,0,0
55289,-100,4,2,0,5,0,0
55407,434.782608695652,4,2,0,60,1,0
55407,-200,4,2,0,60,0,0
55515,-200,4,2,0,5,0,0
55624,-200,4,2,0,60,0,0
55733,-200,4,2,0,5,0,0
55841,-200,4,2,0,60,0,0
55950,-200,4,2,0,5,0,0
56059,-200,4,2,0,60,0,0
56167,-200,4,2,0,5,0,0
56344,468.75,4,2,0,60,1,0
56344,-100,4,2,0,60,0,0
56695,-50,4,2,0,5,0,0
56812,-50,4,2,0,60,0,0
56890,-50,4,2,0,5,0,0
57281,-50,4,2,0,60,0,0
57359,-50,4,2,0,5,0,0
57750,-50,4,2,0,60,0,0
57828,-50,4,2,0,5,0,0
58160,-100,4,2,0,60,0,0
58570,-100,4,2,0,5,0,0
58687,-200,4,2,0,60,0,0
59039,-100,4,2,0,5,0,0
59156,434.782608695652,4,2,0,60,1,0
59156,-200,4,2,0,60,0,0
59264,-200,4,2,0,5,0,0
59373,-200,4,2,0,50,0,0
59482,-200,4,2,0,5,0,0
59590,-200,4,2,0,40,0,0
59699,-200,4,2,0,5,0,0
59808,-200,4,2,0,30,0,0
59916,-200,4,2,0,5,0,0

[Colours]
Combo1 : 132,171,39
Combo2 : 183,23,159

[HitObjects]
143,199,2385,6,0,L|203:310,1,110
329,324,2795,2,0,L|354:276,1,55
416,192,2971,2,0,L|288:272,1,137.5
224,304,3322,2,0,B|183:297|183:297|206:263,2,73.3333333333333
309,384,3849,6,0,B|338:386|357:315|408:306,1,110.000004196167
481,218,4317,6,0,B|456:233|493:276|454:291,1,73.3333333333333
432,232,4786,6,0,B|438:203|382:199|399:160,1,73.3333333333333
489,100,5255,6,0,B|504:125|450:145|475:176,1,73.3333333333333
352,231,5665,6,0,L|405:85,1,137.5
391,3,6133,2,0,B|406:110|406:110|458:150,1,165.000006294251
495,65,6662,6,0,L|452:71,1,27.5
504,184,6879,2,0,L|469:159,1,27.5
309,146,7096,2,0,L|347:163,1,27.5
268,258,7313,2,0,L|307:242,1,27.5
448,246,7599,6,0,B|492:263|428:308|370:248|422:146,1,165
323,46,8067,6,0,B|300:64|354:83|328:115,1,73.3333333333333
284,198,8536,6,0,B|286:169|231:184|234:143,1,73.3333333333333
175,58,9005,6,0,B|190:83|233:46|248:85,1,73.3333333333333
107,366,9415,5,0,0:0:0:0:
228,175,9786,1,0,0:0:0:0:
260,156,9884,2,0,L|195:346,1,192.5
17,319,10411,6,0,L|60:313,1,27.5
8,200,10628,2,0,L|43:225,1,27.5
203,238,10845,2,0,L|165:221,1,27.5
244,126,11062,6,0,L|205:142,1,27.5
90,197,11348,2,0,B|53:226|46:148|127:128|189:224,1,165
284,198,11816,6,0,B|286:169|231:184|234:143,1,73.3333333333333
186,126,11973,6,0,L|241:108,1,36.6666666666667
365,59,12129,2,0,L|326:41,1,36.6666666666667
444,153,12402,2,0,L|432:129,1,27.5
476,97,12637,2,0,L|471:207,1,110
406,203,12988,6,0,L|417:229,1,27.5
326,356,13223,2,0,L|341:297,1,55
407,317,13574,1,0,0:0:0:0:
271,294,13808,2,0,B|260:263|295:199|295:199|308:220,2,110
512,380,14512,2,0,P|480:342|436:321,1,82.5000031471254
97,296,15098,6,0,B|86:323|142:312|135:353,1,73.3333333333333
266,272,15566,6,0,B|261:243|218:280|203:241,1,73.3333333333333
10,338,16035,6,0,B|28:361|46:307|78:333,1,73.3333333333333
225,292,16386,1,0,0:0:0:0:
268,247,16504,2,0,L|256:278,1,27.5
123,362,16855,6,0,L|105:307,1,41.2500015735627
35,302,17090,2,0,L|62:212,1,82.5000031471254
119,188,17383,1,0,0:0:0:0:
126,238,17558,2,0,L|138:199,1,41.25
40,213,17793,2,0,L|70:184,1,41.25
0,138,18027,2,0,L|39:149,1,41.25
13,11,18262,2,0,L|39:78,1,68.75
0,138,18614,1,0,0:0:0:0:
32,227,18848,6,0,B|81:234|118:157|188:165,1,165
297,209,19316,6,0,B|299:180|244:195|247:154,1,73.3333333333333
161,265,19785,6,0,B|185:248|199:303|233:280,1,73.3333333333333
292,38,20254,6,0,B|265:50|306:90|269:108,1,73.3333333333333
187,242,20606,1,0,0:0:0:0:
158,194,20723,2,0,L|329:207,1,165
474,152,21133,2,0,L|430:249,1,96.25
270,283,21661,6,0,L|313:277,1,27.5
263,162,21878,2,0,L|298:187,1,27.5
458,200,22095,2,0,L|420:183,1,27.5
499,88,22312,2,0,L|460:104,1,27.5
341,5,22598,6,0,B|318:15|318:15|353:105,1,110
433,131,22910,2,0,L|421:166,1,36.6666666666667
326,279,23125,2,0,P|339:234|383:208,1,82.5
420,202,23379,1,0,0:0:0:0:
502,245,23535,2,0,P|496:285|453:343,1,110
229,289,23887,6,0,P|235:329|278:387,1,110
329,299,24238,2,0,L|288:322,1,41.25
109,384,24707,6,0,L|141:364,1,36.2999998892212
0,384,25058,2,0,L|31:364,1,36.2999998892212
8,244,25410,6,0,L|34:278,1,27.5
105,176,25627,2,0,L|100:218,1,27.5
170,364,25844,2,0,L|165:322,1,27.5
287,343,26061,2,0,L|253:317,1,27.5
202,287,26639,5,0,0:0:0:0:
107,265,26815,2,0,L|162:318,1,68.75
266,355,27284,1,0,0:0:0:0:
336,286,27440,2,0,L|316:338,1,55
149,371,27753,1,0,0:0:0:0:
88,316,28104,5,0,0:0:0:0:
88,316,28222,1,0,0:0:0:0:
67,216,28456,6,0,L|85:248,1,36.2999998892212
272,155,28807,2,0,L|254:187,1,36.2999998892212
336,252,29159,6,0,L|330:209,1,27.5
217,261,29376,2,0,L|242:226,1,27.5
255,66,29593,2,0,L|238:104,1,27.5
143,25,29810,2,0,L|159:64,1,27.5
49,130,30097,6,0,B|5:147|69:192|127:132|75:30,1,165
241,58,30565,6,0,B|208:60|223:115|182:112,1,73.3333333333333
371,156,31034,6,0,B|373:127|318:142|321:101,1,73.3333333333333
502,89,31503,6,0,L|512:54,1,36.2999998892212
455,106,31854,2,0,L|365:81,1,91.6666666666667
307,51,32128,2,0,L|331:83,1,36.2999998892212
486,218,32440,2,0,L|350:136,1,146.666666666667
95,245,32909,6,0,L|129:218,1,27.5
172,335,33126,2,0,L|179:292,1,27.5
283,170,33343,2,0,L|268:208,1,27.5
512,384,33846,6,0,B|457:290|400:310|378:334|395:353,1,165
288,364,34314,2,0,L|332:303,1,55
192,208,34549,2,0,L|266:251,1,55
315,277,34783,2,0,L|160:306,1,146.666666666667
122,276,35174,2,0,L|242:301,1,110
335,180,35486,6,0,L|265:222,1,73.3333333333333
97,323,35721,2,0,B|81:281|158:262|86:145,1,183.333333333333
18,140,36189,6,0,L|87:167,1,73.3333333333333
209,148,36424,2,0,L|135:156,1,73.3333333333333
34,213,36659,6,0,L|76:203,1,27.5
14,95,36876,2,0,L|51:116,1,27.5
212,116,37093,2,0,L|172:102,1,27.5
243,0,37310,2,0,L|205:19,1,27.5
102,87,37596,6,0,B|85:63|140:49|117:15,1,73.3333333333333
0,74,37830,6,0,L|44:60,1,36.6666666666667
57,20,38142,2,0,B|26:186,1,146.666666666667
16,249,38533,1,0,0:0:0:0:
9,257,38611,2,0,L|81:225,1,73.3333333333333
283,252,38846,2,0,L|161:228,1,110.000004196167
304,315,39412,6,0,L|360:226,1,82.5
446,139,39705,2,0,L|369:160,1,55
240,188,39881,2,0,L|329:211,1,82.5
439,222,40115,2,0,L|408:171,1,55
506,63,40291,2,0,L|407:100,1,82.5
158,84,40525,2,0,L|280:155,1,123.750004720688
305,311,40994,6,0,L|278:252,1,61.875002360344
402,237,41228,1,0,0:0:0:0:
419,194,41346,2,0,L|314:231,1,103.125003933907
107,179,41697,2,0,L|139:269,1,82.5
226,329,41931,6,0,L|222:238,1,82.5
287,154,42166,2,0,L|257:220,1,68.75
190,365,42361,1,0,0:0:0:0:
343,365,42596,5,0,0:0:0:0:
315,259,42752,1,0,0:0:0:0:
287,154,42908,1,0,0:0:0:0:
512,295,43221,6,0,L|343:337,1,165
94,358,43689,2,0,L|101:317,1,41.25
50,346,44158,6,0,L|56:303,1,27.5
169,355,44375,2,0,L|144:320,1,27.5
131,160,44592,2,0,L|148:198,1,27.5
404,384,44918,5,0,0:0:0:0:
501,149,45095,2,0,B|538:121|465:93|423:166|501:252,1,165
278,327,45563,6,0,B|292:297|237:282|260:248,1,73.3333333333333
212,90,46032,6,0,B|183:87|198:143|157:139,1,73.3333333333333
17,146,46442,2,0,L|184:214,1,165
359,323,46911,6,0,L|392:240,1,82.5
431,26,47380,2,0,L|420:222,1,192.5
437,352,47907,6,0,L|431:309,1,27.5
318,361,48124,2,0,L|343:326,1,27.5
356,166,48341,2,0,L|339:204,1,27.5
244,125,48559,2,0,L|260:164,1,27.5
70,384,48844,6,0,P|108:364|109:235,1,165
0,253,49312,6,0,B|-5:281|50:266|52:299,1,73.3333333333333
193,204,49781,6,0,B|209:179|154:165|177:131,1,73.3333333333333
75,180,50250,6,0,P|69:132|109:64,1,110
118,23,50602,1,0,0:0:0:0:
162,99,50719,6,0,L|196:72,1,27.5
239,189,50953,2,0,L|246:146,1,27.5
350,24,51187,2,0,L|335:62,1,27.5
458,74,51422,2,0,L|419:90,1,27.5
327,223,51656,2,0,L|360:198,1,27.5
474,235,51890,2,0,L|408:223,1,55
169,280,52242,2,0,L|235:292,1,55
480,87,52594,6,0,B|509:41|436:29|386:55|458:115|447:193,1,192.5
314,317,53062,6,0,B|289:302|326:259|287:244,1,73.3333333333333
252,144,53531,6,0,B|251:173|195:162|202:203,1,73.3333333333333
114,276,54000,6,0,B|139:261|158:315|190:289,1,73.3333333333333
468,369,54410,6,0,L|273:317,1,192.5
37,343,54937,2,0,L|196:241,1,165
390,286,55407,6,0,L|347:280,1,27.5
399,167,55624,2,0,L|364:192,1,27.5
204,205,55841,2,0,L|232:192,1,27.5
163,93,56058,2,0,L|202:109,1,27.5
415,67,56344,6,0,B|448:106|339:116|303:202,1,165
215,61,56812,6,0,B|217:94|272:79|269:120,1,73.3333333333333
168,348,57281,6,0,B|194:335|153:295|190:277,1,73.3333333333333
390,297,57750,6,0,B|365:280|351:335|317:312,1,73.3333333333333
132,273,58160,6,0,L|332:247,1,192.5
489,220,58687,2,0,L|422:167,1,82.5
372,281,59156,6,0,L|367:249,1,27.5
283,288,59373,2,0,L|301:262,1,27.5
337,170,59590,2,0,L|324:198,1,27.5
253,139,59807,2,0,L|265:168,1,27.5
