osu file format v14

[General]
AudioFilename: audio.mp3
AudioLeadIn: 0
PreviewTime: 80307
Countdown: 0
SampleSet: Drum
StackLeniency: 0.7
Mode: 3
LetterboxInBreaks: 0
SpecialStyle: 0
WidescreenStoryboard: 1

[Editor]
Bookmarks: 12622,21230,50769,80307,109846
DistanceSpacing: 1
BeatDivisor: 6
GridSize: 32
TimelineZoom: 2.999999

[Metadata]
Title:Blind Boy
TitleUnicode:Blind Boy
Artist:Earl Stan
ArtistUnicode:Earl Stan
Creator:Geo_ooo
Version:Normal
Source:
Tags:Hip Hop Hip-Hop Rap English Emo Trap vocal dump polyrhythm poly tech
BeatmapID:3608358
BeatmapSetID:1762883

[Difficulty]
HPDrainRate:7.5
CircleSize:4
OverallDifficulty:7.5
ApproachRate:5
SliderMultiplier:1.4
SliderTickRate:1

[Events]
//Background and Video events
0,0,"53195-landscape-storm-moon-sky.jpg",0,0
//Break Periods
//Storyboard Layer 0 (Background)
//Storyboard Layer 1 (Fail)
//Storyboard Layer 2 (Pass)
//Storyboard Layer 3 (Foreground)
//Storyboard Layer 4 (Overlay)
//Storyboard Sound Samples

[TimingPoints]
12622,625,4,3,1,20,1,0
12622,-74.0740740740741,4,3,1,20,0,0
13872,588.235294117647,4,3,1,20,1,0
13872,-78.740157480315,4,3,1,20,0,0
15048,566.037735849056,4,3,1,20,1,0
15048,-81.3008130081301,4,3,1,20,0,0
16180,535.714285714285,4,3,1,20,1,0
16180,-86.2068965517241,4,3,1,20,0,0
17251,526.315789473684,4,3,1,20,1,0
17251,-87.719298245614,4,3,1,20,0,0
18303,504.201680672269,4,3,1,20,1,0
18303,-91.743119266055,4,3,1,20,0,0
19311,491.803278688525,4,3,1,20,1,0
19311,-93.4579439252336,4,3,1,20,0,0
20294,468.75,4,3,1,20,1,0
20294,-98.0392156862745,4,3,1,20,0,0
21231,461.538461538462,4,3,1,35,1,1
22154,-100,4,3,1,35,0,0
36000,-100,4,3,1,35,0,1
36923,-100,4,3,1,35,0,0
80307,-100,4,3,1,35,0,1
81231,-100,4,3,1,35,0,0
95077,-100,4,3,1,35,0,1
96000,-100,4,3,1,35,0,0
109846,-100,4,3,1,20,0,0
110307,500,4,3,1,20,1,0
110307,-92.5925925925926,4,3,1,20,0,0
111307,521.739130434783,4,3,1,20,1,0
111307,-88.495575221239,4,3,1,20,0,0
111828,545.454545454546,4,3,1,20,1,0
111828,-84.7457627118644,4,3,1,20,0,0
112373,571.428571428571,4,3,1,20,1,0
112373,-80.6451612903226,4,3,1,20,0,0
112944,585.365853658537,4,3,1,20,1,0
112944,-78.740157480315,4,3,1,20,0,0
113529,618.556701030928,4,3,1,20,1,0
113529,-74.6268656716418,4,3,1,20,0,0

[HitObjects]
64,192,12622,5,0,0:0:0:0:
448,192,13247,1,0,0:0:0:0:
192,192,13872,1,0,0:0:0:0:
320,192,14460,1,0,0:0:0:0:
192,192,14656,1,0,0:0:0:0:
320,192,14852,1,0,0:0:0:0:
64,192,15048,1,0,0:0:0:0:
448,192,15614,128,0,15897:0:0:0:0:
64,192,16180,1,0,0:0:0:0:
320,192,16715,1,0,0:0:0:0:
192,192,16894,1,0,0:0:0:0:
320,192,17072,1,0,0:0:0:0:
192,192,17251,1,0,0:0:0:0:
448,192,17777,1,0,0:0:0:0:
64,192,18303,1,0,0:0:0:0:
320,192,18807,1,0,0:0:0:0:
192,192,18975,1,0,0:0:0:0:
320,192,19143,1,0,0:0:0:0:
64,192,19311,1,0,0:0:0:0:
448,192,19802,128,0,20048:0:0:0:0:
64,192,20294,1,0,0:0:0:0:
320,192,20762,1,0,0:0:0:0:
192,192,20919,1,0,0:0:0:0:
320,192,21075,1,0,0:0:0:0:
64,192,21231,1,0,0:0:0:0:
192,192,21231,1,0,0:0:0:0:
64,192,21384,1,0,0:0:0:0:
64,192,21538,1,0,0:0:0:0:
448,192,21692,1,0,0:0:0:0:
320,192,21692,1,0,0:0:0:0:
448,192,21846,1,0,0:0:0:0:
448,192,22000,1,0,0:0:0:0:
192,192,22154,1,0,0:0:0:0:
64,192,22154,1,0,0:0:0:0:
64,192,22615,1,0,0:0:0:0:
192,192,22615,1,0,0:0:0:0:
320,192,22846,1,0,0:0:0:0:
448,192,22846,1,0,0:0:0:0:
64,192,23077,1,0,0:0:0:0:
320,192,23307,1,0,0:0:0:0:
448,192,23538,1,0,0:0:0:0:
192,192,23538,1,0,0:0:0:0:
64,192,23654,1,0,0:0:0:0:
448,192,23769,1,0,0:0:0:0:
64,192,24000,1,0,0:0:0:0:
192,192,24000,1,0,0:0:0:0:
320,192,24231,1,0,0:0:0:0:
448,192,24231,1,0,0:0:0:0:
64,192,24461,1,0,0:0:0:0:
448,192,24615,1,0,0:0:0:0:
64,192,24769,1,0,0:0:0:0:
320,192,24923,1,0,0:0:0:0:
448,192,24923,1,0,0:0:0:0:
448,192,25384,1,0,0:0:0:0:
64,192,25615,1,0,0:0:0:0:
320,192,25846,1,0,0:0:0:0:
448,192,25846,1,0,0:0:0:0:
64,192,26307,1,0,0:0:0:0:
192,192,26307,1,0,0:0:0:0:
320,192,26538,1,0,0:0:0:0:
448,192,26538,1,0,0:0:0:0:
192,192,26769,1,0,0:0:0:0:
448,192,27000,1,0,0:0:0:0:
64,192,27000,1,0,0:0:0:0:
192,192,27231,1,0,0:0:0:0:
320,192,27231,1,0,0:0:0:0:
448,192,27461,1,0,0:0:0:0:
64,192,27692,1,0,0:0:0:0:
192,192,27692,1,0,0:0:0:0:
320,192,27923,1,0,0:0:0:0:
448,192,27923,1,0,0:0:0:0:
64,192,28154,1,0,0:0:0:0:
448,192,28307,1,0,0:0:0:0:
64,192,28461,1,0,0:0:0:0:
448,192,28615,1,0,0:0:0:0:
320,192,28615,1,0,0:0:0:0:
64,192,29077,1,0,0:0:0:0:
320,192,29077,1,0,0:0:0:0:
192,192,29307,1,0,0:0:0:0:
320,192,29538,1,0,0:0:0:0:
448,192,29538,1,0,0:0:0:0:
320,192,30000,1,0,0:0:0:0:
448,192,30000,1,0,0:0:0:0:
64,192,30231,1,0,0:0:0:0:
192,192,30231,1,0,0:0:0:0:
320,192,30461,1,0,0:0:0:0:
448,192,30692,1,0,0:0:0:0:
64,192,30923,1,0,0:0:0:0:
320,192,30923,1,0,0:0:0:0:
448,192,31038,1,0,0:0:0:0:
64,192,31154,1,0,0:0:0:0:
192,192,31384,1,0,0:0:0:0:
448,192,31384,1,0,0:0:0:0:
64,192,31615,1,0,0:0:0:0:
320,192,31615,1,0,0:0:0:0:
448,192,31846,1,0,0:0:0:0:
64,192,32000,1,0,0:0:0:0:
448,192,32154,1,0,0:0:0:0:
192,192,32307,1,0,0:0:0:0:
64,192,32307,1,0,0:0:0:0:
320,192,32769,1,0,0:0:0:0:
192,192,33000,1,0,0:0:0:0:
320,192,33231,1,0,0:0:0:0:
448,192,33231,1,0,0:0:0:0:
448,192,33692,1,0,0:0:0:0:
192,192,33692,1,0,0:0:0:0:
64,192,33807,1,0,0:0:0:0:
448,192,33923,1,0,0:0:0:0:
192,192,34154,1,0,0:0:0:0:
320,192,34384,1,0,0:0:0:0:
64,192,34615,1,0,0:0:0:0:
448,192,34615,1,0,0:0:0:0:
192,192,34846,1,0,0:0:0:0:
64,192,35077,1,0,0:0:0:0:
320,192,35077,1,0,0:0:0:0:
448,192,35307,1,0,0:0:0:0:
192,192,35307,1,0,0:0:0:0:
320,192,35538,1,0,0:0:0:0:
192,192,35692,1,0,0:0:0:0:
320,192,35846,1,0,0:0:0:0:
64,192,36000,1,0,0:0:0:0:
192,192,36000,1,0,0:0:0:0:
64,192,36154,1,0,0:0:0:0:
64,192,36307,1,0,0:0:0:0:
448,192,36461,1,0,0:0:0:0:
320,192,36461,1,0,0:0:0:0:
448,192,36615,1,0,0:0:0:0:
448,192,36769,1,0,0:0:0:0:
192,192,36923,1,0,0:0:0:0:
64,192,36923,1,0,0:0:0:0:
320,192,37154,1,0,0:0:0:0:
64,192,37384,1,0,0:0:0:0:
192,192,37384,1,0,0:0:0:0:
320,192,37615,1,0,0:0:0:0:
448,192,37615,1,0,0:0:0:0:
64,192,37846,1,0,0:0:0:0:
448,192,38077,1,0,0:0:0:0:
320,192,38307,1,0,0:0:0:0:
64,192,38307,1,0,0:0:0:0:
448,192,38423,1,0,0:0:0:0:
64,192,38538,1,0,0:0:0:0:
192,192,38769,1,0,0:0:0:0:
448,192,38769,1,0,0:0:0:0:
320,192,39000,1,0,0:0:0:0:
64,192,39000,1,0,0:0:0:0:
448,192,39231,1,0,0:0:0:0:
64,192,39384,1,0,0:0:0:0:
448,192,39538,1,0,0:0:0:0:
192,192,39692,1,0,0:0:0:0:
64,192,39692,1,0,0:0:0:0:
320,192,40154,1,0,0:0:0:0:
64,192,40384,1,0,0:0:0:0:
192,192,40615,1,0,0:0:0:0:
448,192,40615,1,0,0:0:0:0:
320,192,40846,1,0,0:0:0:0:
64,192,41077,1,0,0:0:0:0:
192,192,41077,1,0,0:0:0:0:
320,192,41307,1,0,0:0:0:0:
448,192,41307,1,0,0:0:0:0:
192,192,41538,1,0,0:0:0:0:
64,192,41769,1,0,0:0:0:0:
448,192,41769,1,0,0:0:0:0:
320,192,42000,1,0,0:0:0:0:
448,192,42000,1,0,0:0:0:0:
192,192,42231,1,0,0:0:0:0:
64,192,42461,1,0,0:0:0:0:
320,192,42461,1,0,0:0:0:0:
448,192,42692,1,0,0:0:0:0:
192,192,42692,1,0,0:0:0:0:
64,192,42923,1,0,0:0:0:0:
448,192,43077,1,0,0:0:0:0:
64,192,43231,1,0,0:0:0:0:
448,192,43384,1,0,0:0:0:0:
320,192,43384,1,0,0:0:0:0:
64,192,43846,1,0,0:0:0:0:
448,192,43846,1,0,0:0:0:0:
192,192,44077,1,0,0:0:0:0:
320,192,44307,1,0,0:0:0:0:
448,192,44307,1,0,0:0:0:0:
192,192,44538,1,0,0:0:0:0:
64,192,44769,1,0,0:0:0:0:
448,192,44769,1,0,0:0:0:0:
192,192,45000,1,0,0:0:0:0:
320,192,45000,1,0,0:0:0:0:
448,192,45231,1,0,0:0:0:0:
192,192,45461,1,0,0:0:0:0:
64,192,45692,1,0,0:0:0:0:
320,192,45692,1,0,0:0:0:0:
448,192,45807,1,0,0:0:0:0:
64,192,45923,1,0,0:0:0:0:
192,192,46154,1,0,0:0:0:0:
448,192,46154,1,0,0:0:0:0:
320,192,46384,1,0,0:0:0:0:
64,192,46384,1,0,0:0:0:0:
448,192,46615,1,0,0:0:0:0:
64,192,46769,1,0,0:0:0:0:
448,192,46923,1,0,0:0:0:0:
192,192,47077,1,0,0:0:0:0:
64,192,47077,1,0,0:0:0:0:
320,192,47538,1,0,0:0:0:0:
64,192,47769,1,0,0:0:0:0:
320,192,48000,1,0,0:0:0:0:
448,192,48000,1,0,0:0:0:0:
64,192,48231,1,0,0:0:0:0:
192,192,48461,1,0,0:0:0:0:
448,192,48461,1,0,0:0:0:0:
64,192,48577,1,0,0:0:0:0:
448,192,48692,1,0,0:0:0:0:
192,192,48923,1,0,0:0:0:0:
320,192,49154,1,0,0:0:0:0:
64,192,49384,1,0,0:0:0:0:
192,192,49384,1,0,0:0:0:0:
448,192,49615,1,0,0:0:0:0:
64,192,49846,1,0,0:0:0:0:
320,192,49846,1,0,0:0:0:0:
448,192,50077,1,0,0:0:0:0:
192,192,50077,1,0,0:0:0:0:
64,192,50307,1,0,0:0:0:0:
448,192,50461,1,0,0:0:0:0:
64,192,50615,1,0,0:0:0:0:
448,192,50769,1,0,0:0:0:0:
320,192,51231,1,0,0:0:0:0:
192,192,51461,1,0,0:0:0:0:
448,192,51692,128,0,51807:0:0:0:0:
320,192,52154,1,0,0:0:0:0:
192,192,52384,1,0,0:0:0:0:
320,192,53077,1,0,0:0:0:0:
192,192,53307,1,0,0:0:0:0:
448,192,53538,128,0,53654:0:0:0:0:
448,192,54000,1,0,0:0:0:0:
64,192,54154,1,0,0:0:0:0:
448,192,54307,1,0,0:0:0:0:
64,192,54461,1,0,0:0:0:0:
192,192,54923,1,0,0:0:0:0:
320,192,55154,1,0,0:0:0:0:
64,192,55384,128,0,55500:0:0:0:0:
192,192,55846,1,0,0:0:0:0:
320,192,56077,1,0,0:0:0:0:
192,192,56769,1,0,0:0:0:0:
320,192,57000,1,0,0:0:0:0:
64,192,57231,128,0,57346:0:0:0:0:
64,192,57692,1,0,0:0:0:0:
448,192,57846,1,0,0:0:0:0:
64,192,58000,1,0,0:0:0:0:
448,192,58154,1,0,0:0:0:0:
448,192,58615,1,0,0:0:0:0:
192,192,58846,1,0,0:0:0:0:
320,192,59077,128,0,59192:0:0:0:0:
448,192,59538,1,0,0:0:0:0:
192,192,59769,1,0,0:0:0:0:
448,192,60461,1,0,0:0:0:0:
192,192,60692,1,0,0:0:0:0:
320,192,60923,128,0,61038:0:0:0:0:
320,192,61384,1,0,0:0:0:0:
64,192,61538,1,0,0:0:0:0:
320,192,61692,1,0,0:0:0:0:
64,192,61846,1,0,0:0:0:0:
64,192,62307,1,0,0:0:0:0:
320,192,62538,1,0,0:0:0:0:
192,192,62769,128,0,62884:0:0:0:0:
448,192,63231,1,0,0:0:0:0:
192,192,63461,1,0,0:0:0:0:
192,192,64154,1,0,0:0:0:0:
320,192,64384,1,0,0:0:0:0:
64,192,64615,128,0,64731:0:0:0:0:
192,192,65077,1,0,0:0:0:0:
448,192,65231,1,0,0:0:0:0:
192,192,65384,1,0,0:0:0:0:
448,192,65538,1,0,0:0:0:0:
320,192,65846,1,0,0:0:0:0:
192,192,66000,1,0,0:0:0:0:
448,192,66307,1,0,0:0:0:0:
192,192,66461,1,0,0:0:0:0:
64,192,66461,1,0,0:0:0:0:
448,192,66923,1,0,0:0:0:0:
64,192,67077,1,0,0:0:0:0:
448,192,67231,1,0,0:0:0:0:
64,192,67384,1,0,0:0:0:0:
320,192,67615,1,0,0:0:0:0:
192,192,67846,1,0,0:0:0:0:
448,192,68077,1,0,0:0:0:0:
320,192,68307,1,0,0:0:0:0:
64,192,68307,1,0,0:0:0:0:
64,192,68769,1,0,0:0:0:0:
448,192,68923,1,0,0:0:0:0:
64,192,69077,1,0,0:0:0:0:
448,192,69231,1,0,0:0:0:0:
320,192,69538,1,0,0:0:0:0:
192,192,69692,1,0,0:0:0:0:
448,192,70000,1,0,0:0:0:0:
64,192,70154,1,0,0:0:0:0:
192,192,70154,1,0,0:0:0:0:
448,192,70615,1,0,0:0:0:0:
64,192,70769,1,0,0:0:0:0:
448,192,70923,1,0,0:0:0:0:
64,192,71077,1,0,0:0:0:0:
320,192,71307,1,0,0:0:0:0:
192,192,71538,1,0,0:0:0:0:
448,192,71769,1,0,0:0:0:0:
64,192,72000,1,0,0:0:0:0:
320,192,72000,1,0,0:0:0:0:
64,192,72461,1,0,0:0:0:0:
448,192,72615,1,0,0:0:0:0:
64,192,72769,1,0,0:0:0:0:
448,192,72923,1,0,0:0:0:0:
192,192,73231,1,0,0:0:0:0:
320,192,73384,1,0,0:0:0:0:
64,192,73692,1,0,0:0:0:0:
320,192,73846,1,0,0:0:0:0:
448,192,73846,1,0,0:0:0:0:
64,192,74307,1,0,0:0:0:0:
448,192,74461,1,0,0:0:0:0:
64,192,74615,1,0,0:0:0:0:
448,192,74769,1,0,0:0:0:0:
192,192,75000,1,0,0:0:0:0:
320,192,75231,1,0,0:0:0:0:
64,192,75461,1,0,0:0:0:0:
192,192,75692,1,0,0:0:0:0:
448,192,75692,1,0,0:0:0:0:
448,192,76154,1,0,0:0:0:0:
64,192,76307,1,0,0:0:0:0:
448,192,76461,1,0,0:0:0:0:
64,192,76615,1,0,0:0:0:0:
192,192,76892,1,0,0:0:0:0:
320,192,77077,1,0,0:0:0:0:
192,192,77340,1,0,0:0:0:0:
320,192,77538,1,0,0:0:0:0:
448,192,77538,1,0,0:0:0:0:
448,192,78000,1,0,0:0:0:0:
64,192,78154,1,0,0:0:0:0:
448,192,78307,1,0,0:0:0:0:
64,192,78461,1,0,0:0:0:0:
320,192,79846,5,0,0:0:0:0:
192,192,79961,1,0,0:0:0:0:
448,192,80077,1,0,0:0:0:0:
64,192,80307,5,0,0:0:0:0:
192,192,80307,1,0,0:0:0:0:
64,192,80461,1,0,0:0:0:0:
64,192,80615,1,0,0:0:0:0:
448,192,80769,1,0,0:0:0:0:
320,192,80769,1,0,0:0:0:0:
448,192,80923,1,0,0:0:0:0:
448,192,81077,1,0,0:0:0:0:
192,192,81231,1,0,0:0:0:0:
64,192,81231,1,0,0:0:0:0:
64,192,81692,1,0,0:0:0:0:
192,192,81692,1,0,0:0:0:0:
320,192,81923,1,0,0:0:0:0:
448,192,81923,1,0,0:0:0:0:
64,192,82154,1,0,0:0:0:0:
320,192,82384,1,0,0:0:0:0:
448,192,82615,1,0,0:0:0:0:
192,192,82615,1,0,0:0:0:0:
64,192,82731,1,0,0:0:0:0:
448,192,82846,1,0,0:0:0:0:
64,192,83077,1,0,0:0:0:0:
192,192,83077,1,0,0:0:0:0:
320,192,83307,1,0,0:0:0:0:
448,192,83307,1,0,0:0:0:0:
64,192,83538,1,0,0:0:0:0:
448,192,83692,1,0,0:0:0:0:
64,192,83846,1,0,0:0:0:0:
320,192,84000,1,0,0:0:0:0:
448,192,84000,1,0,0:0:0:0:
448,192,84461,1,0,0:0:0:0:
64,192,84692,1,0,0:0:0:0:
320,192,84923,1,0,0:0:0:0:
448,192,84923,1,0,0:0:0:0:
64,192,85384,1,0,0:0:0:0:
192,192,85384,1,0,0:0:0:0:
320,192,85615,1,0,0:0:0:0:
448,192,85615,1,0,0:0:0:0:
192,192,85846,1,0,0:0:0:0:
448,192,86077,1,0,0:0:0:0:
64,192,86077,1,0,0:0:0:0:
192,192,86307,1,0,0:0:0:0:
320,192,86307,1,0,0:0:0:0:
448,192,86538,1,0,0:0:0:0:
64,192,86769,1,0,0:0:0:0:
192,192,86769,1,0,0:0:0:0:
320,192,87000,1,0,0:0:0:0:
448,192,87000,1,0,0:0:0:0:
64,192,87231,1,0,0:0:0:0:
448,192,87384,1,0,0:0:0:0:
64,192,87538,1,0,0:0:0:0:
448,192,87692,1,0,0:0:0:0:
320,192,87692,1,0,0:0:0:0:
64,192,88154,1,0,0:0:0:0:
320,192,88154,1,0,0:0:0:0:
192,192,88384,1,0,0:0:0:0:
320,192,88615,1,0,0:0:0:0:
448,192,88615,1,0,0:0:0:0:
320,192,89077,1,0,0:0:0:0:
448,192,89077,1,0,0:0:0:0:
64,192,89307,1,0,0:0:0:0:
192,192,89307,1,0,0:0:0:0:
320,192,89538,1,0,0:0:0:0:
448,192,89769,1,0,0:0:0:0:
64,192,90000,1,0,0:0:0:0:
320,192,90000,1,0,0:0:0:0:
448,192,90115,1,0,0:0:0:0:
64,192,90231,1,0,0:0:0:0:
192,192,90461,1,0,0:0:0:0:
448,192,90461,1,0,0:0:0:0:
64,192,90692,1,0,0:0:0:0:
320,192,90692,1,0,0:0:0:0:
448,192,90923,1,0,0:0:0:0:
64,192,91077,1,0,0:0:0:0:
448,192,91231,1,0,0:0:0:0:
192,192,91384,1,0,0:0:0:0:
64,192,91384,1,0,0:0:0:0:
320,192,91846,1,0,0:0:0:0:
192,192,92077,1,0,0:0:0:0:
320,192,92307,1,0,0:0:0:0:
448,192,92307,1,0,0:0:0:0:
448,192,92769,1,0,0:0:0:0:
192,192,92769,1,0,0:0:0:0:
64,192,92884,1,0,0:0:0:0:
448,192,93000,1,0,0:0:0:0:
192,192,93231,1,0,0:0:0:0:
320,192,93461,1,0,0:0:0:0:
64,192,93692,1,0,0:0:0:0:
448,192,93692,1,0,0:0:0:0:
192,192,93923,1,0,0:0:0:0:
64,192,94154,1,0,0:0:0:0:
320,192,94154,1,0,0:0:0:0:
448,192,94384,1,0,0:0:0:0:
192,192,94384,1,0,0:0:0:0:
320,192,94615,1,0,0:0:0:0:
192,192,94769,1,0,0:0:0:0:
320,192,94923,1,0,0:0:0:0:
64,192,95077,1,0,0:0:0:0:
192,192,95077,1,0,0:0:0:0:
64,192,95231,1,0,0:0:0:0:
64,192,95384,1,0,0:0:0:0:
448,192,95538,1,0,0:0:0:0:
320,192,95538,1,0,0:0:0:0:
448,192,95692,1,0,0:0:0:0:
448,192,95846,1,0,0:0:0:0:
192,192,96000,1,0,0:0:0:0:
64,192,96000,1,0,0:0:0:0:
320,192,96231,1,0,0:0:0:0:
64,192,96461,1,0,0:0:0:0:
192,192,96461,1,0,0:0:0:0:
320,192,96692,1,0,0:0:0:0:
448,192,96692,1,0,0:0:0:0:
64,192,96923,1,0,0:0:0:0:
448,192,97154,1,0,0:0:0:0:
320,192,97384,1,0,0:0:0:0:
64,192,97384,1,0,0:0:0:0:
448,192,97500,1,0,0:0:0:0:
64,192,97615,1,0,0:0:0:0:
192,192,97846,1,0,0:0:0:0:
448,192,97846,1,0,0:0:0:0:
320,192,98077,1,0,0:0:0:0:
64,192,98077,1,0,0:0:0:0:
448,192,98307,1,0,0:0:0:0:
64,192,98461,1,0,0:0:0:0:
448,192,98615,1,0,0:0:0:0:
192,192,98769,1,0,0:0:0:0:
64,192,98769,1,0,0:0:0:0:
320,192,99231,1,0,0:0:0:0:
64,192,99461,1,0,0:0:0:0:
192,192,99692,1,0,0:0:0:0:
448,192,99692,1,0,0:0:0:0:
320,192,99923,1,0,0:0:0:0:
64,192,100154,1,0,0:0:0:0:
192,192,100154,1,0,0:0:0:0:
320,192,100384,1,0,0:0:0:0:
448,192,100384,1,0,0:0:0:0:
192,192,100615,1,0,0:0:0:0:
64,192,100846,1,0,0:0:0:0:
448,192,100846,1,0,0:0:0:0:
320,192,101077,1,0,0:0:0:0:
448,192,101077,1,0,0:0:0:0:
192,192,101307,1,0,0:0:0:0:
64,192,101538,1,0,0:0:0:0:
320,192,101538,1,0,0:0:0:0:
448,192,101769,1,0,0:0:0:0:
192,192,101769,1,0,0:0:0:0:
64,192,102000,1,0,0:0:0:0:
448,192,102154,1,0,0:0:0:0:
64,192,102307,1,0,0:0:0:0:
448,192,102461,1,0,0:0:0:0:
320,192,102461,1,0,0:0:0:0:
64,192,102923,1,0,0:0:0:0:
448,192,102923,1,0,0:0:0:0:
192,192,103154,1,0,0:0:0:0:
320,192,103384,1,0,0:0:0:0:
448,192,103384,1,0,0:0:0:0:
192,192,103615,1,0,0:0:0:0:
64,192,103846,1,0,0:0:0:0:
448,192,103846,1,0,0:0:0:0:
192,192,104077,1,0,0:0:0:0:
320,192,104077,1,0,0:0:0:0:
448,192,104307,1,0,0:0:0:0:
192,192,104538,1,0,0:0:0:0:
64,192,104769,1,0,0:0:0:0:
320,192,104769,1,0,0:0:0:0:
448,192,104884,1,0,0:0:0:0:
64,192,105000,1,0,0:0:0:0:
192,192,105231,1,0,0:0:0:0:
448,192,105231,1,0,0:0:0:0:
320,192,105461,1,0,0:0:0:0:
64,192,105461,1,0,0:0:0:0:
448,192,105692,1,0,0:0:0:0:
64,192,105846,1,0,0:0:0:0:
448,192,106000,1,0,0:0:0:0:
192,192,106154,1,0,0:0:0:0:
64,192,106154,1,0,0:0:0:0:
320,192,106615,1,0,0:0:0:0:
64,192,106846,1,0,0:0:0:0:
320,192,107077,1,0,0:0:0:0:
448,192,107077,1,0,0:0:0:0:
64,192,107307,1,0,0:0:0:0:
192,192,107538,1,0,0:0:0:0:
448,192,107538,1,0,0:0:0:0:
64,192,107654,1,0,0:0:0:0:
448,192,107769,1,0,0:0:0:0:
192,192,108000,1,0,0:0:0:0:
320,192,108231,1,0,0:0:0:0:
64,192,108461,1,0,0:0:0:0:
192,192,108461,1,0,0:0:0:0:
448,192,108692,1,0,0:0:0:0:
64,192,108923,1,0,0:0:0:0:
320,192,108923,1,0,0:0:0:0:
448,192,109154,1,0,0:0:0:0:
192,192,109154,1,0,0:0:0:0:
64,192,109384,1,0,0:0:0:0:
448,192,109538,1,0,0:0:0:0:
64,192,109692,1,0,0:0:0:0:
192,192,109846,1,0,0:0:0:0:
448,192,110307,1,0,0:0:0:0:
64,192,110807,1,0,0:0:0:0:
448,192,111307,1,0,0:0:0:0:
64,192,111828,1,0,0:0:0:0:
320,192,112373,1,0,0:0:0:0:
192,192,112944,1,0,0:0:0:0:
448,192,113529,1,0,0:0:0:0:
64,192,114147,1,0,0:0:0:0:
