osu file format v14

[General]
AudioFilename: audio_1.12.mp3
AudioLeadIn: 0
PreviewTime: 75700
Countdown: 0
SampleSet: None
StackLeniency: 0.7
Mode: 3
LetterboxInBreaks: 0
SpecialStyle: 0
WidescreenStoryboard: 0

[Editor]
Bookmarks: 22758,34103,54272,75700
DistanceSpacing: 0.1
BeatDivisor: 4
GridSize: 32
TimelineZoom: 1.3

[Metadata]
Title:Super Lovely
TitleUnicode:Super Lovely
Artist:EarBreaker
ArtistUnicode:EarBreaker
Creator:Kawawa
Version:x1.12(190)
Source:
Tags:
BeatmapID:1902629
BeatmapSetID:911477

[Difficulty]
HPDrainRate:8
CircleSize:7
OverallDifficulty:8
ApproachRate:5
SliderMultiplier:1.4
SliderTickRate:1

[Events]
//Background and Video events
0,0,"1-BG.jpg",0,0
//Break Periods
//Storyboard Layer 0 (Background)
//Storyboard Layer 1 (Fail)
//Storyboard Layer 2 (Pass)
//Storyboard Layer 3 (Foreground)
//Storyboard Sound Samples

[TimingPoints]
1322,315.126050420168,4,3,1,0,1,0

[HitObjects]
475,192,1322,5,0,0:0:0:0:
182,192,1322,1,0,0:0:0:0:
329,192,1322,1,0,0:0:0:0:
402,192,1322,1,0,0:0:0:0:
36,192,1400,1,0,0:0:0:0:
109,192,1400,1,0,0:0:0:0:
256,192,1400,1,0,0:0:0:0:
402,192,1637,1,0,0:0:0:0:
475,192,1637,1,0,0:0:0:0:
36,192,1715,1,0,0:0:0:0:
109,192,1715,1,0,0:0:0:0:
256,192,1715,1,0,0:0:0:0:
475,192,1794,1,0,0:0:0:0:
402,192,1794,1,0,0:0:0:0:
36,192,1873,1,0,0:0:0:0:
109,192,1873,1,0,0:0:0:0:
256,192,1873,1,0,0:0:0:0:
329,192,2031,1,0,0:0:0:0:
182,192,2031,1,0,0:0:0:0:
36,192,2109,1,0,0:0:0:0:
475,192,2109,1,0,0:0:0:0:
329,192,2188,1,0,0:0:0:0:
182,192,2188,1,0,0:0:0:0:
36,192,2267,1,0,0:0:0:0:
475,192,2267,1,0,0:0:0:0:
329,192,2346,1,0,0:0:0:0:
182,192,2346,1,0,0:0:0:0:
36,192,2424,1,0,0:0:0:0:
475,192,2424,1,0,0:0:0:0:
182,192,2503,1,0,0:0:0:0:
329,192,2503,1,0,0:0:0:0:
256,192,2582,1,0,0:0:0:0:
402,192,2582,1,0,0:0:0:0:
109,192,2582,1,0,0:0:0:0:
36,192,2582,1,0,0:0:0:0:
475,192,2582,1,0,0:0:0:0:
329,192,2661,1,0,0:0:0:0:
182,192,2661,1,0,0:0:0:0:
36,192,2740,1,0,0:0:0:0:
475,192,2740,1,0,0:0:0:0:
256,192,2740,1,0,0:0:0:0:
329,192,2818,1,0,0:0:0:0:
109,192,2818,1,0,0:0:0:0:
475,192,2897,1,0,0:0:0:0:
36,192,2897,1,0,0:0:0:0:
182,192,2897,1,0,0:0:0:0:
402,192,2897,1,0,0:0:0:0:
329,192,2976,1,0,0:0:0:0:
256,192,3055,1,0,0:0:0:0:
36,192,3055,1,0,0:0:0:0:
109,192,3055,1,0,0:0:0:0:
475,192,3055,1,0,0:0:0:0:
402,192,3133,1,0,0:0:0:0:
182,192,3212,1,0,0:0:0:0:
475,192,3212,1,0,0:0:0:0:
329,192,3212,1,0,0:0:0:0:
109,192,3212,1,0,0:0:0:0:
36,192,3212,1,0,0:0:0:0:
256,192,3291,1,0,0:0:0:0:
109,192,3370,1,0,0:0:0:0:
36,192,3370,1,0,0:0:0:0:
329,192,3370,1,0,0:0:0:0:
475,192,3370,1,0,0:0:0:0:
182,192,3449,1,0,0:0:0:0:
36,192,3527,1,0,0:0:0:0:
109,192,3527,1,0,0:0:0:0:
256,192,3527,1,0,0:0:0:0:
402,192,3527,1,0,0:0:0:0:
475,192,3606,1,0,0:0:0:0:
329,192,3606,1,0,0:0:0:0:
109,192,3685,1,0,0:0:0:0:
402,192,3685,1,0,0:0:0:0:
256,192,3685,1,0,0:0:0:0:
182,192,3764,1,0,0:0:0:0:
329,192,3764,1,0,0:0:0:0:
475,192,3843,1,0,0:0:0:0:
402,192,3843,1,0,0:0:0:0:
256,192,3843,1,0,0:0:0:0:
36,192,3843,1,0,0:0:0:0:
329,192,3921,1,0,0:0:0:0:
109,192,3921,1,0,0:0:0:0:
36,192,4000,1,0,0:0:0:0:
182,192,4000,1,0,0:0:0:0:
402,192,4000,1,0,0:0:0:0:
475,192,4079,1,0,0:0:0:0:
256,192,4079,1,0,0:0:0:0:
329,192,4158,1,0,0:0:0:0:
182,192,4158,1,0,0:0:0:0:
36,192,4158,1,0,0:0:0:0:
402,192,4158,1,0,0:0:0:0:
475,192,4236,1,0,0:0:0:0:
109,192,4236,1,0,0:0:0:0:
402,192,4315,1,0,0:0:0:0:
256,192,4315,1,0,0:0:0:0:
36,192,4315,1,0,0:0:0:0:
329,192,4394,1,0,0:0:0:0:
182,192,4394,1,0,0:0:0:0:
475,192,4473,1,0,0:0:0:0:
36,192,4473,1,0,0:0:0:0:
402,192,4473,1,0,0:0:0:0:
256,192,4473,1,0,0:0:0:0:
109,192,4552,1,0,0:0:0:0:
475,192,4630,1,0,0:0:0:0:
36,192,4630,1,0,0:0:0:0:
182,192,4630,1,0,0:0:0:0:
329,192,4630,1,0,0:0:0:0:
256,192,4709,1,0,0:0:0:0:
36,192,4788,1,0,0:0:0:0:
109,192,4788,1,0,0:0:0:0:
402,192,4788,1,0,0:0:0:0:
475,192,4788,1,0,0:0:0:0:
329,192,4788,1,0,0:0:0:0:
182,192,4867,1,0,0:0:0:0:
109,192,4945,1,0,0:0:0:0:
475,192,4945,1,0,0:0:0:0:
256,192,4945,1,0,0:0:0:0:
36,192,4945,1,0,0:0:0:0:
402,192,5024,1,0,0:0:0:0:
475,192,5103,1,0,0:0:0:0:
36,192,5103,1,0,0:0:0:0:
329,192,5103,1,0,0:0:0:0:
182,192,5103,1,0,0:0:0:0:
109,192,5182,1,0,0:0:0:0:
256,192,5182,1,0,0:0:0:0:
36,192,5261,1,0,0:0:0:0:
182,192,5261,1,0,0:0:0:0:
329,192,5261,1,0,0:0:0:0:
402,192,5339,1,0,0:0:0:0:
256,192,5339,1,0,0:0:0:0:
36,192,5418,1,0,0:0:0:0:
329,192,5418,1,0,0:0:0:0:
475,192,5418,1,0,0:0:0:0:
109,192,5418,1,0,0:0:0:0:
182,192,5497,1,0,0:0:0:0:
475,192,5576,1,0,0:0:0:0:
36,192,5576,1,0,0:0:0:0:
256,192,5576,1,0,0:0:0:0:
109,192,5576,1,0,0:0:0:0:
402,192,5654,1,0,0:0:0:0:
36,192,5733,1,0,0:0:0:0:
475,192,5733,1,0,0:0:0:0:
182,192,5733,1,0,0:0:0:0:
109,192,5733,1,0,0:0:0:0:
329,192,5733,1,0,0:0:0:0:
256,192,5812,1,0,0:0:0:0:
475,192,5891,1,0,0:0:0:0:
329,192,5891,1,0,0:0:0:0:
402,192,5891,1,0,0:0:0:0:
109,192,5891,1,0,0:0:0:0:
36,192,5891,1,0,0:0:0:0:
182,192,5970,1,0,0:0:0:0:
402,192,6048,1,0,0:0:0:0:
475,192,6048,1,0,0:0:0:0:
36,192,6048,1,0,0:0:0:0:
329,192,6048,1,0,0:0:0:0:
109,192,6048,1,0,0:0:0:0:
256,192,6127,1,0,0:0:0:0:
109,192,6206,1,0,0:0:0:0:
36,192,6206,1,0,0:0:0:0:
182,192,6206,1,0,0:0:0:0:
402,192,6206,1,0,0:0:0:0:
475,192,6206,1,0,0:0:0:0:
256,192,6285,1,0,0:0:0:0:
109,192,6364,1,0,0:0:0:0:
475,192,6364,1,0,0:0:0:0:
329,192,6364,1,0,0:0:0:0:
36,192,6364,1,0,0:0:0:0:
402,192,6442,1,0,0:0:0:0:
182,192,6442,1,0,0:0:0:0:
475,192,6521,1,0,0:0:0:0:
109,192,6521,1,0,0:0:0:0:
256,192,6521,1,0,0:0:0:0:
36,192,6521,1,0,0:0:0:0:
329,192,6600,1,0,0:0:0:0:
402,192,6679,1,0,0:0:0:0:
475,192,6679,1,0,0:0:0:0:
36,192,6679,1,0,0:0:0:0:
182,192,6679,1,0,0:0:0:0:
109,192,6757,1,0,0:0:0:0:
329,192,6757,1,0,0:0:0:0:
36,192,6836,1,0,0:0:0:0:
402,192,6836,1,0,0:0:0:0:
475,192,6836,1,0,0:0:0:0:
256,192,6836,1,0,0:0:0:0:
182,192,6915,1,0,0:0:0:0:
475,192,6994,1,0,0:0:0:0:
109,192,6994,1,0,0:0:0:0:
329,192,6994,1,0,0:0:0:0:
36,192,6994,1,0,0:0:0:0:
256,192,7073,1,0,0:0:0:0:
402,192,7073,1,0,0:0:0:0:
329,192,7151,1,0,0:0:0:0:
475,192,7151,1,0,0:0:0:0:
109,192,7151,1,0,0:0:0:0:
36,192,7151,1,0,0:0:0:0:
182,192,7230,1,0,0:0:0:0:
475,192,7309,1,0,0:0:0:0:
36,192,7309,1,0,0:0:0:0:
402,192,7309,1,0,0:0:0:0:
256,192,7309,1,0,0:0:0:0:
109,192,7388,1,0,0:0:0:0:
329,192,7388,1,0,0:0:0:0:
36,192,7466,1,0,0:0:0:0:
475,192,7466,1,0,0:0:0:0:
402,192,7466,1,0,0:0:0:0:
182,192,7466,1,0,0:0:0:0:
402,192,7624,1,0,0:0:0:0:
475,192,7624,1,0,0:0:0:0:
256,192,7624,1,0,0:0:0:0:
109,192,7624,1,0,0:0:0:0:
36,192,7624,1,0,0:0:0:0:
182,192,7703,1,0,0:0:0:0:
329,192,7703,1,0,0:0:0:0:
256,192,7782,1,0,0:0:0:0:
475,192,7782,1,0,0:0:0:0:
36,192,7782,1,0,0:0:0:0:
109,192,7860,1,0,0:0:0:0:
402,192,7860,1,0,0:0:0:0:
182,192,7939,1,0,0:0:0:0:
329,192,7939,1,0,0:0:0:0:
475,192,7939,1,0,0:0:0:0:
36,192,7939,1,0,0:0:0:0:
402,192,8018,1,0,0:0:0:0:
109,192,8097,1,0,0:0:0:0:
475,192,8097,1,0,0:0:0:0:
256,192,8097,1,0,0:0:0:0:
36,192,8097,1,0,0:0:0:0:
182,192,8175,1,0,0:0:0:0:
109,192,8254,1,0,0:0:0:0:
36,192,8254,1,0,0:0:0:0:
329,192,8254,1,0,0:0:0:0:
402,192,8254,1,0,0:0:0:0:
475,192,8254,1,0,0:0:0:0:
256,192,8333,1,0,0:0:0:0:
402,192,8412,1,0,0:0:0:0:
475,192,8412,1,0,0:0:0:0:
182,192,8412,1,0,0:0:0:0:
36,192,8412,1,0,0:0:0:0:
329,192,8491,1,0,0:0:0:0:
109,192,8569,1,0,0:0:0:0:
475,192,8569,1,0,0:0:0:0:
36,192,8569,1,0,0:0:0:0:
256,192,8569,1,0,0:0:0:0:
182,192,8648,1,0,0:0:0:0:
402,192,8648,1,0,0:0:0:0:
475,192,8727,1,0,0:0:0:0:
329,192,8727,1,0,0:0:0:0:
36,192,8727,1,0,0:0:0:0:
256,192,8806,1,0,0:0:0:0:
109,192,8806,1,0,0:0:0:0:
182,192,8885,1,0,0:0:0:0:
36,192,8885,1,0,0:0:0:0:
475,192,8885,1,0,0:0:0:0:
329,192,8885,1,0,0:0:0:0:
256,192,8963,1,0,0:0:0:0:
402,192,8963,1,0,0:0:0:0:
475,192,9042,1,0,0:0:0:0:
109,192,9042,1,0,0:0:0:0:
36,192,9042,1,0,0:0:0:0:
182,192,9121,1,0,0:0:0:0:
329,192,9121,1,0,0:0:0:0:
36,192,9200,1,0,0:0:0:0:
109,192,9200,1,0,0:0:0:0:
475,192,9200,1,0,0:0:0:0:
256,192,9200,1,0,0:0:0:0:
402,192,9278,1,0,0:0:0:0:
182,192,9357,1,0,0:0:0:0:
36,192,9357,1,0,0:0:0:0:
329,192,9357,1,0,0:0:0:0:
109,192,9357,1,0,0:0:0:0:
256,192,9436,1,0,0:0:0:0:
329,192,9515,1,0,0:0:0:0:
109,192,9515,1,0,0:0:0:0:
475,192,9515,1,0,0:0:0:0:
36,192,9515,1,0,0:0:0:0:
402,192,9594,1,0,0:0:0:0:
182,192,9594,1,0,0:0:0:0:
256,192,9672,1,0,0:0:0:0:
36,192,9672,1,0,0:0:0:0:
475,192,9672,1,0,0:0:0:0:
329,192,9751,1,0,0:0:0:0:
109,192,9751,1,0,0:0:0:0:
475,192,9830,1,0,0:0:0:0:
182,192,9830,1,0,0:0:0:0:
36,192,9830,1,0,0:0:0:0:
402,192,9830,1,0,0:0:0:0:
329,192,9909,1,0,0:0:0:0:
256,192,9987,1,0,0:0:0:0:
36,192,9987,1,0,0:0:0:0:
109,192,9987,1,0,0:0:0:0:
475,192,9987,1,0,0:0:0:0:
402,192,10066,1,0,0:0:0:0:
329,192,10145,1,0,0:0:0:0:
182,192,10145,1,0,0:0:0:0:
475,192,10145,1,0,0:0:0:0:
36,192,10145,1,0,0:0:0:0:
402,192,10224,1,0,0:0:0:0:
256,192,10224,1,0,0:0:0:0:
109,192,10224,1,0,0:0:0:0:
36,192,10303,1,0,0:0:0:0:
329,192,10303,1,0,0:0:0:0:
182,192,10303,1,0,0:0:0:0:
256,192,10381,1,0,0:0:0:0:
475,192,10381,1,0,0:0:0:0:
402,192,10381,1,0,0:0:0:0:
109,192,10460,1,0,0:0:0:0:
329,192,10460,1,0,0:0:0:0:
36,192,10460,1,0,0:0:0:0:
475,192,10539,1,0,0:0:0:0:
402,192,10539,1,0,0:0:0:0:
182,192,10539,1,0,0:0:0:0:
256,192,10618,1,0,0:0:0:0:
109,192,10618,1,0,0:0:0:0:
36,192,10618,1,0,0:0:0:0:
475,192,10696,1,0,0:0:0:0:
402,192,10696,1,0,0:0:0:0:
329,192,10696,1,0,0:0:0:0:
182,192,10775,1,0,0:0:0:0:
109,192,10775,1,0,0:0:0:0:
36,192,10775,1,0,0:0:0:0:
475,192,10854,1,0,0:0:0:0:
402,192,10854,1,0,0:0:0:0:
329,192,10854,1,0,0:0:0:0:
36,192,10933,1,0,0:0:0:0:
109,192,10933,1,0,0:0:0:0:
256,192,10933,1,0,0:0:0:0:
475,192,11012,1,0,0:0:0:0:
402,192,11012,1,0,0:0:0:0:
182,192,11012,1,0,0:0:0:0:
109,192,11090,1,0,0:0:0:0:
36,192,11090,1,0,0:0:0:0:
329,192,11090,1,0,0:0:0:0:
475,192,11169,1,0,0:0:0:0:
402,192,11169,1,0,0:0:0:0:
256,192,11169,1,0,0:0:0:0:
329,192,11248,1,0,0:0:0:0:
36,192,11248,1,0,0:0:0:0:
182,192,11248,1,0,0:0:0:0:
402,192,11327,1,0,0:0:0:0:
256,192,11327,1,0,0:0:0:0:
109,192,11327,1,0,0:0:0:0:
475,192,11406,1,0,0:0:0:0:
329,192,11406,1,0,0:0:0:0:
182,192,11406,1,0,0:0:0:0:
256,192,11484,1,0,0:0:0:0:
36,192,11484,1,0,0:0:0:0:
109,192,11484,1,0,0:0:0:0:
402,192,11563,1,0,0:0:0:0:
182,192,11563,1,0,0:0:0:0:
475,192,11563,1,0,0:0:0:0:
109,192,11642,1,0,0:0:0:0:
36,192,11642,1,0,0:0:0:0:
329,192,11642,1,0,0:0:0:0:
402,192,11721,1,0,0:0:0:0:
256,192,11721,1,0,0:0:0:0:
475,192,11721,1,0,0:0:0:0:
36,192,11799,1,0,0:0:0:0:
182,192,11799,1,0,0:0:0:0:
109,192,11799,1,0,0:0:0:0:
402,192,11878,1,0,0:0:0:0:
329,192,11878,1,0,0:0:0:0:
475,192,11878,1,0,0:0:0:0:
109,192,11957,1,0,0:0:0:0:
36,192,11957,1,0,0:0:0:0:
256,192,11957,1,0,0:0:0:0:
475,192,12036,1,0,0:0:0:0:
182,192,12036,1,0,0:0:0:0:
329,192,12036,1,0,0:0:0:0:
36,192,12115,1,0,0:0:0:0:
256,192,12115,1,0,0:0:0:0:
402,192,12115,1,0,0:0:0:0:
329,192,12193,1,0,0:0:0:0:
109,192,12193,1,0,0:0:0:0:
475,192,12193,1,0,0:0:0:0:
402,192,12272,1,0,0:0:0:0:
182,192,12272,1,0,0:0:0:0:
36,192,12272,1,0,0:0:0:0:
109,192,12351,1,0,0:0:0:0:
475,192,12351,1,0,0:0:0:0:
256,192,12351,1,0,0:0:0:0:
36,192,12430,1,0,0:0:0:0:
182,192,12430,1,0,0:0:0:0:
329,192,12430,1,0,0:0:0:0:
109,192,12508,1,0,0:0:0:0:
402,192,12508,1,0,0:0:0:0:
256,192,12508,1,0,0:0:0:0:
182,192,12587,1,0,0:0:0:0:
475,192,12587,1,0,0:0:0:0:
329,192,12587,1,0,0:0:0:0:
36,192,12666,1,0,0:0:0:0:
402,192,12666,1,0,0:0:0:0:
256,192,12666,1,0,0:0:0:0:
109,192,12745,1,0,0:0:0:0:
475,192,12824,1,0,0:0:0:0:
182,192,12824,1,0,0:0:0:0:
329,192,12824,1,0,0:0:0:0:
109,192,12981,1,0,0:0:0:0:
402,192,12981,1,0,0:0:0:0:
36,192,12981,1,0,0:0:0:0:
329,192,13060,1,0,0:0:0:0:
109,192,13139,1,0,0:0:0:0:
256,192,13139,1,0,0:0:0:0:
475,192,13139,1,0,0:0:0:0:
36,192,13296,1,0,0:0:0:0:
402,192,13296,1,0,0:0:0:0:
256,192,13296,1,0,0:0:0:0:
109,192,13375,1,0,0:0:0:0:
182,192,13454,1,0,0:0:0:0:
329,192,13454,1,0,0:0:0:0:
475,192,13454,1,0,0:0:0:0:
109,192,13611,1,0,0:0:0:0:
182,192,13690,1,0,0:0:0:0:
36,192,13769,1,0,0:0:0:0:
256,192,13769,1,0,0:0:0:0:
402,192,13769,1,0,0:0:0:0:
475,192,13927,1,0,0:0:0:0:
402,192,14005,1,0,0:0:0:0:
36,192,14084,1,0,0:0:0:0:
182,192,14084,1,0,0:0:0:0:
329,192,14084,1,0,0:0:0:0:
256,192,14242,1,0,0:0:0:0:
402,192,14320,1,0,0:0:0:0:
36,192,14399,1,0,0:0:0:0:
182,192,14399,1,0,0:0:0:0:
329,192,14399,1,0,0:0:0:0:
109,192,14557,1,0,0:0:0:0:
256,192,14636,1,0,0:0:0:0:
475,192,14714,1,0,0:0:0:0:
329,192,14714,1,0,0:0:0:0:
182,192,14714,1,0,0:0:0:0:
109,192,14872,1,0,0:0:0:0:
402,192,14872,1,0,0:0:0:0:
36,192,14872,1,0,0:0:0:0:
329,192,14951,1,0,0:0:0:0:
109,192,15029,1,0,0:0:0:0:
36,192,15029,1,0,0:0:0:0:
256,192,15029,1,0,0:0:0:0:
475,192,15187,1,0,0:0:0:0:
182,192,15187,1,0,0:0:0:0:
329,192,15187,1,0,0:0:0:0:
109,192,15266,1,0,0:0:0:0:
36,192,15345,1,0,0:0:0:0:
329,192,15345,1,0,0:0:0:0:
475,192,15345,1,0,0:0:0:0:
402,192,15502,1,0,0:0:0:0:
109,192,15502,1,0,0:0:0:0:
256,192,15502,1,0,0:0:0:0:
475,192,15581,1,0,0:0:0:0:
402,192,15660,1,0,0:0:0:0:
109,192,15660,1,0,0:0:0:0:
256,192,15660,1,0,0:0:0:0:
36,192,15817,1,0,0:0:0:0:
329,192,15817,1,0,0:0:0:0:
475,192,15817,1,0,0:0:0:0:
182,192,15896,1,0,0:0:0:0:
402,192,15975,1,0,0:0:0:0:
109,192,15975,1,0,0:0:0:0:
256,192,15975,1,0,0:0:0:0:
329,192,16132,1,0,0:0:0:0:
256,192,16211,1,0,0:0:0:0:
475,192,16290,1,0,0:0:0:0:
182,192,16290,1,0,0:0:0:0:
36,192,16290,1,0,0:0:0:0:
402,192,16448,1,0,0:0:0:0:
329,192,16448,1,0,0:0:0:0:
109,192,16526,1,0,0:0:0:0:
256,192,16605,1,0,0:0:0:0:
109,192,16763,1,0,0:0:0:0:
182,192,16763,1,0,0:0:0:0:
402,192,16841,1,0,0:0:0:0:
256,192,16920,1,0,0:0:0:0:
329,192,17078,1,0,0:0:0:0:
402,192,17078,1,0,0:0:0:0:
109,192,17157,1,0,0:0:0:0:
256,192,17235,1,0,0:0:0:0:
182,192,17393,1,0,0:0:0:0:
109,192,17393,1,0,0:0:0:0:
402,192,17472,1,0,0:0:0:0:
256,192,17550,1,0,0:0:0:0:
36,192,17708,1,0,0:0:0:0:
182,192,17708,1,0,0:0:0:0:
329,192,17708,1,0,0:0:0:0:
402,192,17787,1,0,0:0:0:0:
36,192,17866,1,0,0:0:0:0:
182,192,17866,1,0,0:0:0:0:
475,192,17866,1,0,0:0:0:0:
109,192,18023,1,0,0:0:0:0:
256,192,18023,1,0,0:0:0:0:
475,192,18023,1,0,0:0:0:0:
402,192,18102,1,0,0:0:0:0:
36,192,18181,1,0,0:0:0:0:
109,192,18181,1,0,0:0:0:0:
329,192,18181,1,0,0:0:0:0:
182,192,18338,1,0,0:0:0:0:
329,192,18338,1,0,0:0:0:0:
475,192,18338,1,0,0:0:0:0:
109,192,18417,1,0,0:0:0:0:
36,192,18496,1,0,0:0:0:0:
256,192,18496,1,0,0:0:0:0:
402,192,18496,1,0,0:0:0:0:
182,192,18653,1,0,0:0:0:0:
329,192,18732,1,0,0:0:0:0:
256,192,18811,1,0,0:0:0:0:
109,192,18811,1,0,0:0:0:0:
475,192,18811,1,0,0:0:0:0:
36,192,18969,1,0,0:0:0:0:
182,192,19047,1,0,0:0:0:0:
109,192,19126,1,0,0:0:0:0:
329,192,19126,1,0,0:0:0:0:
475,192,19126,1,0,0:0:0:0:
256,192,19284,1,0,0:0:0:0:
182,192,19362,1,0,0:0:0:0:
329,192,19441,1,0,0:0:0:0:
109,192,19441,1,0,0:0:0:0:
475,192,19441,1,0,0:0:0:0:
402,192,19599,1,0,0:0:0:0:
256,192,19678,1,0,0:0:0:0:
182,192,19756,1,0,0:0:0:0:
36,192,19756,1,0,0:0:0:0:
329,192,19756,1,0,0:0:0:0:
256,192,19914,1,0,0:0:0:0:
109,192,19914,1,0,0:0:0:0:
475,192,19914,1,0,0:0:0:0:
402,192,19993,1,0,0:0:0:0:
256,192,20071,1,0,0:0:0:0:
109,192,20071,1,0,0:0:0:0:
475,192,20071,1,0,0:0:0:0:
36,192,20229,1,0,0:0:0:0:
182,192,20229,1,0,0:0:0:0:
329,192,20229,1,0,0:0:0:0:
402,192,20308,1,0,0:0:0:0:
256,192,20387,1,0,0:0:0:0:
109,192,20387,1,0,0:0:0:0:
475,192,20387,1,0,0:0:0:0:
475,192,20544,1,0,0:0:0:0:
329,192,20544,1,0,0:0:0:0:
36,192,20544,1,0,0:0:0:0:
182,192,20623,1,0,0:0:0:0:
329,192,20702,1,0,0:0:0:0:
475,192,20702,1,0,0:0:0:0:
109,192,20702,1,0,0:0:0:0:
36,192,20859,1,0,0:0:0:0:
182,192,20859,1,0,0:0:0:0:
402,192,20859,1,0,0:0:0:0:
329,192,20938,1,0,0:0:0:0:
256,192,21017,1,0,0:0:0:0:
109,192,21017,1,0,0:0:0:0:
475,192,21017,1,0,0:0:0:0:
182,192,21174,1,0,0:0:0:0:
329,192,21174,1,0,0:0:0:0:
475,192,21174,1,0,0:0:0:0:
36,192,21253,1,0,0:0:0:0:
256,192,21332,1,0,0:0:0:0:
109,192,21332,1,0,0:0:0:0:
402,192,21332,1,0,0:0:0:0:
475,192,21490,1,0,0:0:0:0:
402,192,21568,1,0,0:0:0:0:
182,192,21647,1,0,0:0:0:0:
36,192,21647,1,0,0:0:0:0:
329,192,21647,1,0,0:0:0:0:
402,192,21805,1,0,0:0:0:0:
109,192,21805,1,0,0:0:0:0:
256,192,21883,1,0,0:0:0:0:
182,192,21962,1,0,0:0:0:0:
109,192,22120,1,0,0:0:0:0:
402,192,22120,1,0,0:0:0:0:
256,192,22199,1,0,0:0:0:0:
329,192,22277,1,0,0:0:0:0:
109,192,22435,1,0,0:0:0:0:
402,192,22435,1,0,0:0:0:0:
256,192,22514,1,0,0:0:0:0:
182,192,22593,1,0,0:0:0:0:
475,192,22750,1,0,0:0:0:0:
36,192,22750,1,0,0:0:0:0:
256,192,22750,1,0,0:0:0:0:
109,192,22829,1,0,0:0:0:0:
402,192,22829,1,0,0:0:0:0:
182,192,22908,1,0,0:0:0:0:
329,192,22908,1,0,0:0:0:0:
36,192,22986,1,0,0:0:0:0:
475,192,22986,1,0,0:0:0:0:
109,192,23065,1,0,0:0:0:0:
402,192,23065,1,0,0:0:0:0:
182,192,23144,1,0,0:0:0:0:
475,192,23144,1,0,0:0:0:0:
109,192,23223,1,0,0:0:0:0:
329,192,23223,1,0,0:0:0:0:
402,192,23302,1,0,0:0:0:0:
182,192,23302,1,0,0:0:0:0:
256,192,23380,1,0,0:0:0:0:
475,192,23380,1,0,0:0:0:0:
182,192,23459,1,0,0:0:0:0:
402,192,23459,1,0,0:0:0:0:
329,192,23538,1,0,0:0:0:0:
109,192,23538,1,0,0:0:0:0:
475,192,23617,1,0,0:0:0:0:
36,192,23617,1,0,0:0:0:0:
402,192,23695,1,0,0:0:0:0:
182,192,23695,1,0,0:0:0:0:
475,192,23774,1,0,0:0:0:0:
36,192,23774,1,0,0:0:0:0:
402,192,23853,1,0,0:0:0:0:
109,192,23853,1,0,0:0:0:0:
182,192,23932,1,0,0:0:0:0:
329,192,23932,1,0,0:0:0:0:
475,192,24011,1,0,0:0:0:0:
109,192,24011,1,0,0:0:0:0:
402,192,24089,1,0,0:0:0:0:
182,192,24089,1,0,0:0:0:0:
475,192,24168,1,0,0:0:0:0:
256,192,24168,1,0,0:0:0:0:
402,192,24247,1,0,0:0:0:0:
182,192,24247,1,0,0:0:0:0:
329,192,24326,1,0,0:0:0:0:
109,192,24326,1,0,0:0:0:0:
256,192,24404,1,0,0:0:0:0:
36,192,24404,1,0,0:0:0:0:
182,192,24483,1,0,0:0:0:0:
329,192,24483,1,0,0:0:0:0:
36,192,24562,1,0,0:0:0:0:
402,192,24562,1,0,0:0:0:0:
109,192,24641,1,0,0:0:0:0:
475,192,24641,1,0,0:0:0:0:
402,192,24720,1,0,0:0:0:0:
182,192,24720,1,0,0:0:0:0:
329,192,24798,1,0,0:0:0:0:
109,192,24798,1,0,0:0:0:0:
182,192,24877,1,0,0:0:0:0:
402,192,24877,1,0,0:0:0:0:
109,192,24956,1,0,0:0:0:0:
329,192,24956,1,0,0:0:0:0:
36,192,25035,1,0,0:0:0:0:
256,192,25035,1,0,0:0:0:0:
402,192,25114,1,0,0:0:0:0:
182,192,25114,1,0,0:0:0:0:
329,192,25192,1,0,0:0:0:0:
109,192,25192,1,0,0:0:0:0:
182,192,25271,1,0,0:0:0:0:
402,192,25271,1,0,0:0:0:0:
256,192,25350,1,0,0:0:0:0:
475,192,25350,1,0,0:0:0:0:
182,192,25429,1,0,0:0:0:0:
402,192,25429,1,0,0:0:0:0:
109,192,25507,1,0,0:0:0:0:
329,192,25507,1,0,0:0:0:0:
36,192,25586,1,0,0:0:0:0:
475,192,25586,1,0,0:0:0:0:
182,192,25665,1,0,0:0:0:0:
402,192,25665,1,0,0:0:0:0:
109,192,25744,1,0,0:0:0:0:
329,192,25744,1,0,0:0:0:0:
182,192,25823,1,0,0:0:0:0:
402,192,25823,1,0,0:0:0:0:
256,192,25901,1,0,0:0:0:0:
475,192,25901,1,0,0:0:0:0:
36,192,25980,1,0,0:0:0:0:
329,192,25980,1,0,0:0:0:0:
402,192,26059,1,0,0:0:0:0:
109,192,26059,1,0,0:0:0:0:
329,192,26138,1,0,0:0:0:0:
182,192,26138,1,0,0:0:0:0:
475,192,26216,1,0,0:0:0:0:
109,192,26216,1,0,0:0:0:0:
36,192,26295,1,0,0:0:0:0:
402,192,26295,1,0,0:0:0:0:
182,192,26374,1,0,0:0:0:0:
329,192,26374,1,0,0:0:0:0:
402,192,26453,1,0,0:0:0:0:
109,192,26453,1,0,0:0:0:0:
475,192,26532,1,0,0:0:0:0:
256,192,26532,1,0,0:0:0:0:
182,192,26610,1,0,0:0:0:0:
402,192,26610,1,0,0:0:0:0:
109,192,26689,1,0,0:0:0:0:
329,192,26689,1,0,0:0:0:0:
256,192,26768,1,0,0:0:0:0:
36,192,26768,1,0,0:0:0:0:
402,192,26847,1,0,0:0:0:0:
182,192,26847,1,0,0:0:0:0:
36,192,26925,1,0,0:0:0:0:
475,192,26925,1,0,0:0:0:0:
182,192,27004,1,0,0:0:0:0:
329,192,27004,1,0,0:0:0:0:
402,192,27083,1,0,0:0:0:0:
109,192,27083,1,0,0:0:0:0:
475,192,27162,1,0,0:0:0:0:
256,192,27162,1,0,0:0:0:0:
182,192,27241,1,0,0:0:0:0:
402,192,27241,1,0,0:0:0:0:
109,192,27319,1,0,0:0:0:0:
329,192,27319,1,0,0:0:0:0:
475,192,27398,1,0,0:0:0:0:
182,192,27398,1,0,0:0:0:0:
329,192,27477,1,0,0:0:0:0:
36,192,27477,1,0,0:0:0:0:
402,192,27556,1,0,0:0:0:0:
109,192,27556,1,0,0:0:0:0:
182,192,27635,1,0,0:0:0:0:
475,192,27635,1,0,0:0:0:0:
402,192,27713,1,0,0:0:0:0:
109,192,27713,1,0,0:0:0:0:
475,192,27792,1,0,0:0:0:0:
256,192,27792,1,0,0:0:0:0:
36,192,27792,1,0,0:0:0:0:
109,192,27871,1,0,0:0:0:0:
329,192,27871,1,0,0:0:0:0:
182,192,27950,1,0,0:0:0:0:
402,192,27950,1,0,0:0:0:0:
256,192,28028,1,0,0:0:0:0:
475,192,28028,1,0,0:0:0:0:
109,192,28107,1,0,0:0:0:0:
402,192,28107,1,0,0:0:0:0:
182,192,28186,1,0,0:0:0:0:
329,192,28186,1,0,0:0:0:0:
109,192,28265,1,0,0:0:0:0:
256,192,28265,1,0,0:0:0:0:
36,192,28344,1,0,0:0:0:0:
475,192,28344,1,0,0:0:0:0:
109,192,28422,1,0,0:0:0:0:
329,192,28422,1,0,0:0:0:0:
182,192,28501,1,0,0:0:0:0:
475,192,28501,1,0,0:0:0:0:
256,192,28580,1,0,0:0:0:0:
402,192,28580,1,0,0:0:0:0:
182,192,28659,1,0,0:0:0:0:
475,192,28659,1,0,0:0:0:0:
109,192,28737,1,0,0:0:0:0:
329,192,28737,1,0,0:0:0:0:
182,192,28816,1,0,0:0:0:0:
402,192,28816,1,0,0:0:0:0:
36,192,28895,1,0,0:0:0:0:
256,192,28895,1,0,0:0:0:0:
109,192,28974,1,0,0:0:0:0:
329,192,28974,1,0,0:0:0:0:
182,192,29053,1,0,0:0:0:0:
402,192,29053,1,0,0:0:0:0:
256,192,29131,1,0,0:0:0:0:
475,192,29131,1,0,0:0:0:0:
109,192,29210,1,0,0:0:0:0:
402,192,29210,1,0,0:0:0:0:
182,192,29289,1,0,0:0:0:0:
329,192,29289,1,0,0:0:0:0:
36,192,29368,1,0,0:0:0:0:
475,192,29368,1,0,0:0:0:0:
182,192,29446,1,0,0:0:0:0:
329,192,29446,1,0,0:0:0:0:
109,192,29525,1,0,0:0:0:0:
402,192,29525,1,0,0:0:0:0:
256,192,29604,1,0,0:0:0:0:
475,192,29604,1,0,0:0:0:0:
182,192,29683,1,0,0:0:0:0:
402,192,29683,1,0,0:0:0:0:
109,192,29762,1,0,0:0:0:0:
329,192,29762,1,0,0:0:0:0:
36,192,29840,1,0,0:0:0:0:
475,192,29840,1,0,0:0:0:0:
182,192,29919,1,0,0:0:0:0:
329,192,29919,1,0,0:0:0:0:
36,192,29998,1,0,0:0:0:0:
402,192,29998,1,0,0:0:0:0:
109,192,30077,1,0,0:0:0:0:
475,192,30077,1,0,0:0:0:0:
182,192,30156,1,0,0:0:0:0:
329,192,30156,1,0,0:0:0:0:
256,192,30234,1,0,0:0:0:0:
402,192,30234,1,0,0:0:0:0:
36,192,30313,1,0,0:0:0:0:
329,192,30313,1,0,0:0:0:0:
475,192,30313,1,0,0:0:0:0:
109,192,30392,1,0,0:0:0:0:
402,192,30392,1,0,0:0:0:0:
182,192,30392,1,0,0:0:0:0:
475,192,30471,1,0,0:0:0:0:
256,192,30471,1,0,0:0:0:0:
36,192,30471,1,0,0:0:0:0:
402,192,30549,1,0,0:0:0:0:
329,192,30549,1,0,0:0:0:0:
182,192,30549,1,0,0:0:0:0:
256,192,30628,1,0,0:0:0:0:
475,192,30628,1,0,0:0:0:0:
36,192,30628,1,0,0:0:0:0:
402,192,30707,1,0,0:0:0:0:
109,192,30707,1,0,0:0:0:0:
36,192,30786,1,0,0:0:0:0:
182,192,30786,1,0,0:0:0:0:
329,192,30786,1,0,0:0:0:0:
109,192,30865,1,0,0:0:0:0:
256,192,30865,1,0,0:0:0:0:
402,192,30865,1,0,0:0:0:0:
182,192,30943,1,0,0:0:0:0:
36,192,30943,1,0,0:0:0:0:
475,192,30943,1,0,0:0:0:0:
402,192,31022,1,0,0:0:0:0:
109,192,31022,1,0,0:0:0:0:
256,192,31022,1,0,0:0:0:0:
475,192,31101,1,0,0:0:0:0:
182,192,31101,1,0,0:0:0:0:
329,192,31101,1,0,0:0:0:0:
256,192,31180,1,0,0:0:0:0:
109,192,31180,1,0,0:0:0:0:
36,192,31180,1,0,0:0:0:0:
402,192,31258,1,0,0:0:0:0:
475,192,31258,1,0,0:0:0:0:
182,192,31258,1,0,0:0:0:0:
36,192,31337,1,0,0:0:0:0:
109,192,31337,1,0,0:0:0:0:
329,192,31337,1,0,0:0:0:0:
475,192,31416,1,0,0:0:0:0:
256,192,31416,1,0,0:0:0:0:
402,192,31416,1,0,0:0:0:0:
329,192,31495,1,0,0:0:0:0:
182,192,31495,1,0,0:0:0:0:
36,192,31495,1,0,0:0:0:0:
402,192,31574,1,0,0:0:0:0:
475,192,31574,1,0,0:0:0:0:
109,192,31574,1,0,0:0:0:0:
36,192,31652,1,0,0:0:0:0:
182,192,31652,1,0,0:0:0:0:
329,192,31652,1,0,0:0:0:0:
109,192,31731,1,0,0:0:0:0:
256,192,31731,1,0,0:0:0:0:
402,192,31731,1,0,0:0:0:0:
475,192,31731,1,0,0:0:0:0:
182,192,31810,1,0,0:0:0:0:
329,192,31810,1,0,0:0:0:0:
475,192,31889,1,0,0:0:0:0:
256,192,31889,1,0,0:0:0:0:
36,192,31889,1,0,0:0:0:0:
329,192,31968,1,0,0:0:0:0:
402,192,31968,1,0,0:0:0:0:
109,192,31968,1,0,0:0:0:0:
475,192,32046,1,0,0:0:0:0:
36,192,32046,1,0,0:0:0:0:
182,192,32046,1,0,0:0:0:0:
256,192,32125,1,0,0:0:0:0:
109,192,32125,1,0,0:0:0:0:
402,192,32125,1,0,0:0:0:0:
36,192,32204,1,0,0:0:0:0:
329,192,32204,1,0,0:0:0:0:
475,192,32204,1,0,0:0:0:0:
402,192,32283,1,0,0:0:0:0:
256,192,32283,1,0,0:0:0:0:
109,192,32283,1,0,0:0:0:0:
475,192,32361,1,0,0:0:0:0:
329,192,32361,1,0,0:0:0:0:
182,192,32361,1,0,0:0:0:0:
109,192,32440,1,0,0:0:0:0:
36,192,32440,1,0,0:0:0:0:
256,192,32440,1,0,0:0:0:0:
329,192,32519,1,0,0:0:0:0:
402,192,32519,1,0,0:0:0:0:
475,192,32519,1,0,0:0:0:0:
36,192,32598,1,0,0:0:0:0:
109,192,32598,1,0,0:0:0:0:
256,192,32598,1,0,0:0:0:0:
329,192,32677,1,0,0:0:0:0:
475,192,32677,1,0,0:0:0:0:
182,192,32677,1,0,0:0:0:0:
109,192,32755,1,0,0:0:0:0:
256,192,32755,1,0,0:0:0:0:
402,192,32755,1,0,0:0:0:0:
475,192,32834,1,0,0:0:0:0:
36,192,32834,1,0,0:0:0:0:
182,192,32834,1,0,0:0:0:0:
402,192,32913,1,0,0:0:0:0:
329,192,32992,1,0,0:0:0:0:
256,192,33070,1,0,0:0:0:0:
182,192,33149,1,0,0:0:0:0:
402,192,33149,1,0,0:0:0:0:
329,192,33228,1,0,0:0:0:0:
256,192,33307,1,0,0:0:0:0:
182,192,33386,1,0,0:0:0:0:
475,192,33464,1,0,0:0:0:0:
36,192,33464,1,0,0:0:0:0:
329,192,33464,1,0,0:0:0:0:
109,192,33464,1,0,0:0:0:0:
402,192,33543,1,0,0:0:0:0:
182,192,33543,1,0,0:0:0:0:
475,192,33622,1,0,0:0:0:0:
36,192,33622,1,0,0:0:0:0:
109,192,33622,1,0,0:0:0:0:
329,192,33622,1,0,0:0:0:0:
256,192,33701,1,0,0:0:0:0:
475,192,33779,1,0,0:0:0:0:
182,192,33779,1,0,0:0:0:0:
36,192,33779,1,0,0:0:0:0:
402,192,33779,1,0,0:0:0:0:
109,192,33858,1,0,0:0:0:0:
329,192,33858,1,0,0:0:0:0:
36,192,33937,1,0,0:0:0:0:
182,192,33937,1,0,0:0:0:0:
402,192,33937,1,0,0:0:0:0:
475,192,33937,1,0,0:0:0:0:
109,192,34016,1,0,0:0:0:0:
329,192,34016,1,0,0:0:0:0:
36,192,34095,1,0,0:0:0:0:
402,192,34095,1,0,0:0:0:0:
256,192,34095,1,0,0:0:0:0:
475,192,34095,1,0,0:0:0:0:
329,192,34173,1,0,0:0:0:0:
109,192,34173,1,0,0:0:0:0:
402,192,34252,1,0,0:0:0:0:
182,192,34252,1,0,0:0:0:0:
256,192,34331,1,0,0:0:0:0:
475,192,34331,1,0,0:0:0:0:
329,192,34410,1,0,0:0:0:0:
402,192,34410,1,0,0:0:0:0:
36,192,34410,1,0,0:0:0:0:
182,192,34410,1,0,0:0:0:0:
475,192,34489,1,0,0:0:0:0:
109,192,34489,1,0,0:0:0:0:
402,192,34567,1,0,0:0:0:0:
182,192,34567,1,0,0:0:0:0:
329,192,34646,1,0,0:0:0:0:
109,192,34646,1,0,0:0:0:0:
475,192,34725,1,0,0:0:0:0:
256,192,34725,1,0,0:0:0:0:
36,192,34725,1,0,0:0:0:0:
402,192,34725,1,0,0:0:0:0:
329,192,34804,1,0,0:0:0:0:
182,192,34804,1,0,0:0:0:0:
475,192,34882,1,0,0:0:0:0:
256,192,34882,1,0,0:0:0:0:
36,192,34882,1,0,0:0:0:0:
109,192,34882,1,0,0:0:0:0:
402,192,34961,1,0,0:0:0:0:
182,192,34961,1,0,0:0:0:0:
36,192,35040,1,0,0:0:0:0:
329,192,35040,1,0,0:0:0:0:
109,192,35119,1,0,0:0:0:0:
256,192,35119,1,0,0:0:0:0:
182,192,35198,1,0,0:0:0:0:
36,192,35198,1,0,0:0:0:0:
329,192,35198,1,0,0:0:0:0:
475,192,35198,1,0,0:0:0:0:
256,192,35276,1,0,0:0:0:0:
402,192,35276,1,0,0:0:0:0:
182,192,35355,1,0,0:0:0:0:
36,192,35355,1,0,0:0:0:0:
475,192,35355,1,0,0:0:0:0:
402,192,35434,1,0,0:0:0:0:
109,192,35434,1,0,0:0:0:0:
182,192,35513,1,0,0:0:0:0:
329,192,35513,1,0,0:0:0:0:
256,192,35591,1,0,0:0:0:0:
402,192,35591,1,0,0:0:0:0:
36,192,35670,1,0,0:0:0:0:
329,192,35670,1,0,0:0:0:0:
109,192,35670,1,0,0:0:0:0:
182,192,35670,1,0,0:0:0:0:
475,192,35670,1,0,0:0:0:0:
402,192,35749,1,0,0:0:0:0:
256,192,35749,1,0,0:0:0:0:
329,192,35828,1,0,0:0:0:0:
109,192,35828,1,0,0:0:0:0:
182,192,35907,1,0,0:0:0:0:
402,192,35907,1,0,0:0:0:0:
256,192,35985,1,0,0:0:0:0:
36,192,35985,1,0,0:0:0:0:
475,192,35985,1,0,0:0:0:0:
402,192,36064,1,0,0:0:0:0:
109,192,36064,1,0,0:0:0:0:
475,192,36143,1,0,0:0:0:0:
182,192,36143,1,0,0:0:0:0:
329,192,36143,1,0,0:0:0:0:
36,192,36143,1,0,0:0:0:0:
402,192,36222,1,0,0:0:0:0:
256,192,36222,1,0,0:0:0:0:
36,192,36300,1,0,0:0:0:0:
109,192,36300,1,0,0:0:0:0:
329,192,36300,1,0,0:0:0:0:
475,192,36300,1,0,0:0:0:0:
256,192,36379,1,0,0:0:0:0:
402,192,36379,1,0,0:0:0:0:
329,192,36458,1,0,0:0:0:0:
475,192,36458,1,0,0:0:0:0:
36,192,36458,1,0,0:0:0:0:
182,192,36458,1,0,0:0:0:0:
109,192,36537,1,0,0:0:0:0:
256,192,36537,1,0,0:0:0:0:
182,192,36616,1,0,0:0:0:0:
475,192,36616,1,0,0:0:0:0:
402,192,36616,1,0,0:0:0:0:
36,192,36616,1,0,0:0:0:0:
256,192,36694,1,0,0:0:0:0:
329,192,36694,1,0,0:0:0:0:
475,192,36773,1,0,0:0:0:0:
182,192,36773,1,0,0:0:0:0:
109,192,36773,1,0,0:0:0:0:
36,192,36773,1,0,0:0:0:0:
329,192,36852,1,0,0:0:0:0:
402,192,36852,1,0,0:0:0:0:
475,192,36931,1,0,0:0:0:0:
109,192,36931,1,0,0:0:0:0:
256,192,36931,1,0,0:0:0:0:
329,192,37010,1,0,0:0:0:0:
182,192,37010,1,0,0:0:0:0:
256,192,37088,1,0,0:0:0:0:
36,192,37088,1,0,0:0:0:0:
402,192,37088,1,0,0:0:0:0:
475,192,37088,1,0,0:0:0:0:
109,192,37167,1,0,0:0:0:0:
182,192,37167,1,0,0:0:0:0:
36,192,37246,1,0,0:0:0:0:
402,192,37246,1,0,0:0:0:0:
329,192,37246,1,0,0:0:0:0:
182,192,37325,1,0,0:0:0:0:
256,192,37325,1,0,0:0:0:0:
109,192,37403,1,0,0:0:0:0:
36,192,37403,1,0,0:0:0:0:
402,192,37403,1,0,0:0:0:0:
475,192,37403,1,0,0:0:0:0:
256,192,37482,1,0,0:0:0:0:
329,192,37482,1,0,0:0:0:0:
36,192,37561,1,0,0:0:0:0:
182,192,37561,1,0,0:0:0:0:
475,192,37561,1,0,0:0:0:0:
256,192,37640,1,0,0:0:0:0:
402,192,37640,1,0,0:0:0:0:
109,192,37719,1,0,0:0:0:0:
36,192,37719,1,0,0:0:0:0:
475,192,37719,1,0,0:0:0:0:
329,192,37719,1,0,0:0:0:0:
182,192,37797,1,0,0:0:0:0:
402,192,37797,1,0,0:0:0:0:
256,192,37876,1,0,0:0:0:0:
36,192,37876,1,0,0:0:0:0:
475,192,37876,1,0,0:0:0:0:
329,192,37955,1,0,0:0:0:0:
109,192,37955,1,0,0:0:0:0:
475,192,38034,1,0,0:0:0:0:
36,192,38034,1,0,0:0:0:0:
182,192,38034,1,0,0:0:0:0:
402,192,38034,1,0,0:0:0:0:
329,192,38112,1,0,0:0:0:0:
256,192,38112,1,0,0:0:0:0:
36,192,38191,1,0,0:0:0:0:
402,192,38191,1,0,0:0:0:0:
109,192,38191,1,0,0:0:0:0:
182,192,38270,1,0,0:0:0:0:
256,192,38270,1,0,0:0:0:0:
402,192,38349,1,0,0:0:0:0:
36,192,38349,1,0,0:0:0:0:
109,192,38349,1,0,0:0:0:0:
475,192,38349,1,0,0:0:0:0:
329,192,38428,1,0,0:0:0:0:
256,192,38428,1,0,0:0:0:0:
475,192,38506,1,0,0:0:0:0:
36,192,38506,1,0,0:0:0:0:
182,192,38506,1,0,0:0:0:0:
402,192,38585,1,0,0:0:0:0:
256,192,38585,1,0,0:0:0:0:
329,192,38664,1,0,0:0:0:0:
109,192,38664,1,0,0:0:0:0:
182,192,38743,1,0,0:0:0:0:
402,192,38743,1,0,0:0:0:0:
475,192,38821,1,0,0:0:0:0:
36,192,38821,1,0,0:0:0:0:
256,192,38821,1,0,0:0:0:0:
182,192,38900,1,0,0:0:0:0:
402,192,38900,1,0,0:0:0:0:
329,192,38979,1,0,0:0:0:0:
109,192,38979,1,0,0:0:0:0:
402,192,39058,1,0,0:0:0:0:
256,192,39058,1,0,0:0:0:0:
182,192,39137,1,0,0:0:0:0:
36,192,39137,1,0,0:0:0:0:
475,192,39137,1,0,0:0:0:0:
329,192,39137,1,0,0:0:0:0:
402,192,39215,1,0,0:0:0:0:
109,192,39215,1,0,0:0:0:0:
36,192,39294,1,0,0:0:0:0:
256,192,39294,1,0,0:0:0:0:
182,192,39373,1,0,0:0:0:0:
329,192,39373,1,0,0:0:0:0:
256,192,39452,1,0,0:0:0:0:
402,192,39452,1,0,0:0:0:0:
109,192,39452,1,0,0:0:0:0:
36,192,39452,1,0,0:0:0:0:
475,192,39531,1,0,0:0:0:0:
329,192,39531,1,0,0:0:0:0:
109,192,39609,1,0,0:0:0:0:
256,192,39609,1,0,0:0:0:0:
402,192,39609,1,0,0:0:0:0:
36,192,39609,1,0,0:0:0:0:
329,192,39688,1,0,0:0:0:0:
182,192,39688,1,0,0:0:0:0:
36,192,39767,1,0,0:0:0:0:
475,192,39767,1,0,0:0:0:0:
402,192,39767,1,0,0:0:0:0:
256,192,39846,1,0,0:0:0:0:
109,192,39846,1,0,0:0:0:0:
329,192,39924,1,0,0:0:0:0:
475,192,39924,1,0,0:0:0:0:
182,192,39924,1,0,0:0:0:0:
36,192,39924,1,0,0:0:0:0:
109,192,40003,1,0,0:0:0:0:
402,192,40003,1,0,0:0:0:0:
256,192,40082,1,0,0:0:0:0:
475,192,40082,1,0,0:0:0:0:
36,192,40082,1,0,0:0:0:0:
109,192,40161,1,0,0:0:0:0:
402,192,40161,1,0,0:0:0:0:
36,192,40240,1,0,0:0:0:0:
475,192,40240,1,0,0:0:0:0:
329,192,40240,1,0,0:0:0:0:
182,192,40240,1,0,0:0:0:0:
402,192,40318,1,0,0:0:0:0:
256,192,40318,1,0,0:0:0:0:
36,192,40397,1,0,0:0:0:0:
182,192,40397,1,0,0:0:0:0:
329,192,40397,1,0,0:0:0:0:
475,192,40476,1,0,0:0:0:0:
109,192,40476,1,0,0:0:0:0:
402,192,40555,1,0,0:0:0:0:
256,192,40555,1,0,0:0:0:0:
182,192,40633,1,0,0:0:0:0:
329,192,40633,1,0,0:0:0:0:
36,192,40712,1,0,0:0:0:0:
475,192,40712,1,0,0:0:0:0:
109,192,40712,1,0,0:0:0:0:
402,192,40712,1,0,0:0:0:0:
256,192,40712,1,0,0:0:0:0:
182,192,40791,1,0,0:0:0:0:
329,192,40791,1,0,0:0:0:0:
109,192,40870,1,0,0:0:0:0:
402,192,40870,1,0,0:0:0:0:
475,192,40949,1,0,0:0:0:0:
36,192,40949,1,0,0:0:0:0:
256,192,41027,1,0,0:0:0:0:
402,192,41027,1,0,0:0:0:0:
109,192,41027,1,0,0:0:0:0:
182,192,41106,1,0,0:0:0:0:
329,192,41106,1,0,0:0:0:0:
109,192,41185,1,0,0:0:0:0:
402,192,41185,1,0,0:0:0:0:
475,192,41264,1,0,0:0:0:0:
182,192,41264,1,0,0:0:0:0:
256,192,41343,1,0,0:0:0:0:
402,192,41343,1,0,0:0:0:0:
36,192,41343,1,0,0:0:0:0:
329,192,41421,1,0,0:0:0:0:
109,192,41421,1,0,0:0:0:0:
36,192,41500,1,0,0:0:0:0:
475,192,41500,1,0,0:0:0:0:
402,192,41500,1,0,0:0:0:0:
182,192,41500,1,0,0:0:0:0:
256,192,41579,1,0,0:0:0:0:
109,192,41579,1,0,0:0:0:0:
475,192,41658,1,0,0:0:0:0:
36,192,41658,1,0,0:0:0:0:
182,192,41658,1,0,0:0:0:0:
329,192,41658,1,0,0:0:0:0:
402,192,41736,1,0,0:0:0:0:
256,192,41736,1,0,0:0:0:0:
109,192,41815,1,0,0:0:0:0:
329,192,41815,1,0,0:0:0:0:
402,192,41894,1,0,0:0:0:0:
182,192,41894,1,0,0:0:0:0:
256,192,41973,1,0,0:0:0:0:
475,192,41973,1,0,0:0:0:0:
109,192,41973,1,0,0:0:0:0:
36,192,41973,1,0,0:0:0:0:
182,192,42052,1,0,0:0:0:0:
402,192,42052,1,0,0:0:0:0:
109,192,42130,1,0,0:0:0:0:
329,192,42130,1,0,0:0:0:0:
36,192,42209,1,0,0:0:0:0:
256,192,42209,1,0,0:0:0:0:
329,192,42288,1,0,0:0:0:0:
475,192,42288,1,0,0:0:0:0:
182,192,42288,1,0,0:0:0:0:
109,192,42288,1,0,0:0:0:0:
402,192,42367,1,0,0:0:0:0:
256,192,42367,1,0,0:0:0:0:
109,192,42445,1,0,0:0:0:0:
329,192,42445,1,0,0:0:0:0:
182,192,42524,1,0,0:0:0:0:
402,192,42524,1,0,0:0:0:0:
36,192,42603,1,0,0:0:0:0:
109,192,42603,1,0,0:0:0:0:
256,192,42603,1,0,0:0:0:0:
475,192,42603,1,0,0:0:0:0:
402,192,42682,1,0,0:0:0:0:
329,192,42682,1,0,0:0:0:0:
36,192,42761,1,0,0:0:0:0:
109,192,42761,1,0,0:0:0:0:
256,192,42761,1,0,0:0:0:0:
475,192,42761,1,0,0:0:0:0:
329,192,42839,1,0,0:0:0:0:
182,192,42839,1,0,0:0:0:0:
402,192,42918,1,0,0:0:0:0:
475,192,42918,1,0,0:0:0:0:
36,192,42918,1,0,0:0:0:0:
256,192,42918,1,0,0:0:0:0:
329,192,42997,1,0,0:0:0:0:
109,192,42997,1,0,0:0:0:0:
402,192,43076,1,0,0:0:0:0:
182,192,43076,1,0,0:0:0:0:
329,192,43154,1,0,0:0:0:0:
109,192,43154,1,0,0:0:0:0:
36,192,43233,1,0,0:0:0:0:
256,192,43233,1,0,0:0:0:0:
475,192,43233,1,0,0:0:0:0:
402,192,43233,1,0,0:0:0:0:
329,192,43312,1,0,0:0:0:0:
182,192,43312,1,0,0:0:0:0:
475,192,43391,1,0,0:0:0:0:
109,192,43391,1,0,0:0:0:0:
36,192,43391,1,0,0:0:0:0:
256,192,43391,1,0,0:0:0:0:
402,192,43470,1,0,0:0:0:0:
182,192,43470,1,0,0:0:0:0:
475,192,43548,1,0,0:0:0:0:
36,192,43548,1,0,0:0:0:0:
329,192,43548,1,0,0:0:0:0:
109,192,43627,1,0,0:0:0:0:
256,192,43627,1,0,0:0:0:0:
182,192,43706,1,0,0:0:0:0:
36,192,43706,1,0,0:0:0:0:
475,192,43706,1,0,0:0:0:0:
329,192,43706,1,0,0:0:0:0:
256,192,43785,1,0,0:0:0:0:
109,192,43785,1,0,0:0:0:0:
402,192,43864,1,0,0:0:0:0:
182,192,43864,1,0,0:0:0:0:
329,192,43942,1,0,0:0:0:0:
109,192,43942,1,0,0:0:0:0:
36,192,44021,1,0,0:0:0:0:
475,192,44021,1,0,0:0:0:0:
256,192,44021,1,0,0:0:0:0:
402,192,44021,1,0,0:0:0:0:
329,192,44100,1,0,0:0:0:0:
182,192,44100,1,0,0:0:0:0:
475,192,44179,1,0,0:0:0:0:
36,192,44179,1,0,0:0:0:0:
109,192,44179,1,0,0:0:0:0:
256,192,44179,1,0,0:0:0:0:
402,192,44257,1,0,0:0:0:0:
182,192,44257,1,0,0:0:0:0:
329,192,44336,1,0,0:0:0:0:
36,192,44336,1,0,0:0:0:0:
182,192,44415,1,0,0:0:0:0:
402,192,44415,1,0,0:0:0:0:
36,192,44494,1,0,0:0:0:0:
109,192,44494,1,0,0:0:0:0:
475,192,44494,1,0,0:0:0:0:
256,192,44494,1,0,0:0:0:0:
402,192,44573,1,0,0:0:0:0:
182,192,44573,1,0,0:0:0:0:
109,192,44651,1,0,0:0:0:0:
329,192,44651,1,0,0:0:0:0:
475,192,44730,1,0,0:0:0:0:
182,192,44730,1,0,0:0:0:0:
402,192,44809,1,0,0:0:0:0:
36,192,44809,1,0,0:0:0:0:
256,192,44809,1,0,0:0:0:0:
109,192,44809,1,0,0:0:0:0:
329,192,44888,1,0,0:0:0:0:
182,192,44888,1,0,0:0:0:0:
475,192,44966,1,0,0:0:0:0:
402,192,44966,1,0,0:0:0:0:
36,192,44966,1,0,0:0:0:0:
256,192,44966,1,0,0:0:0:0:
329,192,45045,1,0,0:0:0:0:
109,192,45045,1,0,0:0:0:0:
182,192,45124,1,0,0:0:0:0:
402,192,45124,1,0,0:0:0:0:
475,192,45203,1,0,0:0:0:0:
256,192,45203,1,0,0:0:0:0:
182,192,45282,1,0,0:0:0:0:
36,192,45282,1,0,0:0:0:0:
329,192,45282,1,0,0:0:0:0:
402,192,45282,1,0,0:0:0:0:
109,192,45360,1,0,0:0:0:0:
475,192,45360,1,0,0:0:0:0:
256,192,45439,1,0,0:0:0:0:
36,192,45439,1,0,0:0:0:0:
402,192,45439,1,0,0:0:0:0:
329,192,45518,1,0,0:0:0:0:
182,192,45518,1,0,0:0:0:0:
109,192,45597,1,0,0:0:0:0:
256,192,45597,1,0,0:0:0:0:
182,192,45675,1,0,0:0:0:0:
329,192,45675,1,0,0:0:0:0:
36,192,45754,1,0,0:0:0:0:
402,192,45754,1,0,0:0:0:0:
109,192,45754,1,0,0:0:0:0:
256,192,45754,1,0,0:0:0:0:
475,192,45754,1,0,0:0:0:0:
329,192,45833,1,0,0:0:0:0:
182,192,45833,1,0,0:0:0:0:
402,192,45912,1,0,0:0:0:0:
109,192,45912,1,0,0:0:0:0:
182,192,45991,1,0,0:0:0:0:
329,192,45991,1,0,0:0:0:0:
256,192,46069,1,0,0:0:0:0:
36,192,46069,1,0,0:0:0:0:
475,192,46069,1,0,0:0:0:0:
402,192,46148,1,0,0:0:0:0:
109,192,46148,1,0,0:0:0:0:
475,192,46227,1,0,0:0:0:0:
182,192,46227,1,0,0:0:0:0:
329,192,46227,1,0,0:0:0:0:
36,192,46227,1,0,0:0:0:0:
109,192,46306,1,0,0:0:0:0:
256,192,46306,1,0,0:0:0:0:
36,192,46385,1,0,0:0:0:0:
475,192,46385,1,0,0:0:0:0:
182,192,46385,1,0,0:0:0:0:
329,192,46385,1,0,0:0:0:0:
256,192,46463,1,0,0:0:0:0:
402,192,46463,1,0,0:0:0:0:
329,192,46542,1,0,0:0:0:0:
475,192,46542,1,0,0:0:0:0:
36,192,46542,1,0,0:0:0:0:
109,192,46542,1,0,0:0:0:0:
182,192,46621,1,0,0:0:0:0:
402,192,46621,1,0,0:0:0:0:
109,192,46700,1,0,0:0:0:0:
475,192,46700,1,0,0:0:0:0:
256,192,46700,1,0,0:0:0:0:
36,192,46700,1,0,0:0:0:0:
182,192,46778,1,0,0:0:0:0:
329,192,46778,1,0,0:0:0:0:
475,192,46857,1,0,0:0:0:0:
256,192,46857,1,0,0:0:0:0:
109,192,46857,1,0,0:0:0:0:
36,192,46857,1,0,0:0:0:0:
182,192,46936,1,0,0:0:0:0:
402,192,46936,1,0,0:0:0:0:
475,192,47015,1,0,0:0:0:0:
109,192,47015,1,0,0:0:0:0:
329,192,47015,1,0,0:0:0:0:
256,192,47094,1,0,0:0:0:0:
36,192,47094,1,0,0:0:0:0:
182,192,47172,1,0,0:0:0:0:
109,192,47172,1,0,0:0:0:0:
329,192,47172,1,0,0:0:0:0:
475,192,47172,1,0,0:0:0:0:
402,192,47251,1,0,0:0:0:0:
256,192,47251,1,0,0:0:0:0:
36,192,47330,1,0,0:0:0:0:
329,192,47330,1,0,0:0:0:0:
182,192,47330,1,0,0:0:0:0:
109,192,47409,1,0,0:0:0:0:
256,192,47409,1,0,0:0:0:0:
182,192,47487,1,0,0:0:0:0:
36,192,47487,1,0,0:0:0:0:
329,192,47487,1,0,0:0:0:0:
475,192,47487,1,0,0:0:0:0:
256,192,47566,1,0,0:0:0:0:
402,192,47566,1,0,0:0:0:0:
36,192,47645,1,0,0:0:0:0:
109,192,47645,1,0,0:0:0:0:
329,192,47645,1,0,0:0:0:0:
182,192,47724,1,0,0:0:0:0:
475,192,47724,1,0,0:0:0:0:
109,192,47803,1,0,0:0:0:0:
36,192,47803,1,0,0:0:0:0:
402,192,47803,1,0,0:0:0:0:
256,192,47803,1,0,0:0:0:0:
329,192,47881,1,0,0:0:0:0:
475,192,47881,1,0,0:0:0:0:
182,192,47960,1,0,0:0:0:0:
36,192,47960,1,0,0:0:0:0:
402,192,47960,1,0,0:0:0:0:
256,192,48039,1,0,0:0:0:0:
109,192,48039,1,0,0:0:0:0:
475,192,48118,1,0,0:0:0:0:
36,192,48118,1,0,0:0:0:0:
182,192,48118,1,0,0:0:0:0:
329,192,48118,1,0,0:0:0:0:
402,192,48196,1,0,0:0:0:0:
256,192,48196,1,0,0:0:0:0:
36,192,48275,1,0,0:0:0:0:
329,192,48275,1,0,0:0:0:0:
109,192,48275,1,0,0:0:0:0:
402,192,48354,1,0,0:0:0:0:
182,192,48354,1,0,0:0:0:0:
109,192,48433,1,0,0:0:0:0:
36,192,48433,1,0,0:0:0:0:
475,192,48433,1,0,0:0:0:0:
329,192,48433,1,0,0:0:0:0:
402,192,48512,1,0,0:0:0:0:
256,192,48512,1,0,0:0:0:0:
329,192,48590,1,0,0:0:0:0:
36,192,48590,1,0,0:0:0:0:
182,192,48590,1,0,0:0:0:0:
475,192,48669,1,0,0:0:0:0:
109,192,48669,1,0,0:0:0:0:
402,192,48748,1,0,0:0:0:0:
256,192,48748,1,0,0:0:0:0:
182,192,48827,1,0,0:0:0:0:
329,192,48827,1,0,0:0:0:0:
475,192,48906,1,0,0:0:0:0:
109,192,48906,1,0,0:0:0:0:
256,192,48906,1,0,0:0:0:0:
36,192,48984,1,0,0:0:0:0:
402,192,48984,1,0,0:0:0:0:
329,192,49063,1,0,0:0:0:0:
182,192,49063,1,0,0:0:0:0:
402,192,49142,1,0,0:0:0:0:
109,192,49142,1,0,0:0:0:0:
329,192,49221,1,0,0:0:0:0:
36,192,49221,1,0,0:0:0:0:
475,192,49221,1,0,0:0:0:0:
182,192,49221,1,0,0:0:0:0:
402,192,49299,1,0,0:0:0:0:
256,192,49299,1,0,0:0:0:0:
109,192,49378,1,0,0:0:0:0:
329,192,49378,1,0,0:0:0:0:
182,192,49457,1,0,0:0:0:0:
402,192,49457,1,0,0:0:0:0:
475,192,49536,1,0,0:0:0:0:
256,192,49536,1,0,0:0:0:0:
109,192,49536,1,0,0:0:0:0:
36,192,49536,1,0,0:0:0:0:
402,192,49615,1,0,0:0:0:0:
329,192,49615,1,0,0:0:0:0:
109,192,49693,1,0,0:0:0:0:
182,192,49693,1,0,0:0:0:0:
475,192,49693,1,0,0:0:0:0:
36,192,49693,1,0,0:0:0:0:
329,192,49772,1,0,0:0:0:0:
256,192,49772,1,0,0:0:0:0:
109,192,49851,1,0,0:0:0:0:
475,192,49851,1,0,0:0:0:0:
36,192,49851,1,0,0:0:0:0:
256,192,49930,1,0,0:0:0:0:
402,192,49930,1,0,0:0:0:0:
329,192,50008,1,0,0:0:0:0:
475,192,50008,1,0,0:0:0:0:
36,192,50008,1,0,0:0:0:0:
182,192,50008,1,0,0:0:0:0:
256,192,50087,1,0,0:0:0:0:
402,192,50087,1,0,0:0:0:0:
109,192,50166,1,0,0:0:0:0:
329,192,50166,1,0,0:0:0:0:
36,192,50166,1,0,0:0:0:0:
182,192,50245,1,0,0:0:0:0:
402,192,50245,1,0,0:0:0:0:
36,192,50324,1,0,0:0:0:0:
475,192,50324,1,0,0:0:0:0:
256,192,50324,1,0,0:0:0:0:
109,192,50324,1,0,0:0:0:0:
402,192,50402,1,0,0:0:0:0:
182,192,50402,1,0,0:0:0:0:
36,192,50481,1,0,0:0:0:0:
256,192,50481,1,0,0:0:0:0:
475,192,50481,1,0,0:0:0:0:
329,192,50560,1,0,0:0:0:0:
109,192,50560,1,0,0:0:0:0:
402,192,50639,1,0,0:0:0:0:
182,192,50639,1,0,0:0:0:0:
256,192,50718,1,0,0:0:0:0:
475,192,50718,1,0,0:0:0:0:
36,192,50796,1,0,0:0:0:0:
402,192,50796,1,0,0:0:0:0:
109,192,50796,1,0,0:0:0:0:
329,192,50796,1,0,0:0:0:0:
182,192,50796,1,0,0:0:0:0:
256,192,50875,1,0,0:0:0:0:
475,192,50875,1,0,0:0:0:0:
182,192,50954,1,0,0:0:0:0:
402,192,50954,1,0,0:0:0:0:
329,192,51033,1,0,0:0:0:0:
109,192,51033,1,0,0:0:0:0:
256,192,51111,1,0,0:0:0:0:
475,192,51111,1,0,0:0:0:0:
36,192,51111,1,0,0:0:0:0:
182,192,51190,1,0,0:0:0:0:
402,192,51190,1,0,0:0:0:0:
109,192,51269,1,0,0:0:0:0:
329,192,51269,1,0,0:0:0:0:
402,192,51348,1,0,0:0:0:0:
182,192,51348,1,0,0:0:0:0:
256,192,51427,1,0,0:0:0:0:
475,192,51427,1,0,0:0:0:0:
36,192,51427,1,0,0:0:0:0:
329,192,51505,1,0,0:0:0:0:
109,192,51505,1,0,0:0:0:0:
182,192,51584,1,0,0:0:0:0:
402,192,51584,1,0,0:0:0:0:
329,192,51663,1,0,0:0:0:0:
109,192,51663,1,0,0:0:0:0:
475,192,51742,1,0,0:0:0:0:
36,192,51742,1,0,0:0:0:0:
256,192,51742,1,0,0:0:0:0:
402,192,51742,1,0,0:0:0:0:
329,192,51820,1,0,0:0:0:0:
182,192,51820,1,0,0:0:0:0:
475,192,51899,1,0,0:0:0:0:
109,192,51899,1,0,0:0:0:0:
402,192,51899,1,0,0:0:0:0:
329,192,51978,1,0,0:0:0:0:
182,192,51978,1,0,0:0:0:0:
256,192,52057,1,0,0:0:0:0:
36,192,52057,1,0,0:0:0:0:
475,192,52057,1,0,0:0:0:0:
109,192,52136,1,0,0:0:0:0:
402,192,52136,1,0,0:0:0:0:
36,192,52214,1,0,0:0:0:0:
182,192,52214,1,0,0:0:0:0:
329,192,52214,1,0,0:0:0:0:
402,192,52293,1,0,0:0:0:0:
256,192,52293,1,0,0:0:0:0:
475,192,52372,1,0,0:0:0:0:
109,192,52372,1,0,0:0:0:0:
329,192,52451,1,0,0:0:0:0:
182,192,52451,1,0,0:0:0:0:
36,192,52529,1,0,0:0:0:0:
475,192,52529,1,0,0:0:0:0:
256,192,52529,1,0,0:0:0:0:
109,192,52529,1,0,0:0:0:0:
182,192,52608,1,0,0:0:0:0:
402,192,52608,1,0,0:0:0:0:
329,192,52687,1,0,0:0:0:0:
36,192,52687,1,0,0:0:0:0:
109,192,52766,1,0,0:0:0:0:
402,192,52766,1,0,0:0:0:0:
36,192,52845,1,0,0:0:0:0:
329,192,52845,1,0,0:0:0:0:
182,192,52845,1,0,0:0:0:0:
475,192,52845,1,0,0:0:0:0:
256,192,52923,1,0,0:0:0:0:
402,192,52923,1,0,0:0:0:0:
329,192,53002,1,0,0:0:0:0:
109,192,53002,1,0,0:0:0:0:
402,192,53081,1,0,0:0:0:0:
182,192,53081,1,0,0:0:0:0:
256,192,53160,1,0,0:0:0:0:
36,192,53160,1,0,0:0:0:0:
109,192,53160,1,0,0:0:0:0:
475,192,53160,1,0,0:0:0:0:
329,192,53239,1,0,0:0:0:0:
182,192,53239,1,0,0:0:0:0:
109,192,53317,1,0,0:0:0:0:
475,192,53317,1,0,0:0:0:0:
402,192,53396,1,0,0:0:0:0:
256,192,53396,1,0,0:0:0:0:
329,192,53475,1,0,0:0:0:0:
182,192,53475,1,0,0:0:0:0:
36,192,53475,1,0,0:0:0:0:
402,192,53554,1,0,0:0:0:0:
256,192,53554,1,0,0:0:0:0:
475,192,53632,1,0,0:0:0:0:
109,192,53632,1,0,0:0:0:0:
182,192,53711,1,0,0:0:0:0:
329,192,53711,1,0,0:0:0:0:
36,192,53790,1,0,0:0:0:0:
402,192,53790,1,0,0:0:0:0:
475,192,53790,1,0,0:0:0:0:
256,192,53790,1,0,0:0:0:0:
329,192,53869,1,0,0:0:0:0:
109,192,53869,1,0,0:0:0:0:
182,192,53869,1,0,0:0:0:0:
475,192,53948,1,0,0:0:0:0:
402,192,53948,1,0,0:0:0:0:
36,192,53948,1,0,0:0:0:0:
256,192,53948,1,0,0:0:0:0:
109,192,54026,1,0,0:0:0:0:
402,192,54105,1,0,0:0:0:0:
475,192,54105,1,0,0:0:0:0:
182,192,54105,1,0,0:0:0:0:
329,192,54105,1,0,0:0:0:0:
109,192,54184,1,0,0:0:0:0:
402,192,54263,1,0,0:0:0:0:
475,192,54263,1,0,0:0:0:0:
36,192,54263,1,0,0:0:0:0:
256,192,54263,1,0,0:0:0:0:
182,192,54341,1,0,0:0:0:0:
329,192,54420,1,0,0:0:0:0:
329,192,54499,1,0,0:0:0:0:
182,192,54578,1,0,0:0:0:0:
36,192,54578,1,0,0:0:0:0:
402,192,54657,1,0,0:0:0:0:
256,192,54735,1,0,0:0:0:0:
109,192,54814,1,0,0:0:0:0:
475,192,54893,1,0,0:0:0:0:
329,192,54893,1,0,0:0:0:0:
182,192,54972,1,0,0:0:0:0:
36,192,55050,1,0,0:0:0:0:
36,192,55129,1,0,0:0:0:0:
475,192,55208,1,0,0:0:0:0:
329,192,55208,1,0,0:0:0:0:
109,192,55287,1,0,0:0:0:0:
256,192,55366,1,0,0:0:0:0:
402,192,55444,1,0,0:0:0:0:
36,192,55523,1,0,0:0:0:0:
182,192,55523,1,0,0:0:0:0:
329,192,55602,1,0,0:0:0:0:
109,192,55681,1,0,0:0:0:0:
109,192,55760,1,0,0:0:0:0:
475,192,55838,1,0,0:0:0:0:
256,192,55838,1,0,0:0:0:0:
329,192,55917,1,0,0:0:0:0:
36,192,55996,1,0,0:0:0:0:
182,192,56075,1,0,0:0:0:0:
402,192,56153,1,0,0:0:0:0:
109,192,56153,1,0,0:0:0:0:
256,192,56232,1,0,0:0:0:0:
475,192,56311,1,0,0:0:0:0:
475,192,56390,1,0,0:0:0:0:
182,192,56469,1,0,0:0:0:0:
329,192,56469,1,0,0:0:0:0:
36,192,56547,1,0,0:0:0:0:
256,192,56626,1,0,0:0:0:0:
402,192,56705,1,0,0:0:0:0:
329,192,56784,1,0,0:0:0:0:
109,192,56784,1,0,0:0:0:0:
475,192,56862,1,0,0:0:0:0:
182,192,56941,1,0,0:0:0:0:
182,192,57020,1,0,0:0:0:0:
36,192,57099,1,0,0:0:0:0:
475,192,57099,1,0,0:0:0:0:
329,192,57178,1,0,0:0:0:0:
182,192,57256,1,0,0:0:0:0:
402,192,57335,1,0,0:0:0:0:
36,192,57414,1,0,0:0:0:0:
256,192,57414,1,0,0:0:0:0:
182,192,57493,1,0,0:0:0:0:
329,192,57571,1,0,0:0:0:0:
329,192,57650,1,0,0:0:0:0:
109,192,57729,1,0,0:0:0:0:
256,192,57729,1,0,0:0:0:0:
475,192,57808,1,0,0:0:0:0:
329,192,57887,1,0,0:0:0:0:
36,192,57965,1,0,0:0:0:0:
475,192,58044,1,0,0:0:0:0:
182,192,58044,1,0,0:0:0:0:
329,192,58123,1,0,0:0:0:0:
109,192,58202,1,0,0:0:0:0:
109,192,58281,1,0,0:0:0:0:
402,192,58359,1,0,0:0:0:0:
256,192,58359,1,0,0:0:0:0:
36,192,58438,1,0,0:0:0:0:
182,192,58517,1,0,0:0:0:0:
329,192,58596,1,0,0:0:0:0:
475,192,58674,1,0,0:0:0:0:
109,192,58674,1,0,0:0:0:0:
402,192,58753,1,0,0:0:0:0:
256,192,58832,1,0,0:0:0:0:
256,192,58911,1,0,0:0:0:0:
402,192,58990,1,0,0:0:0:0:
36,192,58990,1,0,0:0:0:0:
182,192,59068,1,0,0:0:0:0:
329,192,59147,1,0,0:0:0:0:
475,192,59226,1,0,0:0:0:0:
109,192,59305,1,0,0:0:0:0:
402,192,59305,1,0,0:0:0:0:
256,192,59383,1,0,0:0:0:0:
36,192,59462,1,0,0:0:0:0:
36,192,59541,1,0,0:0:0:0:
329,192,59620,1,0,0:0:0:0:
475,192,59620,1,0,0:0:0:0:
182,192,59699,1,0,0:0:0:0:
36,192,59777,1,0,0:0:0:0:
402,192,59856,1,0,0:0:0:0:
256,192,59935,1,0,0:0:0:0:
109,192,59935,1,0,0:0:0:0:
475,192,60014,1,0,0:0:0:0:
329,192,60093,1,0,0:0:0:0:
329,192,60171,1,0,0:0:0:0:
36,192,60250,1,0,0:0:0:0:
182,192,60250,1,0,0:0:0:0:
402,192,60329,1,0,0:0:0:0:
256,192,60408,1,0,0:0:0:0:
109,192,60486,1,0,0:0:0:0:
475,192,60565,1,0,0:0:0:0:
329,192,60565,1,0,0:0:0:0:
36,192,60644,1,0,0:0:0:0:
182,192,60723,1,0,0:0:0:0:
182,192,60802,1,0,0:0:0:0:
402,192,60880,1,0,0:0:0:0:
256,192,60880,1,0,0:0:0:0:
109,192,60959,1,0,0:0:0:0:
329,192,61038,1,0,0:0:0:0:
475,192,61117,1,0,0:0:0:0:
36,192,61195,1,0,0:0:0:0:
256,192,61195,1,0,0:0:0:0:
182,192,61274,1,0,0:0:0:0:
402,192,61353,1,0,0:0:0:0:
402,192,61432,1,0,0:0:0:0:
109,192,61511,1,0,0:0:0:0:
329,192,61511,1,0,0:0:0:0:
182,192,61589,1,0,0:0:0:0:
475,192,61668,1,0,0:0:0:0:
256,192,61747,1,0,0:0:0:0:
109,192,61826,1,0,0:0:0:0:
402,192,61826,1,0,0:0:0:0:
36,192,61904,1,0,0:0:0:0:
329,192,61983,1,0,0:0:0:0:
329,192,62062,1,0,0:0:0:0:
475,192,62141,1,0,0:0:0:0:
36,192,62141,1,0,0:0:0:0:
182,192,62220,1,0,0:0:0:0:
329,192,62298,1,0,0:0:0:0:
256,192,62377,1,0,0:0:0:0:
475,192,62456,1,0,0:0:0:0:
109,192,62456,1,0,0:0:0:0:
402,192,62535,1,0,0:0:0:0:
256,192,62614,1,0,0:0:0:0:
256,192,62692,1,0,0:0:0:0:
36,192,62771,1,0,0:0:0:0:
182,192,62771,1,0,0:0:0:0:
475,192,62850,1,0,0:0:0:0:
329,192,62929,1,0,0:0:0:0:
182,192,63007,1,0,0:0:0:0:
402,192,63086,1,0,0:0:0:0:
36,192,63086,1,0,0:0:0:0:
256,192,63165,1,0,0:0:0:0:
109,192,63244,1,0,0:0:0:0:
109,192,63323,1,0,0:0:0:0:
475,192,63401,1,0,0:0:0:0:
329,192,63401,1,0,0:0:0:0:
182,192,63480,1,0,0:0:0:0:
402,192,63559,1,0,0:0:0:0:
109,192,63638,1,0,0:0:0:0:
36,192,63716,1,0,0:0:0:0:
329,192,63716,1,0,0:0:0:0:
256,192,63795,1,0,0:0:0:0:
475,192,63874,1,0,0:0:0:0:
475,192,63953,1,0,0:0:0:0:
36,192,64032,1,0,0:0:0:0:
109,192,64032,1,0,0:0:0:0:
256,192,64032,1,0,0:0:0:0:
402,192,64110,1,0,0:0:0:0:
329,192,64189,1,0,0:0:0:0:
36,192,64189,1,0,0:0:0:0:
182,192,64189,1,0,0:0:0:0:
109,192,64268,1,0,0:0:0:0:
475,192,64347,1,0,0:0:0:0:
402,192,64347,1,0,0:0:0:0:
36,192,64347,1,0,0:0:0:0:
256,192,64347,1,0,0:0:0:0:
36,192,64662,1,0,0:0:0:0:
475,192,64819,1,0,0:0:0:0:
329,192,64819,1,0,0:0:0:0:
109,192,64977,1,0,0:0:0:0:
256,192,64977,1,0,0:0:0:0:
36,192,65292,1,0,0:0:0:0:
256,192,65607,1,0,0:0:0:0:
109,192,65607,1,0,0:0:0:0:
402,192,65607,1,0,0:0:0:0:
475,192,65607,1,0,0:0:0:0:
475,192,65922,1,0,0:0:0:0:
256,192,65922,1,0,0:0:0:0:
36,192,65922,1,0,0:0:0:0:
402,192,66080,1,0,0:0:0:0:
182,192,66080,1,0,0:0:0:0:
329,192,66237,1,0,0:0:0:0:
109,192,66237,1,0,0:0:0:0:
402,192,66395,1,0,0:0:0:0:
182,192,66395,1,0,0:0:0:0:
475,192,66553,1,0,0:0:0:0:
256,192,66553,1,0,0:0:0:0:
36,192,66553,1,0,0:0:0:0:
109,192,66710,1,0,0:0:0:0:
402,192,66710,1,0,0:0:0:0:
329,192,66868,1,0,0:0:0:0:
36,192,66868,1,0,0:0:0:0:
182,192,66868,1,0,0:0:0:0:
475,192,66868,1,0,0:0:0:0:
36,192,67183,1,0,0:0:0:0:
475,192,67340,1,0,0:0:0:0:
329,192,67340,1,0,0:0:0:0:
475,192,67498,1,0,0:0:0:0:
329,192,67498,1,0,0:0:0:0:
36,192,67813,1,0,0:0:0:0:
475,192,68128,1,0,0:0:0:0:
109,192,68128,1,0,0:0:0:0:
256,192,68128,1,0,0:0:0:0:
402,192,68128,1,0,0:0:0:0:
36,192,68443,1,0,0:0:0:0:
329,192,69074,1,0,0:0:0:0:
475,192,69074,1,0,0:0:0:0:
36,192,69074,1,0,0:0:0:0:
182,192,69074,1,0,0:0:0:0:
402,192,69231,1,0,0:0:0:0:
256,192,69231,1,0,0:0:0:0:
36,192,69389,1,0,0:0:0:0:
109,192,69389,1,0,0:0:0:0:
475,192,69389,1,0,0:0:0:0:
329,192,69389,1,0,0:0:0:0:
182,192,69389,1,0,0:0:0:0:
36,192,69704,1,0,0:0:0:0:
475,192,69861,1,0,0:0:0:0:
329,192,69861,1,0,0:0:0:0:
109,192,70019,1,0,0:0:0:0:
256,192,70019,1,0,0:0:0:0:
36,192,70334,1,0,0:0:0:0:
402,192,70649,1,0,0:0:0:0:
475,192,70649,1,0,0:0:0:0:
109,192,70649,1,0,0:0:0:0:
256,192,70649,1,0,0:0:0:0:
329,192,70964,1,0,0:0:0:0:
182,192,70964,1,0,0:0:0:0:
36,192,70964,1,0,0:0:0:0:
402,192,71122,1,0,0:0:0:0:
256,192,71122,1,0,0:0:0:0:
109,192,71279,1,0,0:0:0:0:
475,192,71279,1,0,0:0:0:0:
402,192,71437,1,0,0:0:0:0:
182,192,71437,1,0,0:0:0:0:
475,192,71595,1,0,0:0:0:0:
256,192,71595,1,0,0:0:0:0:
36,192,71595,1,0,0:0:0:0:
109,192,71752,1,0,0:0:0:0:
402,192,71752,1,0,0:0:0:0:
475,192,71910,1,0,0:0:0:0:
36,192,71910,1,0,0:0:0:0:
182,192,71910,1,0,0:0:0:0:
329,192,71910,1,0,0:0:0:0:
402,192,71989,1,0,0:0:0:0:
256,192,71989,1,0,0:0:0:0:
475,192,72067,1,0,0:0:0:0:
36,192,72067,1,0,0:0:0:0:
109,192,72067,1,0,0:0:0:0:
329,192,72146,1,0,0:0:0:0:
182,192,72146,1,0,0:0:0:0:
36,192,72225,1,0,0:0:0:0:
402,192,72225,1,0,0:0:0:0:
475,192,72225,1,0,0:0:0:0:
256,192,72304,1,0,0:0:0:0:
109,192,72304,1,0,0:0:0:0:
402,192,72382,1,0,0:0:0:0:
475,192,72382,1,0,0:0:0:0:
36,192,72382,1,0,0:0:0:0:
329,192,72461,1,0,0:0:0:0:
182,192,72461,1,0,0:0:0:0:
475,192,72540,1,0,0:0:0:0:
36,192,72540,1,0,0:0:0:0:
109,192,72540,1,0,0:0:0:0:
402,192,72619,1,0,0:0:0:0:
256,192,72619,1,0,0:0:0:0:
36,192,72698,1,0,0:0:0:0:
109,192,72698,1,0,0:0:0:0:
475,192,72698,1,0,0:0:0:0:
329,192,72776,1,0,0:0:0:0:
182,192,72776,1,0,0:0:0:0:
402,192,72855,1,0,0:0:0:0:
475,192,72855,1,0,0:0:0:0:
36,192,72855,1,0,0:0:0:0:
256,192,72934,1,0,0:0:0:0:
109,192,72934,1,0,0:0:0:0:
402,192,73013,1,0,0:0:0:0:
475,192,73013,1,0,0:0:0:0:
36,192,73013,1,0,0:0:0:0:
329,192,73091,1,0,0:0:0:0:
182,192,73091,1,0,0:0:0:0:
36,192,73170,1,0,0:0:0:0:
109,192,73170,1,0,0:0:0:0:
256,192,73170,1,0,0:0:0:0:
475,192,73249,1,0,0:0:0:0:
402,192,73249,1,0,0:0:0:0:
36,192,73328,1,0,0:0:0:0:
182,192,73328,1,0,0:0:0:0:
329,192,73328,1,0,0:0:0:0:
475,192,73407,1,0,0:0:0:0:
402,192,73407,1,0,0:0:0:0:
36,192,73485,1,0,0:0:0:0:
109,192,73485,1,0,0:0:0:0:
256,192,73485,1,0,0:0:0:0:
329,192,73564,1,0,0:0:0:0:
182,192,73564,1,0,0:0:0:0:
475,192,73643,1,0,0:0:0:0:
402,192,73643,1,0,0:0:0:0:
256,192,73643,1,0,0:0:0:0:
109,192,73722,1,0,0:0:0:0:
36,192,73722,1,0,0:0:0:0:
182,192,73800,1,0,0:0:0:0:
475,192,73800,1,0,0:0:0:0:
329,192,73800,1,0,0:0:0:0:
36,192,73879,1,0,0:0:0:0:
109,192,73879,1,0,0:0:0:0:
475,192,73958,1,0,0:0:0:0:
402,192,73958,1,0,0:0:0:0:
256,192,73958,1,0,0:0:0:0:
182,192,74037,1,0,0:0:0:0:
329,192,74037,1,0,0:0:0:0:
36,192,74116,1,0,0:0:0:0:
475,192,74116,1,0,0:0:0:0:
256,192,74116,1,0,0:0:0:0:
109,192,74116,1,0,0:0:0:0:
182,192,74194,1,0,0:0:0:0:
402,192,74194,1,0,0:0:0:0:
329,192,74194,1,0,0:0:0:0:
36,192,74273,1,0,0:0:0:0:
109,192,74273,1,0,0:0:0:0:
475,192,74273,1,0,0:0:0:0:
182,192,74352,1,0,0:0:0:0:
402,192,74352,1,0,0:0:0:0:
329,192,74352,1,0,0:0:0:0:
36,192,74431,1,0,0:0:0:0:
475,192,74431,1,0,0:0:0:0:
256,192,74431,1,0,0:0:0:0:
109,192,74431,1,0,0:0:0:0:
402,192,74510,1,0,0:0:0:0:
256,192,74588,1,0,0:0:0:0:
182,192,74667,1,0,0:0:0:0:
109,192,74746,1,0,0:0:0:0:
402,192,74746,1,0,0:0:0:0:
329,192,74825,1,0,0:0:0:0:
182,192,74903,1,0,0:0:0:0:
109,192,74982,1,0,0:0:0:0:
475,192,75061,1,0,0:0:0:0:
256,192,75061,1,0,0:0:0:0:
36,192,75061,1,0,0:0:0:0:
109,192,75140,1,0,0:0:0:0:
182,192,75140,1,0,0:0:0:0:
329,192,75140,1,0,0:0:0:0:
402,192,75140,1,0,0:0:0:0:
256,192,75219,1,0,0:0:0:0:
36,192,75219,1,0,0:0:0:0:
475,192,75219,1,0,0:0:0:0:
402,192,75297,1,0,0:0:0:0:
36,192,75376,1,0,0:0:0:0:
182,192,75376,1,0,0:0:0:0:
329,192,75376,1,0,0:0:0:0:
402,192,75455,1,0,0:0:0:0:
256,192,75455,1,0,0:0:0:0:
109,192,75455,1,0,0:0:0:0:
329,192,75534,1,0,0:0:0:0:
475,192,75534,1,0,0:0:0:0:
182,192,75534,1,0,0:0:0:0:
256,192,75612,1,0,0:0:0:0:
402,192,75612,1,0,0:0:0:0:
109,192,75612,1,0,0:0:0:0:
36,192,75691,1,0,0:0:0:0:
329,192,75691,1,0,0:0:0:0:
182,192,75691,1,0,0:0:0:0:
475,192,75691,1,0,0:0:0:0:
402,192,75770,1,0,0:0:0:0:
109,192,75770,1,0,0:0:0:0:
475,192,75849,1,0,0:0:0:0:
256,192,75849,1,0,0:0:0:0:
329,192,75928,1,0,0:0:0:0:
182,192,75928,1,0,0:0:0:0:
256,192,76006,1,0,0:0:0:0:
475,192,76006,1,0,0:0:0:0:
36,192,76006,1,0,0:0:0:0:
109,192,76006,1,0,0:0:0:0:
402,192,76085,1,0,0:0:0:0:
182,192,76085,1,0,0:0:0:0:
329,192,76164,1,0,0:0:0:0:
36,192,76164,1,0,0:0:0:0:
256,192,76243,1,0,0:0:0:0:
109,192,76243,1,0,0:0:0:0:
475,192,76321,1,0,0:0:0:0:
182,192,76321,1,0,0:0:0:0:
36,192,76321,1,0,0:0:0:0:
402,192,76321,1,0,0:0:0:0:
329,192,76400,1,0,0:0:0:0:
256,192,76400,1,0,0:0:0:0:
475,192,76479,1,0,0:0:0:0:
402,192,76479,1,0,0:0:0:0:
36,192,76479,1,0,0:0:0:0:
109,192,76479,1,0,0:0:0:0:
329,192,76558,1,0,0:0:0:0:
182,192,76558,1,0,0:0:0:0:
109,192,76637,1,0,0:0:0:0:
475,192,76637,1,0,0:0:0:0:
256,192,76715,1,0,0:0:0:0:
402,192,76715,1,0,0:0:0:0:
329,192,76794,1,0,0:0:0:0:
36,192,76794,1,0,0:0:0:0:
182,192,76794,1,0,0:0:0:0:
475,192,76794,1,0,0:0:0:0:
109,192,76873,1,0,0:0:0:0:
256,192,76873,1,0,0:0:0:0:
329,192,76952,1,0,0:0:0:0:
36,192,76952,1,0,0:0:0:0:
475,192,76952,1,0,0:0:0:0:
256,192,77031,1,0,0:0:0:0:
109,192,77031,1,0,0:0:0:0:
182,192,77109,1,0,0:0:0:0:
402,192,77109,1,0,0:0:0:0:
36,192,77188,1,0,0:0:0:0:
329,192,77188,1,0,0:0:0:0:
109,192,77267,1,0,0:0:0:0:
402,192,77267,1,0,0:0:0:0:
182,192,77267,1,0,0:0:0:0:
256,192,77267,1,0,0:0:0:0:
475,192,77267,1,0,0:0:0:0:
329,192,77346,1,0,0:0:0:0:
36,192,77346,1,0,0:0:0:0:
475,192,77424,1,0,0:0:0:0:
182,192,77424,1,0,0:0:0:0:
256,192,77503,1,0,0:0:0:0:
402,192,77503,1,0,0:0:0:0:
109,192,77582,1,0,0:0:0:0:
36,192,77582,1,0,0:0:0:0:
329,192,77582,1,0,0:0:0:0:
475,192,77661,1,0,0:0:0:0:
182,192,77661,1,0,0:0:0:0:
402,192,77740,1,0,0:0:0:0:
109,192,77740,1,0,0:0:0:0:
256,192,77740,1,0,0:0:0:0:
36,192,77740,1,0,0:0:0:0:
329,192,77818,1,0,0:0:0:0:
182,192,77818,1,0,0:0:0:0:
36,192,77897,1,0,0:0:0:0:
402,192,77897,1,0,0:0:0:0:
256,192,77897,1,0,0:0:0:0:
475,192,77897,1,0,0:0:0:0:
109,192,77976,1,0,0:0:0:0:
329,192,77976,1,0,0:0:0:0:
402,192,78055,1,0,0:0:0:0:
475,192,78055,1,0,0:0:0:0:
36,192,78055,1,0,0:0:0:0:
182,192,78055,1,0,0:0:0:0:
109,192,78133,1,0,0:0:0:0:
329,192,78133,1,0,0:0:0:0:
256,192,78212,1,0,0:0:0:0:
475,192,78212,1,0,0:0:0:0:
402,192,78212,1,0,0:0:0:0:
36,192,78212,1,0,0:0:0:0:
182,192,78291,1,0,0:0:0:0:
329,192,78291,1,0,0:0:0:0:
475,192,78370,1,0,0:0:0:0:
256,192,78370,1,0,0:0:0:0:
109,192,78370,1,0,0:0:0:0:
36,192,78370,1,0,0:0:0:0:
182,192,78449,1,0,0:0:0:0:
402,192,78449,1,0,0:0:0:0:
475,192,78527,1,0,0:0:0:0:
36,192,78527,1,0,0:0:0:0:
329,192,78527,1,0,0:0:0:0:
256,192,78606,1,0,0:0:0:0:
109,192,78606,1,0,0:0:0:0:
182,192,78685,1,0,0:0:0:0:
36,192,78685,1,0,0:0:0:0:
402,192,78685,1,0,0:0:0:0:
475,192,78685,1,0,0:0:0:0:
256,192,78764,1,0,0:0:0:0:
329,192,78764,1,0,0:0:0:0:
182,192,78843,1,0,0:0:0:0:
475,192,78843,1,0,0:0:0:0:
109,192,78843,1,0,0:0:0:0:
329,192,78921,1,0,0:0:0:0:
402,192,78921,1,0,0:0:0:0:
109,192,79000,1,0,0:0:0:0:
36,192,79000,1,0,0:0:0:0:
256,192,79000,1,0,0:0:0:0:
475,192,79000,1,0,0:0:0:0:
182,192,79079,1,0,0:0:0:0:
329,192,79079,1,0,0:0:0:0:
36,192,79158,1,0,0:0:0:0:
256,192,79158,1,0,0:0:0:0:
475,192,79158,1,0,0:0:0:0:
109,192,79236,1,0,0:0:0:0:
402,192,79236,1,0,0:0:0:0:
182,192,79315,1,0,0:0:0:0:
36,192,79315,1,0,0:0:0:0:
475,192,79315,1,0,0:0:0:0:
329,192,79315,1,0,0:0:0:0:
256,192,79394,1,0,0:0:0:0:
402,192,79394,1,0,0:0:0:0:
109,192,79473,1,0,0:0:0:0:
36,192,79473,1,0,0:0:0:0:
475,192,79473,1,0,0:0:0:0:
329,192,79552,1,0,0:0:0:0:
182,192,79552,1,0,0:0:0:0:
475,192,79630,1,0,0:0:0:0:
36,192,79630,1,0,0:0:0:0:
256,192,79630,1,0,0:0:0:0:
402,192,79630,1,0,0:0:0:0:
329,192,79709,1,0,0:0:0:0:
109,192,79709,1,0,0:0:0:0:
36,192,79788,1,0,0:0:0:0:
475,192,79788,1,0,0:0:0:0:
182,192,79788,1,0,0:0:0:0:
402,192,79867,1,0,0:0:0:0:
256,192,79867,1,0,0:0:0:0:
329,192,79945,1,0,0:0:0:0:
36,192,79945,1,0,0:0:0:0:
182,192,79945,1,0,0:0:0:0:
475,192,79945,1,0,0:0:0:0:
256,192,80024,1,0,0:0:0:0:
109,192,80024,1,0,0:0:0:0:
475,192,80103,1,0,0:0:0:0:
36,192,80103,1,0,0:0:0:0:
329,192,80103,1,0,0:0:0:0:
402,192,80182,1,0,0:0:0:0:
182,192,80182,1,0,0:0:0:0:
329,192,80261,1,0,0:0:0:0:
109,192,80261,1,0,0:0:0:0:
256,192,80339,1,0,0:0:0:0:
475,192,80339,1,0,0:0:0:0:
402,192,80418,1,0,0:0:0:0:
36,192,80418,1,0,0:0:0:0:
182,192,80418,1,0,0:0:0:0:
109,192,80497,1,0,0:0:0:0:
329,192,80497,1,0,0:0:0:0:
402,192,80576,1,0,0:0:0:0:
182,192,80576,1,0,0:0:0:0:
329,192,80654,1,0,0:0:0:0:
109,192,80654,1,0,0:0:0:0:
256,192,80733,1,0,0:0:0:0:
36,192,80733,1,0,0:0:0:0:
475,192,80733,1,0,0:0:0:0:
402,192,80733,1,0,0:0:0:0:
329,192,80812,1,0,0:0:0:0:
109,192,80812,1,0,0:0:0:0:
182,192,80891,1,0,0:0:0:0:
475,192,80891,1,0,0:0:0:0:
256,192,80970,1,0,0:0:0:0:
402,192,80970,1,0,0:0:0:0:
329,192,81048,1,0,0:0:0:0:
475,192,81048,1,0,0:0:0:0:
182,192,81048,1,0,0:0:0:0:
36,192,81048,1,0,0:0:0:0:
109,192,81127,1,0,0:0:0:0:
402,192,81127,1,0,0:0:0:0:
475,192,81206,1,0,0:0:0:0:
182,192,81206,1,0,0:0:0:0:
329,192,81206,1,0,0:0:0:0:
36,192,81206,1,0,0:0:0:0:
256,192,81285,1,0,0:0:0:0:
109,192,81285,1,0,0:0:0:0:
36,192,81364,1,0,0:0:0:0:
475,192,81364,1,0,0:0:0:0:
329,192,81364,1,0,0:0:0:0:
402,192,81442,1,0,0:0:0:0:
182,192,81442,1,0,0:0:0:0:
256,192,81521,1,0,0:0:0:0:
475,192,81521,1,0,0:0:0:0:
109,192,81521,1,0,0:0:0:0:
36,192,81521,1,0,0:0:0:0:
182,192,81600,1,0,0:0:0:0:
329,192,81600,1,0,0:0:0:0:
256,192,81679,1,0,0:0:0:0:
402,192,81679,1,0,0:0:0:0:
36,192,81679,1,0,0:0:0:0:
182,192,81757,1,0,0:0:0:0:
329,192,81757,1,0,0:0:0:0:
36,192,81836,1,0,0:0:0:0:
475,192,81836,1,0,0:0:0:0:
402,192,81836,1,0,0:0:0:0:
109,192,81836,1,0,0:0:0:0:
329,192,81915,1,0,0:0:0:0:
182,192,81915,1,0,0:0:0:0:
36,192,81994,1,0,0:0:0:0:
256,192,81994,1,0,0:0:0:0:
475,192,81994,1,0,0:0:0:0:
402,192,82073,1,0,0:0:0:0:
109,192,82073,1,0,0:0:0:0:
329,192,82151,1,0,0:0:0:0:
182,192,82151,1,0,0:0:0:0:
109,192,82230,1,0,0:0:0:0:
256,192,82230,1,0,0:0:0:0:
36,192,82309,1,0,0:0:0:0:
475,192,82309,1,0,0:0:0:0:
182,192,82309,1,0,0:0:0:0:
402,192,82309,1,0,0:0:0:0:
329,192,82309,1,0,0:0:0:0:
109,192,82388,1,0,0:0:0:0:
256,192,82388,1,0,0:0:0:0:
182,192,82466,1,0,0:0:0:0:
329,192,82466,1,0,0:0:0:0:
402,192,82545,1,0,0:0:0:0:
256,192,82545,1,0,0:0:0:0:
182,192,82624,1,0,0:0:0:0:
475,192,82624,1,0,0:0:0:0:
36,192,82624,1,0,0:0:0:0:
256,192,82703,1,0,0:0:0:0:
402,192,82703,1,0,0:0:0:0:
109,192,82782,1,0,0:0:0:0:
329,192,82782,1,0,0:0:0:0:
475,192,82860,1,0,0:0:0:0:
182,192,82860,1,0,0:0:0:0:
256,192,82939,1,0,0:0:0:0:
402,192,82939,1,0,0:0:0:0:
36,192,82939,1,0,0:0:0:0:
329,192,83018,1,0,0:0:0:0:
182,192,83018,1,0,0:0:0:0:
36,192,83097,1,0,0:0:0:0:
475,192,83097,1,0,0:0:0:0:
402,192,83097,1,0,0:0:0:0:
109,192,83097,1,0,0:0:0:0:
329,192,83175,1,0,0:0:0:0:
182,192,83175,1,0,0:0:0:0:
475,192,83254,1,0,0:0:0:0:
36,192,83254,1,0,0:0:0:0:
402,192,83254,1,0,0:0:0:0:
256,192,83254,1,0,0:0:0:0:
329,192,83333,1,0,0:0:0:0:
109,192,83333,1,0,0:0:0:0:
182,192,83412,1,0,0:0:0:0:
475,192,83412,1,0,0:0:0:0:
402,192,83491,1,0,0:0:0:0:
109,192,83491,1,0,0:0:0:0:
329,192,83569,1,0,0:0:0:0:
475,192,83569,1,0,0:0:0:0:
182,192,83569,1,0,0:0:0:0:
36,192,83569,1,0,0:0:0:0:
256,192,83648,1,0,0:0:0:0:
402,192,83648,1,0,0:0:0:0:
109,192,83727,1,0,0:0:0:0:
329,192,83727,1,0,0:0:0:0:
402,192,83806,1,0,0:0:0:0:
182,192,83806,1,0,0:0:0:0:
256,192,83885,1,0,0:0:0:0:
475,192,83885,1,0,0:0:0:0:
36,192,83885,1,0,0:0:0:0:
109,192,83885,1,0,0:0:0:0:
402,192,83963,1,0,0:0:0:0:
182,192,83963,1,0,0:0:0:0:
36,192,84042,1,0,0:0:0:0:
256,192,84042,1,0,0:0:0:0:
109,192,84121,1,0,0:0:0:0:
329,192,84121,1,0,0:0:0:0:
36,192,84200,1,0,0:0:0:0:
182,192,84200,1,0,0:0:0:0:
402,192,84200,1,0,0:0:0:0:
475,192,84200,1,0,0:0:0:0:
329,192,84278,1,0,0:0:0:0:
256,192,84278,1,0,0:0:0:0:
36,192,84357,1,0,0:0:0:0:
182,192,84357,1,0,0:0:0:0:
402,192,84357,1,0,0:0:0:0:
475,192,84357,1,0,0:0:0:0:
329,192,84436,1,0,0:0:0:0:
109,192,84436,1,0,0:0:0:0:
402,192,84515,1,0,0:0:0:0:
475,192,84515,1,0,0:0:0:0:
36,192,84515,1,0,0:0:0:0:
256,192,84515,1,0,0:0:0:0:
329,192,84594,1,0,0:0:0:0:
182,192,84594,1,0,0:0:0:0:
402,192,84672,1,0,0:0:0:0:
109,192,84672,1,0,0:0:0:0:
329,192,84751,1,0,0:0:0:0:
182,192,84751,1,0,0:0:0:0:
36,192,84830,1,0,0:0:0:0:
256,192,84830,1,0,0:0:0:0:
475,192,84830,1,0,0:0:0:0:
402,192,84830,1,0,0:0:0:0:
329,192,84909,1,0,0:0:0:0:
109,192,84909,1,0,0:0:0:0:
475,192,84987,1,0,0:0:0:0:
182,192,84987,1,0,0:0:0:0:
36,192,84987,1,0,0:0:0:0:
402,192,84987,1,0,0:0:0:0:
256,192,85066,1,0,0:0:0:0:
109,192,85066,1,0,0:0:0:0:
475,192,85145,1,0,0:0:0:0:
182,192,85145,1,0,0:0:0:0:
329,192,85145,1,0,0:0:0:0:
256,192,85224,1,0,0:0:0:0:
402,192,85224,1,0,0:0:0:0:
329,192,85303,1,0,0:0:0:0:
36,192,85303,1,0,0:0:0:0:
475,192,85303,1,0,0:0:0:0:
182,192,85303,1,0,0:0:0:0:
256,192,85381,1,0,0:0:0:0:
109,192,85381,1,0,0:0:0:0:
402,192,85460,1,0,0:0:0:0:
36,192,85460,1,0,0:0:0:0:
329,192,85539,1,0,0:0:0:0:
182,192,85539,1,0,0:0:0:0:
36,192,85618,1,0,0:0:0:0:
475,192,85618,1,0,0:0:0:0:
109,192,85618,1,0,0:0:0:0:
402,192,85618,1,0,0:0:0:0:
329,192,85696,1,0,0:0:0:0:
182,192,85696,1,0,0:0:0:0:
475,192,85775,1,0,0:0:0:0:
36,192,85775,1,0,0:0:0:0:
109,192,85775,1,0,0:0:0:0:
256,192,85775,1,0,0:0:0:0:
402,192,85854,1,0,0:0:0:0:
329,192,85854,1,0,0:0:0:0:
182,192,85933,1,0,0:0:0:0:
109,192,85933,1,0,0:0:0:0:
256,192,86012,1,0,0:0:0:0:
329,192,86012,1,0,0:0:0:0:
36,192,86090,1,0,0:0:0:0:
182,192,86090,1,0,0:0:0:0:
475,192,86090,1,0,0:0:0:0:
402,192,86090,1,0,0:0:0:0:
329,192,86169,1,0,0:0:0:0:
109,192,86169,1,0,0:0:0:0:
36,192,86248,1,0,0:0:0:0:
256,192,86248,1,0,0:0:0:0:
329,192,86327,1,0,0:0:0:0:
182,192,86327,1,0,0:0:0:0:
475,192,86406,1,0,0:0:0:0:
36,192,86406,1,0,0:0:0:0:
402,192,86406,1,0,0:0:0:0:
109,192,86406,1,0,0:0:0:0:
329,192,86484,1,0,0:0:0:0:
182,192,86484,1,0,0:0:0:0:
475,192,86563,1,0,0:0:0:0:
402,192,86563,1,0,0:0:0:0:
36,192,86563,1,0,0:0:0:0:
256,192,86563,1,0,0:0:0:0:
329,192,86642,1,0,0:0:0:0:
109,192,86642,1,0,0:0:0:0:
182,192,86721,1,0,0:0:0:0:
402,192,86721,1,0,0:0:0:0:
329,192,86799,1,0,0:0:0:0:
109,192,86799,1,0,0:0:0:0:
256,192,86878,1,0,0:0:0:0:
36,192,86878,1,0,0:0:0:0:
475,192,86878,1,0,0:0:0:0:
402,192,86878,1,0,0:0:0:0:
109,192,86957,1,0,0:0:0:0:
329,192,86957,1,0,0:0:0:0:
475,192,87036,1,0,0:0:0:0:
36,192,87036,1,0,0:0:0:0:
182,192,87036,1,0,0:0:0:0:
402,192,87115,1,0,0:0:0:0:
256,192,87115,1,0,0:0:0:0:
109,192,87193,1,0,0:0:0:0:
475,192,87193,1,0,0:0:0:0:
182,192,87272,1,0,0:0:0:0:
329,192,87272,1,0,0:0:0:0:
36,192,87351,1,0,0:0:0:0:
402,192,87351,1,0,0:0:0:0:
109,192,87351,1,0,0:0:0:0:
256,192,87351,1,0,0:0:0:0:
475,192,87351,1,0,0:0:0:0:
329,192,87430,1,0,0:0:0:0:
182,192,87430,1,0,0:0:0:0:
475,192,87508,1,0,0:0:0:0:
109,192,87508,1,0,0:0:0:0:
256,192,87587,1,0,0:0:0:0:
402,192,87587,1,0,0:0:0:0:
182,192,87666,1,0,0:0:0:0:
36,192,87666,1,0,0:0:0:0:
329,192,87666,1,0,0:0:0:0:
402,192,87745,1,0,0:0:0:0:
109,192,87745,1,0,0:0:0:0:
475,192,87824,1,0,0:0:0:0:
182,192,87824,1,0,0:0:0:0:
329,192,87824,1,0,0:0:0:0:
36,192,87824,1,0,0:0:0:0:
256,192,87902,1,0,0:0:0:0:
402,192,87902,1,0,0:0:0:0:
36,192,87981,1,0,0:0:0:0:
475,192,87981,1,0,0:0:0:0:
329,192,87981,1,0,0:0:0:0:
109,192,87981,1,0,0:0:0:0:
256,192,88060,1,0,0:0:0:0:
402,192,88060,1,0,0:0:0:0:
329,192,88139,1,0,0:0:0:0:
475,192,88139,1,0,0:0:0:0:
36,192,88139,1,0,0:0:0:0:
182,192,88139,1,0,0:0:0:0:
109,192,88218,1,0,0:0:0:0:
402,192,88218,1,0,0:0:0:0:
182,192,88296,1,0,0:0:0:0:
475,192,88296,1,0,0:0:0:0:
329,192,88296,1,0,0:0:0:0:
36,192,88296,1,0,0:0:0:0:
256,192,88375,1,0,0:0:0:0:
402,192,88375,1,0,0:0:0:0:
475,192,88454,1,0,0:0:0:0:
109,192,88454,1,0,0:0:0:0:
182,192,88454,1,0,0:0:0:0:
36,192,88454,1,0,0:0:0:0:
329,192,88533,1,0,0:0:0:0:
402,192,88533,1,0,0:0:0:0:
475,192,88611,1,0,0:0:0:0:
109,192,88611,1,0,0:0:0:0:
256,192,88611,1,0,0:0:0:0:
329,192,88690,1,0,0:0:0:0:
182,192,88690,1,0,0:0:0:0:
256,192,88769,1,0,0:0:0:0:
36,192,88769,1,0,0:0:0:0:
109,192,88769,1,0,0:0:0:0:
475,192,88769,1,0,0:0:0:0:
402,192,88848,1,0,0:0:0:0:
182,192,88848,1,0,0:0:0:0:
36,192,88927,1,0,0:0:0:0:
475,192,88927,1,0,0:0:0:0:
329,192,88927,1,0,0:0:0:0:
109,192,89005,1,0,0:0:0:0:
256,192,89005,1,0,0:0:0:0:
182,192,89084,1,0,0:0:0:0:
36,192,89084,1,0,0:0:0:0:
329,192,89084,1,0,0:0:0:0:
475,192,89084,1,0,0:0:0:0:
256,192,89163,1,0,0:0:0:0:
402,192,89163,1,0,0:0:0:0:
475,192,89242,1,0,0:0:0:0:
109,192,89242,1,0,0:0:0:0:
329,192,89242,1,0,0:0:0:0:
182,192,89320,1,0,0:0:0:0:
402,192,89320,1,0,0:0:0:0:
109,192,89399,1,0,0:0:0:0:
36,192,89399,1,0,0:0:0:0:
475,192,89399,1,0,0:0:0:0:
256,192,89399,1,0,0:0:0:0:
182,192,89478,1,0,0:0:0:0:
329,192,89478,1,0,0:0:0:0:
256,192,89557,1,0,0:0:0:0:
36,192,89557,1,0,0:0:0:0:
402,192,89557,1,0,0:0:0:0:
329,192,89636,1,0,0:0:0:0:
182,192,89636,1,0,0:0:0:0:
475,192,89714,1,0,0:0:0:0:
36,192,89714,1,0,0:0:0:0:
109,192,89714,1,0,0:0:0:0:
402,192,89714,1,0,0:0:0:0:
329,192,89793,1,0,0:0:0:0:
182,192,89793,1,0,0:0:0:0:
36,192,89872,1,0,0:0:0:0:
475,192,89872,1,0,0:0:0:0:
256,192,89872,1,0,0:0:0:0:
402,192,89951,1,0,0:0:0:0:
109,192,89951,1,0,0:0:0:0:
182,192,90029,1,0,0:0:0:0:
36,192,90029,1,0,0:0:0:0:
475,192,90029,1,0,0:0:0:0:
329,192,90029,1,0,0:0:0:0:
256,192,90108,1,0,0:0:0:0:
109,192,90108,1,0,0:0:0:0:
475,192,90187,1,0,0:0:0:0:
36,192,90187,1,0,0:0:0:0:
329,192,90187,1,0,0:0:0:0:
402,192,90266,1,0,0:0:0:0:
182,192,90266,1,0,0:0:0:0:
329,192,90345,1,0,0:0:0:0:
109,192,90345,1,0,0:0:0:0:
182,192,90423,1,0,0:0:0:0:
402,192,90423,1,0,0:0:0:0:
475,192,90502,1,0,0:0:0:0:
36,192,90502,1,0,0:0:0:0:
256,192,90502,1,0,0:0:0:0:
109,192,90581,1,0,0:0:0:0:
402,192,90581,1,0,0:0:0:0:
329,192,90660,1,0,0:0:0:0:
182,192,90660,1,0,0:0:0:0:
256,192,90739,1,0,0:0:0:0:
109,192,90739,1,0,0:0:0:0:
329,192,90817,1,0,0:0:0:0:
36,192,90817,1,0,0:0:0:0:
475,192,90817,1,0,0:0:0:0:
402,192,90817,1,0,0:0:0:0:
109,192,90896,1,0,0:0:0:0:
256,192,90896,1,0,0:0:0:0:
182,192,90975,1,0,0:0:0:0:
329,192,90975,1,0,0:0:0:0:
256,192,91054,1,0,0:0:0:0:
402,192,91054,1,0,0:0:0:0:
475,192,91132,1,0,0:0:0:0:
329,192,91132,1,0,0:0:0:0:
109,192,91132,1,0,0:0:0:0:
36,192,91132,1,0,0:0:0:0:
402,192,91211,1,0,0:0:0:0:
182,192,91211,1,0,0:0:0:0:
109,192,91290,1,0,0:0:0:0:
256,192,91290,1,0,0:0:0:0:
475,192,91290,1,0,0:0:0:0:
36,192,91290,1,0,0:0:0:0:
329,192,91369,1,0,0:0:0:0:
182,192,91369,1,0,0:0:0:0:
402,192,91448,1,0,0:0:0:0:
475,192,91448,1,0,0:0:0:0:
36,192,91448,1,0,0:0:0:0:
256,192,91526,1,0,0:0:0:0:
109,192,91526,1,0,0:0:0:0:
329,192,91605,1,0,0:0:0:0:
475,192,91605,1,0,0:0:0:0:
182,192,91605,1,0,0:0:0:0:
36,192,91605,1,0,0:0:0:0:
256,192,91684,1,0,0:0:0:0:
402,192,91684,1,0,0:0:0:0:
182,192,91763,1,0,0:0:0:0:
329,192,91763,1,0,0:0:0:0:
36,192,91763,1,0,0:0:0:0:
109,192,91841,1,0,0:0:0:0:
475,192,91841,1,0,0:0:0:0:
36,192,91920,1,0,0:0:0:0:
402,192,91920,1,0,0:0:0:0:
256,192,91920,1,0,0:0:0:0:
329,192,91920,1,0,0:0:0:0:
475,192,91999,1,0,0:0:0:0:
109,192,91999,1,0,0:0:0:0:
36,192,92078,1,0,0:0:0:0:
256,192,92078,1,0,0:0:0:0:
402,192,92078,1,0,0:0:0:0:
329,192,92157,1,0,0:0:0:0:
182,192,92157,1,0,0:0:0:0:
475,192,92235,1,0,0:0:0:0:
109,192,92235,1,0,0:0:0:0:
256,192,92314,1,0,0:0:0:0:
402,192,92314,1,0,0:0:0:0:
36,192,92393,1,0,0:0:0:0:
475,192,92393,1,0,0:0:0:0:
109,192,92393,1,0,0:0:0:0:
329,192,92393,1,0,0:0:0:0:
182,192,92393,1,0,0:0:0:0:
256,192,92472,1,0,0:0:0:0:
402,192,92472,1,0,0:0:0:0:
109,192,92550,1,0,0:0:0:0:
475,192,92550,1,0,0:0:0:0:
329,192,92629,1,0,0:0:0:0:
182,192,92629,1,0,0:0:0:0:
256,192,92708,1,0,0:0:0:0:
402,192,92708,1,0,0:0:0:0:
36,192,92708,1,0,0:0:0:0:
109,192,92787,1,0,0:0:0:0:
475,192,92787,1,0,0:0:0:0:
182,192,92866,1,0,0:0:0:0:
402,192,92866,1,0,0:0:0:0:
329,192,92944,1,0,0:0:0:0:
109,192,92944,1,0,0:0:0:0:
256,192,93023,1,0,0:0:0:0:
475,192,93023,1,0,0:0:0:0:
36,192,93023,1,0,0:0:0:0:
329,192,93102,1,0,0:0:0:0:
182,192,93102,1,0,0:0:0:0:
109,192,93181,1,0,0:0:0:0:
402,192,93181,1,0,0:0:0:0:
329,192,93260,1,0,0:0:0:0:
182,192,93260,1,0,0:0:0:0:
475,192,93338,1,0,0:0:0:0:
36,192,93338,1,0,0:0:0:0:
256,192,93338,1,0,0:0:0:0:
402,192,93338,1,0,0:0:0:0:
182,192,93417,1,0,0:0:0:0:
329,192,93417,1,0,0:0:0:0:
109,192,93417,1,0,0:0:0:0:
475,192,93496,1,0,0:0:0:0:
256,192,93496,1,0,0:0:0:0:
36,192,93496,1,0,0:0:0:0:
329,192,93575,1,0,0:0:0:0:
402,192,93575,1,0,0:0:0:0:
182,192,93575,1,0,0:0:0:0:
109,192,93653,1,0,0:0:0:0:
256,192,93653,1,0,0:0:0:0:
475,192,93653,1,0,0:0:0:0:
36,192,93732,1,0,0:0:0:0:
182,192,93732,1,0,0:0:0:0:
402,192,93732,1,0,0:0:0:0:
475,192,93811,1,0,0:0:0:0:
109,192,93811,1,0,0:0:0:0:
329,192,93811,1,0,0:0:0:0:
36,192,93890,1,0,0:0:0:0:
402,192,93890,1,0,0:0:0:0:
256,192,93890,1,0,0:0:0:0:
475,192,93969,1,0,0:0:0:0:
329,192,93969,1,0,0:0:0:0:
182,192,93969,1,0,0:0:0:0:
256,192,94047,1,0,0:0:0:0:
109,192,94047,1,0,0:0:0:0:
402,192,94047,1,0,0:0:0:0:
182,192,94126,1,0,0:0:0:0:
329,192,94126,1,0,0:0:0:0:
36,192,94126,1,0,0:0:0:0:
402,192,94205,1,0,0:0:0:0:
256,192,94205,1,0,0:0:0:0:
109,192,94205,1,0,0:0:0:0:
36,192,94284,1,0,0:0:0:0:
475,192,94284,1,0,0:0:0:0:
329,192,94284,1,0,0:0:0:0:
109,192,94362,1,0,0:0:0:0:
402,192,94362,1,0,0:0:0:0:
182,192,94362,1,0,0:0:0:0:
36,192,94441,1,0,0:0:0:0:
475,192,94441,1,0,0:0:0:0:
256,192,94441,1,0,0:0:0:0:
182,192,94520,1,0,0:0:0:0:
402,192,94520,1,0,0:0:0:0:
329,192,94520,1,0,0:0:0:0:
36,192,94599,1,0,0:0:0:0:
256,192,94599,1,0,0:0:0:0:
109,192,94599,1,0,0:0:0:0:
475,192,94599,1,0,0:0:0:0:
329,192,94678,1,0,0:0:0:0:
402,192,94678,1,0,0:0:0:0:
182,192,94678,1,0,0:0:0:0:
36,192,94756,1,0,0:0:0:0:
475,192,94756,1,0,0:0:0:0:
256,192,94756,1,0,0:0:0:0:
402,192,94835,1,0,0:0:0:0:
182,192,94835,1,0,0:0:0:0:
109,192,94835,1,0,0:0:0:0:
329,192,94914,1,0,0:0:0:0:
36,192,94914,1,0,0:0:0:0:
475,192,94914,1,0,0:0:0:0:
109,192,94993,1,0,0:0:0:0:
256,192,94993,1,0,0:0:0:0:
402,192,94993,1,0,0:0:0:0:
329,192,95071,1,0,0:0:0:0:
182,192,95071,1,0,0:0:0:0:
36,192,95071,1,0,0:0:0:0:
475,192,95150,1,0,0:0:0:0:
402,192,95150,1,0,0:0:0:0:
256,192,95150,1,0,0:0:0:0:
109,192,95229,1,0,0:0:0:0:
36,192,95229,1,0,0:0:0:0:
329,192,95229,1,0,0:0:0:0:
402,192,95308,1,0,0:0:0:0:
182,192,95308,1,0,0:0:0:0:
475,192,95308,1,0,0:0:0:0:
109,192,95387,1,0,0:0:0:0:
36,192,95387,1,0,0:0:0:0:
256,192,95387,1,0,0:0:0:0:
329,192,95465,1,0,0:0:0:0:
475,192,95465,1,0,0:0:0:0:
182,192,95465,1,0,0:0:0:0:
402,192,95544,1,0,0:0:0:0:
109,192,95544,1,0,0:0:0:0:
36,192,95544,1,0,0:0:0:0:
256,192,95544,1,0,0:0:0:0:
329,192,95623,1,0,0:0:0:0:
182,192,95623,1,0,0:0:0:0:
109,192,95702,1,0,0:0:0:0:
256,192,95702,1,0,0:0:0:0:
475,192,95702,1,0,0:0:0:0:
36,192,95702,1,0,0:0:0:0:
402,192,95702,1,0,0:0:0:0:
329,192,95781,1,0,0:0:0:0:
182,192,95781,1,0,0:0:0:0:
256,192,95859,1,0,0:0:0:0:
475,192,95859,1,0,0:0:0:0:
36,192,95859,1,0,0:0:0:0:
329,192,95938,1,0,0:0:0:0:
109,192,95938,1,0,0:0:0:0:
182,192,95938,1,0,0:0:0:0:
402,192,95938,1,0,0:0:0:0:
329,192,96174,1,0,0:0:0:0:
182,192,96174,1,0,0:0:0:0:
36,192,96174,1,0,0:0:0:0:
402,192,96253,1,0,0:0:0:0:
475,192,96253,1,0,0:0:0:0:
256,192,96253,1,0,0:0:0:0:
36,192,96332,1,0,0:0:0:0:
182,192,96332,1,0,0:0:0:0:
329,192,96332,1,0,0:0:0:0:
475,192,96411,1,0,0:0:0:0:
402,192,96411,1,0,0:0:0:0:
256,192,96411,1,0,0:0:0:0:
109,192,96568,1,0,0:0:0:0:
36,192,96568,1,0,0:0:0:0:
329,192,96568,1,0,0:0:0:0:
182,192,96647,1,0,0:0:0:0:
475,192,96647,1,0,0:0:0:0:
109,192,96726,1,0,0:0:0:0:
36,192,96726,1,0,0:0:0:0:
329,192,96726,1,0,0:0:0:0:
182,192,96805,1,0,0:0:0:0:
475,192,96805,1,0,0:0:0:0:
109,192,96883,1,0,0:0:0:0:
329,192,96883,1,0,0:0:0:0:
36,192,96883,1,0,0:0:0:0:
182,192,96962,1,0,0:0:0:0:
475,192,96962,1,0,0:0:0:0:
109,192,97041,1,0,0:0:0:0:
36,192,97041,1,0,0:0:0:0:
329,192,97041,1,0,0:0:0:0:
256,192,97120,1,0,0:0:0:0:
402,192,97120,1,0,0:0:0:0:
475,192,97120,1,0,0:0:0:0:
329,192,97199,1,0,0:0:0:0:
36,192,97199,1,0,0:0:0:0:
182,192,97199,1,0,0:0:0:0:
475,192,97277,1,0,0:0:0:0:
256,192,97277,1,0,0:0:0:0:
109,192,97277,1,0,0:0:0:0:
36,192,97356,1,0,0:0:0:0:
402,192,97356,1,0,0:0:0:0:
182,192,97356,1,0,0:0:0:0:
475,192,97435,1,0,0:0:0:0:
329,192,97435,1,0,0:0:0:0:
109,192,97435,1,0,0:0:0:0:
256,192,97514,1,0,0:0:0:0:
402,192,97593,1,0,0:0:0:0:
36,192,97593,1,0,0:0:0:0:
182,192,97593,1,0,0:0:0:0:
475,192,97593,1,0,0:0:0:0:
329,192,97671,1,0,0:0:0:0:
256,192,97750,1,0,0:0:0:0:
475,192,97750,1,0,0:0:0:0:
402,192,97750,1,0,0:0:0:0:
109,192,97750,1,0,0:0:0:0:
36,192,97750,1,0,0:0:0:0:
182,192,97829,1,0,0:0:0:0:
36,192,97908,1,0,0:0:0:0:
329,192,97908,1,0,0:0:0:0:
475,192,97908,1,0,0:0:0:0:
109,192,97908,1,0,0:0:0:0:
256,192,97986,1,0,0:0:0:0:
36,192,98065,1,0,0:0:0:0:
402,192,98065,1,0,0:0:0:0:
475,192,98065,1,0,0:0:0:0:
182,192,98065,1,0,0:0:0:0:
256,192,98144,1,0,0:0:0:0:
329,192,98144,1,0,0:0:0:0:
109,192,98144,1,0,0:0:0:0:
402,192,98223,1,0,0:0:0:0:
36,192,98223,1,0,0:0:0:0:
475,192,98223,1,0,0:0:0:0:
329,192,98302,1,0,0:0:0:0:
182,192,98302,1,0,0:0:0:0:
109,192,98302,1,0,0:0:0:0:
475,192,98380,1,0,0:0:0:0:
402,192,98380,1,0,0:0:0:0:
256,192,98380,1,0,0:0:0:0:
36,192,98380,1,0,0:0:0:0:
329,192,98459,1,0,0:0:0:0:
109,192,98459,1,0,0:0:0:0:
36,192,98538,1,0,0:0:0:0:
182,192,98538,1,0,0:0:0:0:
475,192,98538,1,0,0:0:0:0:
402,192,98617,1,0,0:0:0:0:
256,192,98617,1,0,0:0:0:0:
329,192,98695,1,0,0:0:0:0:
182,192,98695,1,0,0:0:0:0:
36,192,98695,1,0,0:0:0:0:
475,192,98695,1,0,0:0:0:0:
256,192,98774,1,0,0:0:0:0:
109,192,98774,1,0,0:0:0:0:
475,192,98853,1,0,0:0:0:0:
402,192,98853,1,0,0:0:0:0:
36,192,98853,1,0,0:0:0:0:
329,192,98932,1,0,0:0:0:0:
182,192,98932,1,0,0:0:0:0:
36,192,99011,1,0,0:0:0:0:
402,192,99011,1,0,0:0:0:0:
475,192,99011,1,0,0:0:0:0:
109,192,99011,1,0,0:0:0:0:
256,192,99011,1,0,0:0:0:0:
182,192,99089,1,0,0:0:0:0:
329,192,99168,1,0,0:0:0:0:
109,192,99168,1,0,0:0:0:0:
402,192,99168,1,0,0:0:0:0:
475,192,99168,1,0,0:0:0:0:
256,192,99247,1,0,0:0:0:0:
182,192,99326,1,0,0:0:0:0:
109,192,99326,1,0,0:0:0:0:
36,192,99326,1,0,0:0:0:0:
475,192,99326,1,0,0:0:0:0:
402,192,99326,1,0,0:0:0:0:
329,192,99404,1,0,0:0:0:0:
109,192,99483,1,0,0:0:0:0:
475,192,99483,1,0,0:0:0:0:
256,192,99483,1,0,0:0:0:0:
36,192,99483,1,0,0:0:0:0:
402,192,99562,1,0,0:0:0:0:
475,192,99641,1,0,0:0:0:0:
36,192,99641,1,0,0:0:0:0:
329,192,99641,1,0,0:0:0:0:
182,192,99641,1,0,0:0:0:0:
402,192,99720,1,0,0:0:0:0:
109,192,99720,1,0,0:0:0:0:
256,192,99720,1,0,0:0:0:0:
182,192,99798,1,0,0:0:0:0:
329,192,99798,1,0,0:0:0:0:
475,192,99877,1,0,0:0:0:0:
256,192,99877,1,0,0:0:0:0:
36,192,99877,1,0,0:0:0:0:
182,192,99956,1,0,0:0:0:0:
329,192,99956,1,0,0:0:0:0:
402,192,99956,1,0,0:0:0:0:
109,192,99956,1,0,0:0:0:0:
256,192,100035,1,0,0:0:0:0:
475,192,100114,1,0,0:0:0:0:
36,192,100114,1,0,0:0:0:0:
402,192,100114,1,0,0:0:0:0:
182,192,100114,1,0,0:0:0:0:
329,192,100192,1,0,0:0:0:0:
36,192,100271,1,0,0:0:0:0:
475,192,100271,1,0,0:0:0:0:
256,192,100271,1,0,0:0:0:0:
109,192,100271,1,0,0:0:0:0:
402,192,100271,1,0,0:0:0:0:
182,192,100350,1,0,0:0:0:0:
475,192,100429,1,0,0:0:0:0:
329,192,100429,1,0,0:0:0:0:
402,192,100429,1,0,0:0:0:0:
109,192,100429,1,0,0:0:0:0:
36,192,100429,1,0,0:0:0:0:
256,192,100507,1,0,0:0:0:0:
329,192,100586,1,0,0:0:0:0:
402,192,100586,1,0,0:0:0:0:
36,192,100586,1,0,0:0:0:0:
182,192,100586,1,0,0:0:0:0:
109,192,100586,1,0,0:0:0:0:
475,192,100665,1,0,0:0:0:0:
109,192,100744,1,0,0:0:0:0:
36,192,100744,1,0,0:0:0:0:
256,192,100744,1,0,0:0:0:0:
329,192,100744,1,0,0:0:0:0:
402,192,100744,1,0,0:0:0:0:
182,192,100823,1,0,0:0:0:0:
475,192,100901,1,0,0:0:0:0:
109,192,100901,1,0,0:0:0:0:
402,192,100901,1,0,0:0:0:0:
256,192,100901,1,0,0:0:0:0:
36,192,100901,1,0,0:0:0:0:
182,192,100980,1,0,0:0:0:0:
329,192,100980,1,0,0:0:0:0:
475,192,101059,1,0,0:0:0:0:
256,192,101059,1,0,0:0:0:0:
402,192,101059,1,0,0:0:0:0:
36,192,101059,1,0,0:0:0:0:
109,192,101138,1,0,0:0:0:0:
329,192,101216,1,0,0:0:0:0:
475,192,101216,1,0,0:0:0:0:
36,192,101216,1,0,0:0:0:0:
182,192,101216,1,0,0:0:0:0:
256,192,101295,1,0,0:0:0:0:
402,192,101295,1,0,0:0:0:0:
36,192,101374,1,0,0:0:0:0:
329,192,101374,1,0,0:0:0:0:
475,192,101374,1,0,0:0:0:0:
182,192,101374,1,0,0:0:0:0:
109,192,101453,1,0,0:0:0:0:
475,192,101532,1,0,0:0:0:0:
256,192,101532,1,0,0:0:0:0:
402,192,101532,1,0,0:0:0:0:
36,192,101532,1,0,0:0:0:0:
182,192,101610,1,0,0:0:0:0:
329,192,101610,1,0,0:0:0:0:
256,192,101689,1,0,0:0:0:0:
475,192,101689,1,0,0:0:0:0:
109,192,101689,1,0,0:0:0:0:
36,192,101689,1,0,0:0:0:0:
402,192,101768,1,0,0:0:0:0:
329,192,101847,1,0,0:0:0:0:
36,192,101847,1,0,0:0:0:0:
475,192,101847,1,0,0:0:0:0:
182,192,101847,1,0,0:0:0:0:
402,192,101925,1,0,0:0:0:0:
109,192,101925,1,0,0:0:0:0:
256,192,101925,1,0,0:0:0:0:
36,192,102004,1,0,0:0:0:0:
475,192,102004,1,0,0:0:0:0:
329,192,102004,1,0,0:0:0:0:
182,192,102004,1,0,0:0:0:0:
256,192,102162,1,0,0:0:0:0:
402,192,102162,1,0,0:0:0:0:
109,192,102162,1,0,0:0:0:0:
36,192,102162,1,0,0:0:0:0:
182,192,102241,1,0,0:0:0:0:
329,192,102241,1,0,0:0:0:0:
475,192,102241,1,0,0:0:0:0:
256,192,102319,1,0,0:0:0:0:
402,192,102319,1,0,0:0:0:0:
36,192,102319,1,0,0:0:0:0:
182,192,102398,1,0,0:0:0:0:
109,192,102398,1,0,0:0:0:0:
329,192,102398,1,0,0:0:0:0:
256,192,102477,1,0,0:0:0:0:
402,192,102477,1,0,0:0:0:0:
475,192,102477,1,0,0:0:0:0:
36,192,102477,1,0,0:0:0:0:
109,192,102556,1,0,0:0:0:0:
475,192,102635,1,0,0:0:0:0:
402,192,102635,1,0,0:0:0:0:
329,192,102635,1,0,0:0:0:0:
182,192,102635,1,0,0:0:0:0:
256,192,102713,1,0,0:0:0:0:
36,192,102792,1,0,0:0:0:0:
182,192,102792,1,0,0:0:0:0:
109,192,102792,1,0,0:0:0:0:
402,192,102792,1,0,0:0:0:0:
475,192,102792,1,0,0:0:0:0:
329,192,102871,1,0,0:0:0:0:
256,192,102950,1,0,0:0:0:0:
475,192,102950,1,0,0:0:0:0:
109,192,102950,1,0,0:0:0:0:
36,192,102950,1,0,0:0:0:0:
402,192,103028,1,0,0:0:0:0:
182,192,103107,1,0,0:0:0:0:
475,192,103107,1,0,0:0:0:0:
36,192,103107,1,0,0:0:0:0:
329,192,103107,1,0,0:0:0:0:
402,192,103186,1,0,0:0:0:0:
109,192,103186,1,0,0:0:0:0:
256,192,103186,1,0,0:0:0:0:
475,192,103265,1,0,0:0:0:0:
329,192,103265,1,0,0:0:0:0:
182,192,103265,1,0,0:0:0:0:
36,192,103344,1,0,0:0:0:0:
256,192,103344,1,0,0:0:0:0:
109,192,103344,1,0,0:0:0:0:
182,192,103422,1,0,0:0:0:0:
402,192,103422,1,0,0:0:0:0:
475,192,103422,1,0,0:0:0:0:
329,192,103422,1,0,0:0:0:0:
109,192,103501,1,0,0:0:0:0:
256,192,103580,1,0,0:0:0:0:
475,192,103580,1,0,0:0:0:0:
36,192,103580,1,0,0:0:0:0:
402,192,103580,1,0,0:0:0:0:
109,192,103659,1,0,0:0:0:0:
182,192,103737,1,0,0:0:0:0:
329,192,103737,1,0,0:0:0:0:
36,192,103737,1,0,0:0:0:0:
475,192,103737,1,0,0:0:0:0:
402,192,103737,1,0,0:0:0:0:
256,192,103816,1,0,0:0:0:0:
36,192,103895,1,0,0:0:0:0:
402,192,103895,1,0,0:0:0:0:
182,192,103895,1,0,0:0:0:0:
475,192,103895,1,0,0:0:0:0:
329,192,103974,1,0,0:0:0:0:
109,192,104053,1,0,0:0:0:0:
256,192,104053,1,0,0:0:0:0:
475,192,104053,1,0,0:0:0:0:
36,192,104053,1,0,0:0:0:0:
182,192,104131,1,0,0:0:0:0:
402,192,104131,1,0,0:0:0:0:
329,192,104131,1,0,0:0:0:0:
256,192,104210,1,0,0:0:0:0:
36,192,104210,1,0,0:0:0:0:
475,192,104210,1,0,0:0:0:0:
329,192,104289,1,0,0:0:0:0:
182,192,104289,1,0,0:0:0:0:
109,192,104289,1,0,0:0:0:0:
475,192,104368,1,0,0:0:0:0:
256,192,104368,1,0,0:0:0:0:
36,192,104368,1,0,0:0:0:0:
402,192,104368,1,0,0:0:0:0:
109,192,104446,1,0,0:0:0:0:
329,192,104525,1,0,0:0:0:0:
36,192,104525,1,0,0:0:0:0:
182,192,104525,1,0,0:0:0:0:
475,192,104525,1,0,0:0:0:0:
402,192,104604,1,0,0:0:0:0:
256,192,104683,1,0,0:0:0:0:
475,192,104683,1,0,0:0:0:0:
109,192,104683,1,0,0:0:0:0:
36,192,104683,1,0,0:0:0:0:
402,192,104762,1,0,0:0:0:0:
329,192,104762,1,0,0:0:0:0:
182,192,104762,1,0,0:0:0:0:
475,192,104840,1,0,0:0:0:0:
36,192,104840,1,0,0:0:0:0:
256,192,104840,1,0,0:0:0:0:
402,192,104919,1,0,0:0:0:0:
182,192,104919,1,0,0:0:0:0:
109,192,104919,1,0,0:0:0:0:
475,192,104998,1,0,0:0:0:0:
329,192,104998,1,0,0:0:0:0:
36,192,104998,1,0,0:0:0:0:
109,192,105077,1,0,0:0:0:0:
402,192,105077,1,0,0:0:0:0:
256,192,105077,1,0,0:0:0:0:
329,192,105156,1,0,0:0:0:0:
36,192,105156,1,0,0:0:0:0:
182,192,105156,1,0,0:0:0:0:
402,192,105234,1,0,0:0:0:0:
475,192,105234,1,0,0:0:0:0:
256,192,105234,1,0,0:0:0:0:
36,192,105313,1,0,0:0:0:0:
182,192,105313,1,0,0:0:0:0:
329,192,105313,1,0,0:0:0:0:
475,192,105392,1,0,0:0:0:0:
402,192,105392,1,0,0:0:0:0:
109,192,105392,1,0,0:0:0:0:
329,192,105471,1,0,0:0:0:0:
182,192,105471,1,0,0:0:0:0:
36,192,105471,1,0,0:0:0:0:
256,192,105549,1,0,0:0:0:0:
402,192,105549,1,0,0:0:0:0:
109,192,105549,1,0,0:0:0:0:
329,192,105628,1,0,0:0:0:0:
36,192,105628,1,0,0:0:0:0:
475,192,105628,1,0,0:0:0:0:
256,192,105707,1,0,0:0:0:0:
402,192,105707,1,0,0:0:0:0:
182,192,105707,1,0,0:0:0:0:
329,192,105786,1,0,0:0:0:0:
109,192,105786,1,0,0:0:0:0:
36,192,105786,1,0,0:0:0:0:
256,192,105865,1,0,0:0:0:0:
402,192,105865,1,0,0:0:0:0:
475,192,105865,1,0,0:0:0:0:
329,192,105943,1,0,0:0:0:0:
109,192,105943,1,0,0:0:0:0:
182,192,105943,1,0,0:0:0:0:
36,192,105943,1,0,0:0:0:0:
256,192,106022,1,0,0:0:0:0:
475,192,106022,1,0,0:0:0:0:
402,192,106022,1,0,0:0:0:0:
329,192,106101,1,0,0:0:0:0:
36,192,106101,1,0,0:0:0:0:
109,192,106101,1,0,0:0:0:0:
475,192,106180,1,0,0:0:0:0:
256,192,106180,1,0,0:0:0:0:
182,192,106180,1,0,0:0:0:0:
36,192,106258,1,0,0:0:0:0:
402,192,106258,1,0,0:0:0:0:
329,192,106258,1,0,0:0:0:0:
475,192,106337,1,0,0:0:0:0:
182,192,106337,1,0,0:0:0:0:
109,192,106337,1,0,0:0:0:0:
402,192,106416,1,0,0:0:0:0:
36,192,106416,1,0,0:0:0:0:
256,192,106416,1,0,0:0:0:0:
475,192,106495,1,0,0:0:0:0:
329,192,106495,1,0,0:0:0:0:
109,192,106495,1,0,0:0:0:0:
36,192,106574,1,0,0:0:0:0:
182,192,106574,1,0,0:0:0:0:
402,192,106574,1,0,0:0:0:0:
109,192,106652,1,0,0:0:0:0:
475,192,106652,1,0,0:0:0:0:
256,192,106652,1,0,0:0:0:0:
402,192,106731,1,0,0:0:0:0:
329,192,106731,1,0,0:0:0:0:
182,192,106731,1,0,0:0:0:0:
36,192,106810,1,0,0:0:0:0:
109,192,106810,1,0,0:0:0:0:
256,192,106810,1,0,0:0:0:0:
182,192,106889,1,0,0:0:0:0:
475,192,106889,1,0,0:0:0:0:
329,192,106889,1,0,0:0:0:0:
256,192,106968,1,0,0:0:0:0:
109,192,106968,1,0,0:0:0:0:
402,192,106968,1,0,0:0:0:0:
329,192,107046,1,0,0:0:0:0:
182,192,107046,1,0,0:0:0:0:
36,192,107046,1,0,0:0:0:0:
402,192,107125,1,0,0:0:0:0:
256,192,107125,1,0,0:0:0:0:
475,192,107125,1,0,0:0:0:0:
329,192,107204,1,0,0:0:0:0:
109,192,107204,1,0,0:0:0:0:
182,192,107204,1,0,0:0:0:0:
36,192,107204,1,0,0:0:0:0:
