osu file format v14

[General]
AudioFilename: audio_1.06.mp3
AudioLeadIn: 0
PreviewTime: 79985
Countdown: 0
SampleSet: None
StackLeniency: 0.7
Mode: 3
LetterboxInBreaks: 0
SpecialStyle: 0
WidescreenStoryboard: 0

[Editor]
Bookmarks: 24047,36033,57344,79985
DistanceSpacing: 0.1
BeatDivisor: 4
GridSize: 32
TimelineZoom: 1.3

[Metadata]
Title:Super Lovely
TitleUnicode:Super Lovely
Artist:EarBreaker
ArtistUnicode:EarBreaker
Creator:Kawawa
Version:x1.06(180)
Source:
Tags:
BeatmapID:1902628
BeatmapSetID:911477

[Difficulty]
HPDrainRate:8
CircleSize:7
OverallDifficulty:8
ApproachRate:5
SliderMultiplier:1.4
SliderTickRate:1

[Events]
//Background and Video events
0,0,"1-BG.jpg",0,0
//Break Periods
//Storyboard Layer 0 (Background)
//Storyboard Layer 1 (Fail)
//Storyboard Layer 2 (Pass)
//Storyboard Layer 3 (Foreground)
//Storyboard Sound Samples

[TimingPoints]
1398,332.963374028857,4,3,1,0,1,0

[HitObjects]
475,192,1398,5,0,0:0:0:0:
182,192,1398,1,0,0:0:0:0:
329,192,1398,1,0,0:0:0:0:
402,192,1398,1,0,0:0:0:0:
36,192,1481,1,0,0:0:0:0:
109,192,1481,1,0,0:0:0:0:
256,192,1481,1,0,0:0:0:0:
402,192,1730,1,0,0:0:0:0:
475,192,1730,1,0,0:0:0:0:
36,192,1814,1,0,0:0:0:0:
109,192,1814,1,0,0:0:0:0:
256,192,1814,1,0,0:0:0:0:
475,192,1897,1,0,0:0:0:0:
402,192,1897,1,0,0:0:0:0:
36,192,1980,1,0,0:0:0:0:
109,192,1980,1,0,0:0:0:0:
256,192,1980,1,0,0:0:0:0:
329,192,2147,1,0,0:0:0:0:
182,192,2147,1,0,0:0:0:0:
36,192,2230,1,0,0:0:0:0:
475,192,2230,1,0,0:0:0:0:
329,192,2313,1,0,0:0:0:0:
182,192,2313,1,0,0:0:0:0:
36,192,2396,1,0,0:0:0:0:
475,192,2396,1,0,0:0:0:0:
329,192,2480,1,0,0:0:0:0:
182,192,2480,1,0,0:0:0:0:
36,192,2563,1,0,0:0:0:0:
475,192,2563,1,0,0:0:0:0:
182,192,2646,1,0,0:0:0:0:
329,192,2646,1,0,0:0:0:0:
256,192,2729,1,0,0:0:0:0:
402,192,2729,1,0,0:0:0:0:
109,192,2729,1,0,0:0:0:0:
36,192,2729,1,0,0:0:0:0:
475,192,2729,1,0,0:0:0:0:
329,192,2813,1,0,0:0:0:0:
182,192,2813,1,0,0:0:0:0:
36,192,2896,1,0,0:0:0:0:
475,192,2896,1,0,0:0:0:0:
256,192,2896,1,0,0:0:0:0:
329,192,2979,1,0,0:0:0:0:
109,192,2979,1,0,0:0:0:0:
475,192,3062,1,0,0:0:0:0:
36,192,3062,1,0,0:0:0:0:
182,192,3062,1,0,0:0:0:0:
402,192,3062,1,0,0:0:0:0:
329,192,3146,1,0,0:0:0:0:
256,192,3229,1,0,0:0:0:0:
36,192,3229,1,0,0:0:0:0:
109,192,3229,1,0,0:0:0:0:
475,192,3229,1,0,0:0:0:0:
402,192,3312,1,0,0:0:0:0:
182,192,3395,1,0,0:0:0:0:
475,192,3395,1,0,0:0:0:0:
329,192,3395,1,0,0:0:0:0:
109,192,3395,1,0,0:0:0:0:
36,192,3395,1,0,0:0:0:0:
256,192,3479,1,0,0:0:0:0:
109,192,3562,1,0,0:0:0:0:
36,192,3562,1,0,0:0:0:0:
329,192,3562,1,0,0:0:0:0:
475,192,3562,1,0,0:0:0:0:
182,192,3645,1,0,0:0:0:0:
36,192,3728,1,0,0:0:0:0:
109,192,3728,1,0,0:0:0:0:
256,192,3728,1,0,0:0:0:0:
402,192,3728,1,0,0:0:0:0:
475,192,3811,1,0,0:0:0:0:
329,192,3811,1,0,0:0:0:0:
109,192,3895,1,0,0:0:0:0:
402,192,3895,1,0,0:0:0:0:
256,192,3895,1,0,0:0:0:0:
182,192,3978,1,0,0:0:0:0:
329,192,3978,1,0,0:0:0:0:
475,192,4061,1,0,0:0:0:0:
402,192,4061,1,0,0:0:0:0:
256,192,4061,1,0,0:0:0:0:
36,192,4061,1,0,0:0:0:0:
329,192,4144,1,0,0:0:0:0:
109,192,4144,1,0,0:0:0:0:
36,192,4228,1,0,0:0:0:0:
182,192,4228,1,0,0:0:0:0:
402,192,4228,1,0,0:0:0:0:
475,192,4311,1,0,0:0:0:0:
256,192,4311,1,0,0:0:0:0:
329,192,4394,1,0,0:0:0:0:
182,192,4394,1,0,0:0:0:0:
36,192,4394,1,0,0:0:0:0:
402,192,4394,1,0,0:0:0:0:
475,192,4477,1,0,0:0:0:0:
109,192,4477,1,0,0:0:0:0:
402,192,4561,1,0,0:0:0:0:
256,192,4561,1,0,0:0:0:0:
36,192,4561,1,0,0:0:0:0:
329,192,4644,1,0,0:0:0:0:
182,192,4644,1,0,0:0:0:0:
475,192,4727,1,0,0:0:0:0:
36,192,4727,1,0,0:0:0:0:
402,192,4727,1,0,0:0:0:0:
256,192,4727,1,0,0:0:0:0:
109,192,4810,1,0,0:0:0:0:
475,192,4894,1,0,0:0:0:0:
36,192,4894,1,0,0:0:0:0:
182,192,4894,1,0,0:0:0:0:
329,192,4894,1,0,0:0:0:0:
256,192,4977,1,0,0:0:0:0:
36,192,5060,1,0,0:0:0:0:
109,192,5060,1,0,0:0:0:0:
402,192,5060,1,0,0:0:0:0:
475,192,5060,1,0,0:0:0:0:
329,192,5060,1,0,0:0:0:0:
182,192,5143,1,0,0:0:0:0:
109,192,5227,1,0,0:0:0:0:
475,192,5227,1,0,0:0:0:0:
256,192,5227,1,0,0:0:0:0:
36,192,5227,1,0,0:0:0:0:
402,192,5310,1,0,0:0:0:0:
475,192,5393,1,0,0:0:0:0:
36,192,5393,1,0,0:0:0:0:
329,192,5393,1,0,0:0:0:0:
182,192,5393,1,0,0:0:0:0:
109,192,5476,1,0,0:0:0:0:
256,192,5476,1,0,0:0:0:0:
36,192,5560,1,0,0:0:0:0:
182,192,5560,1,0,0:0:0:0:
329,192,5560,1,0,0:0:0:0:
402,192,5643,1,0,0:0:0:0:
256,192,5643,1,0,0:0:0:0:
36,192,5726,1,0,0:0:0:0:
329,192,5726,1,0,0:0:0:0:
475,192,5726,1,0,0:0:0:0:
109,192,5726,1,0,0:0:0:0:
182,192,5809,1,0,0:0:0:0:
475,192,5893,1,0,0:0:0:0:
36,192,5893,1,0,0:0:0:0:
256,192,5893,1,0,0:0:0:0:
109,192,5893,1,0,0:0:0:0:
402,192,5976,1,0,0:0:0:0:
36,192,6059,1,0,0:0:0:0:
475,192,6059,1,0,0:0:0:0:
182,192,6059,1,0,0:0:0:0:
109,192,6059,1,0,0:0:0:0:
329,192,6059,1,0,0:0:0:0:
256,192,6142,1,0,0:0:0:0:
475,192,6225,1,0,0:0:0:0:
329,192,6225,1,0,0:0:0:0:
402,192,6225,1,0,0:0:0:0:
109,192,6225,1,0,0:0:0:0:
36,192,6225,1,0,0:0:0:0:
182,192,6309,1,0,0:0:0:0:
402,192,6392,1,0,0:0:0:0:
475,192,6392,1,0,0:0:0:0:
36,192,6392,1,0,0:0:0:0:
329,192,6392,1,0,0:0:0:0:
109,192,6392,1,0,0:0:0:0:
256,192,6475,1,0,0:0:0:0:
109,192,6558,1,0,0:0:0:0:
36,192,6558,1,0,0:0:0:0:
182,192,6558,1,0,0:0:0:0:
402,192,6558,1,0,0:0:0:0:
475,192,6558,1,0,0:0:0:0:
256,192,6642,1,0,0:0:0:0:
109,192,6725,1,0,0:0:0:0:
475,192,6725,1,0,0:0:0:0:
329,192,6725,1,0,0:0:0:0:
36,192,6725,1,0,0:0:0:0:
402,192,6808,1,0,0:0:0:0:
182,192,6808,1,0,0:0:0:0:
475,192,6891,1,0,0:0:0:0:
109,192,6891,1,0,0:0:0:0:
256,192,6891,1,0,0:0:0:0:
36,192,6891,1,0,0:0:0:0:
329,192,6975,1,0,0:0:0:0:
402,192,7058,1,0,0:0:0:0:
475,192,7058,1,0,0:0:0:0:
36,192,7058,1,0,0:0:0:0:
182,192,7058,1,0,0:0:0:0:
109,192,7141,1,0,0:0:0:0:
329,192,7141,1,0,0:0:0:0:
36,192,7224,1,0,0:0:0:0:
402,192,7224,1,0,0:0:0:0:
475,192,7224,1,0,0:0:0:0:
256,192,7224,1,0,0:0:0:0:
182,192,7308,1,0,0:0:0:0:
475,192,7391,1,0,0:0:0:0:
109,192,7391,1,0,0:0:0:0:
329,192,7391,1,0,0:0:0:0:
36,192,7391,1,0,0:0:0:0:
256,192,7474,1,0,0:0:0:0:
402,192,7474,1,0,0:0:0:0:
329,192,7557,1,0,0:0:0:0:
475,192,7557,1,0,0:0:0:0:
109,192,7557,1,0,0:0:0:0:
36,192,7557,1,0,0:0:0:0:
182,192,7641,1,0,0:0:0:0:
475,192,7724,1,0,0:0:0:0:
36,192,7724,1,0,0:0:0:0:
402,192,7724,1,0,0:0:0:0:
256,192,7724,1,0,0:0:0:0:
109,192,7807,1,0,0:0:0:0:
329,192,7807,1,0,0:0:0:0:
36,192,7890,1,0,0:0:0:0:
475,192,7890,1,0,0:0:0:0:
402,192,7890,1,0,0:0:0:0:
182,192,7890,1,0,0:0:0:0:
402,192,8057,1,0,0:0:0:0:
475,192,8057,1,0,0:0:0:0:
256,192,8057,1,0,0:0:0:0:
109,192,8057,1,0,0:0:0:0:
36,192,8057,1,0,0:0:0:0:
182,192,8140,1,0,0:0:0:0:
329,192,8140,1,0,0:0:0:0:
256,192,8223,1,0,0:0:0:0:
475,192,8223,1,0,0:0:0:0:
36,192,8223,1,0,0:0:0:0:
109,192,8306,1,0,0:0:0:0:
402,192,8306,1,0,0:0:0:0:
182,192,8390,1,0,0:0:0:0:
329,192,8390,1,0,0:0:0:0:
475,192,8390,1,0,0:0:0:0:
36,192,8390,1,0,0:0:0:0:
402,192,8473,1,0,0:0:0:0:
109,192,8556,1,0,0:0:0:0:
475,192,8556,1,0,0:0:0:0:
256,192,8556,1,0,0:0:0:0:
36,192,8556,1,0,0:0:0:0:
182,192,8639,1,0,0:0:0:0:
109,192,8723,1,0,0:0:0:0:
36,192,8723,1,0,0:0:0:0:
329,192,8723,1,0,0:0:0:0:
402,192,8723,1,0,0:0:0:0:
475,192,8723,1,0,0:0:0:0:
256,192,8806,1,0,0:0:0:0:
402,192,8889,1,0,0:0:0:0:
475,192,8889,1,0,0:0:0:0:
182,192,8889,1,0,0:0:0:0:
36,192,8889,1,0,0:0:0:0:
329,192,8972,1,0,0:0:0:0:
109,192,9056,1,0,0:0:0:0:
475,192,9056,1,0,0:0:0:0:
36,192,9056,1,0,0:0:0:0:
256,192,9056,1,0,0:0:0:0:
182,192,9139,1,0,0:0:0:0:
402,192,9139,1,0,0:0:0:0:
475,192,9222,1,0,0:0:0:0:
329,192,9222,1,0,0:0:0:0:
36,192,9222,1,0,0:0:0:0:
256,192,9305,1,0,0:0:0:0:
109,192,9305,1,0,0:0:0:0:
182,192,9389,1,0,0:0:0:0:
36,192,9389,1,0,0:0:0:0:
475,192,9389,1,0,0:0:0:0:
329,192,9389,1,0,0:0:0:0:
256,192,9472,1,0,0:0:0:0:
402,192,9472,1,0,0:0:0:0:
475,192,9555,1,0,0:0:0:0:
109,192,9555,1,0,0:0:0:0:
36,192,9555,1,0,0:0:0:0:
182,192,9638,1,0,0:0:0:0:
329,192,9638,1,0,0:0:0:0:
36,192,9722,1,0,0:0:0:0:
109,192,9722,1,0,0:0:0:0:
475,192,9722,1,0,0:0:0:0:
256,192,9722,1,0,0:0:0:0:
402,192,9805,1,0,0:0:0:0:
182,192,9888,1,0,0:0:0:0:
36,192,9888,1,0,0:0:0:0:
329,192,9888,1,0,0:0:0:0:
109,192,9888,1,0,0:0:0:0:
256,192,9971,1,0,0:0:0:0:
329,192,10055,1,0,0:0:0:0:
109,192,10055,1,0,0:0:0:0:
475,192,10055,1,0,0:0:0:0:
36,192,10055,1,0,0:0:0:0:
402,192,10138,1,0,0:0:0:0:
182,192,10138,1,0,0:0:0:0:
256,192,10221,1,0,0:0:0:0:
36,192,10221,1,0,0:0:0:0:
475,192,10221,1,0,0:0:0:0:
329,192,10304,1,0,0:0:0:0:
109,192,10304,1,0,0:0:0:0:
475,192,10388,1,0,0:0:0:0:
182,192,10388,1,0,0:0:0:0:
36,192,10388,1,0,0:0:0:0:
402,192,10388,1,0,0:0:0:0:
329,192,10471,1,0,0:0:0:0:
256,192,10554,1,0,0:0:0:0:
36,192,10554,1,0,0:0:0:0:
109,192,10554,1,0,0:0:0:0:
475,192,10554,1,0,0:0:0:0:
402,192,10637,1,0,0:0:0:0:
329,192,10720,1,0,0:0:0:0:
182,192,10720,1,0,0:0:0:0:
475,192,10720,1,0,0:0:0:0:
36,192,10720,1,0,0:0:0:0:
402,192,10804,1,0,0:0:0:0:
256,192,10804,1,0,0:0:0:0:
109,192,10804,1,0,0:0:0:0:
36,192,10887,1,0,0:0:0:0:
329,192,10887,1,0,0:0:0:0:
182,192,10887,1,0,0:0:0:0:
256,192,10970,1,0,0:0:0:0:
475,192,10970,1,0,0:0:0:0:
402,192,10970,1,0,0:0:0:0:
109,192,11053,1,0,0:0:0:0:
329,192,11053,1,0,0:0:0:0:
36,192,11053,1,0,0:0:0:0:
475,192,11137,1,0,0:0:0:0:
402,192,11137,1,0,0:0:0:0:
182,192,11137,1,0,0:0:0:0:
256,192,11220,1,0,0:0:0:0:
109,192,11220,1,0,0:0:0:0:
36,192,11220,1,0,0:0:0:0:
475,192,11303,1,0,0:0:0:0:
402,192,11303,1,0,0:0:0:0:
329,192,11303,1,0,0:0:0:0:
182,192,11386,1,0,0:0:0:0:
109,192,11386,1,0,0:0:0:0:
36,192,11386,1,0,0:0:0:0:
475,192,11470,1,0,0:0:0:0:
402,192,11470,1,0,0:0:0:0:
329,192,11470,1,0,0:0:0:0:
36,192,11553,1,0,0:0:0:0:
109,192,11553,1,0,0:0:0:0:
256,192,11553,1,0,0:0:0:0:
475,192,11636,1,0,0:0:0:0:
402,192,11636,1,0,0:0:0:0:
182,192,11636,1,0,0:0:0:0:
109,192,11719,1,0,0:0:0:0:
36,192,11719,1,0,0:0:0:0:
329,192,11719,1,0,0:0:0:0:
475,192,11803,1,0,0:0:0:0:
402,192,11803,1,0,0:0:0:0:
256,192,11803,1,0,0:0:0:0:
329,192,11886,1,0,0:0:0:0:
36,192,11886,1,0,0:0:0:0:
182,192,11886,1,0,0:0:0:0:
402,192,11969,1,0,0:0:0:0:
256,192,11969,1,0,0:0:0:0:
109,192,11969,1,0,0:0:0:0:
475,192,12052,1,0,0:0:0:0:
329,192,12052,1,0,0:0:0:0:
182,192,12052,1,0,0:0:0:0:
256,192,12136,1,0,0:0:0:0:
36,192,12136,1,0,0:0:0:0:
109,192,12136,1,0,0:0:0:0:
402,192,12219,1,0,0:0:0:0:
182,192,12219,1,0,0:0:0:0:
475,192,12219,1,0,0:0:0:0:
109,192,12302,1,0,0:0:0:0:
36,192,12302,1,0,0:0:0:0:
329,192,12302,1,0,0:0:0:0:
402,192,12385,1,0,0:0:0:0:
256,192,12385,1,0,0:0:0:0:
475,192,12385,1,0,0:0:0:0:
36,192,12469,1,0,0:0:0:0:
182,192,12469,1,0,0:0:0:0:
109,192,12469,1,0,0:0:0:0:
402,192,12552,1,0,0:0:0:0:
329,192,12552,1,0,0:0:0:0:
475,192,12552,1,0,0:0:0:0:
109,192,12635,1,0,0:0:0:0:
36,192,12635,1,0,0:0:0:0:
256,192,12635,1,0,0:0:0:0:
475,192,12718,1,0,0:0:0:0:
182,192,12718,1,0,0:0:0:0:
329,192,12718,1,0,0:0:0:0:
36,192,12801,1,0,0:0:0:0:
256,192,12801,1,0,0:0:0:0:
402,192,12801,1,0,0:0:0:0:
329,192,12885,1,0,0:0:0:0:
109,192,12885,1,0,0:0:0:0:
475,192,12885,1,0,0:0:0:0:
402,192,12968,1,0,0:0:0:0:
182,192,12968,1,0,0:0:0:0:
36,192,12968,1,0,0:0:0:0:
109,192,13051,1,0,0:0:0:0:
475,192,13051,1,0,0:0:0:0:
256,192,13051,1,0,0:0:0:0:
36,192,13134,1,0,0:0:0:0:
182,192,13134,1,0,0:0:0:0:
329,192,13134,1,0,0:0:0:0:
109,192,13218,1,0,0:0:0:0:
402,192,13218,1,0,0:0:0:0:
256,192,13218,1,0,0:0:0:0:
182,192,13301,1,0,0:0:0:0:
475,192,13301,1,0,0:0:0:0:
329,192,13301,1,0,0:0:0:0:
36,192,13384,1,0,0:0:0:0:
402,192,13384,1,0,0:0:0:0:
256,192,13384,1,0,0:0:0:0:
109,192,13467,1,0,0:0:0:0:
475,192,13551,1,0,0:0:0:0:
182,192,13551,1,0,0:0:0:0:
329,192,13551,1,0,0:0:0:0:
109,192,13717,1,0,0:0:0:0:
402,192,13717,1,0,0:0:0:0:
36,192,13717,1,0,0:0:0:0:
329,192,13800,1,0,0:0:0:0:
109,192,13884,1,0,0:0:0:0:
256,192,13884,1,0,0:0:0:0:
475,192,13884,1,0,0:0:0:0:
36,192,14050,1,0,0:0:0:0:
402,192,14050,1,0,0:0:0:0:
256,192,14050,1,0,0:0:0:0:
109,192,14133,1,0,0:0:0:0:
182,192,14217,1,0,0:0:0:0:
329,192,14217,1,0,0:0:0:0:
475,192,14217,1,0,0:0:0:0:
109,192,14383,1,0,0:0:0:0:
182,192,14466,1,0,0:0:0:0:
36,192,14550,1,0,0:0:0:0:
256,192,14550,1,0,0:0:0:0:
402,192,14550,1,0,0:0:0:0:
475,192,14716,1,0,0:0:0:0:
402,192,14799,1,0,0:0:0:0:
36,192,14883,1,0,0:0:0:0:
182,192,14883,1,0,0:0:0:0:
329,192,14883,1,0,0:0:0:0:
256,192,15049,1,0,0:0:0:0:
402,192,15132,1,0,0:0:0:0:
36,192,15215,1,0,0:0:0:0:
182,192,15215,1,0,0:0:0:0:
329,192,15215,1,0,0:0:0:0:
109,192,15382,1,0,0:0:0:0:
256,192,15465,1,0,0:0:0:0:
475,192,15548,1,0,0:0:0:0:
329,192,15548,1,0,0:0:0:0:
182,192,15548,1,0,0:0:0:0:
109,192,15715,1,0,0:0:0:0:
402,192,15715,1,0,0:0:0:0:
36,192,15715,1,0,0:0:0:0:
329,192,15798,1,0,0:0:0:0:
109,192,15881,1,0,0:0:0:0:
36,192,15881,1,0,0:0:0:0:
256,192,15881,1,0,0:0:0:0:
475,192,16048,1,0,0:0:0:0:
182,192,16048,1,0,0:0:0:0:
329,192,16048,1,0,0:0:0:0:
109,192,16131,1,0,0:0:0:0:
36,192,16214,1,0,0:0:0:0:
329,192,16214,1,0,0:0:0:0:
475,192,16214,1,0,0:0:0:0:
402,192,16381,1,0,0:0:0:0:
109,192,16381,1,0,0:0:0:0:
256,192,16381,1,0,0:0:0:0:
475,192,16464,1,0,0:0:0:0:
402,192,16547,1,0,0:0:0:0:
109,192,16547,1,0,0:0:0:0:
256,192,16547,1,0,0:0:0:0:
36,192,16714,1,0,0:0:0:0:
329,192,16714,1,0,0:0:0:0:
475,192,16714,1,0,0:0:0:0:
182,192,16797,1,0,0:0:0:0:
402,192,16880,1,0,0:0:0:0:
109,192,16880,1,0,0:0:0:0:
256,192,16880,1,0,0:0:0:0:
329,192,17047,1,0,0:0:0:0:
256,192,17130,1,0,0:0:0:0:
475,192,17213,1,0,0:0:0:0:
182,192,17213,1,0,0:0:0:0:
36,192,17213,1,0,0:0:0:0:
402,192,17380,1,0,0:0:0:0:
329,192,17380,1,0,0:0:0:0:
109,192,17463,1,0,0:0:0:0:
256,192,17546,1,0,0:0:0:0:
109,192,17713,1,0,0:0:0:0:
182,192,17713,1,0,0:0:0:0:
402,192,17796,1,0,0:0:0:0:
256,192,17879,1,0,0:0:0:0:
329,192,18046,1,0,0:0:0:0:
402,192,18046,1,0,0:0:0:0:
109,192,18129,1,0,0:0:0:0:
256,192,18212,1,0,0:0:0:0:
182,192,18379,1,0,0:0:0:0:
109,192,18379,1,0,0:0:0:0:
402,192,18462,1,0,0:0:0:0:
256,192,18545,1,0,0:0:0:0:
36,192,18712,1,0,0:0:0:0:
182,192,18712,1,0,0:0:0:0:
329,192,18712,1,0,0:0:0:0:
402,192,18795,1,0,0:0:0:0:
36,192,18878,1,0,0:0:0:0:
182,192,18878,1,0,0:0:0:0:
475,192,18878,1,0,0:0:0:0:
109,192,19045,1,0,0:0:0:0:
256,192,19045,1,0,0:0:0:0:
475,192,19045,1,0,0:0:0:0:
402,192,19128,1,0,0:0:0:0:
36,192,19211,1,0,0:0:0:0:
109,192,19211,1,0,0:0:0:0:
329,192,19211,1,0,0:0:0:0:
182,192,19378,1,0,0:0:0:0:
329,192,19378,1,0,0:0:0:0:
475,192,19378,1,0,0:0:0:0:
109,192,19461,1,0,0:0:0:0:
36,192,19544,1,0,0:0:0:0:
256,192,19544,1,0,0:0:0:0:
402,192,19544,1,0,0:0:0:0:
182,192,19710,1,0,0:0:0:0:
329,192,19794,1,0,0:0:0:0:
256,192,19877,1,0,0:0:0:0:
109,192,19877,1,0,0:0:0:0:
475,192,19877,1,0,0:0:0:0:
36,192,20043,1,0,0:0:0:0:
182,192,20127,1,0,0:0:0:0:
109,192,20210,1,0,0:0:0:0:
329,192,20210,1,0,0:0:0:0:
475,192,20210,1,0,0:0:0:0:
256,192,20376,1,0,0:0:0:0:
182,192,20460,1,0,0:0:0:0:
329,192,20543,1,0,0:0:0:0:
109,192,20543,1,0,0:0:0:0:
475,192,20543,1,0,0:0:0:0:
402,192,20709,1,0,0:0:0:0:
256,192,20793,1,0,0:0:0:0:
182,192,20876,1,0,0:0:0:0:
36,192,20876,1,0,0:0:0:0:
329,192,20876,1,0,0:0:0:0:
256,192,21042,1,0,0:0:0:0:
109,192,21042,1,0,0:0:0:0:
475,192,21042,1,0,0:0:0:0:
402,192,21126,1,0,0:0:0:0:
256,192,21209,1,0,0:0:0:0:
109,192,21209,1,0,0:0:0:0:
475,192,21209,1,0,0:0:0:0:
36,192,21375,1,0,0:0:0:0:
182,192,21375,1,0,0:0:0:0:
329,192,21375,1,0,0:0:0:0:
402,192,21459,1,0,0:0:0:0:
256,192,21542,1,0,0:0:0:0:
109,192,21542,1,0,0:0:0:0:
475,192,21542,1,0,0:0:0:0:
475,192,21708,1,0,0:0:0:0:
329,192,21708,1,0,0:0:0:0:
36,192,21708,1,0,0:0:0:0:
182,192,21792,1,0,0:0:0:0:
329,192,21875,1,0,0:0:0:0:
475,192,21875,1,0,0:0:0:0:
109,192,21875,1,0,0:0:0:0:
36,192,22041,1,0,0:0:0:0:
182,192,22041,1,0,0:0:0:0:
402,192,22041,1,0,0:0:0:0:
329,192,22124,1,0,0:0:0:0:
256,192,22208,1,0,0:0:0:0:
109,192,22208,1,0,0:0:0:0:
475,192,22208,1,0,0:0:0:0:
182,192,22374,1,0,0:0:0:0:
329,192,22374,1,0,0:0:0:0:
475,192,22374,1,0,0:0:0:0:
36,192,22457,1,0,0:0:0:0:
256,192,22541,1,0,0:0:0:0:
109,192,22541,1,0,0:0:0:0:
402,192,22541,1,0,0:0:0:0:
475,192,22707,1,0,0:0:0:0:
402,192,22790,1,0,0:0:0:0:
182,192,22874,1,0,0:0:0:0:
36,192,22874,1,0,0:0:0:0:
329,192,22874,1,0,0:0:0:0:
402,192,23040,1,0,0:0:0:0:
109,192,23040,1,0,0:0:0:0:
256,192,23123,1,0,0:0:0:0:
182,192,23207,1,0,0:0:0:0:
109,192,23373,1,0,0:0:0:0:
402,192,23373,1,0,0:0:0:0:
256,192,23456,1,0,0:0:0:0:
329,192,23540,1,0,0:0:0:0:
109,192,23706,1,0,0:0:0:0:
402,192,23706,1,0,0:0:0:0:
256,192,23789,1,0,0:0:0:0:
182,192,23873,1,0,0:0:0:0:
475,192,24039,1,0,0:0:0:0:
36,192,24039,1,0,0:0:0:0:
256,192,24039,1,0,0:0:0:0:
109,192,24122,1,0,0:0:0:0:
402,192,24122,1,0,0:0:0:0:
182,192,24205,1,0,0:0:0:0:
329,192,24205,1,0,0:0:0:0:
36,192,24289,1,0,0:0:0:0:
475,192,24289,1,0,0:0:0:0:
109,192,24372,1,0,0:0:0:0:
402,192,24372,1,0,0:0:0:0:
182,192,24455,1,0,0:0:0:0:
475,192,24455,1,0,0:0:0:0:
109,192,24538,1,0,0:0:0:0:
329,192,24538,1,0,0:0:0:0:
402,192,24622,1,0,0:0:0:0:
182,192,24622,1,0,0:0:0:0:
256,192,24705,1,0,0:0:0:0:
475,192,24705,1,0,0:0:0:0:
182,192,24788,1,0,0:0:0:0:
402,192,24788,1,0,0:0:0:0:
329,192,24871,1,0,0:0:0:0:
109,192,24871,1,0,0:0:0:0:
475,192,24955,1,0,0:0:0:0:
36,192,24955,1,0,0:0:0:0:
402,192,25038,1,0,0:0:0:0:
182,192,25038,1,0,0:0:0:0:
475,192,25121,1,0,0:0:0:0:
36,192,25121,1,0,0:0:0:0:
402,192,25204,1,0,0:0:0:0:
109,192,25204,1,0,0:0:0:0:
182,192,25288,1,0,0:0:0:0:
329,192,25288,1,0,0:0:0:0:
475,192,25371,1,0,0:0:0:0:
109,192,25371,1,0,0:0:0:0:
402,192,25454,1,0,0:0:0:0:
182,192,25454,1,0,0:0:0:0:
475,192,25537,1,0,0:0:0:0:
256,192,25537,1,0,0:0:0:0:
402,192,25621,1,0,0:0:0:0:
182,192,25621,1,0,0:0:0:0:
329,192,25704,1,0,0:0:0:0:
109,192,25704,1,0,0:0:0:0:
256,192,25787,1,0,0:0:0:0:
36,192,25787,1,0,0:0:0:0:
182,192,25870,1,0,0:0:0:0:
329,192,25870,1,0,0:0:0:0:
36,192,25954,1,0,0:0:0:0:
402,192,25954,1,0,0:0:0:0:
109,192,26037,1,0,0:0:0:0:
475,192,26037,1,0,0:0:0:0:
402,192,26120,1,0,0:0:0:0:
182,192,26120,1,0,0:0:0:0:
329,192,26203,1,0,0:0:0:0:
109,192,26203,1,0,0:0:0:0:
182,192,26287,1,0,0:0:0:0:
402,192,26287,1,0,0:0:0:0:
109,192,26370,1,0,0:0:0:0:
329,192,26370,1,0,0:0:0:0:
36,192,26453,1,0,0:0:0:0:
256,192,26453,1,0,0:0:0:0:
402,192,26536,1,0,0:0:0:0:
182,192,26536,1,0,0:0:0:0:
329,192,26619,1,0,0:0:0:0:
109,192,26619,1,0,0:0:0:0:
182,192,26703,1,0,0:0:0:0:
402,192,26703,1,0,0:0:0:0:
256,192,26786,1,0,0:0:0:0:
475,192,26786,1,0,0:0:0:0:
182,192,26869,1,0,0:0:0:0:
402,192,26869,1,0,0:0:0:0:
109,192,26952,1,0,0:0:0:0:
329,192,26952,1,0,0:0:0:0:
36,192,27036,1,0,0:0:0:0:
475,192,27036,1,0,0:0:0:0:
182,192,27119,1,0,0:0:0:0:
402,192,27119,1,0,0:0:0:0:
109,192,27202,1,0,0:0:0:0:
329,192,27202,1,0,0:0:0:0:
182,192,27285,1,0,0:0:0:0:
402,192,27285,1,0,0:0:0:0:
256,192,27369,1,0,0:0:0:0:
475,192,27369,1,0,0:0:0:0:
36,192,27452,1,0,0:0:0:0:
329,192,27452,1,0,0:0:0:0:
402,192,27535,1,0,0:0:0:0:
109,192,27535,1,0,0:0:0:0:
329,192,27618,1,0,0:0:0:0:
182,192,27618,1,0,0:0:0:0:
475,192,27702,1,0,0:0:0:0:
109,192,27702,1,0,0:0:0:0:
36,192,27785,1,0,0:0:0:0:
402,192,27785,1,0,0:0:0:0:
182,192,27868,1,0,0:0:0:0:
329,192,27868,1,0,0:0:0:0:
402,192,27951,1,0,0:0:0:0:
109,192,27951,1,0,0:0:0:0:
475,192,28035,1,0,0:0:0:0:
256,192,28035,1,0,0:0:0:0:
182,192,28118,1,0,0:0:0:0:
402,192,28118,1,0,0:0:0:0:
109,192,28201,1,0,0:0:0:0:
329,192,28201,1,0,0:0:0:0:
256,192,28284,1,0,0:0:0:0:
36,192,28284,1,0,0:0:0:0:
402,192,28368,1,0,0:0:0:0:
182,192,28368,1,0,0:0:0:0:
36,192,28451,1,0,0:0:0:0:
475,192,28451,1,0,0:0:0:0:
182,192,28534,1,0,0:0:0:0:
329,192,28534,1,0,0:0:0:0:
402,192,28617,1,0,0:0:0:0:
109,192,28617,1,0,0:0:0:0:
475,192,28700,1,0,0:0:0:0:
256,192,28700,1,0,0:0:0:0:
182,192,28784,1,0,0:0:0:0:
402,192,28784,1,0,0:0:0:0:
109,192,28867,1,0,0:0:0:0:
329,192,28867,1,0,0:0:0:0:
475,192,28950,1,0,0:0:0:0:
182,192,28950,1,0,0:0:0:0:
329,192,29033,1,0,0:0:0:0:
36,192,29033,1,0,0:0:0:0:
402,192,29117,1,0,0:0:0:0:
109,192,29117,1,0,0:0:0:0:
182,192,29200,1,0,0:0:0:0:
475,192,29200,1,0,0:0:0:0:
402,192,29283,1,0,0:0:0:0:
109,192,29283,1,0,0:0:0:0:
475,192,29366,1,0,0:0:0:0:
256,192,29366,1,0,0:0:0:0:
36,192,29366,1,0,0:0:0:0:
109,192,29450,1,0,0:0:0:0:
329,192,29450,1,0,0:0:0:0:
182,192,29533,1,0,0:0:0:0:
402,192,29533,1,0,0:0:0:0:
256,192,29616,1,0,0:0:0:0:
475,192,29616,1,0,0:0:0:0:
109,192,29699,1,0,0:0:0:0:
402,192,29699,1,0,0:0:0:0:
182,192,29783,1,0,0:0:0:0:
329,192,29783,1,0,0:0:0:0:
109,192,29866,1,0,0:0:0:0:
256,192,29866,1,0,0:0:0:0:
36,192,29949,1,0,0:0:0:0:
475,192,29949,1,0,0:0:0:0:
109,192,30032,1,0,0:0:0:0:
329,192,30032,1,0,0:0:0:0:
182,192,30116,1,0,0:0:0:0:
475,192,30116,1,0,0:0:0:0:
256,192,30199,1,0,0:0:0:0:
402,192,30199,1,0,0:0:0:0:
182,192,30282,1,0,0:0:0:0:
475,192,30282,1,0,0:0:0:0:
109,192,30365,1,0,0:0:0:0:
329,192,30365,1,0,0:0:0:0:
182,192,30449,1,0,0:0:0:0:
402,192,30449,1,0,0:0:0:0:
36,192,30532,1,0,0:0:0:0:
256,192,30532,1,0,0:0:0:0:
109,192,30615,1,0,0:0:0:0:
329,192,30615,1,0,0:0:0:0:
182,192,30698,1,0,0:0:0:0:
402,192,30698,1,0,0:0:0:0:
256,192,30782,1,0,0:0:0:0:
475,192,30782,1,0,0:0:0:0:
109,192,30865,1,0,0:0:0:0:
402,192,30865,1,0,0:0:0:0:
182,192,30948,1,0,0:0:0:0:
329,192,30948,1,0,0:0:0:0:
36,192,31031,1,0,0:0:0:0:
475,192,31031,1,0,0:0:0:0:
182,192,31114,1,0,0:0:0:0:
329,192,31114,1,0,0:0:0:0:
109,192,31198,1,0,0:0:0:0:
402,192,31198,1,0,0:0:0:0:
256,192,31281,1,0,0:0:0:0:
475,192,31281,1,0,0:0:0:0:
182,192,31364,1,0,0:0:0:0:
402,192,31364,1,0,0:0:0:0:
109,192,31447,1,0,0:0:0:0:
329,192,31447,1,0,0:0:0:0:
36,192,31531,1,0,0:0:0:0:
475,192,31531,1,0,0:0:0:0:
182,192,31614,1,0,0:0:0:0:
329,192,31614,1,0,0:0:0:0:
36,192,31697,1,0,0:0:0:0:
402,192,31697,1,0,0:0:0:0:
109,192,31780,1,0,0:0:0:0:
475,192,31780,1,0,0:0:0:0:
182,192,31864,1,0,0:0:0:0:
329,192,31864,1,0,0:0:0:0:
256,192,31947,1,0,0:0:0:0:
402,192,31947,1,0,0:0:0:0:
36,192,32030,1,0,0:0:0:0:
329,192,32030,1,0,0:0:0:0:
475,192,32030,1,0,0:0:0:0:
109,192,32113,1,0,0:0:0:0:
402,192,32113,1,0,0:0:0:0:
182,192,32113,1,0,0:0:0:0:
475,192,32197,1,0,0:0:0:0:
256,192,32197,1,0,0:0:0:0:
36,192,32197,1,0,0:0:0:0:
402,192,32280,1,0,0:0:0:0:
329,192,32280,1,0,0:0:0:0:
182,192,32280,1,0,0:0:0:0:
256,192,32363,1,0,0:0:0:0:
475,192,32363,1,0,0:0:0:0:
36,192,32363,1,0,0:0:0:0:
402,192,32446,1,0,0:0:0:0:
109,192,32446,1,0,0:0:0:0:
36,192,32530,1,0,0:0:0:0:
182,192,32530,1,0,0:0:0:0:
329,192,32530,1,0,0:0:0:0:
109,192,32613,1,0,0:0:0:0:
256,192,32613,1,0,0:0:0:0:
402,192,32613,1,0,0:0:0:0:
182,192,32696,1,0,0:0:0:0:
36,192,32696,1,0,0:0:0:0:
475,192,32696,1,0,0:0:0:0:
402,192,32779,1,0,0:0:0:0:
109,192,32779,1,0,0:0:0:0:
256,192,32779,1,0,0:0:0:0:
475,192,32863,1,0,0:0:0:0:
182,192,32863,1,0,0:0:0:0:
329,192,32863,1,0,0:0:0:0:
256,192,32946,1,0,0:0:0:0:
109,192,32946,1,0,0:0:0:0:
36,192,32946,1,0,0:0:0:0:
402,192,33029,1,0,0:0:0:0:
475,192,33029,1,0,0:0:0:0:
182,192,33029,1,0,0:0:0:0:
36,192,33112,1,0,0:0:0:0:
109,192,33112,1,0,0:0:0:0:
329,192,33112,1,0,0:0:0:0:
475,192,33196,1,0,0:0:0:0:
256,192,33196,1,0,0:0:0:0:
402,192,33196,1,0,0:0:0:0:
329,192,33279,1,0,0:0:0:0:
182,192,33279,1,0,0:0:0:0:
36,192,33279,1,0,0:0:0:0:
402,192,33362,1,0,0:0:0:0:
475,192,33362,1,0,0:0:0:0:
109,192,33362,1,0,0:0:0:0:
36,192,33445,1,0,0:0:0:0:
182,192,33445,1,0,0:0:0:0:
329,192,33445,1,0,0:0:0:0:
109,192,33528,1,0,0:0:0:0:
256,192,33528,1,0,0:0:0:0:
402,192,33528,1,0,0:0:0:0:
475,192,33528,1,0,0:0:0:0:
182,192,33612,1,0,0:0:0:0:
329,192,33612,1,0,0:0:0:0:
475,192,33695,1,0,0:0:0:0:
256,192,33695,1,0,0:0:0:0:
36,192,33695,1,0,0:0:0:0:
329,192,33778,1,0,0:0:0:0:
402,192,33778,1,0,0:0:0:0:
109,192,33778,1,0,0:0:0:0:
475,192,33861,1,0,0:0:0:0:
36,192,33861,1,0,0:0:0:0:
182,192,33861,1,0,0:0:0:0:
256,192,33945,1,0,0:0:0:0:
109,192,33945,1,0,0:0:0:0:
402,192,33945,1,0,0:0:0:0:
36,192,34028,1,0,0:0:0:0:
329,192,34028,1,0,0:0:0:0:
475,192,34028,1,0,0:0:0:0:
402,192,34111,1,0,0:0:0:0:
256,192,34111,1,0,0:0:0:0:
109,192,34111,1,0,0:0:0:0:
475,192,34194,1,0,0:0:0:0:
329,192,34194,1,0,0:0:0:0:
182,192,34194,1,0,0:0:0:0:
109,192,34278,1,0,0:0:0:0:
36,192,34278,1,0,0:0:0:0:
256,192,34278,1,0,0:0:0:0:
329,192,34361,1,0,0:0:0:0:
402,192,34361,1,0,0:0:0:0:
475,192,34361,1,0,0:0:0:0:
36,192,34444,1,0,0:0:0:0:
109,192,34444,1,0,0:0:0:0:
256,192,34444,1,0,0:0:0:0:
329,192,34527,1,0,0:0:0:0:
475,192,34527,1,0,0:0:0:0:
182,192,34527,1,0,0:0:0:0:
109,192,34611,1,0,0:0:0:0:
256,192,34611,1,0,0:0:0:0:
402,192,34611,1,0,0:0:0:0:
475,192,34694,1,0,0:0:0:0:
36,192,34694,1,0,0:0:0:0:
182,192,34694,1,0,0:0:0:0:
402,192,34777,1,0,0:0:0:0:
329,192,34860,1,0,0:0:0:0:
256,192,34944,1,0,0:0:0:0:
182,192,35027,1,0,0:0:0:0:
402,192,35027,1,0,0:0:0:0:
329,192,35110,1,0,0:0:0:0:
256,192,35193,1,0,0:0:0:0:
182,192,35277,1,0,0:0:0:0:
475,192,35360,1,0,0:0:0:0:
36,192,35360,1,0,0:0:0:0:
329,192,35360,1,0,0:0:0:0:
109,192,35360,1,0,0:0:0:0:
402,192,35443,1,0,0:0:0:0:
182,192,35443,1,0,0:0:0:0:
475,192,35526,1,0,0:0:0:0:
36,192,35526,1,0,0:0:0:0:
109,192,35526,1,0,0:0:0:0:
329,192,35526,1,0,0:0:0:0:
256,192,35609,1,0,0:0:0:0:
475,192,35693,1,0,0:0:0:0:
182,192,35693,1,0,0:0:0:0:
36,192,35693,1,0,0:0:0:0:
402,192,35693,1,0,0:0:0:0:
109,192,35776,1,0,0:0:0:0:
329,192,35776,1,0,0:0:0:0:
36,192,35859,1,0,0:0:0:0:
182,192,35859,1,0,0:0:0:0:
402,192,35859,1,0,0:0:0:0:
475,192,35859,1,0,0:0:0:0:
109,192,35942,1,0,0:0:0:0:
329,192,35942,1,0,0:0:0:0:
36,192,36026,1,0,0:0:0:0:
402,192,36026,1,0,0:0:0:0:
256,192,36026,1,0,0:0:0:0:
475,192,36026,1,0,0:0:0:0:
329,192,36109,1,0,0:0:0:0:
109,192,36109,1,0,0:0:0:0:
402,192,36192,1,0,0:0:0:0:
182,192,36192,1,0,0:0:0:0:
256,192,36275,1,0,0:0:0:0:
475,192,36275,1,0,0:0:0:0:
329,192,36359,1,0,0:0:0:0:
402,192,36359,1,0,0:0:0:0:
36,192,36359,1,0,0:0:0:0:
182,192,36359,1,0,0:0:0:0:
475,192,36442,1,0,0:0:0:0:
109,192,36442,1,0,0:0:0:0:
402,192,36525,1,0,0:0:0:0:
182,192,36525,1,0,0:0:0:0:
329,192,36608,1,0,0:0:0:0:
109,192,36608,1,0,0:0:0:0:
475,192,36692,1,0,0:0:0:0:
256,192,36692,1,0,0:0:0:0:
36,192,36692,1,0,0:0:0:0:
402,192,36692,1,0,0:0:0:0:
329,192,36775,1,0,0:0:0:0:
182,192,36775,1,0,0:0:0:0:
475,192,36858,1,0,0:0:0:0:
256,192,36858,1,0,0:0:0:0:
36,192,36858,1,0,0:0:0:0:
109,192,36858,1,0,0:0:0:0:
402,192,36941,1,0,0:0:0:0:
182,192,36941,1,0,0:0:0:0:
36,192,37025,1,0,0:0:0:0:
329,192,37025,1,0,0:0:0:0:
109,192,37108,1,0,0:0:0:0:
256,192,37108,1,0,0:0:0:0:
182,192,37191,1,0,0:0:0:0:
36,192,37191,1,0,0:0:0:0:
329,192,37191,1,0,0:0:0:0:
475,192,37191,1,0,0:0:0:0:
256,192,37274,1,0,0:0:0:0:
402,192,37274,1,0,0:0:0:0:
182,192,37358,1,0,0:0:0:0:
36,192,37358,1,0,0:0:0:0:
475,192,37358,1,0,0:0:0:0:
402,192,37441,1,0,0:0:0:0:
109,192,37441,1,0,0:0:0:0:
182,192,37524,1,0,0:0:0:0:
329,192,37524,1,0,0:0:0:0:
256,192,37607,1,0,0:0:0:0:
402,192,37607,1,0,0:0:0:0:
36,192,37691,1,0,0:0:0:0:
329,192,37691,1,0,0:0:0:0:
109,192,37691,1,0,0:0:0:0:
182,192,37691,1,0,0:0:0:0:
475,192,37691,1,0,0:0:0:0:
402,192,37774,1,0,0:0:0:0:
256,192,37774,1,0,0:0:0:0:
329,192,37857,1,0,0:0:0:0:
109,192,37857,1,0,0:0:0:0:
182,192,37940,1,0,0:0:0:0:
402,192,37940,1,0,0:0:0:0:
256,192,38023,1,0,0:0:0:0:
36,192,38023,1,0,0:0:0:0:
475,192,38023,1,0,0:0:0:0:
402,192,38107,1,0,0:0:0:0:
109,192,38107,1,0,0:0:0:0:
475,192,38190,1,0,0:0:0:0:
182,192,38190,1,0,0:0:0:0:
329,192,38190,1,0,0:0:0:0:
36,192,38190,1,0,0:0:0:0:
402,192,38273,1,0,0:0:0:0:
256,192,38273,1,0,0:0:0:0:
36,192,38356,1,0,0:0:0:0:
109,192,38356,1,0,0:0:0:0:
329,192,38356,1,0,0:0:0:0:
475,192,38356,1,0,0:0:0:0:
256,192,38440,1,0,0:0:0:0:
402,192,38440,1,0,0:0:0:0:
329,192,38523,1,0,0:0:0:0:
475,192,38523,1,0,0:0:0:0:
36,192,38523,1,0,0:0:0:0:
182,192,38523,1,0,0:0:0:0:
109,192,38606,1,0,0:0:0:0:
256,192,38606,1,0,0:0:0:0:
182,192,38689,1,0,0:0:0:0:
475,192,38689,1,0,0:0:0:0:
402,192,38689,1,0,0:0:0:0:
36,192,38689,1,0,0:0:0:0:
256,192,38773,1,0,0:0:0:0:
329,192,38773,1,0,0:0:0:0:
475,192,38856,1,0,0:0:0:0:
182,192,38856,1,0,0:0:0:0:
109,192,38856,1,0,0:0:0:0:
36,192,38856,1,0,0:0:0:0:
329,192,38939,1,0,0:0:0:0:
402,192,38939,1,0,0:0:0:0:
475,192,39022,1,0,0:0:0:0:
109,192,39022,1,0,0:0:0:0:
256,192,39022,1,0,0:0:0:0:
329,192,39106,1,0,0:0:0:0:
182,192,39106,1,0,0:0:0:0:
256,192,39189,1,0,0:0:0:0:
36,192,39189,1,0,0:0:0:0:
402,192,39189,1,0,0:0:0:0:
475,192,39189,1,0,0:0:0:0:
109,192,39272,1,0,0:0:0:0:
182,192,39272,1,0,0:0:0:0:
36,192,39355,1,0,0:0:0:0:
402,192,39355,1,0,0:0:0:0:
329,192,39355,1,0,0:0:0:0:
182,192,39439,1,0,0:0:0:0:
256,192,39439,1,0,0:0:0:0:
109,192,39522,1,0,0:0:0:0:
36,192,39522,1,0,0:0:0:0:
402,192,39522,1,0,0:0:0:0:
475,192,39522,1,0,0:0:0:0:
256,192,39605,1,0,0:0:0:0:
329,192,39605,1,0,0:0:0:0:
36,192,39688,1,0,0:0:0:0:
182,192,39688,1,0,0:0:0:0:
475,192,39688,1,0,0:0:0:0:
256,192,39772,1,0,0:0:0:0:
402,192,39772,1,0,0:0:0:0:
109,192,39855,1,0,0:0:0:0:
36,192,39855,1,0,0:0:0:0:
475,192,39855,1,0,0:0:0:0:
329,192,39855,1,0,0:0:0:0:
182,192,39938,1,0,0:0:0:0:
402,192,39938,1,0,0:0:0:0:
256,192,40021,1,0,0:0:0:0:
36,192,40021,1,0,0:0:0:0:
475,192,40021,1,0,0:0:0:0:
329,192,40104,1,0,0:0:0:0:
109,192,40104,1,0,0:0:0:0:
475,192,40188,1,0,0:0:0:0:
36,192,40188,1,0,0:0:0:0:
182,192,40188,1,0,0:0:0:0:
402,192,40188,1,0,0:0:0:0:
329,192,40271,1,0,0:0:0:0:
256,192,40271,1,0,0:0:0:0:
36,192,40354,1,0,0:0:0:0:
402,192,40354,1,0,0:0:0:0:
109,192,40354,1,0,0:0:0:0:
182,192,40437,1,0,0:0:0:0:
256,192,40437,1,0,0:0:0:0:
402,192,40521,1,0,0:0:0:0:
36,192,40521,1,0,0:0:0:0:
109,192,40521,1,0,0:0:0:0:
475,192,40521,1,0,0:0:0:0:
329,192,40604,1,0,0:0:0:0:
256,192,40604,1,0,0:0:0:0:
475,192,40687,1,0,0:0:0:0:
36,192,40687,1,0,0:0:0:0:
182,192,40687,1,0,0:0:0:0:
402,192,40770,1,0,0:0:0:0:
256,192,40770,1,0,0:0:0:0:
329,192,40854,1,0,0:0:0:0:
109,192,40854,1,0,0:0:0:0:
182,192,40937,1,0,0:0:0:0:
402,192,40937,1,0,0:0:0:0:
475,192,41020,1,0,0:0:0:0:
36,192,41020,1,0,0:0:0:0:
256,192,41020,1,0,0:0:0:0:
182,192,41103,1,0,0:0:0:0:
402,192,41103,1,0,0:0:0:0:
329,192,41187,1,0,0:0:0:0:
109,192,41187,1,0,0:0:0:0:
402,192,41270,1,0,0:0:0:0:
256,192,41270,1,0,0:0:0:0:
182,192,41353,1,0,0:0:0:0:
36,192,41353,1,0,0:0:0:0:
475,192,41353,1,0,0:0:0:0:
329,192,41353,1,0,0:0:0:0:
402,192,41436,1,0,0:0:0:0:
109,192,41436,1,0,0:0:0:0:
36,192,41520,1,0,0:0:0:0:
256,192,41520,1,0,0:0:0:0:
182,192,41603,1,0,0:0:0:0:
329,192,41603,1,0,0:0:0:0:
256,192,41686,1,0,0:0:0:0:
402,192,41686,1,0,0:0:0:0:
109,192,41686,1,0,0:0:0:0:
36,192,41686,1,0,0:0:0:0:
475,192,41769,1,0,0:0:0:0:
329,192,41769,1,0,0:0:0:0:
109,192,41853,1,0,0:0:0:0:
256,192,41853,1,0,0:0:0:0:
402,192,41853,1,0,0:0:0:0:
36,192,41853,1,0,0:0:0:0:
329,192,41936,1,0,0:0:0:0:
182,192,41936,1,0,0:0:0:0:
36,192,42019,1,0,0:0:0:0:
475,192,42019,1,0,0:0:0:0:
402,192,42019,1,0,0:0:0:0:
256,192,42102,1,0,0:0:0:0:
109,192,42102,1,0,0:0:0:0:
329,192,42186,1,0,0:0:0:0:
475,192,42186,1,0,0:0:0:0:
182,192,42186,1,0,0:0:0:0:
36,192,42186,1,0,0:0:0:0:
109,192,42269,1,0,0:0:0:0:
402,192,42269,1,0,0:0:0:0:
256,192,42352,1,0,0:0:0:0:
475,192,42352,1,0,0:0:0:0:
36,192,42352,1,0,0:0:0:0:
109,192,42435,1,0,0:0:0:0:
402,192,42435,1,0,0:0:0:0:
36,192,42518,1,0,0:0:0:0:
475,192,42518,1,0,0:0:0:0:
329,192,42518,1,0,0:0:0:0:
182,192,42518,1,0,0:0:0:0:
402,192,42602,1,0,0:0:0:0:
256,192,42602,1,0,0:0:0:0:
36,192,42685,1,0,0:0:0:0:
182,192,42685,1,0,0:0:0:0:
329,192,42685,1,0,0:0:0:0:
475,192,42768,1,0,0:0:0:0:
109,192,42768,1,0,0:0:0:0:
402,192,42851,1,0,0:0:0:0:
256,192,42851,1,0,0:0:0:0:
182,192,42935,1,0,0:0:0:0:
329,192,42935,1,0,0:0:0:0:
36,192,43018,1,0,0:0:0:0:
475,192,43018,1,0,0:0:0:0:
109,192,43018,1,0,0:0:0:0:
402,192,43018,1,0,0:0:0:0:
256,192,43018,1,0,0:0:0:0:
182,192,43101,1,0,0:0:0:0:
329,192,43101,1,0,0:0:0:0:
109,192,43184,1,0,0:0:0:0:
402,192,43184,1,0,0:0:0:0:
475,192,43268,1,0,0:0:0:0:
36,192,43268,1,0,0:0:0:0:
256,192,43351,1,0,0:0:0:0:
402,192,43351,1,0,0:0:0:0:
109,192,43351,1,0,0:0:0:0:
182,192,43434,1,0,0:0:0:0:
329,192,43434,1,0,0:0:0:0:
109,192,43517,1,0,0:0:0:0:
402,192,43517,1,0,0:0:0:0:
475,192,43601,1,0,0:0:0:0:
182,192,43601,1,0,0:0:0:0:
256,192,43684,1,0,0:0:0:0:
402,192,43684,1,0,0:0:0:0:
36,192,43684,1,0,0:0:0:0:
329,192,43767,1,0,0:0:0:0:
109,192,43767,1,0,0:0:0:0:
36,192,43850,1,0,0:0:0:0:
475,192,43850,1,0,0:0:0:0:
402,192,43850,1,0,0:0:0:0:
182,192,43850,1,0,0:0:0:0:
256,192,43934,1,0,0:0:0:0:
109,192,43934,1,0,0:0:0:0:
475,192,44017,1,0,0:0:0:0:
36,192,44017,1,0,0:0:0:0:
182,192,44017,1,0,0:0:0:0:
329,192,44017,1,0,0:0:0:0:
402,192,44100,1,0,0:0:0:0:
256,192,44100,1,0,0:0:0:0:
109,192,44183,1,0,0:0:0:0:
329,192,44183,1,0,0:0:0:0:
402,192,44267,1,0,0:0:0:0:
182,192,44267,1,0,0:0:0:0:
256,192,44350,1,0,0:0:0:0:
475,192,44350,1,0,0:0:0:0:
109,192,44350,1,0,0:0:0:0:
36,192,44350,1,0,0:0:0:0:
182,192,44433,1,0,0:0:0:0:
402,192,44433,1,0,0:0:0:0:
109,192,44516,1,0,0:0:0:0:
329,192,44516,1,0,0:0:0:0:
36,192,44599,1,0,0:0:0:0:
256,192,44599,1,0,0:0:0:0:
329,192,44683,1,0,0:0:0:0:
475,192,44683,1,0,0:0:0:0:
182,192,44683,1,0,0:0:0:0:
109,192,44683,1,0,0:0:0:0:
402,192,44766,1,0,0:0:0:0:
256,192,44766,1,0,0:0:0:0:
109,192,44849,1,0,0:0:0:0:
329,192,44849,1,0,0:0:0:0:
182,192,44932,1,0,0:0:0:0:
402,192,44932,1,0,0:0:0:0:
36,192,45016,1,0,0:0:0:0:
109,192,45016,1,0,0:0:0:0:
256,192,45016,1,0,0:0:0:0:
475,192,45016,1,0,0:0:0:0:
402,192,45099,1,0,0:0:0:0:
329,192,45099,1,0,0:0:0:0:
36,192,45182,1,0,0:0:0:0:
109,192,45182,1,0,0:0:0:0:
256,192,45182,1,0,0:0:0:0:
475,192,45182,1,0,0:0:0:0:
329,192,45265,1,0,0:0:0:0:
182,192,45265,1,0,0:0:0:0:
402,192,45349,1,0,0:0:0:0:
475,192,45349,1,0,0:0:0:0:
36,192,45349,1,0,0:0:0:0:
256,192,45349,1,0,0:0:0:0:
329,192,45432,1,0,0:0:0:0:
109,192,45432,1,0,0:0:0:0:
402,192,45515,1,0,0:0:0:0:
182,192,45515,1,0,0:0:0:0:
329,192,45598,1,0,0:0:0:0:
109,192,45598,1,0,0:0:0:0:
36,192,45682,1,0,0:0:0:0:
256,192,45682,1,0,0:0:0:0:
475,192,45682,1,0,0:0:0:0:
402,192,45682,1,0,0:0:0:0:
329,192,45765,1,0,0:0:0:0:
182,192,45765,1,0,0:0:0:0:
475,192,45848,1,0,0:0:0:0:
109,192,45848,1,0,0:0:0:0:
36,192,45848,1,0,0:0:0:0:
256,192,45848,1,0,0:0:0:0:
402,192,45931,1,0,0:0:0:0:
182,192,45931,1,0,0:0:0:0:
475,192,46015,1,0,0:0:0:0:
36,192,46015,1,0,0:0:0:0:
329,192,46015,1,0,0:0:0:0:
109,192,46098,1,0,0:0:0:0:
256,192,46098,1,0,0:0:0:0:
182,192,46181,1,0,0:0:0:0:
36,192,46181,1,0,0:0:0:0:
475,192,46181,1,0,0:0:0:0:
329,192,46181,1,0,0:0:0:0:
256,192,46264,1,0,0:0:0:0:
109,192,46264,1,0,0:0:0:0:
402,192,46348,1,0,0:0:0:0:
182,192,46348,1,0,0:0:0:0:
329,192,46431,1,0,0:0:0:0:
109,192,46431,1,0,0:0:0:0:
36,192,46514,1,0,0:0:0:0:
475,192,46514,1,0,0:0:0:0:
256,192,46514,1,0,0:0:0:0:
402,192,46514,1,0,0:0:0:0:
329,192,46597,1,0,0:0:0:0:
182,192,46597,1,0,0:0:0:0:
475,192,46681,1,0,0:0:0:0:
36,192,46681,1,0,0:0:0:0:
109,192,46681,1,0,0:0:0:0:
256,192,46681,1,0,0:0:0:0:
402,192,46764,1,0,0:0:0:0:
182,192,46764,1,0,0:0:0:0:
329,192,46847,1,0,0:0:0:0:
36,192,46847,1,0,0:0:0:0:
182,192,46930,1,0,0:0:0:0:
402,192,46930,1,0,0:0:0:0:
36,192,47013,1,0,0:0:0:0:
109,192,47013,1,0,0:0:0:0:
475,192,47013,1,0,0:0:0:0:
256,192,47013,1,0,0:0:0:0:
402,192,47097,1,0,0:0:0:0:
182,192,47097,1,0,0:0:0:0:
109,192,47180,1,0,0:0:0:0:
329,192,47180,1,0,0:0:0:0:
475,192,47263,1,0,0:0:0:0:
182,192,47263,1,0,0:0:0:0:
402,192,47346,1,0,0:0:0:0:
36,192,47346,1,0,0:0:0:0:
256,192,47346,1,0,0:0:0:0:
109,192,47346,1,0,0:0:0:0:
329,192,47430,1,0,0:0:0:0:
182,192,47430,1,0,0:0:0:0:
475,192,47513,1,0,0:0:0:0:
402,192,47513,1,0,0:0:0:0:
36,192,47513,1,0,0:0:0:0:
256,192,47513,1,0,0:0:0:0:
329,192,47596,1,0,0:0:0:0:
109,192,47596,1,0,0:0:0:0:
182,192,47679,1,0,0:0:0:0:
402,192,47679,1,0,0:0:0:0:
475,192,47763,1,0,0:0:0:0:
256,192,47763,1,0,0:0:0:0:
182,192,47846,1,0,0:0:0:0:
36,192,47846,1,0,0:0:0:0:
329,192,47846,1,0,0:0:0:0:
402,192,47846,1,0,0:0:0:0:
109,192,47929,1,0,0:0:0:0:
475,192,47929,1,0,0:0:0:0:
256,192,48012,1,0,0:0:0:0:
36,192,48012,1,0,0:0:0:0:
402,192,48012,1,0,0:0:0:0:
329,192,48096,1,0,0:0:0:0:
182,192,48096,1,0,0:0:0:0:
109,192,48179,1,0,0:0:0:0:
256,192,48179,1,0,0:0:0:0:
182,192,48262,1,0,0:0:0:0:
329,192,48262,1,0,0:0:0:0:
36,192,48345,1,0,0:0:0:0:
402,192,48345,1,0,0:0:0:0:
109,192,48345,1,0,0:0:0:0:
256,192,48345,1,0,0:0:0:0:
475,192,48345,1,0,0:0:0:0:
329,192,48429,1,0,0:0:0:0:
182,192,48429,1,0,0:0:0:0:
402,192,48512,1,0,0:0:0:0:
109,192,48512,1,0,0:0:0:0:
182,192,48595,1,0,0:0:0:0:
329,192,48595,1,0,0:0:0:0:
256,192,48678,1,0,0:0:0:0:
36,192,48678,1,0,0:0:0:0:
475,192,48678,1,0,0:0:0:0:
402,192,48762,1,0,0:0:0:0:
109,192,48762,1,0,0:0:0:0:
475,192,48845,1,0,0:0:0:0:
182,192,48845,1,0,0:0:0:0:
329,192,48845,1,0,0:0:0:0:
36,192,48845,1,0,0:0:0:0:
109,192,48928,1,0,0:0:0:0:
256,192,48928,1,0,0:0:0:0:
36,192,49011,1,0,0:0:0:0:
475,192,49011,1,0,0:0:0:0:
182,192,49011,1,0,0:0:0:0:
329,192,49011,1,0,0:0:0:0:
256,192,49095,1,0,0:0:0:0:
402,192,49095,1,0,0:0:0:0:
329,192,49178,1,0,0:0:0:0:
475,192,49178,1,0,0:0:0:0:
36,192,49178,1,0,0:0:0:0:
109,192,49178,1,0,0:0:0:0:
182,192,49261,1,0,0:0:0:0:
402,192,49261,1,0,0:0:0:0:
109,192,49344,1,0,0:0:0:0:
475,192,49344,1,0,0:0:0:0:
256,192,49344,1,0,0:0:0:0:
36,192,49344,1,0,0:0:0:0:
182,192,49427,1,0,0:0:0:0:
329,192,49427,1,0,0:0:0:0:
475,192,49511,1,0,0:0:0:0:
256,192,49511,1,0,0:0:0:0:
109,192,49511,1,0,0:0:0:0:
36,192,49511,1,0,0:0:0:0:
182,192,49594,1,0,0:0:0:0:
402,192,49594,1,0,0:0:0:0:
475,192,49677,1,0,0:0:0:0:
109,192,49677,1,0,0:0:0:0:
329,192,49677,1,0,0:0:0:0:
256,192,49760,1,0,0:0:0:0:
36,192,49760,1,0,0:0:0:0:
182,192,49844,1,0,0:0:0:0:
109,192,49844,1,0,0:0:0:0:
329,192,49844,1,0,0:0:0:0:
475,192,49844,1,0,0:0:0:0:
402,192,49927,1,0,0:0:0:0:
256,192,49927,1,0,0:0:0:0:
36,192,50010,1,0,0:0:0:0:
329,192,50010,1,0,0:0:0:0:
182,192,50010,1,0,0:0:0:0:
109,192,50093,1,0,0:0:0:0:
256,192,50093,1,0,0:0:0:0:
182,192,50177,1,0,0:0:0:0:
36,192,50177,1,0,0:0:0:0:
329,192,50177,1,0,0:0:0:0:
475,192,50177,1,0,0:0:0:0:
256,192,50260,1,0,0:0:0:0:
402,192,50260,1,0,0:0:0:0:
36,192,50343,1,0,0:0:0:0:
109,192,50343,1,0,0:0:0:0:
329,192,50343,1,0,0:0:0:0:
182,192,50426,1,0,0:0:0:0:
475,192,50426,1,0,0:0:0:0:
109,192,50510,1,0,0:0:0:0:
36,192,50510,1,0,0:0:0:0:
402,192,50510,1,0,0:0:0:0:
256,192,50510,1,0,0:0:0:0:
329,192,50593,1,0,0:0:0:0:
475,192,50593,1,0,0:0:0:0:
182,192,50676,1,0,0:0:0:0:
36,192,50676,1,0,0:0:0:0:
402,192,50676,1,0,0:0:0:0:
256,192,50759,1,0,0:0:0:0:
109,192,50759,1,0,0:0:0:0:
475,192,50843,1,0,0:0:0:0:
36,192,50843,1,0,0:0:0:0:
182,192,50843,1,0,0:0:0:0:
329,192,50843,1,0,0:0:0:0:
402,192,50926,1,0,0:0:0:0:
256,192,50926,1,0,0:0:0:0:
36,192,51009,1,0,0:0:0:0:
329,192,51009,1,0,0:0:0:0:
109,192,51009,1,0,0:0:0:0:
402,192,51092,1,0,0:0:0:0:
182,192,51092,1,0,0:0:0:0:
109,192,51176,1,0,0:0:0:0:
36,192,51176,1,0,0:0:0:0:
475,192,51176,1,0,0:0:0:0:
329,192,51176,1,0,0:0:0:0:
402,192,51259,1,0,0:0:0:0:
256,192,51259,1,0,0:0:0:0:
329,192,51342,1,0,0:0:0:0:
36,192,51342,1,0,0:0:0:0:
182,192,51342,1,0,0:0:0:0:
475,192,51425,1,0,0:0:0:0:
109,192,51425,1,0,0:0:0:0:
402,192,51508,1,0,0:0:0:0:
256,192,51508,1,0,0:0:0:0:
182,192,51592,1,0,0:0:0:0:
329,192,51592,1,0,0:0:0:0:
475,192,51675,1,0,0:0:0:0:
109,192,51675,1,0,0:0:0:0:
256,192,51675,1,0,0:0:0:0:
36,192,51758,1,0,0:0:0:0:
402,192,51758,1,0,0:0:0:0:
329,192,51841,1,0,0:0:0:0:
182,192,51841,1,0,0:0:0:0:
402,192,51925,1,0,0:0:0:0:
109,192,51925,1,0,0:0:0:0:
329,192,52008,1,0,0:0:0:0:
36,192,52008,1,0,0:0:0:0:
475,192,52008,1,0,0:0:0:0:
182,192,52008,1,0,0:0:0:0:
402,192,52091,1,0,0:0:0:0:
256,192,52091,1,0,0:0:0:0:
109,192,52174,1,0,0:0:0:0:
329,192,52174,1,0,0:0:0:0:
182,192,52258,1,0,0:0:0:0:
402,192,52258,1,0,0:0:0:0:
475,192,52341,1,0,0:0:0:0:
256,192,52341,1,0,0:0:0:0:
109,192,52341,1,0,0:0:0:0:
36,192,52341,1,0,0:0:0:0:
402,192,52424,1,0,0:0:0:0:
329,192,52424,1,0,0:0:0:0:
109,192,52507,1,0,0:0:0:0:
182,192,52507,1,0,0:0:0:0:
475,192,52507,1,0,0:0:0:0:
36,192,52507,1,0,0:0:0:0:
329,192,52591,1,0,0:0:0:0:
256,192,52591,1,0,0:0:0:0:
109,192,52674,1,0,0:0:0:0:
475,192,52674,1,0,0:0:0:0:
36,192,52674,1,0,0:0:0:0:
256,192,52757,1,0,0:0:0:0:
402,192,52757,1,0,0:0:0:0:
329,192,52840,1,0,0:0:0:0:
475,192,52840,1,0,0:0:0:0:
36,192,52840,1,0,0:0:0:0:
182,192,52840,1,0,0:0:0:0:
256,192,52924,1,0,0:0:0:0:
402,192,52924,1,0,0:0:0:0:
109,192,53007,1,0,0:0:0:0:
329,192,53007,1,0,0:0:0:0:
36,192,53007,1,0,0:0:0:0:
182,192,53090,1,0,0:0:0:0:
402,192,53090,1,0,0:0:0:0:
36,192,53173,1,0,0:0:0:0:
475,192,53173,1,0,0:0:0:0:
256,192,53173,1,0,0:0:0:0:
109,192,53173,1,0,0:0:0:0:
402,192,53257,1,0,0:0:0:0:
182,192,53257,1,0,0:0:0:0:
36,192,53340,1,0,0:0:0:0:
256,192,53340,1,0,0:0:0:0:
475,192,53340,1,0,0:0:0:0:
329,192,53423,1,0,0:0:0:0:
109,192,53423,1,0,0:0:0:0:
402,192,53506,1,0,0:0:0:0:
182,192,53506,1,0,0:0:0:0:
256,192,53590,1,0,0:0:0:0:
475,192,53590,1,0,0:0:0:0:
36,192,53673,1,0,0:0:0:0:
402,192,53673,1,0,0:0:0:0:
109,192,53673,1,0,0:0:0:0:
329,192,53673,1,0,0:0:0:0:
182,192,53673,1,0,0:0:0:0:
256,192,53756,1,0,0:0:0:0:
475,192,53756,1,0,0:0:0:0:
182,192,53839,1,0,0:0:0:0:
402,192,53839,1,0,0:0:0:0:
329,192,53922,1,0,0:0:0:0:
109,192,53922,1,0,0:0:0:0:
256,192,54006,1,0,0:0:0:0:
475,192,54006,1,0,0:0:0:0:
36,192,54006,1,0,0:0:0:0:
182,192,54089,1,0,0:0:0:0:
402,192,54089,1,0,0:0:0:0:
109,192,54172,1,0,0:0:0:0:
329,192,54172,1,0,0:0:0:0:
402,192,54255,1,0,0:0:0:0:
182,192,54255,1,0,0:0:0:0:
256,192,54339,1,0,0:0:0:0:
475,192,54339,1,0,0:0:0:0:
36,192,54339,1,0,0:0:0:0:
329,192,54422,1,0,0:0:0:0:
109,192,54422,1,0,0:0:0:0:
182,192,54505,1,0,0:0:0:0:
402,192,54505,1,0,0:0:0:0:
329,192,54588,1,0,0:0:0:0:
109,192,54588,1,0,0:0:0:0:
475,192,54672,1,0,0:0:0:0:
36,192,54672,1,0,0:0:0:0:
256,192,54672,1,0,0:0:0:0:
402,192,54672,1,0,0:0:0:0:
329,192,54755,1,0,0:0:0:0:
182,192,54755,1,0,0:0:0:0:
475,192,54838,1,0,0:0:0:0:
109,192,54838,1,0,0:0:0:0:
402,192,54838,1,0,0:0:0:0:
329,192,54921,1,0,0:0:0:0:
182,192,54921,1,0,0:0:0:0:
256,192,55005,1,0,0:0:0:0:
36,192,55005,1,0,0:0:0:0:
475,192,55005,1,0,0:0:0:0:
109,192,55088,1,0,0:0:0:0:
402,192,55088,1,0,0:0:0:0:
36,192,55171,1,0,0:0:0:0:
182,192,55171,1,0,0:0:0:0:
329,192,55171,1,0,0:0:0:0:
402,192,55254,1,0,0:0:0:0:
256,192,55254,1,0,0:0:0:0:
475,192,55338,1,0,0:0:0:0:
109,192,55338,1,0,0:0:0:0:
329,192,55421,1,0,0:0:0:0:
182,192,55421,1,0,0:0:0:0:
36,192,55504,1,0,0:0:0:0:
475,192,55504,1,0,0:0:0:0:
256,192,55504,1,0,0:0:0:0:
109,192,55504,1,0,0:0:0:0:
182,192,55587,1,0,0:0:0:0:
402,192,55587,1,0,0:0:0:0:
329,192,55671,1,0,0:0:0:0:
36,192,55671,1,0,0:0:0:0:
109,192,55754,1,0,0:0:0:0:
402,192,55754,1,0,0:0:0:0:
36,192,55837,1,0,0:0:0:0:
329,192,55837,1,0,0:0:0:0:
182,192,55837,1,0,0:0:0:0:
475,192,55837,1,0,0:0:0:0:
256,192,55920,1,0,0:0:0:0:
402,192,55920,1,0,0:0:0:0:
329,192,56003,1,0,0:0:0:0:
109,192,56003,1,0,0:0:0:0:
402,192,56087,1,0,0:0:0:0:
182,192,56087,1,0,0:0:0:0:
256,192,56170,1,0,0:0:0:0:
36,192,56170,1,0,0:0:0:0:
109,192,56170,1,0,0:0:0:0:
475,192,56170,1,0,0:0:0:0:
329,192,56253,1,0,0:0:0:0:
182,192,56253,1,0,0:0:0:0:
109,192,56336,1,0,0:0:0:0:
475,192,56336,1,0,0:0:0:0:
402,192,56420,1,0,0:0:0:0:
256,192,56420,1,0,0:0:0:0:
329,192,56503,1,0,0:0:0:0:
182,192,56503,1,0,0:0:0:0:
36,192,56503,1,0,0:0:0:0:
402,192,56586,1,0,0:0:0:0:
256,192,56586,1,0,0:0:0:0:
475,192,56669,1,0,0:0:0:0:
109,192,56669,1,0,0:0:0:0:
182,192,56753,1,0,0:0:0:0:
329,192,56753,1,0,0:0:0:0:
36,192,56836,1,0,0:0:0:0:
402,192,56836,1,0,0:0:0:0:
475,192,56836,1,0,0:0:0:0:
256,192,56836,1,0,0:0:0:0:
329,192,56919,1,0,0:0:0:0:
109,192,56919,1,0,0:0:0:0:
182,192,56919,1,0,0:0:0:0:
475,192,57002,1,0,0:0:0:0:
402,192,57002,1,0,0:0:0:0:
36,192,57002,1,0,0:0:0:0:
256,192,57002,1,0,0:0:0:0:
109,192,57086,1,0,0:0:0:0:
402,192,57169,1,0,0:0:0:0:
475,192,57169,1,0,0:0:0:0:
182,192,57169,1,0,0:0:0:0:
329,192,57169,1,0,0:0:0:0:
109,192,57252,1,0,0:0:0:0:
402,192,57335,1,0,0:0:0:0:
475,192,57335,1,0,0:0:0:0:
36,192,57335,1,0,0:0:0:0:
256,192,57335,1,0,0:0:0:0:
182,192,57419,1,0,0:0:0:0:
329,192,57502,1,0,0:0:0:0:
329,192,57585,1,0,0:0:0:0:
182,192,57668,1,0,0:0:0:0:
36,192,57668,1,0,0:0:0:0:
402,192,57752,1,0,0:0:0:0:
256,192,57835,1,0,0:0:0:0:
109,192,57918,1,0,0:0:0:0:
475,192,58001,1,0,0:0:0:0:
329,192,58001,1,0,0:0:0:0:
182,192,58085,1,0,0:0:0:0:
36,192,58168,1,0,0:0:0:0:
36,192,58251,1,0,0:0:0:0:
475,192,58334,1,0,0:0:0:0:
329,192,58334,1,0,0:0:0:0:
109,192,58417,1,0,0:0:0:0:
256,192,58501,1,0,0:0:0:0:
402,192,58584,1,0,0:0:0:0:
36,192,58667,1,0,0:0:0:0:
182,192,58667,1,0,0:0:0:0:
329,192,58750,1,0,0:0:0:0:
109,192,58834,1,0,0:0:0:0:
109,192,58917,1,0,0:0:0:0:
475,192,59000,1,0,0:0:0:0:
256,192,59000,1,0,0:0:0:0:
329,192,59083,1,0,0:0:0:0:
36,192,59167,1,0,0:0:0:0:
182,192,59250,1,0,0:0:0:0:
402,192,59333,1,0,0:0:0:0:
109,192,59333,1,0,0:0:0:0:
256,192,59416,1,0,0:0:0:0:
475,192,59500,1,0,0:0:0:0:
475,192,59583,1,0,0:0:0:0:
182,192,59666,1,0,0:0:0:0:
329,192,59666,1,0,0:0:0:0:
36,192,59749,1,0,0:0:0:0:
256,192,59833,1,0,0:0:0:0:
402,192,59916,1,0,0:0:0:0:
329,192,59999,1,0,0:0:0:0:
109,192,59999,1,0,0:0:0:0:
475,192,60082,1,0,0:0:0:0:
182,192,60166,1,0,0:0:0:0:
182,192,60249,1,0,0:0:0:0:
36,192,60332,1,0,0:0:0:0:
475,192,60332,1,0,0:0:0:0:
329,192,60415,1,0,0:0:0:0:
182,192,60498,1,0,0:0:0:0:
402,192,60582,1,0,0:0:0:0:
36,192,60665,1,0,0:0:0:0:
256,192,60665,1,0,0:0:0:0:
182,192,60748,1,0,0:0:0:0:
329,192,60831,1,0,0:0:0:0:
329,192,60915,1,0,0:0:0:0:
109,192,60998,1,0,0:0:0:0:
256,192,60998,1,0,0:0:0:0:
475,192,61081,1,0,0:0:0:0:
329,192,61164,1,0,0:0:0:0:
36,192,61248,1,0,0:0:0:0:
475,192,61331,1,0,0:0:0:0:
182,192,61331,1,0,0:0:0:0:
329,192,61414,1,0,0:0:0:0:
109,192,61497,1,0,0:0:0:0:
109,192,61581,1,0,0:0:0:0:
402,192,61664,1,0,0:0:0:0:
256,192,61664,1,0,0:0:0:0:
36,192,61747,1,0,0:0:0:0:
182,192,61830,1,0,0:0:0:0:
329,192,61914,1,0,0:0:0:0:
475,192,61997,1,0,0:0:0:0:
109,192,61997,1,0,0:0:0:0:
402,192,62080,1,0,0:0:0:0:
256,192,62163,1,0,0:0:0:0:
256,192,62247,1,0,0:0:0:0:
402,192,62330,1,0,0:0:0:0:
36,192,62330,1,0,0:0:0:0:
182,192,62413,1,0,0:0:0:0:
329,192,62496,1,0,0:0:0:0:
475,192,62580,1,0,0:0:0:0:
109,192,62663,1,0,0:0:0:0:
402,192,62663,1,0,0:0:0:0:
256,192,62746,1,0,0:0:0:0:
36,192,62829,1,0,0:0:0:0:
36,192,62912,1,0,0:0:0:0:
329,192,62996,1,0,0:0:0:0:
475,192,62996,1,0,0:0:0:0:
182,192,63079,1,0,0:0:0:0:
36,192,63162,1,0,0:0:0:0:
402,192,63245,1,0,0:0:0:0:
256,192,63329,1,0,0:0:0:0:
109,192,63329,1,0,0:0:0:0:
475,192,63412,1,0,0:0:0:0:
329,192,63495,1,0,0:0:0:0:
329,192,63578,1,0,0:0:0:0:
36,192,63662,1,0,0:0:0:0:
182,192,63662,1,0,0:0:0:0:
402,192,63745,1,0,0:0:0:0:
256,192,63828,1,0,0:0:0:0:
109,192,63911,1,0,0:0:0:0:
475,192,63995,1,0,0:0:0:0:
329,192,63995,1,0,0:0:0:0:
36,192,64078,1,0,0:0:0:0:
182,192,64161,1,0,0:0:0:0:
182,192,64244,1,0,0:0:0:0:
402,192,64328,1,0,0:0:0:0:
256,192,64328,1,0,0:0:0:0:
109,192,64411,1,0,0:0:0:0:
329,192,64494,1,0,0:0:0:0:
475,192,64577,1,0,0:0:0:0:
36,192,64661,1,0,0:0:0:0:
256,192,64661,1,0,0:0:0:0:
182,192,64744,1,0,0:0:0:0:
402,192,64827,1,0,0:0:0:0:
402,192,64910,1,0,0:0:0:0:
109,192,64994,1,0,0:0:0:0:
329,192,64994,1,0,0:0:0:0:
182,192,65077,1,0,0:0:0:0:
475,192,65160,1,0,0:0:0:0:
256,192,65243,1,0,0:0:0:0:
109,192,65326,1,0,0:0:0:0:
402,192,65326,1,0,0:0:0:0:
36,192,65410,1,0,0:0:0:0:
329,192,65493,1,0,0:0:0:0:
329,192,65576,1,0,0:0:0:0:
475,192,65659,1,0,0:0:0:0:
36,192,65659,1,0,0:0:0:0:
182,192,65743,1,0,0:0:0:0:
329,192,65826,1,0,0:0:0:0:
256,192,65909,1,0,0:0:0:0:
475,192,65992,1,0,0:0:0:0:
109,192,65992,1,0,0:0:0:0:
402,192,66076,1,0,0:0:0:0:
256,192,66159,1,0,0:0:0:0:
256,192,66242,1,0,0:0:0:0:
36,192,66325,1,0,0:0:0:0:
182,192,66325,1,0,0:0:0:0:
475,192,66409,1,0,0:0:0:0:
329,192,66492,1,0,0:0:0:0:
182,192,66575,1,0,0:0:0:0:
402,192,66658,1,0,0:0:0:0:
36,192,66658,1,0,0:0:0:0:
256,192,66742,1,0,0:0:0:0:
109,192,66825,1,0,0:0:0:0:
109,192,66908,1,0,0:0:0:0:
475,192,66991,1,0,0:0:0:0:
329,192,66991,1,0,0:0:0:0:
182,192,67075,1,0,0:0:0:0:
402,192,67158,1,0,0:0:0:0:
109,192,67241,1,0,0:0:0:0:
36,192,67324,1,0,0:0:0:0:
329,192,67324,1,0,0:0:0:0:
256,192,67407,1,0,0:0:0:0:
475,192,67491,1,0,0:0:0:0:
475,192,67574,1,0,0:0:0:0:
36,192,67657,1,0,0:0:0:0:
109,192,67657,1,0,0:0:0:0:
256,192,67657,1,0,0:0:0:0:
402,192,67740,1,0,0:0:0:0:
329,192,67824,1,0,0:0:0:0:
36,192,67824,1,0,0:0:0:0:
182,192,67824,1,0,0:0:0:0:
109,192,67907,1,0,0:0:0:0:
475,192,67990,1,0,0:0:0:0:
402,192,67990,1,0,0:0:0:0:
36,192,67990,1,0,0:0:0:0:
256,192,67990,1,0,0:0:0:0:
36,192,68323,1,0,0:0:0:0:
475,192,68490,1,0,0:0:0:0:
329,192,68490,1,0,0:0:0:0:
109,192,68656,1,0,0:0:0:0:
256,192,68656,1,0,0:0:0:0:
36,192,68989,1,0,0:0:0:0:
256,192,69322,1,0,0:0:0:0:
109,192,69322,1,0,0:0:0:0:
402,192,69322,1,0,0:0:0:0:
475,192,69322,1,0,0:0:0:0:
475,192,69655,1,0,0:0:0:0:
256,192,69655,1,0,0:0:0:0:
36,192,69655,1,0,0:0:0:0:
402,192,69821,1,0,0:0:0:0:
182,192,69821,1,0,0:0:0:0:
329,192,69988,1,0,0:0:0:0:
109,192,69988,1,0,0:0:0:0:
402,192,70154,1,0,0:0:0:0:
182,192,70154,1,0,0:0:0:0:
475,192,70321,1,0,0:0:0:0:
256,192,70321,1,0,0:0:0:0:
36,192,70321,1,0,0:0:0:0:
109,192,70487,1,0,0:0:0:0:
402,192,70487,1,0,0:0:0:0:
329,192,70654,1,0,0:0:0:0:
36,192,70654,1,0,0:0:0:0:
182,192,70654,1,0,0:0:0:0:
475,192,70654,1,0,0:0:0:0:
36,192,70987,1,0,0:0:0:0:
475,192,71153,1,0,0:0:0:0:
329,192,71153,1,0,0:0:0:0:
475,192,71320,1,0,0:0:0:0:
329,192,71320,1,0,0:0:0:0:
36,192,71653,1,0,0:0:0:0:
475,192,71986,1,0,0:0:0:0:
109,192,71986,1,0,0:0:0:0:
256,192,71986,1,0,0:0:0:0:
402,192,71986,1,0,0:0:0:0:
36,192,72319,1,0,0:0:0:0:
329,192,72985,1,0,0:0:0:0:
475,192,72985,1,0,0:0:0:0:
36,192,72985,1,0,0:0:0:0:
182,192,72985,1,0,0:0:0:0:
402,192,73151,1,0,0:0:0:0:
256,192,73151,1,0,0:0:0:0:
36,192,73318,1,0,0:0:0:0:
109,192,73318,1,0,0:0:0:0:
475,192,73318,1,0,0:0:0:0:
329,192,73318,1,0,0:0:0:0:
182,192,73318,1,0,0:0:0:0:
36,192,73651,1,0,0:0:0:0:
475,192,73817,1,0,0:0:0:0:
329,192,73817,1,0,0:0:0:0:
109,192,73984,1,0,0:0:0:0:
256,192,73984,1,0,0:0:0:0:
36,192,74316,1,0,0:0:0:0:
402,192,74649,1,0,0:0:0:0:
475,192,74649,1,0,0:0:0:0:
109,192,74649,1,0,0:0:0:0:
256,192,74649,1,0,0:0:0:0:
329,192,74982,1,0,0:0:0:0:
182,192,74982,1,0,0:0:0:0:
36,192,74982,1,0,0:0:0:0:
402,192,75149,1,0,0:0:0:0:
256,192,75149,1,0,0:0:0:0:
109,192,75315,1,0,0:0:0:0:
475,192,75315,1,0,0:0:0:0:
402,192,75482,1,0,0:0:0:0:
182,192,75482,1,0,0:0:0:0:
475,192,75648,1,0,0:0:0:0:
256,192,75648,1,0,0:0:0:0:
36,192,75648,1,0,0:0:0:0:
109,192,75815,1,0,0:0:0:0:
402,192,75815,1,0,0:0:0:0:
475,192,75981,1,0,0:0:0:0:
36,192,75981,1,0,0:0:0:0:
182,192,75981,1,0,0:0:0:0:
329,192,75981,1,0,0:0:0:0:
402,192,76065,1,0,0:0:0:0:
256,192,76065,1,0,0:0:0:0:
475,192,76148,1,0,0:0:0:0:
36,192,76148,1,0,0:0:0:0:
109,192,76148,1,0,0:0:0:0:
329,192,76231,1,0,0:0:0:0:
182,192,76231,1,0,0:0:0:0:
36,192,76314,1,0,0:0:0:0:
402,192,76314,1,0,0:0:0:0:
475,192,76314,1,0,0:0:0:0:
256,192,76398,1,0,0:0:0:0:
109,192,76398,1,0,0:0:0:0:
402,192,76481,1,0,0:0:0:0:
475,192,76481,1,0,0:0:0:0:
36,192,76481,1,0,0:0:0:0:
329,192,76564,1,0,0:0:0:0:
182,192,76564,1,0,0:0:0:0:
475,192,76647,1,0,0:0:0:0:
36,192,76647,1,0,0:0:0:0:
109,192,76647,1,0,0:0:0:0:
402,192,76730,1,0,0:0:0:0:
256,192,76730,1,0,0:0:0:0:
36,192,76814,1,0,0:0:0:0:
109,192,76814,1,0,0:0:0:0:
475,192,76814,1,0,0:0:0:0:
329,192,76897,1,0,0:0:0:0:
182,192,76897,1,0,0:0:0:0:
402,192,76980,1,0,0:0:0:0:
475,192,76980,1,0,0:0:0:0:
36,192,76980,1,0,0:0:0:0:
256,192,77063,1,0,0:0:0:0:
109,192,77063,1,0,0:0:0:0:
402,192,77147,1,0,0:0:0:0:
475,192,77147,1,0,0:0:0:0:
36,192,77147,1,0,0:0:0:0:
329,192,77230,1,0,0:0:0:0:
182,192,77230,1,0,0:0:0:0:
36,192,77313,1,0,0:0:0:0:
109,192,77313,1,0,0:0:0:0:
256,192,77313,1,0,0:0:0:0:
475,192,77396,1,0,0:0:0:0:
402,192,77396,1,0,0:0:0:0:
36,192,77480,1,0,0:0:0:0:
182,192,77480,1,0,0:0:0:0:
329,192,77480,1,0,0:0:0:0:
475,192,77563,1,0,0:0:0:0:
402,192,77563,1,0,0:0:0:0:
36,192,77646,1,0,0:0:0:0:
109,192,77646,1,0,0:0:0:0:
256,192,77646,1,0,0:0:0:0:
329,192,77729,1,0,0:0:0:0:
182,192,77729,1,0,0:0:0:0:
475,192,77813,1,0,0:0:0:0:
402,192,77813,1,0,0:0:0:0:
256,192,77813,1,0,0:0:0:0:
109,192,77896,1,0,0:0:0:0:
36,192,77896,1,0,0:0:0:0:
182,192,77979,1,0,0:0:0:0:
475,192,77979,1,0,0:0:0:0:
329,192,77979,1,0,0:0:0:0:
36,192,78062,1,0,0:0:0:0:
109,192,78062,1,0,0:0:0:0:
475,192,78146,1,0,0:0:0:0:
402,192,78146,1,0,0:0:0:0:
256,192,78146,1,0,0:0:0:0:
182,192,78229,1,0,0:0:0:0:
329,192,78229,1,0,0:0:0:0:
36,192,78312,1,0,0:0:0:0:
475,192,78312,1,0,0:0:0:0:
256,192,78312,1,0,0:0:0:0:
109,192,78312,1,0,0:0:0:0:
182,192,78395,1,0,0:0:0:0:
402,192,78395,1,0,0:0:0:0:
329,192,78395,1,0,0:0:0:0:
36,192,78479,1,0,0:0:0:0:
109,192,78479,1,0,0:0:0:0:
475,192,78479,1,0,0:0:0:0:
182,192,78562,1,0,0:0:0:0:
402,192,78562,1,0,0:0:0:0:
329,192,78562,1,0,0:0:0:0:
36,192,78645,1,0,0:0:0:0:
475,192,78645,1,0,0:0:0:0:
256,192,78645,1,0,0:0:0:0:
109,192,78645,1,0,0:0:0:0:
402,192,78728,1,0,0:0:0:0:
256,192,78811,1,0,0:0:0:0:
182,192,78895,1,0,0:0:0:0:
109,192,78978,1,0,0:0:0:0:
402,192,78978,1,0,0:0:0:0:
329,192,79061,1,0,0:0:0:0:
182,192,79144,1,0,0:0:0:0:
109,192,79228,1,0,0:0:0:0:
475,192,79311,1,0,0:0:0:0:
256,192,79311,1,0,0:0:0:0:
36,192,79311,1,0,0:0:0:0:
109,192,79394,1,0,0:0:0:0:
182,192,79394,1,0,0:0:0:0:
329,192,79394,1,0,0:0:0:0:
402,192,79394,1,0,0:0:0:0:
256,192,79477,1,0,0:0:0:0:
36,192,79477,1,0,0:0:0:0:
475,192,79477,1,0,0:0:0:0:
402,192,79561,1,0,0:0:0:0:
36,192,79644,1,0,0:0:0:0:
182,192,79644,1,0,0:0:0:0:
329,192,79644,1,0,0:0:0:0:
402,192,79727,1,0,0:0:0:0:
256,192,79727,1,0,0:0:0:0:
109,192,79727,1,0,0:0:0:0:
329,192,79810,1,0,0:0:0:0:
475,192,79810,1,0,0:0:0:0:
182,192,79810,1,0,0:0:0:0:
256,192,79894,1,0,0:0:0:0:
402,192,79894,1,0,0:0:0:0:
109,192,79894,1,0,0:0:0:0:
36,192,79977,1,0,0:0:0:0:
329,192,79977,1,0,0:0:0:0:
182,192,79977,1,0,0:0:0:0:
475,192,79977,1,0,0:0:0:0:
402,192,80060,1,0,0:0:0:0:
109,192,80060,1,0,0:0:0:0:
475,192,80143,1,0,0:0:0:0:
256,192,80143,1,0,0:0:0:0:
329,192,80227,1,0,0:0:0:0:
182,192,80227,1,0,0:0:0:0:
256,192,80310,1,0,0:0:0:0:
475,192,80310,1,0,0:0:0:0:
36,192,80310,1,0,0:0:0:0:
109,192,80310,1,0,0:0:0:0:
402,192,80393,1,0,0:0:0:0:
182,192,80393,1,0,0:0:0:0:
329,192,80476,1,0,0:0:0:0:
36,192,80476,1,0,0:0:0:0:
256,192,80560,1,0,0:0:0:0:
109,192,80560,1,0,0:0:0:0:
475,192,80643,1,0,0:0:0:0:
182,192,80643,1,0,0:0:0:0:
36,192,80643,1,0,0:0:0:0:
402,192,80643,1,0,0:0:0:0:
329,192,80726,1,0,0:0:0:0:
256,192,80726,1,0,0:0:0:0:
475,192,80809,1,0,0:0:0:0:
402,192,80809,1,0,0:0:0:0:
36,192,80809,1,0,0:0:0:0:
109,192,80809,1,0,0:0:0:0:
329,192,80893,1,0,0:0:0:0:
182,192,80893,1,0,0:0:0:0:
109,192,80976,1,0,0:0:0:0:
475,192,80976,1,0,0:0:0:0:
256,192,81059,1,0,0:0:0:0:
402,192,81059,1,0,0:0:0:0:
329,192,81142,1,0,0:0:0:0:
36,192,81142,1,0,0:0:0:0:
182,192,81142,1,0,0:0:0:0:
475,192,81142,1,0,0:0:0:0:
109,192,81225,1,0,0:0:0:0:
256,192,81225,1,0,0:0:0:0:
329,192,81309,1,0,0:0:0:0:
36,192,81309,1,0,0:0:0:0:
475,192,81309,1,0,0:0:0:0:
256,192,81392,1,0,0:0:0:0:
109,192,81392,1,0,0:0:0:0:
182,192,81475,1,0,0:0:0:0:
402,192,81475,1,0,0:0:0:0:
36,192,81558,1,0,0:0:0:0:
329,192,81558,1,0,0:0:0:0:
109,192,81642,1,0,0:0:0:0:
402,192,81642,1,0,0:0:0:0:
182,192,81642,1,0,0:0:0:0:
256,192,81642,1,0,0:0:0:0:
475,192,81642,1,0,0:0:0:0:
329,192,81725,1,0,0:0:0:0:
36,192,81725,1,0,0:0:0:0:
475,192,81808,1,0,0:0:0:0:
182,192,81808,1,0,0:0:0:0:
256,192,81891,1,0,0:0:0:0:
402,192,81891,1,0,0:0:0:0:
109,192,81975,1,0,0:0:0:0:
36,192,81975,1,0,0:0:0:0:
329,192,81975,1,0,0:0:0:0:
475,192,82058,1,0,0:0:0:0:
182,192,82058,1,0,0:0:0:0:
402,192,82141,1,0,0:0:0:0:
109,192,82141,1,0,0:0:0:0:
256,192,82141,1,0,0:0:0:0:
36,192,82141,1,0,0:0:0:0:
329,192,82224,1,0,0:0:0:0:
182,192,82224,1,0,0:0:0:0:
36,192,82308,1,0,0:0:0:0:
402,192,82308,1,0,0:0:0:0:
256,192,82308,1,0,0:0:0:0:
475,192,82308,1,0,0:0:0:0:
109,192,82391,1,0,0:0:0:0:
329,192,82391,1,0,0:0:0:0:
402,192,82474,1,0,0:0:0:0:
475,192,82474,1,0,0:0:0:0:
36,192,82474,1,0,0:0:0:0:
182,192,82474,1,0,0:0:0:0:
109,192,82557,1,0,0:0:0:0:
329,192,82557,1,0,0:0:0:0:
256,192,82641,1,0,0:0:0:0:
475,192,82641,1,0,0:0:0:0:
402,192,82641,1,0,0:0:0:0:
36,192,82641,1,0,0:0:0:0:
182,192,82724,1,0,0:0:0:0:
329,192,82724,1,0,0:0:0:0:
475,192,82807,1,0,0:0:0:0:
256,192,82807,1,0,0:0:0:0:
109,192,82807,1,0,0:0:0:0:
36,192,82807,1,0,0:0:0:0:
182,192,82890,1,0,0:0:0:0:
402,192,82890,1,0,0:0:0:0:
475,192,82974,1,0,0:0:0:0:
36,192,82974,1,0,0:0:0:0:
329,192,82974,1,0,0:0:0:0:
256,192,83057,1,0,0:0:0:0:
109,192,83057,1,0,0:0:0:0:
182,192,83140,1,0,0:0:0:0:
36,192,83140,1,0,0:0:0:0:
402,192,83140,1,0,0:0:0:0:
475,192,83140,1,0,0:0:0:0:
256,192,83223,1,0,0:0:0:0:
329,192,83223,1,0,0:0:0:0:
182,192,83306,1,0,0:0:0:0:
475,192,83306,1,0,0:0:0:0:
109,192,83306,1,0,0:0:0:0:
329,192,83390,1,0,0:0:0:0:
402,192,83390,1,0,0:0:0:0:
109,192,83473,1,0,0:0:0:0:
36,192,83473,1,0,0:0:0:0:
256,192,83473,1,0,0:0:0:0:
475,192,83473,1,0,0:0:0:0:
182,192,83556,1,0,0:0:0:0:
329,192,83556,1,0,0:0:0:0:
36,192,83639,1,0,0:0:0:0:
256,192,83639,1,0,0:0:0:0:
475,192,83639,1,0,0:0:0:0:
109,192,83723,1,0,0:0:0:0:
402,192,83723,1,0,0:0:0:0:
182,192,83806,1,0,0:0:0:0:
36,192,83806,1,0,0:0:0:0:
475,192,83806,1,0,0:0:0:0:
329,192,83806,1,0,0:0:0:0:
256,192,83889,1,0,0:0:0:0:
402,192,83889,1,0,0:0:0:0:
109,192,83972,1,0,0:0:0:0:
36,192,83972,1,0,0:0:0:0:
475,192,83972,1,0,0:0:0:0:
329,192,84056,1,0,0:0:0:0:
182,192,84056,1,0,0:0:0:0:
475,192,84139,1,0,0:0:0:0:
36,192,84139,1,0,0:0:0:0:
256,192,84139,1,0,0:0:0:0:
402,192,84139,1,0,0:0:0:0:
329,192,84222,1,0,0:0:0:0:
109,192,84222,1,0,0:0:0:0:
36,192,84305,1,0,0:0:0:0:
475,192,84305,1,0,0:0:0:0:
182,192,84305,1,0,0:0:0:0:
402,192,84389,1,0,0:0:0:0:
256,192,84389,1,0,0:0:0:0:
329,192,84472,1,0,0:0:0:0:
36,192,84472,1,0,0:0:0:0:
182,192,84472,1,0,0:0:0:0:
475,192,84472,1,0,0:0:0:0:
256,192,84555,1,0,0:0:0:0:
109,192,84555,1,0,0:0:0:0:
475,192,84638,1,0,0:0:0:0:
36,192,84638,1,0,0:0:0:0:
329,192,84638,1,0,0:0:0:0:
402,192,84722,1,0,0:0:0:0:
182,192,84722,1,0,0:0:0:0:
329,192,84805,1,0,0:0:0:0:
109,192,84805,1,0,0:0:0:0:
256,192,84888,1,0,0:0:0:0:
475,192,84888,1,0,0:0:0:0:
402,192,84971,1,0,0:0:0:0:
36,192,84971,1,0,0:0:0:0:
182,192,84971,1,0,0:0:0:0:
109,192,85055,1,0,0:0:0:0:
329,192,85055,1,0,0:0:0:0:
402,192,85138,1,0,0:0:0:0:
182,192,85138,1,0,0:0:0:0:
329,192,85221,1,0,0:0:0:0:
109,192,85221,1,0,0:0:0:0:
256,192,85304,1,0,0:0:0:0:
36,192,85304,1,0,0:0:0:0:
475,192,85304,1,0,0:0:0:0:
402,192,85304,1,0,0:0:0:0:
329,192,85388,1,0,0:0:0:0:
109,192,85388,1,0,0:0:0:0:
182,192,85471,1,0,0:0:0:0:
475,192,85471,1,0,0:0:0:0:
256,192,85554,1,0,0:0:0:0:
402,192,85554,1,0,0:0:0:0:
329,192,85637,1,0,0:0:0:0:
475,192,85637,1,0,0:0:0:0:
182,192,85637,1,0,0:0:0:0:
36,192,85637,1,0,0:0:0:0:
109,192,85720,1,0,0:0:0:0:
402,192,85720,1,0,0:0:0:0:
475,192,85804,1,0,0:0:0:0:
182,192,85804,1,0,0:0:0:0:
329,192,85804,1,0,0:0:0:0:
36,192,85804,1,0,0:0:0:0:
256,192,85887,1,0,0:0:0:0:
109,192,85887,1,0,0:0:0:0:
36,192,85970,1,0,0:0:0:0:
475,192,85970,1,0,0:0:0:0:
329,192,85970,1,0,0:0:0:0:
402,192,86053,1,0,0:0:0:0:
182,192,86053,1,0,0:0:0:0:
256,192,86137,1,0,0:0:0:0:
475,192,86137,1,0,0:0:0:0:
109,192,86137,1,0,0:0:0:0:
36,192,86137,1,0,0:0:0:0:
182,192,86220,1,0,0:0:0:0:
329,192,86220,1,0,0:0:0:0:
256,192,86303,1,0,0:0:0:0:
402,192,86303,1,0,0:0:0:0:
36,192,86303,1,0,0:0:0:0:
182,192,86386,1,0,0:0:0:0:
329,192,86386,1,0,0:0:0:0:
36,192,86470,1,0,0:0:0:0:
475,192,86470,1,0,0:0:0:0:
402,192,86470,1,0,0:0:0:0:
109,192,86470,1,0,0:0:0:0:
329,192,86553,1,0,0:0:0:0:
182,192,86553,1,0,0:0:0:0:
36,192,86636,1,0,0:0:0:0:
256,192,86636,1,0,0:0:0:0:
475,192,86636,1,0,0:0:0:0:
402,192,86719,1,0,0:0:0:0:
109,192,86719,1,0,0:0:0:0:
329,192,86803,1,0,0:0:0:0:
182,192,86803,1,0,0:0:0:0:
109,192,86886,1,0,0:0:0:0:
256,192,86886,1,0,0:0:0:0:
36,192,86969,1,0,0:0:0:0:
475,192,86969,1,0,0:0:0:0:
182,192,86969,1,0,0:0:0:0:
402,192,86969,1,0,0:0:0:0:
329,192,86969,1,0,0:0:0:0:
109,192,87052,1,0,0:0:0:0:
256,192,87052,1,0,0:0:0:0:
182,192,87136,1,0,0:0:0:0:
329,192,87136,1,0,0:0:0:0:
402,192,87219,1,0,0:0:0:0:
256,192,87219,1,0,0:0:0:0:
182,192,87302,1,0,0:0:0:0:
475,192,87302,1,0,0:0:0:0:
36,192,87302,1,0,0:0:0:0:
256,192,87385,1,0,0:0:0:0:
402,192,87385,1,0,0:0:0:0:
109,192,87469,1,0,0:0:0:0:
329,192,87469,1,0,0:0:0:0:
475,192,87552,1,0,0:0:0:0:
182,192,87552,1,0,0:0:0:0:
256,192,87635,1,0,0:0:0:0:
402,192,87635,1,0,0:0:0:0:
36,192,87635,1,0,0:0:0:0:
329,192,87718,1,0,0:0:0:0:
182,192,87718,1,0,0:0:0:0:
36,192,87801,1,0,0:0:0:0:
475,192,87801,1,0,0:0:0:0:
402,192,87801,1,0,0:0:0:0:
109,192,87801,1,0,0:0:0:0:
329,192,87885,1,0,0:0:0:0:
182,192,87885,1,0,0:0:0:0:
475,192,87968,1,0,0:0:0:0:
36,192,87968,1,0,0:0:0:0:
402,192,87968,1,0,0:0:0:0:
256,192,87968,1,0,0:0:0:0:
329,192,88051,1,0,0:0:0:0:
109,192,88051,1,0,0:0:0:0:
182,192,88134,1,0,0:0:0:0:
475,192,88134,1,0,0:0:0:0:
402,192,88218,1,0,0:0:0:0:
109,192,88218,1,0,0:0:0:0:
329,192,88301,1,0,0:0:0:0:
475,192,88301,1,0,0:0:0:0:
182,192,88301,1,0,0:0:0:0:
36,192,88301,1,0,0:0:0:0:
256,192,88384,1,0,0:0:0:0:
402,192,88384,1,0,0:0:0:0:
109,192,88467,1,0,0:0:0:0:
329,192,88467,1,0,0:0:0:0:
402,192,88551,1,0,0:0:0:0:
182,192,88551,1,0,0:0:0:0:
256,192,88634,1,0,0:0:0:0:
475,192,88634,1,0,0:0:0:0:
36,192,88634,1,0,0:0:0:0:
109,192,88634,1,0,0:0:0:0:
402,192,88717,1,0,0:0:0:0:
182,192,88717,1,0,0:0:0:0:
36,192,88800,1,0,0:0:0:0:
256,192,88800,1,0,0:0:0:0:
109,192,88884,1,0,0:0:0:0:
329,192,88884,1,0,0:0:0:0:
36,192,88967,1,0,0:0:0:0:
182,192,88967,1,0,0:0:0:0:
402,192,88967,1,0,0:0:0:0:
475,192,88967,1,0,0:0:0:0:
329,192,89050,1,0,0:0:0:0:
256,192,89050,1,0,0:0:0:0:
36,192,89133,1,0,0:0:0:0:
182,192,89133,1,0,0:0:0:0:
402,192,89133,1,0,0:0:0:0:
475,192,89133,1,0,0:0:0:0:
329,192,89217,1,0,0:0:0:0:
109,192,89217,1,0,0:0:0:0:
402,192,89300,1,0,0:0:0:0:
475,192,89300,1,0,0:0:0:0:
36,192,89300,1,0,0:0:0:0:
256,192,89300,1,0,0:0:0:0:
329,192,89383,1,0,0:0:0:0:
182,192,89383,1,0,0:0:0:0:
402,192,89466,1,0,0:0:0:0:
109,192,89466,1,0,0:0:0:0:
329,192,89550,1,0,0:0:0:0:
182,192,89550,1,0,0:0:0:0:
36,192,89633,1,0,0:0:0:0:
256,192,89633,1,0,0:0:0:0:
475,192,89633,1,0,0:0:0:0:
402,192,89633,1,0,0:0:0:0:
329,192,89716,1,0,0:0:0:0:
109,192,89716,1,0,0:0:0:0:
475,192,89799,1,0,0:0:0:0:
182,192,89799,1,0,0:0:0:0:
36,192,89799,1,0,0:0:0:0:
402,192,89799,1,0,0:0:0:0:
256,192,89883,1,0,0:0:0:0:
109,192,89883,1,0,0:0:0:0:
475,192,89966,1,0,0:0:0:0:
182,192,89966,1,0,0:0:0:0:
329,192,89966,1,0,0:0:0:0:
256,192,90049,1,0,0:0:0:0:
402,192,90049,1,0,0:0:0:0:
329,192,90132,1,0,0:0:0:0:
36,192,90132,1,0,0:0:0:0:
475,192,90132,1,0,0:0:0:0:
182,192,90132,1,0,0:0:0:0:
256,192,90215,1,0,0:0:0:0:
109,192,90215,1,0,0:0:0:0:
402,192,90299,1,0,0:0:0:0:
36,192,90299,1,0,0:0:0:0:
329,192,90382,1,0,0:0:0:0:
182,192,90382,1,0,0:0:0:0:
36,192,90465,1,0,0:0:0:0:
475,192,90465,1,0,0:0:0:0:
109,192,90465,1,0,0:0:0:0:
402,192,90465,1,0,0:0:0:0:
329,192,90548,1,0,0:0:0:0:
182,192,90548,1,0,0:0:0:0:
475,192,90632,1,0,0:0:0:0:
36,192,90632,1,0,0:0:0:0:
109,192,90632,1,0,0:0:0:0:
256,192,90632,1,0,0:0:0:0:
402,192,90715,1,0,0:0:0:0:
329,192,90715,1,0,0:0:0:0:
182,192,90798,1,0,0:0:0:0:
109,192,90798,1,0,0:0:0:0:
256,192,90881,1,0,0:0:0:0:
329,192,90881,1,0,0:0:0:0:
36,192,90965,1,0,0:0:0:0:
182,192,90965,1,0,0:0:0:0:
475,192,90965,1,0,0:0:0:0:
402,192,90965,1,0,0:0:0:0:
329,192,91048,1,0,0:0:0:0:
109,192,91048,1,0,0:0:0:0:
36,192,91131,1,0,0:0:0:0:
256,192,91131,1,0,0:0:0:0:
329,192,91214,1,0,0:0:0:0:
182,192,91214,1,0,0:0:0:0:
475,192,91298,1,0,0:0:0:0:
36,192,91298,1,0,0:0:0:0:
402,192,91298,1,0,0:0:0:0:
109,192,91298,1,0,0:0:0:0:
329,192,91381,1,0,0:0:0:0:
182,192,91381,1,0,0:0:0:0:
475,192,91464,1,0,0:0:0:0:
402,192,91464,1,0,0:0:0:0:
36,192,91464,1,0,0:0:0:0:
256,192,91464,1,0,0:0:0:0:
329,192,91547,1,0,0:0:0:0:
109,192,91547,1,0,0:0:0:0:
182,192,91631,1,0,0:0:0:0:
402,192,91631,1,0,0:0:0:0:
329,192,91714,1,0,0:0:0:0:
109,192,91714,1,0,0:0:0:0:
256,192,91797,1,0,0:0:0:0:
36,192,91797,1,0,0:0:0:0:
475,192,91797,1,0,0:0:0:0:
402,192,91797,1,0,0:0:0:0:
109,192,91880,1,0,0:0:0:0:
329,192,91880,1,0,0:0:0:0:
475,192,91964,1,0,0:0:0:0:
36,192,91964,1,0,0:0:0:0:
182,192,91964,1,0,0:0:0:0:
402,192,92047,1,0,0:0:0:0:
256,192,92047,1,0,0:0:0:0:
109,192,92130,1,0,0:0:0:0:
475,192,92130,1,0,0:0:0:0:
182,192,92213,1,0,0:0:0:0:
329,192,92213,1,0,0:0:0:0:
36,192,92297,1,0,0:0:0:0:
402,192,92297,1,0,0:0:0:0:
109,192,92297,1,0,0:0:0:0:
256,192,92297,1,0,0:0:0:0:
475,192,92297,1,0,0:0:0:0:
329,192,92380,1,0,0:0:0:0:
182,192,92380,1,0,0:0:0:0:
475,192,92463,1,0,0:0:0:0:
109,192,92463,1,0,0:0:0:0:
256,192,92546,1,0,0:0:0:0:
402,192,92546,1,0,0:0:0:0:
182,192,92629,1,0,0:0:0:0:
36,192,92629,1,0,0:0:0:0:
329,192,92629,1,0,0:0:0:0:
402,192,92713,1,0,0:0:0:0:
109,192,92713,1,0,0:0:0:0:
475,192,92796,1,0,0:0:0:0:
182,192,92796,1,0,0:0:0:0:
329,192,92796,1,0,0:0:0:0:
36,192,92796,1,0,0:0:0:0:
256,192,92879,1,0,0:0:0:0:
402,192,92879,1,0,0:0:0:0:
36,192,92962,1,0,0:0:0:0:
475,192,92962,1,0,0:0:0:0:
329,192,92962,1,0,0:0:0:0:
109,192,92962,1,0,0:0:0:0:
256,192,93046,1,0,0:0:0:0:
402,192,93046,1,0,0:0:0:0:
329,192,93129,1,0,0:0:0:0:
475,192,93129,1,0,0:0:0:0:
36,192,93129,1,0,0:0:0:0:
182,192,93129,1,0,0:0:0:0:
109,192,93212,1,0,0:0:0:0:
402,192,93212,1,0,0:0:0:0:
182,192,93295,1,0,0:0:0:0:
475,192,93295,1,0,0:0:0:0:
329,192,93295,1,0,0:0:0:0:
36,192,93295,1,0,0:0:0:0:
256,192,93379,1,0,0:0:0:0:
402,192,93379,1,0,0:0:0:0:
475,192,93462,1,0,0:0:0:0:
109,192,93462,1,0,0:0:0:0:
182,192,93462,1,0,0:0:0:0:
36,192,93462,1,0,0:0:0:0:
329,192,93545,1,0,0:0:0:0:
402,192,93545,1,0,0:0:0:0:
475,192,93628,1,0,0:0:0:0:
109,192,93628,1,0,0:0:0:0:
256,192,93628,1,0,0:0:0:0:
329,192,93712,1,0,0:0:0:0:
182,192,93712,1,0,0:0:0:0:
256,192,93795,1,0,0:0:0:0:
36,192,93795,1,0,0:0:0:0:
109,192,93795,1,0,0:0:0:0:
475,192,93795,1,0,0:0:0:0:
402,192,93878,1,0,0:0:0:0:
182,192,93878,1,0,0:0:0:0:
36,192,93961,1,0,0:0:0:0:
475,192,93961,1,0,0:0:0:0:
329,192,93961,1,0,0:0:0:0:
109,192,94045,1,0,0:0:0:0:
256,192,94045,1,0,0:0:0:0:
182,192,94128,1,0,0:0:0:0:
36,192,94128,1,0,0:0:0:0:
329,192,94128,1,0,0:0:0:0:
475,192,94128,1,0,0:0:0:0:
256,192,94211,1,0,0:0:0:0:
402,192,94211,1,0,0:0:0:0:
475,192,94294,1,0,0:0:0:0:
109,192,94294,1,0,0:0:0:0:
329,192,94294,1,0,0:0:0:0:
182,192,94378,1,0,0:0:0:0:
402,192,94378,1,0,0:0:0:0:
109,192,94461,1,0,0:0:0:0:
36,192,94461,1,0,0:0:0:0:
475,192,94461,1,0,0:0:0:0:
256,192,94461,1,0,0:0:0:0:
182,192,94544,1,0,0:0:0:0:
329,192,94544,1,0,0:0:0:0:
256,192,94627,1,0,0:0:0:0:
36,192,94627,1,0,0:0:0:0:
402,192,94627,1,0,0:0:0:0:
329,192,94710,1,0,0:0:0:0:
182,192,94710,1,0,0:0:0:0:
475,192,94794,1,0,0:0:0:0:
36,192,94794,1,0,0:0:0:0:
109,192,94794,1,0,0:0:0:0:
402,192,94794,1,0,0:0:0:0:
329,192,94877,1,0,0:0:0:0:
182,192,94877,1,0,0:0:0:0:
36,192,94960,1,0,0:0:0:0:
475,192,94960,1,0,0:0:0:0:
256,192,94960,1,0,0:0:0:0:
402,192,95043,1,0,0:0:0:0:
109,192,95043,1,0,0:0:0:0:
182,192,95127,1,0,0:0:0:0:
36,192,95127,1,0,0:0:0:0:
475,192,95127,1,0,0:0:0:0:
329,192,95127,1,0,0:0:0:0:
256,192,95210,1,0,0:0:0:0:
109,192,95210,1,0,0:0:0:0:
475,192,95293,1,0,0:0:0:0:
36,192,95293,1,0,0:0:0:0:
329,192,95293,1,0,0:0:0:0:
402,192,95376,1,0,0:0:0:0:
182,192,95376,1,0,0:0:0:0:
329,192,95460,1,0,0:0:0:0:
109,192,95460,1,0,0:0:0:0:
182,192,95543,1,0,0:0:0:0:
402,192,95543,1,0,0:0:0:0:
475,192,95626,1,0,0:0:0:0:
36,192,95626,1,0,0:0:0:0:
256,192,95626,1,0,0:0:0:0:
109,192,95709,1,0,0:0:0:0:
402,192,95709,1,0,0:0:0:0:
329,192,95793,1,0,0:0:0:0:
182,192,95793,1,0,0:0:0:0:
256,192,95876,1,0,0:0:0:0:
109,192,95876,1,0,0:0:0:0:
329,192,95959,1,0,0:0:0:0:
36,192,95959,1,0,0:0:0:0:
475,192,95959,1,0,0:0:0:0:
402,192,95959,1,0,0:0:0:0:
109,192,96042,1,0,0:0:0:0:
256,192,96042,1,0,0:0:0:0:
182,192,96126,1,0,0:0:0:0:
329,192,96126,1,0,0:0:0:0:
256,192,96209,1,0,0:0:0:0:
402,192,96209,1,0,0:0:0:0:
475,192,96292,1,0,0:0:0:0:
329,192,96292,1,0,0:0:0:0:
109,192,96292,1,0,0:0:0:0:
36,192,96292,1,0,0:0:0:0:
402,192,96375,1,0,0:0:0:0:
182,192,96375,1,0,0:0:0:0:
109,192,96459,1,0,0:0:0:0:
256,192,96459,1,0,0:0:0:0:
475,192,96459,1,0,0:0:0:0:
36,192,96459,1,0,0:0:0:0:
329,192,96542,1,0,0:0:0:0:
182,192,96542,1,0,0:0:0:0:
402,192,96625,1,0,0:0:0:0:
475,192,96625,1,0,0:0:0:0:
36,192,96625,1,0,0:0:0:0:
256,192,96708,1,0,0:0:0:0:
109,192,96708,1,0,0:0:0:0:
329,192,96792,1,0,0:0:0:0:
475,192,96792,1,0,0:0:0:0:
182,192,96792,1,0,0:0:0:0:
36,192,96792,1,0,0:0:0:0:
256,192,96875,1,0,0:0:0:0:
402,192,96875,1,0,0:0:0:0:
182,192,96958,1,0,0:0:0:0:
329,192,96958,1,0,0:0:0:0:
36,192,96958,1,0,0:0:0:0:
109,192,97041,1,0,0:0:0:0:
475,192,97041,1,0,0:0:0:0:
36,192,97124,1,0,0:0:0:0:
402,192,97124,1,0,0:0:0:0:
256,192,97124,1,0,0:0:0:0:
329,192,97124,1,0,0:0:0:0:
475,192,97208,1,0,0:0:0:0:
109,192,97208,1,0,0:0:0:0:
36,192,97291,1,0,0:0:0:0:
256,192,97291,1,0,0:0:0:0:
402,192,97291,1,0,0:0:0:0:
329,192,97374,1,0,0:0:0:0:
182,192,97374,1,0,0:0:0:0:
475,192,97457,1,0,0:0:0:0:
109,192,97457,1,0,0:0:0:0:
256,192,97541,1,0,0:0:0:0:
402,192,97541,1,0,0:0:0:0:
36,192,97624,1,0,0:0:0:0:
475,192,97624,1,0,0:0:0:0:
109,192,97624,1,0,0:0:0:0:
329,192,97624,1,0,0:0:0:0:
182,192,97624,1,0,0:0:0:0:
256,192,97707,1,0,0:0:0:0:
402,192,97707,1,0,0:0:0:0:
109,192,97790,1,0,0:0:0:0:
475,192,97790,1,0,0:0:0:0:
329,192,97874,1,0,0:0:0:0:
182,192,97874,1,0,0:0:0:0:
256,192,97957,1,0,0:0:0:0:
402,192,97957,1,0,0:0:0:0:
36,192,97957,1,0,0:0:0:0:
109,192,98040,1,0,0:0:0:0:
475,192,98040,1,0,0:0:0:0:
182,192,98123,1,0,0:0:0:0:
402,192,98123,1,0,0:0:0:0:
329,192,98207,1,0,0:0:0:0:
109,192,98207,1,0,0:0:0:0:
256,192,98290,1,0,0:0:0:0:
475,192,98290,1,0,0:0:0:0:
36,192,98290,1,0,0:0:0:0:
329,192,98373,1,0,0:0:0:0:
182,192,98373,1,0,0:0:0:0:
109,192,98456,1,0,0:0:0:0:
402,192,98456,1,0,0:0:0:0:
329,192,98540,1,0,0:0:0:0:
182,192,98540,1,0,0:0:0:0:
475,192,98623,1,0,0:0:0:0:
36,192,98623,1,0,0:0:0:0:
256,192,98623,1,0,0:0:0:0:
402,192,98623,1,0,0:0:0:0:
182,192,98706,1,0,0:0:0:0:
329,192,98706,1,0,0:0:0:0:
109,192,98706,1,0,0:0:0:0:
475,192,98789,1,0,0:0:0:0:
256,192,98789,1,0,0:0:0:0:
36,192,98789,1,0,0:0:0:0:
329,192,98873,1,0,0:0:0:0:
402,192,98873,1,0,0:0:0:0:
182,192,98873,1,0,0:0:0:0:
109,192,98956,1,0,0:0:0:0:
256,192,98956,1,0,0:0:0:0:
475,192,98956,1,0,0:0:0:0:
36,192,99039,1,0,0:0:0:0:
182,192,99039,1,0,0:0:0:0:
402,192,99039,1,0,0:0:0:0:
475,192,99122,1,0,0:0:0:0:
109,192,99122,1,0,0:0:0:0:
329,192,99122,1,0,0:0:0:0:
36,192,99205,1,0,0:0:0:0:
402,192,99205,1,0,0:0:0:0:
256,192,99205,1,0,0:0:0:0:
475,192,99289,1,0,0:0:0:0:
329,192,99289,1,0,0:0:0:0:
182,192,99289,1,0,0:0:0:0:
256,192,99372,1,0,0:0:0:0:
109,192,99372,1,0,0:0:0:0:
402,192,99372,1,0,0:0:0:0:
182,192,99455,1,0,0:0:0:0:
329,192,99455,1,0,0:0:0:0:
36,192,99455,1,0,0:0:0:0:
402,192,99538,1,0,0:0:0:0:
256,192,99538,1,0,0:0:0:0:
109,192,99538,1,0,0:0:0:0:
36,192,99622,1,0,0:0:0:0:
475,192,99622,1,0,0:0:0:0:
329,192,99622,1,0,0:0:0:0:
109,192,99705,1,0,0:0:0:0:
402,192,99705,1,0,0:0:0:0:
182,192,99705,1,0,0:0:0:0:
36,192,99788,1,0,0:0:0:0:
475,192,99788,1,0,0:0:0:0:
256,192,99788,1,0,0:0:0:0:
182,192,99871,1,0,0:0:0:0:
402,192,99871,1,0,0:0:0:0:
329,192,99871,1,0,0:0:0:0:
36,192,99955,1,0,0:0:0:0:
256,192,99955,1,0,0:0:0:0:
109,192,99955,1,0,0:0:0:0:
475,192,99955,1,0,0:0:0:0:
329,192,100038,1,0,0:0:0:0:
402,192,100038,1,0,0:0:0:0:
182,192,100038,1,0,0:0:0:0:
36,192,100121,1,0,0:0:0:0:
475,192,100121,1,0,0:0:0:0:
256,192,100121,1,0,0:0:0:0:
402,192,100204,1,0,0:0:0:0:
182,192,100204,1,0,0:0:0:0:
109,192,100204,1,0,0:0:0:0:
329,192,100288,1,0,0:0:0:0:
36,192,100288,1,0,0:0:0:0:
475,192,100288,1,0,0:0:0:0:
109,192,100371,1,0,0:0:0:0:
256,192,100371,1,0,0:0:0:0:
402,192,100371,1,0,0:0:0:0:
329,192,100454,1,0,0:0:0:0:
182,192,100454,1,0,0:0:0:0:
36,192,100454,1,0,0:0:0:0:
475,192,100537,1,0,0:0:0:0:
402,192,100537,1,0,0:0:0:0:
256,192,100537,1,0,0:0:0:0:
109,192,100621,1,0,0:0:0:0:
36,192,100621,1,0,0:0:0:0:
329,192,100621,1,0,0:0:0:0:
402,192,100704,1,0,0:0:0:0:
182,192,100704,1,0,0:0:0:0:
475,192,100704,1,0,0:0:0:0:
109,192,100787,1,0,0:0:0:0:
36,192,100787,1,0,0:0:0:0:
256,192,100787,1,0,0:0:0:0:
329,192,100870,1,0,0:0:0:0:
475,192,100870,1,0,0:0:0:0:
182,192,100870,1,0,0:0:0:0:
402,192,100954,1,0,0:0:0:0:
109,192,100954,1,0,0:0:0:0:
36,192,100954,1,0,0:0:0:0:
256,192,100954,1,0,0:0:0:0:
329,192,101037,1,0,0:0:0:0:
182,192,101037,1,0,0:0:0:0:
109,192,101120,1,0,0:0:0:0:
256,192,101120,1,0,0:0:0:0:
475,192,101120,1,0,0:0:0:0:
36,192,101120,1,0,0:0:0:0:
402,192,101120,1,0,0:0:0:0:
329,192,101203,1,0,0:0:0:0:
182,192,101203,1,0,0:0:0:0:
256,192,101287,1,0,0:0:0:0:
475,192,101287,1,0,0:0:0:0:
36,192,101287,1,0,0:0:0:0:
329,192,101370,1,0,0:0:0:0:
109,192,101370,1,0,0:0:0:0:
182,192,101370,1,0,0:0:0:0:
402,192,101370,1,0,0:0:0:0:
329,192,101619,1,0,0:0:0:0:
182,192,101619,1,0,0:0:0:0:
36,192,101619,1,0,0:0:0:0:
402,192,101703,1,0,0:0:0:0:
475,192,101703,1,0,0:0:0:0:
256,192,101703,1,0,0:0:0:0:
36,192,101786,1,0,0:0:0:0:
182,192,101786,1,0,0:0:0:0:
329,192,101786,1,0,0:0:0:0:
475,192,101869,1,0,0:0:0:0:
402,192,101869,1,0,0:0:0:0:
256,192,101869,1,0,0:0:0:0:
109,192,102036,1,0,0:0:0:0:
36,192,102036,1,0,0:0:0:0:
329,192,102036,1,0,0:0:0:0:
182,192,102119,1,0,0:0:0:0:
475,192,102119,1,0,0:0:0:0:
109,192,102202,1,0,0:0:0:0:
36,192,102202,1,0,0:0:0:0:
329,192,102202,1,0,0:0:0:0:
182,192,102285,1,0,0:0:0:0:
475,192,102285,1,0,0:0:0:0:
109,192,102369,1,0,0:0:0:0:
329,192,102369,1,0,0:0:0:0:
36,192,102369,1,0,0:0:0:0:
182,192,102452,1,0,0:0:0:0:
475,192,102452,1,0,0:0:0:0:
109,192,102535,1,0,0:0:0:0:
36,192,102535,1,0,0:0:0:0:
329,192,102535,1,0,0:0:0:0:
256,192,102618,1,0,0:0:0:0:
402,192,102618,1,0,0:0:0:0:
475,192,102618,1,0,0:0:0:0:
329,192,102702,1,0,0:0:0:0:
36,192,102702,1,0,0:0:0:0:
182,192,102702,1,0,0:0:0:0:
475,192,102785,1,0,0:0:0:0:
256,192,102785,1,0,0:0:0:0:
109,192,102785,1,0,0:0:0:0:
36,192,102868,1,0,0:0:0:0:
402,192,102868,1,0,0:0:0:0:
182,192,102868,1,0,0:0:0:0:
475,192,102951,1,0,0:0:0:0:
329,192,102951,1,0,0:0:0:0:
109,192,102951,1,0,0:0:0:0:
256,192,103035,1,0,0:0:0:0:
402,192,103118,1,0,0:0:0:0:
36,192,103118,1,0,0:0:0:0:
182,192,103118,1,0,0:0:0:0:
475,192,103118,1,0,0:0:0:0:
329,192,103201,1,0,0:0:0:0:
256,192,103284,1,0,0:0:0:0:
475,192,103284,1,0,0:0:0:0:
402,192,103284,1,0,0:0:0:0:
109,192,103284,1,0,0:0:0:0:
36,192,103284,1,0,0:0:0:0:
182,192,103368,1,0,0:0:0:0:
36,192,103451,1,0,0:0:0:0:
329,192,103451,1,0,0:0:0:0:
475,192,103451,1,0,0:0:0:0:
109,192,103451,1,0,0:0:0:0:
256,192,103534,1,0,0:0:0:0:
36,192,103617,1,0,0:0:0:0:
402,192,103617,1,0,0:0:0:0:
475,192,103617,1,0,0:0:0:0:
182,192,103617,1,0,0:0:0:0:
256,192,103700,1,0,0:0:0:0:
329,192,103700,1,0,0:0:0:0:
109,192,103700,1,0,0:0:0:0:
402,192,103784,1,0,0:0:0:0:
36,192,103784,1,0,0:0:0:0:
475,192,103784,1,0,0:0:0:0:
329,192,103867,1,0,0:0:0:0:
182,192,103867,1,0,0:0:0:0:
109,192,103867,1,0,0:0:0:0:
475,192,103950,1,0,0:0:0:0:
402,192,103950,1,0,0:0:0:0:
256,192,103950,1,0,0:0:0:0:
36,192,103950,1,0,0:0:0:0:
329,192,104033,1,0,0:0:0:0:
109,192,104033,1,0,0:0:0:0:
36,192,104117,1,0,0:0:0:0:
182,192,104117,1,0,0:0:0:0:
475,192,104117,1,0,0:0:0:0:
402,192,104200,1,0,0:0:0:0:
256,192,104200,1,0,0:0:0:0:
329,192,104283,1,0,0:0:0:0:
182,192,104283,1,0,0:0:0:0:
36,192,104283,1,0,0:0:0:0:
475,192,104283,1,0,0:0:0:0:
256,192,104366,1,0,0:0:0:0:
109,192,104366,1,0,0:0:0:0:
475,192,104450,1,0,0:0:0:0:
402,192,104450,1,0,0:0:0:0:
36,192,104450,1,0,0:0:0:0:
329,192,104533,1,0,0:0:0:0:
182,192,104533,1,0,0:0:0:0:
36,192,104616,1,0,0:0:0:0:
402,192,104616,1,0,0:0:0:0:
475,192,104616,1,0,0:0:0:0:
109,192,104616,1,0,0:0:0:0:
256,192,104616,1,0,0:0:0:0:
182,192,104699,1,0,0:0:0:0:
329,192,104783,1,0,0:0:0:0:
109,192,104783,1,0,0:0:0:0:
402,192,104783,1,0,0:0:0:0:
475,192,104783,1,0,0:0:0:0:
256,192,104866,1,0,0:0:0:0:
182,192,104949,1,0,0:0:0:0:
109,192,104949,1,0,0:0:0:0:
36,192,104949,1,0,0:0:0:0:
475,192,104949,1,0,0:0:0:0:
402,192,104949,1,0,0:0:0:0:
329,192,105032,1,0,0:0:0:0:
109,192,105116,1,0,0:0:0:0:
475,192,105116,1,0,0:0:0:0:
256,192,105116,1,0,0:0:0:0:
36,192,105116,1,0,0:0:0:0:
402,192,105199,1,0,0:0:0:0:
475,192,105282,1,0,0:0:0:0:
36,192,105282,1,0,0:0:0:0:
329,192,105282,1,0,0:0:0:0:
182,192,105282,1,0,0:0:0:0:
402,192,105365,1,0,0:0:0:0:
109,192,105365,1,0,0:0:0:0:
256,192,105365,1,0,0:0:0:0:
182,192,105449,1,0,0:0:0:0:
329,192,105449,1,0,0:0:0:0:
475,192,105532,1,0,0:0:0:0:
256,192,105532,1,0,0:0:0:0:
36,192,105532,1,0,0:0:0:0:
182,192,105615,1,0,0:0:0:0:
329,192,105615,1,0,0:0:0:0:
402,192,105615,1,0,0:0:0:0:
109,192,105615,1,0,0:0:0:0:
256,192,105698,1,0,0:0:0:0:
475,192,105782,1,0,0:0:0:0:
36,192,105782,1,0,0:0:0:0:
402,192,105782,1,0,0:0:0:0:
182,192,105782,1,0,0:0:0:0:
329,192,105865,1,0,0:0:0:0:
36,192,105948,1,0,0:0:0:0:
475,192,105948,1,0,0:0:0:0:
256,192,105948,1,0,0:0:0:0:
109,192,105948,1,0,0:0:0:0:
402,192,105948,1,0,0:0:0:0:
182,192,106031,1,0,0:0:0:0:
475,192,106114,1,0,0:0:0:0:
329,192,106114,1,0,0:0:0:0:
402,192,106114,1,0,0:0:0:0:
109,192,106114,1,0,0:0:0:0:
36,192,106114,1,0,0:0:0:0:
256,192,106198,1,0,0:0:0:0:
329,192,106281,1,0,0:0:0:0:
402,192,106281,1,0,0:0:0:0:
36,192,106281,1,0,0:0:0:0:
182,192,106281,1,0,0:0:0:0:
109,192,106281,1,0,0:0:0:0:
475,192,106364,1,0,0:0:0:0:
109,192,106447,1,0,0:0:0:0:
36,192,106447,1,0,0:0:0:0:
256,192,106447,1,0,0:0:0:0:
329,192,106447,1,0,0:0:0:0:
402,192,106447,1,0,0:0:0:0:
182,192,106531,1,0,0:0:0:0:
475,192,106614,1,0,0:0:0:0:
109,192,106614,1,0,0:0:0:0:
402,192,106614,1,0,0:0:0:0:
256,192,106614,1,0,0:0:0:0:
36,192,106614,1,0,0:0:0:0:
182,192,106697,1,0,0:0:0:0:
329,192,106697,1,0,0:0:0:0:
475,192,106780,1,0,0:0:0:0:
256,192,106780,1,0,0:0:0:0:
402,192,106780,1,0,0:0:0:0:
36,192,106780,1,0,0:0:0:0:
109,192,106864,1,0,0:0:0:0:
329,192,106947,1,0,0:0:0:0:
475,192,106947,1,0,0:0:0:0:
36,192,106947,1,0,0:0:0:0:
182,192,106947,1,0,0:0:0:0:
256,192,107030,1,0,0:0:0:0:
402,192,107030,1,0,0:0:0:0:
36,192,107113,1,0,0:0:0:0:
329,192,107113,1,0,0:0:0:0:
475,192,107113,1,0,0:0:0:0:
182,192,107113,1,0,0:0:0:0:
109,192,107197,1,0,0:0:0:0:
475,192,107280,1,0,0:0:0:0:
256,192,107280,1,0,0:0:0:0:
402,192,107280,1,0,0:0:0:0:
36,192,107280,1,0,0:0:0:0:
182,192,107363,1,0,0:0:0:0:
329,192,107363,1,0,0:0:0:0:
256,192,107446,1,0,0:0:0:0:
475,192,107446,1,0,0:0:0:0:
109,192,107446,1,0,0:0:0:0:
36,192,107446,1,0,0:0:0:0:
402,192,107530,1,0,0:0:0:0:
329,192,107613,1,0,0:0:0:0:
36,192,107613,1,0,0:0:0:0:
475,192,107613,1,0,0:0:0:0:
182,192,107613,1,0,0:0:0:0:
402,192,107696,1,0,0:0:0:0:
109,192,107696,1,0,0:0:0:0:
256,192,107696,1,0,0:0:0:0:
36,192,107779,1,0,0:0:0:0:
475,192,107779,1,0,0:0:0:0:
329,192,107779,1,0,0:0:0:0:
182,192,107779,1,0,0:0:0:0:
256,192,107946,1,0,0:0:0:0:
402,192,107946,1,0,0:0:0:0:
109,192,107946,1,0,0:0:0:0:
36,192,107946,1,0,0:0:0:0:
182,192,108029,1,0,0:0:0:0:
329,192,108029,1,0,0:0:0:0:
475,192,108029,1,0,0:0:0:0:
256,192,108112,1,0,0:0:0:0:
402,192,108112,1,0,0:0:0:0:
36,192,108112,1,0,0:0:0:0:
182,192,108196,1,0,0:0:0:0:
109,192,108196,1,0,0:0:0:0:
329,192,108196,1,0,0:0:0:0:
256,192,108279,1,0,0:0:0:0:
402,192,108279,1,0,0:0:0:0:
475,192,108279,1,0,0:0:0:0:
36,192,108279,1,0,0:0:0:0:
109,192,108362,1,0,0:0:0:0:
475,192,108445,1,0,0:0:0:0:
402,192,108445,1,0,0:0:0:0:
329,192,108445,1,0,0:0:0:0:
182,192,108445,1,0,0:0:0:0:
256,192,108528,1,0,0:0:0:0:
36,192,108612,1,0,0:0:0:0:
182,192,108612,1,0,0:0:0:0:
109,192,108612,1,0,0:0:0:0:
402,192,108612,1,0,0:0:0:0:
475,192,108612,1,0,0:0:0:0:
329,192,108695,1,0,0:0:0:0:
256,192,108778,1,0,0:0:0:0:
475,192,108778,1,0,0:0:0:0:
109,192,108778,1,0,0:0:0:0:
36,192,108778,1,0,0:0:0:0:
402,192,108861,1,0,0:0:0:0:
182,192,108945,1,0,0:0:0:0:
475,192,108945,1,0,0:0:0:0:
36,192,108945,1,0,0:0:0:0:
329,192,108945,1,0,0:0:0:0:
402,192,109028,1,0,0:0:0:0:
109,192,109028,1,0,0:0:0:0:
256,192,109028,1,0,0:0:0:0:
475,192,109111,1,0,0:0:0:0:
329,192,109111,1,0,0:0:0:0:
182,192,109111,1,0,0:0:0:0:
36,192,109194,1,0,0:0:0:0:
256,192,109194,1,0,0:0:0:0:
109,192,109194,1,0,0:0:0:0:
182,192,109278,1,0,0:0:0:0:
402,192,109278,1,0,0:0:0:0:
475,192,109278,1,0,0:0:0:0:
329,192,109278,1,0,0:0:0:0:
109,192,109361,1,0,0:0:0:0:
256,192,109444,1,0,0:0:0:0:
475,192,109444,1,0,0:0:0:0:
36,192,109444,1,0,0:0:0:0:
402,192,109444,1,0,0:0:0:0:
109,192,109527,1,0,0:0:0:0:
182,192,109611,1,0,0:0:0:0:
329,192,109611,1,0,0:0:0:0:
36,192,109611,1,0,0:0:0:0:
475,192,109611,1,0,0:0:0:0:
402,192,109611,1,0,0:0:0:0:
256,192,109694,1,0,0:0:0:0:
36,192,109777,1,0,0:0:0:0:
402,192,109777,1,0,0:0:0:0:
182,192,109777,1,0,0:0:0:0:
475,192,109777,1,0,0:0:0:0:
329,192,109860,1,0,0:0:0:0:
109,192,109944,1,0,0:0:0:0:
256,192,109944,1,0,0:0:0:0:
475,192,109944,1,0,0:0:0:0:
36,192,109944,1,0,0:0:0:0:
182,192,110027,1,0,0:0:0:0:
402,192,110027,1,0,0:0:0:0:
329,192,110027,1,0,0:0:0:0:
256,192,110110,1,0,0:0:0:0:
36,192,110110,1,0,0:0:0:0:
475,192,110110,1,0,0:0:0:0:
329,192,110193,1,0,0:0:0:0:
182,192,110193,1,0,0:0:0:0:
109,192,110193,1,0,0:0:0:0:
475,192,110277,1,0,0:0:0:0:
256,192,110277,1,0,0:0:0:0:
36,192,110277,1,0,0:0:0:0:
402,192,110277,1,0,0:0:0:0:
109,192,110360,1,0,0:0:0:0:
329,192,110443,1,0,0:0:0:0:
36,192,110443,1,0,0:0:0:0:
182,192,110443,1,0,0:0:0:0:
475,192,110443,1,0,0:0:0:0:
402,192,110526,1,0,0:0:0:0:
256,192,110609,1,0,0:0:0:0:
475,192,110609,1,0,0:0:0:0:
109,192,110609,1,0,0:0:0:0:
36,192,110609,1,0,0:0:0:0:
402,192,110693,1,0,0:0:0:0:
329,192,110693,1,0,0:0:0:0:
182,192,110693,1,0,0:0:0:0:
475,192,110776,1,0,0:0:0:0:
36,192,110776,1,0,0:0:0:0:
256,192,110776,1,0,0:0:0:0:
402,192,110859,1,0,0:0:0:0:
182,192,110859,1,0,0:0:0:0:
109,192,110859,1,0,0:0:0:0:
475,192,110942,1,0,0:0:0:0:
329,192,110942,1,0,0:0:0:0:
36,192,110942,1,0,0:0:0:0:
109,192,111026,1,0,0:0:0:0:
402,192,111026,1,0,0:0:0:0:
256,192,111026,1,0,0:0:0:0:
329,192,111109,1,0,0:0:0:0:
36,192,111109,1,0,0:0:0:0:
182,192,111109,1,0,0:0:0:0:
402,192,111192,1,0,0:0:0:0:
475,192,111192,1,0,0:0:0:0:
256,192,111192,1,0,0:0:0:0:
36,192,111275,1,0,0:0:0:0:
182,192,111275,1,0,0:0:0:0:
329,192,111275,1,0,0:0:0:0:
475,192,111359,1,0,0:0:0:0:
402,192,111359,1,0,0:0:0:0:
109,192,111359,1,0,0:0:0:0:
329,192,111442,1,0,0:0:0:0:
182,192,111442,1,0,0:0:0:0:
36,192,111442,1,0,0:0:0:0:
256,192,111525,1,0,0:0:0:0:
402,192,111525,1,0,0:0:0:0:
109,192,111525,1,0,0:0:0:0:
329,192,111608,1,0,0:0:0:0:
36,192,111608,1,0,0:0:0:0:
475,192,111608,1,0,0:0:0:0:
256,192,111692,1,0,0:0:0:0:
402,192,111692,1,0,0:0:0:0:
182,192,111692,1,0,0:0:0:0:
329,192,111775,1,0,0:0:0:0:
109,192,111775,1,0,0:0:0:0:
36,192,111775,1,0,0:0:0:0:
256,192,111858,1,0,0:0:0:0:
402,192,111858,1,0,0:0:0:0:
475,192,111858,1,0,0:0:0:0:
329,192,111941,1,0,0:0:0:0:
109,192,111941,1,0,0:0:0:0:
182,192,111941,1,0,0:0:0:0:
36,192,111941,1,0,0:0:0:0:
256,192,112025,1,0,0:0:0:0:
475,192,112025,1,0,0:0:0:0:
402,192,112025,1,0,0:0:0:0:
329,192,112108,1,0,0:0:0:0:
36,192,112108,1,0,0:0:0:0:
109,192,112108,1,0,0:0:0:0:
475,192,112191,1,0,0:0:0:0:
256,192,112191,1,0,0:0:0:0:
182,192,112191,1,0,0:0:0:0:
36,192,112274,1,0,0:0:0:0:
402,192,112274,1,0,0:0:0:0:
329,192,112274,1,0,0:0:0:0:
475,192,112358,1,0,0:0:0:0:
182,192,112358,1,0,0:0:0:0:
109,192,112358,1,0,0:0:0:0:
402,192,112441,1,0,0:0:0:0:
36,192,112441,1,0,0:0:0:0:
256,192,112441,1,0,0:0:0:0:
475,192,112524,1,0,0:0:0:0:
329,192,112524,1,0,0:0:0:0:
109,192,112524,1,0,0:0:0:0:
36,192,112607,1,0,0:0:0:0:
182,192,112607,1,0,0:0:0:0:
402,192,112607,1,0,0:0:0:0:
109,192,112691,1,0,0:0:0:0:
475,192,112691,1,0,0:0:0:0:
256,192,112691,1,0,0:0:0:0:
402,192,112774,1,0,0:0:0:0:
329,192,112774,1,0,0:0:0:0:
182,192,112774,1,0,0:0:0:0:
36,192,112857,1,0,0:0:0:0:
109,192,112857,1,0,0:0:0:0:
256,192,112857,1,0,0:0:0:0:
182,192,112940,1,0,0:0:0:0:
475,192,112940,1,0,0:0:0:0:
329,192,112940,1,0,0:0:0:0:
256,192,113023,1,0,0:0:0:0:
109,192,113023,1,0,0:0:0:0:
402,192,113023,1,0,0:0:0:0:
329,192,113107,1,0,0:0:0:0:
182,192,113107,1,0,0:0:0:0:
36,192,113107,1,0,0:0:0:0:
402,192,113190,1,0,0:0:0:0:
256,192,113190,1,0,0:0:0:0:
475,192,113190,1,0,0:0:0:0:
329,192,113273,1,0,0:0:0:0:
109,192,113273,1,0,0:0:0:0:
182,192,113273,1,0,0:0:0:0:
36,192,113273,1,0,0:0:0:0:
