osu file format v14

[General]
AudioFilename: audio_0.94.mp3
AudioLeadIn: 0
PreviewTime: 90196
Countdown: 0
SampleSet: None
StackLeniency: 0.7
Mode: 3
LetterboxInBreaks: 0
SpecialStyle: 0
WidescreenStoryboard: 0

[Editor]
Bookmarks: 27117,40634,64664,90196
DistanceSpacing: 0.1
BeatDivisor: 4
GridSize: 32
TimelineZoom: 1.3

[Metadata]
Title:Super Lovely
TitleUnicode:Super Lovely
Artist:EarBreaker
ArtistUnicode:EarBreaker
Creator:Kawawa
Version:x0.94(160)
Source:
Tags:
BeatmapID:1902627
BeatmapSetID:911477

[Difficulty]
HPDrainRate:8
CircleSize:7
OverallDifficulty:8
ApproachRate:5
SliderMultiplier:1.4
SliderTickRate:1

[Events]
//Background and Video events
0,0,"1-BG.jpg",0,0
//Break Periods
//Storyboard Layer 0 (Background)
//Storyboard Layer 1 (Fail)
//Storyboard Layer 2 (Pass)
//Storyboard Layer 3 (Foreground)
//Storyboard Sound Samples

[TimingPoints]
1563,375.469336670838,4,3,1,0,1,0

[HitObjects]
475,192,1563,5,0,0:0:0:0:
182,192,1563,1,0,0:0:0:0:
329,192,1563,1,0,0:0:0:0:
402,192,1563,1,0,0:0:0:0:
36,192,1656,1,0,0:0:0:0:
109,192,1656,1,0,0:0:0:0:
256,192,1656,1,0,0:0:0:0:
402,192,1938,1,0,0:0:0:0:
475,192,1938,1,0,0:0:0:0:
36,192,2032,1,0,0:0:0:0:
109,192,2032,1,0,0:0:0:0:
256,192,2032,1,0,0:0:0:0:
475,192,2126,1,0,0:0:0:0:
402,192,2126,1,0,0:0:0:0:
36,192,2220,1,0,0:0:0:0:
109,192,2220,1,0,0:0:0:0:
256,192,2220,1,0,0:0:0:0:
329,192,2407,1,0,0:0:0:0:
182,192,2407,1,0,0:0:0:0:
36,192,2501,1,0,0:0:0:0:
475,192,2501,1,0,0:0:0:0:
329,192,2595,1,0,0:0:0:0:
182,192,2595,1,0,0:0:0:0:
36,192,2689,1,0,0:0:0:0:
475,192,2689,1,0,0:0:0:0:
329,192,2783,1,0,0:0:0:0:
182,192,2783,1,0,0:0:0:0:
36,192,2877,1,0,0:0:0:0:
475,192,2877,1,0,0:0:0:0:
182,192,2971,1,0,0:0:0:0:
329,192,2971,1,0,0:0:0:0:
256,192,3064,1,0,0:0:0:0:
402,192,3064,1,0,0:0:0:0:
109,192,3064,1,0,0:0:0:0:
36,192,3064,1,0,0:0:0:0:
475,192,3064,1,0,0:0:0:0:
329,192,3158,1,0,0:0:0:0:
182,192,3158,1,0,0:0:0:0:
36,192,3252,1,0,0:0:0:0:
475,192,3252,1,0,0:0:0:0:
256,192,3252,1,0,0:0:0:0:
329,192,3346,1,0,0:0:0:0:
109,192,3346,1,0,0:0:0:0:
475,192,3440,1,0,0:0:0:0:
36,192,3440,1,0,0:0:0:0:
182,192,3440,1,0,0:0:0:0:
402,192,3440,1,0,0:0:0:0:
329,192,3534,1,0,0:0:0:0:
256,192,3628,1,0,0:0:0:0:
36,192,3628,1,0,0:0:0:0:
109,192,3628,1,0,0:0:0:0:
475,192,3628,1,0,0:0:0:0:
402,192,3721,1,0,0:0:0:0:
182,192,3815,1,0,0:0:0:0:
475,192,3815,1,0,0:0:0:0:
329,192,3815,1,0,0:0:0:0:
109,192,3815,1,0,0:0:0:0:
36,192,3815,1,0,0:0:0:0:
256,192,3909,1,0,0:0:0:0:
109,192,4003,1,0,0:0:0:0:
36,192,4003,1,0,0:0:0:0:
329,192,4003,1,0,0:0:0:0:
475,192,4003,1,0,0:0:0:0:
182,192,4097,1,0,0:0:0:0:
36,192,4191,1,0,0:0:0:0:
109,192,4191,1,0,0:0:0:0:
256,192,4191,1,0,0:0:0:0:
402,192,4191,1,0,0:0:0:0:
475,192,4285,1,0,0:0:0:0:
329,192,4285,1,0,0:0:0:0:
109,192,4379,1,0,0:0:0:0:
402,192,4379,1,0,0:0:0:0:
256,192,4379,1,0,0:0:0:0:
182,192,4472,1,0,0:0:0:0:
329,192,4472,1,0,0:0:0:0:
475,192,4566,1,0,0:0:0:0:
402,192,4566,1,0,0:0:0:0:
256,192,4566,1,0,0:0:0:0:
36,192,4566,1,0,0:0:0:0:
329,192,4660,1,0,0:0:0:0:
109,192,4660,1,0,0:0:0:0:
36,192,4754,1,0,0:0:0:0:
182,192,4754,1,0,0:0:0:0:
402,192,4754,1,0,0:0:0:0:
475,192,4848,1,0,0:0:0:0:
256,192,4848,1,0,0:0:0:0:
329,192,4942,1,0,0:0:0:0:
182,192,4942,1,0,0:0:0:0:
36,192,4942,1,0,0:0:0:0:
402,192,4942,1,0,0:0:0:0:
475,192,5036,1,0,0:0:0:0:
109,192,5036,1,0,0:0:0:0:
402,192,5129,1,0,0:0:0:0:
256,192,5129,1,0,0:0:0:0:
36,192,5129,1,0,0:0:0:0:
329,192,5223,1,0,0:0:0:0:
182,192,5223,1,0,0:0:0:0:
475,192,5317,1,0,0:0:0:0:
36,192,5317,1,0,0:0:0:0:
402,192,5317,1,0,0:0:0:0:
256,192,5317,1,0,0:0:0:0:
109,192,5411,1,0,0:0:0:0:
475,192,5505,1,0,0:0:0:0:
36,192,5505,1,0,0:0:0:0:
182,192,5505,1,0,0:0:0:0:
329,192,5505,1,0,0:0:0:0:
256,192,5599,1,0,0:0:0:0:
36,192,5693,1,0,0:0:0:0:
109,192,5693,1,0,0:0:0:0:
402,192,5693,1,0,0:0:0:0:
475,192,5693,1,0,0:0:0:0:
329,192,5693,1,0,0:0:0:0:
182,192,5787,1,0,0:0:0:0:
109,192,5880,1,0,0:0:0:0:
475,192,5880,1,0,0:0:0:0:
256,192,5880,1,0,0:0:0:0:
36,192,5880,1,0,0:0:0:0:
402,192,5974,1,0,0:0:0:0:
475,192,6068,1,0,0:0:0:0:
36,192,6068,1,0,0:0:0:0:
329,192,6068,1,0,0:0:0:0:
182,192,6068,1,0,0:0:0:0:
109,192,6162,1,0,0:0:0:0:
256,192,6162,1,0,0:0:0:0:
36,192,6256,1,0,0:0:0:0:
182,192,6256,1,0,0:0:0:0:
329,192,6256,1,0,0:0:0:0:
402,192,6350,1,0,0:0:0:0:
256,192,6350,1,0,0:0:0:0:
36,192,6444,1,0,0:0:0:0:
329,192,6444,1,0,0:0:0:0:
475,192,6444,1,0,0:0:0:0:
109,192,6444,1,0,0:0:0:0:
182,192,6537,1,0,0:0:0:0:
475,192,6631,1,0,0:0:0:0:
36,192,6631,1,0,0:0:0:0:
256,192,6631,1,0,0:0:0:0:
109,192,6631,1,0,0:0:0:0:
402,192,6725,1,0,0:0:0:0:
36,192,6819,1,0,0:0:0:0:
475,192,6819,1,0,0:0:0:0:
182,192,6819,1,0,0:0:0:0:
109,192,6819,1,0,0:0:0:0:
329,192,6819,1,0,0:0:0:0:
256,192,6913,1,0,0:0:0:0:
475,192,7007,1,0,0:0:0:0:
329,192,7007,1,0,0:0:0:0:
402,192,7007,1,0,0:0:0:0:
109,192,7007,1,0,0:0:0:0:
36,192,7007,1,0,0:0:0:0:
182,192,7101,1,0,0:0:0:0:
402,192,7195,1,0,0:0:0:0:
475,192,7195,1,0,0:0:0:0:
36,192,7195,1,0,0:0:0:0:
329,192,7195,1,0,0:0:0:0:
109,192,7195,1,0,0:0:0:0:
256,192,7288,1,0,0:0:0:0:
109,192,7382,1,0,0:0:0:0:
36,192,7382,1,0,0:0:0:0:
182,192,7382,1,0,0:0:0:0:
402,192,7382,1,0,0:0:0:0:
475,192,7382,1,0,0:0:0:0:
256,192,7476,1,0,0:0:0:0:
109,192,7570,1,0,0:0:0:0:
475,192,7570,1,0,0:0:0:0:
329,192,7570,1,0,0:0:0:0:
36,192,7570,1,0,0:0:0:0:
402,192,7664,1,0,0:0:0:0:
182,192,7664,1,0,0:0:0:0:
475,192,7758,1,0,0:0:0:0:
109,192,7758,1,0,0:0:0:0:
256,192,7758,1,0,0:0:0:0:
36,192,7758,1,0,0:0:0:0:
329,192,7852,1,0,0:0:0:0:
402,192,7945,1,0,0:0:0:0:
475,192,7945,1,0,0:0:0:0:
36,192,7945,1,0,0:0:0:0:
182,192,7945,1,0,0:0:0:0:
109,192,8039,1,0,0:0:0:0:
329,192,8039,1,0,0:0:0:0:
36,192,8133,1,0,0:0:0:0:
402,192,8133,1,0,0:0:0:0:
475,192,8133,1,0,0:0:0:0:
256,192,8133,1,0,0:0:0:0:
182,192,8227,1,0,0:0:0:0:
475,192,8321,1,0,0:0:0:0:
109,192,8321,1,0,0:0:0:0:
329,192,8321,1,0,0:0:0:0:
36,192,8321,1,0,0:0:0:0:
256,192,8415,1,0,0:0:0:0:
402,192,8415,1,0,0:0:0:0:
329,192,8509,1,0,0:0:0:0:
475,192,8509,1,0,0:0:0:0:
109,192,8509,1,0,0:0:0:0:
36,192,8509,1,0,0:0:0:0:
182,192,8603,1,0,0:0:0:0:
475,192,8696,1,0,0:0:0:0:
36,192,8696,1,0,0:0:0:0:
402,192,8696,1,0,0:0:0:0:
256,192,8696,1,0,0:0:0:0:
109,192,8790,1,0,0:0:0:0:
329,192,8790,1,0,0:0:0:0:
36,192,8884,1,0,0:0:0:0:
475,192,8884,1,0,0:0:0:0:
402,192,8884,1,0,0:0:0:0:
182,192,8884,1,0,0:0:0:0:
402,192,9072,1,0,0:0:0:0:
475,192,9072,1,0,0:0:0:0:
256,192,9072,1,0,0:0:0:0:
109,192,9072,1,0,0:0:0:0:
36,192,9072,1,0,0:0:0:0:
182,192,9166,1,0,0:0:0:0:
329,192,9166,1,0,0:0:0:0:
256,192,9260,1,0,0:0:0:0:
475,192,9260,1,0,0:0:0:0:
36,192,9260,1,0,0:0:0:0:
109,192,9353,1,0,0:0:0:0:
402,192,9353,1,0,0:0:0:0:
182,192,9447,1,0,0:0:0:0:
329,192,9447,1,0,0:0:0:0:
475,192,9447,1,0,0:0:0:0:
36,192,9447,1,0,0:0:0:0:
402,192,9541,1,0,0:0:0:0:
109,192,9635,1,0,0:0:0:0:
475,192,9635,1,0,0:0:0:0:
256,192,9635,1,0,0:0:0:0:
36,192,9635,1,0,0:0:0:0:
182,192,9729,1,0,0:0:0:0:
109,192,9823,1,0,0:0:0:0:
36,192,9823,1,0,0:0:0:0:
329,192,9823,1,0,0:0:0:0:
402,192,9823,1,0,0:0:0:0:
475,192,9823,1,0,0:0:0:0:
256,192,9917,1,0,0:0:0:0:
402,192,10011,1,0,0:0:0:0:
475,192,10011,1,0,0:0:0:0:
182,192,10011,1,0,0:0:0:0:
36,192,10011,1,0,0:0:0:0:
329,192,10104,1,0,0:0:0:0:
109,192,10198,1,0,0:0:0:0:
475,192,10198,1,0,0:0:0:0:
36,192,10198,1,0,0:0:0:0:
256,192,10198,1,0,0:0:0:0:
182,192,10292,1,0,0:0:0:0:
402,192,10292,1,0,0:0:0:0:
475,192,10386,1,0,0:0:0:0:
329,192,10386,1,0,0:0:0:0:
36,192,10386,1,0,0:0:0:0:
256,192,10480,1,0,0:0:0:0:
109,192,10480,1,0,0:0:0:0:
182,192,10574,1,0,0:0:0:0:
36,192,10574,1,0,0:0:0:0:
475,192,10574,1,0,0:0:0:0:
329,192,10574,1,0,0:0:0:0:
256,192,10668,1,0,0:0:0:0:
402,192,10668,1,0,0:0:0:0:
475,192,10761,1,0,0:0:0:0:
109,192,10761,1,0,0:0:0:0:
36,192,10761,1,0,0:0:0:0:
182,192,10855,1,0,0:0:0:0:
329,192,10855,1,0,0:0:0:0:
36,192,10949,1,0,0:0:0:0:
109,192,10949,1,0,0:0:0:0:
475,192,10949,1,0,0:0:0:0:
256,192,10949,1,0,0:0:0:0:
402,192,11043,1,0,0:0:0:0:
182,192,11137,1,0,0:0:0:0:
36,192,11137,1,0,0:0:0:0:
329,192,11137,1,0,0:0:0:0:
109,192,11137,1,0,0:0:0:0:
256,192,11231,1,0,0:0:0:0:
329,192,11325,1,0,0:0:0:0:
109,192,11325,1,0,0:0:0:0:
475,192,11325,1,0,0:0:0:0:
36,192,11325,1,0,0:0:0:0:
402,192,11419,1,0,0:0:0:0:
182,192,11419,1,0,0:0:0:0:
256,192,11512,1,0,0:0:0:0:
36,192,11512,1,0,0:0:0:0:
475,192,11512,1,0,0:0:0:0:
329,192,11606,1,0,0:0:0:0:
109,192,11606,1,0,0:0:0:0:
475,192,11700,1,0,0:0:0:0:
182,192,11700,1,0,0:0:0:0:
36,192,11700,1,0,0:0:0:0:
402,192,11700,1,0,0:0:0:0:
329,192,11794,1,0,0:0:0:0:
256,192,11888,1,0,0:0:0:0:
36,192,11888,1,0,0:0:0:0:
109,192,11888,1,0,0:0:0:0:
475,192,11888,1,0,0:0:0:0:
402,192,11982,1,0,0:0:0:0:
329,192,12076,1,0,0:0:0:0:
182,192,12076,1,0,0:0:0:0:
475,192,12076,1,0,0:0:0:0:
36,192,12076,1,0,0:0:0:0:
402,192,12170,1,0,0:0:0:0:
256,192,12170,1,0,0:0:0:0:
109,192,12170,1,0,0:0:0:0:
36,192,12263,1,0,0:0:0:0:
329,192,12263,1,0,0:0:0:0:
182,192,12263,1,0,0:0:0:0:
256,192,12357,1,0,0:0:0:0:
475,192,12357,1,0,0:0:0:0:
402,192,12357,1,0,0:0:0:0:
109,192,12451,1,0,0:0:0:0:
329,192,12451,1,0,0:0:0:0:
36,192,12451,1,0,0:0:0:0:
475,192,12545,1,0,0:0:0:0:
402,192,12545,1,0,0:0:0:0:
182,192,12545,1,0,0:0:0:0:
256,192,12639,1,0,0:0:0:0:
109,192,12639,1,0,0:0:0:0:
36,192,12639,1,0,0:0:0:0:
475,192,12733,1,0,0:0:0:0:
402,192,12733,1,0,0:0:0:0:
329,192,12733,1,0,0:0:0:0:
182,192,12827,1,0,0:0:0:0:
109,192,12827,1,0,0:0:0:0:
36,192,12827,1,0,0:0:0:0:
475,192,12920,1,0,0:0:0:0:
402,192,12920,1,0,0:0:0:0:
329,192,12920,1,0,0:0:0:0:
36,192,13014,1,0,0:0:0:0:
109,192,13014,1,0,0:0:0:0:
256,192,13014,1,0,0:0:0:0:
475,192,13108,1,0,0:0:0:0:
402,192,13108,1,0,0:0:0:0:
182,192,13108,1,0,0:0:0:0:
109,192,13202,1,0,0:0:0:0:
36,192,13202,1,0,0:0:0:0:
329,192,13202,1,0,0:0:0:0:
475,192,13296,1,0,0:0:0:0:
402,192,13296,1,0,0:0:0:0:
256,192,13296,1,0,0:0:0:0:
329,192,13390,1,0,0:0:0:0:
36,192,13390,1,0,0:0:0:0:
182,192,13390,1,0,0:0:0:0:
402,192,13484,1,0,0:0:0:0:
256,192,13484,1,0,0:0:0:0:
109,192,13484,1,0,0:0:0:0:
475,192,13578,1,0,0:0:0:0:
329,192,13578,1,0,0:0:0:0:
182,192,13578,1,0,0:0:0:0:
256,192,13671,1,0,0:0:0:0:
36,192,13671,1,0,0:0:0:0:
109,192,13671,1,0,0:0:0:0:
402,192,13765,1,0,0:0:0:0:
182,192,13765,1,0,0:0:0:0:
475,192,13765,1,0,0:0:0:0:
109,192,13859,1,0,0:0:0:0:
36,192,13859,1,0,0:0:0:0:
329,192,13859,1,0,0:0:0:0:
402,192,13953,1,0,0:0:0:0:
256,192,13953,1,0,0:0:0:0:
475,192,13953,1,0,0:0:0:0:
36,192,14047,1,0,0:0:0:0:
182,192,14047,1,0,0:0:0:0:
109,192,14047,1,0,0:0:0:0:
402,192,14141,1,0,0:0:0:0:
329,192,14141,1,0,0:0:0:0:
475,192,14141,1,0,0:0:0:0:
109,192,14235,1,0,0:0:0:0:
36,192,14235,1,0,0:0:0:0:
256,192,14235,1,0,0:0:0:0:
475,192,14328,1,0,0:0:0:0:
182,192,14328,1,0,0:0:0:0:
329,192,14328,1,0,0:0:0:0:
36,192,14422,1,0,0:0:0:0:
256,192,14422,1,0,0:0:0:0:
402,192,14422,1,0,0:0:0:0:
329,192,14516,1,0,0:0:0:0:
109,192,14516,1,0,0:0:0:0:
475,192,14516,1,0,0:0:0:0:
402,192,14610,1,0,0:0:0:0:
182,192,14610,1,0,0:0:0:0:
36,192,14610,1,0,0:0:0:0:
109,192,14704,1,0,0:0:0:0:
475,192,14704,1,0,0:0:0:0:
256,192,14704,1,0,0:0:0:0:
36,192,14798,1,0,0:0:0:0:
182,192,14798,1,0,0:0:0:0:
329,192,14798,1,0,0:0:0:0:
109,192,14892,1,0,0:0:0:0:
402,192,14892,1,0,0:0:0:0:
256,192,14892,1,0,0:0:0:0:
182,192,14986,1,0,0:0:0:0:
475,192,14986,1,0,0:0:0:0:
329,192,14986,1,0,0:0:0:0:
36,192,15079,1,0,0:0:0:0:
402,192,15079,1,0,0:0:0:0:
256,192,15079,1,0,0:0:0:0:
109,192,15173,1,0,0:0:0:0:
475,192,15267,1,0,0:0:0:0:
182,192,15267,1,0,0:0:0:0:
329,192,15267,1,0,0:0:0:0:
109,192,15455,1,0,0:0:0:0:
402,192,15455,1,0,0:0:0:0:
36,192,15455,1,0,0:0:0:0:
329,192,15549,1,0,0:0:0:0:
109,192,15643,1,0,0:0:0:0:
256,192,15643,1,0,0:0:0:0:
475,192,15643,1,0,0:0:0:0:
36,192,15830,1,0,0:0:0:0:
402,192,15830,1,0,0:0:0:0:
256,192,15830,1,0,0:0:0:0:
109,192,15924,1,0,0:0:0:0:
182,192,16018,1,0,0:0:0:0:
329,192,16018,1,0,0:0:0:0:
475,192,16018,1,0,0:0:0:0:
109,192,16206,1,0,0:0:0:0:
182,192,16300,1,0,0:0:0:0:
36,192,16394,1,0,0:0:0:0:
256,192,16394,1,0,0:0:0:0:
402,192,16394,1,0,0:0:0:0:
475,192,16581,1,0,0:0:0:0:
402,192,16675,1,0,0:0:0:0:
36,192,16769,1,0,0:0:0:0:
182,192,16769,1,0,0:0:0:0:
329,192,16769,1,0,0:0:0:0:
256,192,16957,1,0,0:0:0:0:
402,192,17051,1,0,0:0:0:0:
36,192,17144,1,0,0:0:0:0:
182,192,17144,1,0,0:0:0:0:
329,192,17144,1,0,0:0:0:0:
109,192,17332,1,0,0:0:0:0:
256,192,17426,1,0,0:0:0:0:
475,192,17520,1,0,0:0:0:0:
329,192,17520,1,0,0:0:0:0:
182,192,17520,1,0,0:0:0:0:
109,192,17708,1,0,0:0:0:0:
402,192,17708,1,0,0:0:0:0:
36,192,17708,1,0,0:0:0:0:
329,192,17802,1,0,0:0:0:0:
109,192,17895,1,0,0:0:0:0:
36,192,17895,1,0,0:0:0:0:
256,192,17895,1,0,0:0:0:0:
475,192,18083,1,0,0:0:0:0:
182,192,18083,1,0,0:0:0:0:
329,192,18083,1,0,0:0:0:0:
109,192,18177,1,0,0:0:0:0:
36,192,18271,1,0,0:0:0:0:
329,192,18271,1,0,0:0:0:0:
475,192,18271,1,0,0:0:0:0:
402,192,18459,1,0,0:0:0:0:
109,192,18459,1,0,0:0:0:0:
256,192,18459,1,0,0:0:0:0:
475,192,18552,1,0,0:0:0:0:
402,192,18646,1,0,0:0:0:0:
109,192,18646,1,0,0:0:0:0:
256,192,18646,1,0,0:0:0:0:
36,192,18834,1,0,0:0:0:0:
329,192,18834,1,0,0:0:0:0:
475,192,18834,1,0,0:0:0:0:
182,192,18928,1,0,0:0:0:0:
402,192,19022,1,0,0:0:0:0:
109,192,19022,1,0,0:0:0:0:
256,192,19022,1,0,0:0:0:0:
329,192,19210,1,0,0:0:0:0:
256,192,19303,1,0,0:0:0:0:
475,192,19397,1,0,0:0:0:0:
182,192,19397,1,0,0:0:0:0:
36,192,19397,1,0,0:0:0:0:
402,192,19585,1,0,0:0:0:0:
329,192,19585,1,0,0:0:0:0:
109,192,19679,1,0,0:0:0:0:
256,192,19773,1,0,0:0:0:0:
109,192,19960,1,0,0:0:0:0:
182,192,19960,1,0,0:0:0:0:
402,192,20054,1,0,0:0:0:0:
256,192,20148,1,0,0:0:0:0:
329,192,20336,1,0,0:0:0:0:
402,192,20336,1,0,0:0:0:0:
109,192,20430,1,0,0:0:0:0:
256,192,20524,1,0,0:0:0:0:
182,192,20711,1,0,0:0:0:0:
109,192,20711,1,0,0:0:0:0:
402,192,20805,1,0,0:0:0:0:
256,192,20899,1,0,0:0:0:0:
36,192,21087,1,0,0:0:0:0:
182,192,21087,1,0,0:0:0:0:
329,192,21087,1,0,0:0:0:0:
402,192,21181,1,0,0:0:0:0:
36,192,21275,1,0,0:0:0:0:
182,192,21275,1,0,0:0:0:0:
475,192,21275,1,0,0:0:0:0:
109,192,21462,1,0,0:0:0:0:
256,192,21462,1,0,0:0:0:0:
475,192,21462,1,0,0:0:0:0:
402,192,21556,1,0,0:0:0:0:
36,192,21650,1,0,0:0:0:0:
109,192,21650,1,0,0:0:0:0:
329,192,21650,1,0,0:0:0:0:
182,192,21838,1,0,0:0:0:0:
329,192,21838,1,0,0:0:0:0:
475,192,21838,1,0,0:0:0:0:
109,192,21932,1,0,0:0:0:0:
36,192,22026,1,0,0:0:0:0:
256,192,22026,1,0,0:0:0:0:
402,192,22026,1,0,0:0:0:0:
182,192,22213,1,0,0:0:0:0:
329,192,22307,1,0,0:0:0:0:
256,192,22401,1,0,0:0:0:0:
109,192,22401,1,0,0:0:0:0:
475,192,22401,1,0,0:0:0:0:
36,192,22589,1,0,0:0:0:0:
182,192,22683,1,0,0:0:0:0:
109,192,22777,1,0,0:0:0:0:
329,192,22777,1,0,0:0:0:0:
475,192,22777,1,0,0:0:0:0:
256,192,22964,1,0,0:0:0:0:
182,192,23058,1,0,0:0:0:0:
329,192,23152,1,0,0:0:0:0:
109,192,23152,1,0,0:0:0:0:
475,192,23152,1,0,0:0:0:0:
402,192,23340,1,0,0:0:0:0:
256,192,23434,1,0,0:0:0:0:
182,192,23527,1,0,0:0:0:0:
36,192,23527,1,0,0:0:0:0:
329,192,23527,1,0,0:0:0:0:
256,192,23715,1,0,0:0:0:0:
109,192,23715,1,0,0:0:0:0:
475,192,23715,1,0,0:0:0:0:
402,192,23809,1,0,0:0:0:0:
256,192,23903,1,0,0:0:0:0:
109,192,23903,1,0,0:0:0:0:
475,192,23903,1,0,0:0:0:0:
36,192,24091,1,0,0:0:0:0:
182,192,24091,1,0,0:0:0:0:
329,192,24091,1,0,0:0:0:0:
402,192,24185,1,0,0:0:0:0:
256,192,24278,1,0,0:0:0:0:
109,192,24278,1,0,0:0:0:0:
475,192,24278,1,0,0:0:0:0:
475,192,24466,1,0,0:0:0:0:
329,192,24466,1,0,0:0:0:0:
36,192,24466,1,0,0:0:0:0:
182,192,24560,1,0,0:0:0:0:
329,192,24654,1,0,0:0:0:0:
475,192,24654,1,0,0:0:0:0:
109,192,24654,1,0,0:0:0:0:
36,192,24842,1,0,0:0:0:0:
182,192,24842,1,0,0:0:0:0:
402,192,24842,1,0,0:0:0:0:
329,192,24935,1,0,0:0:0:0:
256,192,25029,1,0,0:0:0:0:
109,192,25029,1,0,0:0:0:0:
475,192,25029,1,0,0:0:0:0:
182,192,25217,1,0,0:0:0:0:
329,192,25217,1,0,0:0:0:0:
475,192,25217,1,0,0:0:0:0:
36,192,25311,1,0,0:0:0:0:
256,192,25405,1,0,0:0:0:0:
109,192,25405,1,0,0:0:0:0:
402,192,25405,1,0,0:0:0:0:
475,192,25593,1,0,0:0:0:0:
402,192,25686,1,0,0:0:0:0:
182,192,25780,1,0,0:0:0:0:
36,192,25780,1,0,0:0:0:0:
329,192,25780,1,0,0:0:0:0:
402,192,25968,1,0,0:0:0:0:
109,192,25968,1,0,0:0:0:0:
256,192,26062,1,0,0:0:0:0:
182,192,26156,1,0,0:0:0:0:
109,192,26343,1,0,0:0:0:0:
402,192,26343,1,0,0:0:0:0:
256,192,26437,1,0,0:0:0:0:
329,192,26531,1,0,0:0:0:0:
109,192,26719,1,0,0:0:0:0:
402,192,26719,1,0,0:0:0:0:
256,192,26813,1,0,0:0:0:0:
182,192,26907,1,0,0:0:0:0:
475,192,27094,1,0,0:0:0:0:
36,192,27094,1,0,0:0:0:0:
256,192,27094,1,0,0:0:0:0:
109,192,27188,1,0,0:0:0:0:
402,192,27188,1,0,0:0:0:0:
182,192,27282,1,0,0:0:0:0:
329,192,27282,1,0,0:0:0:0:
36,192,27376,1,0,0:0:0:0:
475,192,27376,1,0,0:0:0:0:
109,192,27470,1,0,0:0:0:0:
402,192,27470,1,0,0:0:0:0:
182,192,27564,1,0,0:0:0:0:
475,192,27564,1,0,0:0:0:0:
109,192,27658,1,0,0:0:0:0:
329,192,27658,1,0,0:0:0:0:
402,192,27751,1,0,0:0:0:0:
182,192,27751,1,0,0:0:0:0:
256,192,27845,1,0,0:0:0:0:
475,192,27845,1,0,0:0:0:0:
182,192,27939,1,0,0:0:0:0:
402,192,27939,1,0,0:0:0:0:
329,192,28033,1,0,0:0:0:0:
109,192,28033,1,0,0:0:0:0:
475,192,28127,1,0,0:0:0:0:
36,192,28127,1,0,0:0:0:0:
402,192,28221,1,0,0:0:0:0:
182,192,28221,1,0,0:0:0:0:
475,192,28315,1,0,0:0:0:0:
36,192,28315,1,0,0:0:0:0:
402,192,28409,1,0,0:0:0:0:
109,192,28409,1,0,0:0:0:0:
182,192,28502,1,0,0:0:0:0:
329,192,28502,1,0,0:0:0:0:
475,192,28596,1,0,0:0:0:0:
109,192,28596,1,0,0:0:0:0:
402,192,28690,1,0,0:0:0:0:
182,192,28690,1,0,0:0:0:0:
475,192,28784,1,0,0:0:0:0:
256,192,28784,1,0,0:0:0:0:
402,192,28878,1,0,0:0:0:0:
182,192,28878,1,0,0:0:0:0:
329,192,28972,1,0,0:0:0:0:
109,192,28972,1,0,0:0:0:0:
256,192,29066,1,0,0:0:0:0:
36,192,29066,1,0,0:0:0:0:
182,192,29159,1,0,0:0:0:0:
329,192,29159,1,0,0:0:0:0:
36,192,29253,1,0,0:0:0:0:
402,192,29253,1,0,0:0:0:0:
109,192,29347,1,0,0:0:0:0:
475,192,29347,1,0,0:0:0:0:
402,192,29441,1,0,0:0:0:0:
182,192,29441,1,0,0:0:0:0:
329,192,29535,1,0,0:0:0:0:
109,192,29535,1,0,0:0:0:0:
182,192,29629,1,0,0:0:0:0:
402,192,29629,1,0,0:0:0:0:
109,192,29723,1,0,0:0:0:0:
329,192,29723,1,0,0:0:0:0:
36,192,29817,1,0,0:0:0:0:
256,192,29817,1,0,0:0:0:0:
402,192,29910,1,0,0:0:0:0:
182,192,29910,1,0,0:0:0:0:
329,192,30004,1,0,0:0:0:0:
109,192,30004,1,0,0:0:0:0:
182,192,30098,1,0,0:0:0:0:
402,192,30098,1,0,0:0:0:0:
256,192,30192,1,0,0:0:0:0:
475,192,30192,1,0,0:0:0:0:
182,192,30286,1,0,0:0:0:0:
402,192,30286,1,0,0:0:0:0:
109,192,30380,1,0,0:0:0:0:
329,192,30380,1,0,0:0:0:0:
36,192,30474,1,0,0:0:0:0:
475,192,30474,1,0,0:0:0:0:
182,192,30568,1,0,0:0:0:0:
402,192,30568,1,0,0:0:0:0:
109,192,30661,1,0,0:0:0:0:
329,192,30661,1,0,0:0:0:0:
182,192,30755,1,0,0:0:0:0:
402,192,30755,1,0,0:0:0:0:
256,192,30849,1,0,0:0:0:0:
475,192,30849,1,0,0:0:0:0:
36,192,30943,1,0,0:0:0:0:
329,192,30943,1,0,0:0:0:0:
402,192,31037,1,0,0:0:0:0:
109,192,31037,1,0,0:0:0:0:
329,192,31131,1,0,0:0:0:0:
182,192,31131,1,0,0:0:0:0:
475,192,31225,1,0,0:0:0:0:
109,192,31225,1,0,0:0:0:0:
36,192,31318,1,0,0:0:0:0:
402,192,31318,1,0,0:0:0:0:
182,192,31412,1,0,0:0:0:0:
329,192,31412,1,0,0:0:0:0:
402,192,31506,1,0,0:0:0:0:
109,192,31506,1,0,0:0:0:0:
475,192,31600,1,0,0:0:0:0:
256,192,31600,1,0,0:0:0:0:
182,192,31694,1,0,0:0:0:0:
402,192,31694,1,0,0:0:0:0:
109,192,31788,1,0,0:0:0:0:
329,192,31788,1,0,0:0:0:0:
256,192,31882,1,0,0:0:0:0:
36,192,31882,1,0,0:0:0:0:
402,192,31976,1,0,0:0:0:0:
182,192,31976,1,0,0:0:0:0:
36,192,32069,1,0,0:0:0:0:
475,192,32069,1,0,0:0:0:0:
182,192,32163,1,0,0:0:0:0:
329,192,32163,1,0,0:0:0:0:
402,192,32257,1,0,0:0:0:0:
109,192,32257,1,0,0:0:0:0:
475,192,32351,1,0,0:0:0:0:
256,192,32351,1,0,0:0:0:0:
182,192,32445,1,0,0:0:0:0:
402,192,32445,1,0,0:0:0:0:
109,192,32539,1,0,0:0:0:0:
329,192,32539,1,0,0:0:0:0:
475,192,32633,1,0,0:0:0:0:
182,192,32633,1,0,0:0:0:0:
329,192,32726,1,0,0:0:0:0:
36,192,32726,1,0,0:0:0:0:
402,192,32820,1,0,0:0:0:0:
109,192,32820,1,0,0:0:0:0:
182,192,32914,1,0,0:0:0:0:
475,192,32914,1,0,0:0:0:0:
402,192,33008,1,0,0:0:0:0:
109,192,33008,1,0,0:0:0:0:
475,192,33102,1,0,0:0:0:0:
256,192,33102,1,0,0:0:0:0:
36,192,33102,1,0,0:0:0:0:
109,192,33196,1,0,0:0:0:0:
329,192,33196,1,0,0:0:0:0:
182,192,33290,1,0,0:0:0:0:
402,192,33290,1,0,0:0:0:0:
256,192,33384,1,0,0:0:0:0:
475,192,33384,1,0,0:0:0:0:
109,192,33477,1,0,0:0:0:0:
402,192,33477,1,0,0:0:0:0:
182,192,33571,1,0,0:0:0:0:
329,192,33571,1,0,0:0:0:0:
109,192,33665,1,0,0:0:0:0:
256,192,33665,1,0,0:0:0:0:
36,192,33759,1,0,0:0:0:0:
475,192,33759,1,0,0:0:0:0:
109,192,33853,1,0,0:0:0:0:
329,192,33853,1,0,0:0:0:0:
182,192,33947,1,0,0:0:0:0:
475,192,33947,1,0,0:0:0:0:
256,192,34041,1,0,0:0:0:0:
402,192,34041,1,0,0:0:0:0:
182,192,34134,1,0,0:0:0:0:
475,192,34134,1,0,0:0:0:0:
109,192,34228,1,0,0:0:0:0:
329,192,34228,1,0,0:0:0:0:
182,192,34322,1,0,0:0:0:0:
402,192,34322,1,0,0:0:0:0:
36,192,34416,1,0,0:0:0:0:
256,192,34416,1,0,0:0:0:0:
109,192,34510,1,0,0:0:0:0:
329,192,34510,1,0,0:0:0:0:
182,192,34604,1,0,0:0:0:0:
402,192,34604,1,0,0:0:0:0:
256,192,34698,1,0,0:0:0:0:
475,192,34698,1,0,0:0:0:0:
109,192,34792,1,0,0:0:0:0:
402,192,34792,1,0,0:0:0:0:
182,192,34885,1,0,0:0:0:0:
329,192,34885,1,0,0:0:0:0:
36,192,34979,1,0,0:0:0:0:
475,192,34979,1,0,0:0:0:0:
182,192,35073,1,0,0:0:0:0:
329,192,35073,1,0,0:0:0:0:
109,192,35167,1,0,0:0:0:0:
402,192,35167,1,0,0:0:0:0:
256,192,35261,1,0,0:0:0:0:
475,192,35261,1,0,0:0:0:0:
182,192,35355,1,0,0:0:0:0:
402,192,35355,1,0,0:0:0:0:
109,192,35449,1,0,0:0:0:0:
329,192,35449,1,0,0:0:0:0:
36,192,35542,1,0,0:0:0:0:
475,192,35542,1,0,0:0:0:0:
182,192,35636,1,0,0:0:0:0:
329,192,35636,1,0,0:0:0:0:
36,192,35730,1,0,0:0:0:0:
402,192,35730,1,0,0:0:0:0:
109,192,35824,1,0,0:0:0:0:
475,192,35824,1,0,0:0:0:0:
182,192,35918,1,0,0:0:0:0:
329,192,35918,1,0,0:0:0:0:
256,192,36012,1,0,0:0:0:0:
402,192,36012,1,0,0:0:0:0:
36,192,36106,1,0,0:0:0:0:
329,192,36106,1,0,0:0:0:0:
475,192,36106,1,0,0:0:0:0:
109,192,36200,1,0,0:0:0:0:
402,192,36200,1,0,0:0:0:0:
182,192,36200,1,0,0:0:0:0:
475,192,36293,1,0,0:0:0:0:
256,192,36293,1,0,0:0:0:0:
36,192,36293,1,0,0:0:0:0:
402,192,36387,1,0,0:0:0:0:
329,192,36387,1,0,0:0:0:0:
182,192,36387,1,0,0:0:0:0:
256,192,36481,1,0,0:0:0:0:
475,192,36481,1,0,0:0:0:0:
36,192,36481,1,0,0:0:0:0:
402,192,36575,1,0,0:0:0:0:
109,192,36575,1,0,0:0:0:0:
36,192,36669,1,0,0:0:0:0:
182,192,36669,1,0,0:0:0:0:
329,192,36669,1,0,0:0:0:0:
109,192,36763,1,0,0:0:0:0:
256,192,36763,1,0,0:0:0:0:
402,192,36763,1,0,0:0:0:0:
182,192,36857,1,0,0:0:0:0:
36,192,36857,1,0,0:0:0:0:
475,192,36857,1,0,0:0:0:0:
402,192,36950,1,0,0:0:0:0:
109,192,36950,1,0,0:0:0:0:
256,192,36950,1,0,0:0:0:0:
475,192,37044,1,0,0:0:0:0:
182,192,37044,1,0,0:0:0:0:
329,192,37044,1,0,0:0:0:0:
256,192,37138,1,0,0:0:0:0:
109,192,37138,1,0,0:0:0:0:
36,192,37138,1,0,0:0:0:0:
402,192,37232,1,0,0:0:0:0:
475,192,37232,1,0,0:0:0:0:
182,192,37232,1,0,0:0:0:0:
36,192,37326,1,0,0:0:0:0:
109,192,37326,1,0,0:0:0:0:
329,192,37326,1,0,0:0:0:0:
475,192,37420,1,0,0:0:0:0:
256,192,37420,1,0,0:0:0:0:
402,192,37420,1,0,0:0:0:0:
329,192,37514,1,0,0:0:0:0:
182,192,37514,1,0,0:0:0:0:
36,192,37514,1,0,0:0:0:0:
402,192,37608,1,0,0:0:0:0:
475,192,37608,1,0,0:0:0:0:
109,192,37608,1,0,0:0:0:0:
36,192,37701,1,0,0:0:0:0:
182,192,37701,1,0,0:0:0:0:
329,192,37701,1,0,0:0:0:0:
109,192,37795,1,0,0:0:0:0:
256,192,37795,1,0,0:0:0:0:
402,192,37795,1,0,0:0:0:0:
475,192,37795,1,0,0:0:0:0:
182,192,37889,1,0,0:0:0:0:
329,192,37889,1,0,0:0:0:0:
475,192,37983,1,0,0:0:0:0:
256,192,37983,1,0,0:0:0:0:
36,192,37983,1,0,0:0:0:0:
329,192,38077,1,0,0:0:0:0:
402,192,38077,1,0,0:0:0:0:
109,192,38077,1,0,0:0:0:0:
475,192,38171,1,0,0:0:0:0:
36,192,38171,1,0,0:0:0:0:
182,192,38171,1,0,0:0:0:0:
256,192,38265,1,0,0:0:0:0:
109,192,38265,1,0,0:0:0:0:
402,192,38265,1,0,0:0:0:0:
36,192,38358,1,0,0:0:0:0:
329,192,38358,1,0,0:0:0:0:
475,192,38358,1,0,0:0:0:0:
402,192,38452,1,0,0:0:0:0:
256,192,38452,1,0,0:0:0:0:
109,192,38452,1,0,0:0:0:0:
475,192,38546,1,0,0:0:0:0:
329,192,38546,1,0,0:0:0:0:
182,192,38546,1,0,0:0:0:0:
109,192,38640,1,0,0:0:0:0:
36,192,38640,1,0,0:0:0:0:
256,192,38640,1,0,0:0:0:0:
329,192,38734,1,0,0:0:0:0:
402,192,38734,1,0,0:0:0:0:
475,192,38734,1,0,0:0:0:0:
36,192,38828,1,0,0:0:0:0:
109,192,38828,1,0,0:0:0:0:
256,192,38828,1,0,0:0:0:0:
329,192,38922,1,0,0:0:0:0:
475,192,38922,1,0,0:0:0:0:
182,192,38922,1,0,0:0:0:0:
109,192,39016,1,0,0:0:0:0:
256,192,39016,1,0,0:0:0:0:
402,192,39016,1,0,0:0:0:0:
475,192,39109,1,0,0:0:0:0:
36,192,39109,1,0,0:0:0:0:
182,192,39109,1,0,0:0:0:0:
402,192,39203,1,0,0:0:0:0:
329,192,39297,1,0,0:0:0:0:
256,192,39391,1,0,0:0:0:0:
182,192,39485,1,0,0:0:0:0:
402,192,39485,1,0,0:0:0:0:
329,192,39579,1,0,0:0:0:0:
256,192,39673,1,0,0:0:0:0:
182,192,39767,1,0,0:0:0:0:
475,192,39860,1,0,0:0:0:0:
36,192,39860,1,0,0:0:0:0:
329,192,39860,1,0,0:0:0:0:
109,192,39860,1,0,0:0:0:0:
402,192,39954,1,0,0:0:0:0:
182,192,39954,1,0,0:0:0:0:
475,192,40048,1,0,0:0:0:0:
36,192,40048,1,0,0:0:0:0:
109,192,40048,1,0,0:0:0:0:
329,192,40048,1,0,0:0:0:0:
256,192,40142,1,0,0:0:0:0:
475,192,40236,1,0,0:0:0:0:
182,192,40236,1,0,0:0:0:0:
36,192,40236,1,0,0:0:0:0:
402,192,40236,1,0,0:0:0:0:
109,192,40330,1,0,0:0:0:0:
329,192,40330,1,0,0:0:0:0:
36,192,40424,1,0,0:0:0:0:
182,192,40424,1,0,0:0:0:0:
402,192,40424,1,0,0:0:0:0:
475,192,40424,1,0,0:0:0:0:
109,192,40517,1,0,0:0:0:0:
329,192,40517,1,0,0:0:0:0:
36,192,40611,1,0,0:0:0:0:
402,192,40611,1,0,0:0:0:0:
256,192,40611,1,0,0:0:0:0:
475,192,40611,1,0,0:0:0:0:
329,192,40705,1,0,0:0:0:0:
109,192,40705,1,0,0:0:0:0:
402,192,40799,1,0,0:0:0:0:
182,192,40799,1,0,0:0:0:0:
256,192,40893,1,0,0:0:0:0:
475,192,40893,1,0,0:0:0:0:
329,192,40987,1,0,0:0:0:0:
402,192,40987,1,0,0:0:0:0:
36,192,40987,1,0,0:0:0:0:
182,192,40987,1,0,0:0:0:0:
475,192,41081,1,0,0:0:0:0:
109,192,41081,1,0,0:0:0:0:
402,192,41175,1,0,0:0:0:0:
182,192,41175,1,0,0:0:0:0:
329,192,41268,1,0,0:0:0:0:
109,192,41268,1,0,0:0:0:0:
475,192,41362,1,0,0:0:0:0:
256,192,41362,1,0,0:0:0:0:
36,192,41362,1,0,0:0:0:0:
402,192,41362,1,0,0:0:0:0:
329,192,41456,1,0,0:0:0:0:
182,192,41456,1,0,0:0:0:0:
475,192,41550,1,0,0:0:0:0:
256,192,41550,1,0,0:0:0:0:
36,192,41550,1,0,0:0:0:0:
109,192,41550,1,0,0:0:0:0:
402,192,41644,1,0,0:0:0:0:
182,192,41644,1,0,0:0:0:0:
36,192,41738,1,0,0:0:0:0:
329,192,41738,1,0,0:0:0:0:
109,192,41832,1,0,0:0:0:0:
256,192,41832,1,0,0:0:0:0:
182,192,41925,1,0,0:0:0:0:
36,192,41925,1,0,0:0:0:0:
329,192,41925,1,0,0:0:0:0:
475,192,41925,1,0,0:0:0:0:
256,192,42019,1,0,0:0:0:0:
402,192,42019,1,0,0:0:0:0:
182,192,42113,1,0,0:0:0:0:
36,192,42113,1,0,0:0:0:0:
475,192,42113,1,0,0:0:0:0:
402,192,42207,1,0,0:0:0:0:
109,192,42207,1,0,0:0:0:0:
182,192,42301,1,0,0:0:0:0:
329,192,42301,1,0,0:0:0:0:
256,192,42395,1,0,0:0:0:0:
402,192,42395,1,0,0:0:0:0:
36,192,42489,1,0,0:0:0:0:
329,192,42489,1,0,0:0:0:0:
109,192,42489,1,0,0:0:0:0:
182,192,42489,1,0,0:0:0:0:
475,192,42489,1,0,0:0:0:0:
402,192,42583,1,0,0:0:0:0:
256,192,42583,1,0,0:0:0:0:
329,192,42676,1,0,0:0:0:0:
109,192,42676,1,0,0:0:0:0:
182,192,42770,1,0,0:0:0:0:
402,192,42770,1,0,0:0:0:0:
256,192,42864,1,0,0:0:0:0:
36,192,42864,1,0,0:0:0:0:
475,192,42864,1,0,0:0:0:0:
402,192,42958,1,0,0:0:0:0:
109,192,42958,1,0,0:0:0:0:
475,192,43052,1,0,0:0:0:0:
182,192,43052,1,0,0:0:0:0:
329,192,43052,1,0,0:0:0:0:
36,192,43052,1,0,0:0:0:0:
402,192,43146,1,0,0:0:0:0:
256,192,43146,1,0,0:0:0:0:
36,192,43240,1,0,0:0:0:0:
109,192,43240,1,0,0:0:0:0:
329,192,43240,1,0,0:0:0:0:
475,192,43240,1,0,0:0:0:0:
256,192,43333,1,0,0:0:0:0:
402,192,43333,1,0,0:0:0:0:
329,192,43427,1,0,0:0:0:0:
475,192,43427,1,0,0:0:0:0:
36,192,43427,1,0,0:0:0:0:
182,192,43427,1,0,0:0:0:0:
109,192,43521,1,0,0:0:0:0:
256,192,43521,1,0,0:0:0:0:
182,192,43615,1,0,0:0:0:0:
475,192,43615,1,0,0:0:0:0:
402,192,43615,1,0,0:0:0:0:
36,192,43615,1,0,0:0:0:0:
256,192,43709,1,0,0:0:0:0:
329,192,43709,1,0,0:0:0:0:
475,192,43803,1,0,0:0:0:0:
182,192,43803,1,0,0:0:0:0:
109,192,43803,1,0,0:0:0:0:
36,192,43803,1,0,0:0:0:0:
329,192,43897,1,0,0:0:0:0:
402,192,43897,1,0,0:0:0:0:
475,192,43991,1,0,0:0:0:0:
109,192,43991,1,0,0:0:0:0:
256,192,43991,1,0,0:0:0:0:
329,192,44084,1,0,0:0:0:0:
182,192,44084,1,0,0:0:0:0:
256,192,44178,1,0,0:0:0:0:
36,192,44178,1,0,0:0:0:0:
402,192,44178,1,0,0:0:0:0:
475,192,44178,1,0,0:0:0:0:
109,192,44272,1,0,0:0:0:0:
182,192,44272,1,0,0:0:0:0:
36,192,44366,1,0,0:0:0:0:
402,192,44366,1,0,0:0:0:0:
329,192,44366,1,0,0:0:0:0:
182,192,44460,1,0,0:0:0:0:
256,192,44460,1,0,0:0:0:0:
109,192,44554,1,0,0:0:0:0:
36,192,44554,1,0,0:0:0:0:
402,192,44554,1,0,0:0:0:0:
475,192,44554,1,0,0:0:0:0:
256,192,44648,1,0,0:0:0:0:
329,192,44648,1,0,0:0:0:0:
36,192,44741,1,0,0:0:0:0:
182,192,44741,1,0,0:0:0:0:
475,192,44741,1,0,0:0:0:0:
256,192,44835,1,0,0:0:0:0:
402,192,44835,1,0,0:0:0:0:
109,192,44929,1,0,0:0:0:0:
36,192,44929,1,0,0:0:0:0:
475,192,44929,1,0,0:0:0:0:
329,192,44929,1,0,0:0:0:0:
182,192,45023,1,0,0:0:0:0:
402,192,45023,1,0,0:0:0:0:
256,192,45117,1,0,0:0:0:0:
36,192,45117,1,0,0:0:0:0:
475,192,45117,1,0,0:0:0:0:
329,192,45211,1,0,0:0:0:0:
109,192,45211,1,0,0:0:0:0:
475,192,45305,1,0,0:0:0:0:
36,192,45305,1,0,0:0:0:0:
182,192,45305,1,0,0:0:0:0:
402,192,45305,1,0,0:0:0:0:
329,192,45399,1,0,0:0:0:0:
256,192,45399,1,0,0:0:0:0:
36,192,45492,1,0,0:0:0:0:
402,192,45492,1,0,0:0:0:0:
109,192,45492,1,0,0:0:0:0:
182,192,45586,1,0,0:0:0:0:
256,192,45586,1,0,0:0:0:0:
402,192,45680,1,0,0:0:0:0:
36,192,45680,1,0,0:0:0:0:
109,192,45680,1,0,0:0:0:0:
475,192,45680,1,0,0:0:0:0:
329,192,45774,1,0,0:0:0:0:
256,192,45774,1,0,0:0:0:0:
475,192,45868,1,0,0:0:0:0:
36,192,45868,1,0,0:0:0:0:
182,192,45868,1,0,0:0:0:0:
402,192,45962,1,0,0:0:0:0:
256,192,45962,1,0,0:0:0:0:
329,192,46056,1,0,0:0:0:0:
109,192,46056,1,0,0:0:0:0:
182,192,46149,1,0,0:0:0:0:
402,192,46149,1,0,0:0:0:0:
475,192,46243,1,0,0:0:0:0:
36,192,46243,1,0,0:0:0:0:
256,192,46243,1,0,0:0:0:0:
182,192,46337,1,0,0:0:0:0:
402,192,46337,1,0,0:0:0:0:
329,192,46431,1,0,0:0:0:0:
109,192,46431,1,0,0:0:0:0:
402,192,46525,1,0,0:0:0:0:
256,192,46525,1,0,0:0:0:0:
182,192,46619,1,0,0:0:0:0:
36,192,46619,1,0,0:0:0:0:
475,192,46619,1,0,0:0:0:0:
329,192,46619,1,0,0:0:0:0:
402,192,46713,1,0,0:0:0:0:
109,192,46713,1,0,0:0:0:0:
36,192,46807,1,0,0:0:0:0:
256,192,46807,1,0,0:0:0:0:
182,192,46900,1,0,0:0:0:0:
329,192,46900,1,0,0:0:0:0:
256,192,46994,1,0,0:0:0:0:
402,192,46994,1,0,0:0:0:0:
109,192,46994,1,0,0:0:0:0:
36,192,46994,1,0,0:0:0:0:
475,192,47088,1,0,0:0:0:0:
329,192,47088,1,0,0:0:0:0:
109,192,47182,1,0,0:0:0:0:
256,192,47182,1,0,0:0:0:0:
402,192,47182,1,0,0:0:0:0:
36,192,47182,1,0,0:0:0:0:
329,192,47276,1,0,0:0:0:0:
182,192,47276,1,0,0:0:0:0:
36,192,47370,1,0,0:0:0:0:
475,192,47370,1,0,0:0:0:0:
402,192,47370,1,0,0:0:0:0:
256,192,47464,1,0,0:0:0:0:
109,192,47464,1,0,0:0:0:0:
329,192,47557,1,0,0:0:0:0:
475,192,47557,1,0,0:0:0:0:
182,192,47557,1,0,0:0:0:0:
36,192,47557,1,0,0:0:0:0:
109,192,47651,1,0,0:0:0:0:
402,192,47651,1,0,0:0:0:0:
256,192,47745,1,0,0:0:0:0:
475,192,47745,1,0,0:0:0:0:
36,192,47745,1,0,0:0:0:0:
109,192,47839,1,0,0:0:0:0:
402,192,47839,1,0,0:0:0:0:
36,192,47933,1,0,0:0:0:0:
475,192,47933,1,0,0:0:0:0:
329,192,47933,1,0,0:0:0:0:
182,192,47933,1,0,0:0:0:0:
402,192,48027,1,0,0:0:0:0:
256,192,48027,1,0,0:0:0:0:
36,192,48121,1,0,0:0:0:0:
182,192,48121,1,0,0:0:0:0:
329,192,48121,1,0,0:0:0:0:
475,192,48215,1,0,0:0:0:0:
109,192,48215,1,0,0:0:0:0:
402,192,48308,1,0,0:0:0:0:
256,192,48308,1,0,0:0:0:0:
182,192,48402,1,0,0:0:0:0:
329,192,48402,1,0,0:0:0:0:
36,192,48496,1,0,0:0:0:0:
475,192,48496,1,0,0:0:0:0:
109,192,48496,1,0,0:0:0:0:
402,192,48496,1,0,0:0:0:0:
256,192,48496,1,0,0:0:0:0:
182,192,48590,1,0,0:0:0:0:
329,192,48590,1,0,0:0:0:0:
109,192,48684,1,0,0:0:0:0:
402,192,48684,1,0,0:0:0:0:
475,192,48778,1,0,0:0:0:0:
36,192,48778,1,0,0:0:0:0:
256,192,48872,1,0,0:0:0:0:
402,192,48872,1,0,0:0:0:0:
109,192,48872,1,0,0:0:0:0:
182,192,48966,1,0,0:0:0:0:
329,192,48966,1,0,0:0:0:0:
109,192,49059,1,0,0:0:0:0:
402,192,49059,1,0,0:0:0:0:
475,192,49153,1,0,0:0:0:0:
182,192,49153,1,0,0:0:0:0:
256,192,49247,1,0,0:0:0:0:
402,192,49247,1,0,0:0:0:0:
36,192,49247,1,0,0:0:0:0:
329,192,49341,1,0,0:0:0:0:
109,192,49341,1,0,0:0:0:0:
36,192,49435,1,0,0:0:0:0:
475,192,49435,1,0,0:0:0:0:
402,192,49435,1,0,0:0:0:0:
182,192,49435,1,0,0:0:0:0:
256,192,49529,1,0,0:0:0:0:
109,192,49529,1,0,0:0:0:0:
475,192,49623,1,0,0:0:0:0:
36,192,49623,1,0,0:0:0:0:
182,192,49623,1,0,0:0:0:0:
329,192,49623,1,0,0:0:0:0:
402,192,49716,1,0,0:0:0:0:
256,192,49716,1,0,0:0:0:0:
109,192,49810,1,0,0:0:0:0:
329,192,49810,1,0,0:0:0:0:
402,192,49904,1,0,0:0:0:0:
182,192,49904,1,0,0:0:0:0:
256,192,49998,1,0,0:0:0:0:
475,192,49998,1,0,0:0:0:0:
109,192,49998,1,0,0:0:0:0:
36,192,49998,1,0,0:0:0:0:
182,192,50092,1,0,0:0:0:0:
402,192,50092,1,0,0:0:0:0:
109,192,50186,1,0,0:0:0:0:
329,192,50186,1,0,0:0:0:0:
36,192,50280,1,0,0:0:0:0:
256,192,50280,1,0,0:0:0:0:
329,192,50374,1,0,0:0:0:0:
475,192,50374,1,0,0:0:0:0:
182,192,50374,1,0,0:0:0:0:
109,192,50374,1,0,0:0:0:0:
402,192,50467,1,0,0:0:0:0:
256,192,50467,1,0,0:0:0:0:
109,192,50561,1,0,0:0:0:0:
329,192,50561,1,0,0:0:0:0:
182,192,50655,1,0,0:0:0:0:
402,192,50655,1,0,0:0:0:0:
36,192,50749,1,0,0:0:0:0:
109,192,50749,1,0,0:0:0:0:
256,192,50749,1,0,0:0:0:0:
475,192,50749,1,0,0:0:0:0:
402,192,50843,1,0,0:0:0:0:
329,192,50843,1,0,0:0:0:0:
36,192,50937,1,0,0:0:0:0:
109,192,50937,1,0,0:0:0:0:
256,192,50937,1,0,0:0:0:0:
475,192,50937,1,0,0:0:0:0:
329,192,51031,1,0,0:0:0:0:
182,192,51031,1,0,0:0:0:0:
402,192,51124,1,0,0:0:0:0:
475,192,51124,1,0,0:0:0:0:
36,192,51124,1,0,0:0:0:0:
256,192,51124,1,0,0:0:0:0:
329,192,51218,1,0,0:0:0:0:
109,192,51218,1,0,0:0:0:0:
402,192,51312,1,0,0:0:0:0:
182,192,51312,1,0,0:0:0:0:
329,192,51406,1,0,0:0:0:0:
109,192,51406,1,0,0:0:0:0:
36,192,51500,1,0,0:0:0:0:
256,192,51500,1,0,0:0:0:0:
475,192,51500,1,0,0:0:0:0:
402,192,51500,1,0,0:0:0:0:
329,192,51594,1,0,0:0:0:0:
182,192,51594,1,0,0:0:0:0:
475,192,51688,1,0,0:0:0:0:
109,192,51688,1,0,0:0:0:0:
36,192,51688,1,0,0:0:0:0:
256,192,51688,1,0,0:0:0:0:
402,192,51782,1,0,0:0:0:0:
182,192,51782,1,0,0:0:0:0:
475,192,51875,1,0,0:0:0:0:
36,192,51875,1,0,0:0:0:0:
329,192,51875,1,0,0:0:0:0:
109,192,51969,1,0,0:0:0:0:
256,192,51969,1,0,0:0:0:0:
182,192,52063,1,0,0:0:0:0:
36,192,52063,1,0,0:0:0:0:
475,192,52063,1,0,0:0:0:0:
329,192,52063,1,0,0:0:0:0:
256,192,52157,1,0,0:0:0:0:
109,192,52157,1,0,0:0:0:0:
402,192,52251,1,0,0:0:0:0:
182,192,52251,1,0,0:0:0:0:
329,192,52345,1,0,0:0:0:0:
109,192,52345,1,0,0:0:0:0:
36,192,52439,1,0,0:0:0:0:
475,192,52439,1,0,0:0:0:0:
256,192,52439,1,0,0:0:0:0:
402,192,52439,1,0,0:0:0:0:
329,192,52532,1,0,0:0:0:0:
182,192,52532,1,0,0:0:0:0:
475,192,52626,1,0,0:0:0:0:
36,192,52626,1,0,0:0:0:0:
109,192,52626,1,0,0:0:0:0:
256,192,52626,1,0,0:0:0:0:
402,192,52720,1,0,0:0:0:0:
182,192,52720,1,0,0:0:0:0:
329,192,52814,1,0,0:0:0:0:
36,192,52814,1,0,0:0:0:0:
182,192,52908,1,0,0:0:0:0:
402,192,52908,1,0,0:0:0:0:
36,192,53002,1,0,0:0:0:0:
109,192,53002,1,0,0:0:0:0:
475,192,53002,1,0,0:0:0:0:
256,192,53002,1,0,0:0:0:0:
402,192,53096,1,0,0:0:0:0:
182,192,53096,1,0,0:0:0:0:
109,192,53190,1,0,0:0:0:0:
329,192,53190,1,0,0:0:0:0:
475,192,53283,1,0,0:0:0:0:
182,192,53283,1,0,0:0:0:0:
402,192,53377,1,0,0:0:0:0:
36,192,53377,1,0,0:0:0:0:
256,192,53377,1,0,0:0:0:0:
109,192,53377,1,0,0:0:0:0:
329,192,53471,1,0,0:0:0:0:
182,192,53471,1,0,0:0:0:0:
475,192,53565,1,0,0:0:0:0:
402,192,53565,1,0,0:0:0:0:
36,192,53565,1,0,0:0:0:0:
256,192,53565,1,0,0:0:0:0:
329,192,53659,1,0,0:0:0:0:
109,192,53659,1,0,0:0:0:0:
182,192,53753,1,0,0:0:0:0:
402,192,53753,1,0,0:0:0:0:
475,192,53847,1,0,0:0:0:0:
256,192,53847,1,0,0:0:0:0:
182,192,53940,1,0,0:0:0:0:
36,192,53940,1,0,0:0:0:0:
329,192,53940,1,0,0:0:0:0:
402,192,53940,1,0,0:0:0:0:
109,192,54034,1,0,0:0:0:0:
475,192,54034,1,0,0:0:0:0:
256,192,54128,1,0,0:0:0:0:
36,192,54128,1,0,0:0:0:0:
402,192,54128,1,0,0:0:0:0:
329,192,54222,1,0,0:0:0:0:
182,192,54222,1,0,0:0:0:0:
109,192,54316,1,0,0:0:0:0:
256,192,54316,1,0,0:0:0:0:
182,192,54410,1,0,0:0:0:0:
329,192,54410,1,0,0:0:0:0:
36,192,54504,1,0,0:0:0:0:
402,192,54504,1,0,0:0:0:0:
109,192,54504,1,0,0:0:0:0:
256,192,54504,1,0,0:0:0:0:
475,192,54504,1,0,0:0:0:0:
329,192,54598,1,0,0:0:0:0:
182,192,54598,1,0,0:0:0:0:
402,192,54691,1,0,0:0:0:0:
109,192,54691,1,0,0:0:0:0:
182,192,54785,1,0,0:0:0:0:
329,192,54785,1,0,0:0:0:0:
256,192,54879,1,0,0:0:0:0:
36,192,54879,1,0,0:0:0:0:
475,192,54879,1,0,0:0:0:0:
402,192,54973,1,0,0:0:0:0:
109,192,54973,1,0,0:0:0:0:
475,192,55067,1,0,0:0:0:0:
182,192,55067,1,0,0:0:0:0:
329,192,55067,1,0,0:0:0:0:
36,192,55067,1,0,0:0:0:0:
109,192,55161,1,0,0:0:0:0:
256,192,55161,1,0,0:0:0:0:
36,192,55255,1,0,0:0:0:0:
475,192,55255,1,0,0:0:0:0:
182,192,55255,1,0,0:0:0:0:
329,192,55255,1,0,0:0:0:0:
256,192,55348,1,0,0:0:0:0:
402,192,55348,1,0,0:0:0:0:
329,192,55442,1,0,0:0:0:0:
475,192,55442,1,0,0:0:0:0:
36,192,55442,1,0,0:0:0:0:
109,192,55442,1,0,0:0:0:0:
182,192,55536,1,0,0:0:0:0:
402,192,55536,1,0,0:0:0:0:
109,192,55630,1,0,0:0:0:0:
475,192,55630,1,0,0:0:0:0:
256,192,55630,1,0,0:0:0:0:
36,192,55630,1,0,0:0:0:0:
182,192,55724,1,0,0:0:0:0:
329,192,55724,1,0,0:0:0:0:
475,192,55818,1,0,0:0:0:0:
256,192,55818,1,0,0:0:0:0:
109,192,55818,1,0,0:0:0:0:
36,192,55818,1,0,0:0:0:0:
182,192,55912,1,0,0:0:0:0:
402,192,55912,1,0,0:0:0:0:
475,192,56006,1,0,0:0:0:0:
109,192,56006,1,0,0:0:0:0:
329,192,56006,1,0,0:0:0:0:
256,192,56099,1,0,0:0:0:0:
36,192,56099,1,0,0:0:0:0:
182,192,56193,1,0,0:0:0:0:
109,192,56193,1,0,0:0:0:0:
329,192,56193,1,0,0:0:0:0:
475,192,56193,1,0,0:0:0:0:
402,192,56287,1,0,0:0:0:0:
256,192,56287,1,0,0:0:0:0:
36,192,56381,1,0,0:0:0:0:
329,192,56381,1,0,0:0:0:0:
182,192,56381,1,0,0:0:0:0:
109,192,56475,1,0,0:0:0:0:
256,192,56475,1,0,0:0:0:0:
182,192,56569,1,0,0:0:0:0:
36,192,56569,1,0,0:0:0:0:
329,192,56569,1,0,0:0:0:0:
475,192,56569,1,0,0:0:0:0:
256,192,56663,1,0,0:0:0:0:
402,192,56663,1,0,0:0:0:0:
36,192,56756,1,0,0:0:0:0:
109,192,56756,1,0,0:0:0:0:
329,192,56756,1,0,0:0:0:0:
182,192,56850,1,0,0:0:0:0:
475,192,56850,1,0,0:0:0:0:
109,192,56944,1,0,0:0:0:0:
36,192,56944,1,0,0:0:0:0:
402,192,56944,1,0,0:0:0:0:
256,192,56944,1,0,0:0:0:0:
329,192,57038,1,0,0:0:0:0:
475,192,57038,1,0,0:0:0:0:
182,192,57132,1,0,0:0:0:0:
36,192,57132,1,0,0:0:0:0:
402,192,57132,1,0,0:0:0:0:
256,192,57226,1,0,0:0:0:0:
109,192,57226,1,0,0:0:0:0:
475,192,57320,1,0,0:0:0:0:
36,192,57320,1,0,0:0:0:0:
182,192,57320,1,0,0:0:0:0:
329,192,57320,1,0,0:0:0:0:
402,192,57414,1,0,0:0:0:0:
256,192,57414,1,0,0:0:0:0:
36,192,57507,1,0,0:0:0:0:
329,192,57507,1,0,0:0:0:0:
109,192,57507,1,0,0:0:0:0:
402,192,57601,1,0,0:0:0:0:
182,192,57601,1,0,0:0:0:0:
109,192,57695,1,0,0:0:0:0:
36,192,57695,1,0,0:0:0:0:
475,192,57695,1,0,0:0:0:0:
329,192,57695,1,0,0:0:0:0:
402,192,57789,1,0,0:0:0:0:
256,192,57789,1,0,0:0:0:0:
329,192,57883,1,0,0:0:0:0:
36,192,57883,1,0,0:0:0:0:
182,192,57883,1,0,0:0:0:0:
475,192,57977,1,0,0:0:0:0:
109,192,57977,1,0,0:0:0:0:
402,192,58071,1,0,0:0:0:0:
256,192,58071,1,0,0:0:0:0:
182,192,58165,1,0,0:0:0:0:
329,192,58165,1,0,0:0:0:0:
475,192,58258,1,0,0:0:0:0:
109,192,58258,1,0,0:0:0:0:
256,192,58258,1,0,0:0:0:0:
36,192,58352,1,0,0:0:0:0:
402,192,58352,1,0,0:0:0:0:
329,192,58446,1,0,0:0:0:0:
182,192,58446,1,0,0:0:0:0:
402,192,58540,1,0,0:0:0:0:
109,192,58540,1,0,0:0:0:0:
329,192,58634,1,0,0:0:0:0:
36,192,58634,1,0,0:0:0:0:
475,192,58634,1,0,0:0:0:0:
182,192,58634,1,0,0:0:0:0:
402,192,58728,1,0,0:0:0:0:
256,192,58728,1,0,0:0:0:0:
109,192,58822,1,0,0:0:0:0:
329,192,58822,1,0,0:0:0:0:
182,192,58915,1,0,0:0:0:0:
402,192,58915,1,0,0:0:0:0:
475,192,59009,1,0,0:0:0:0:
256,192,59009,1,0,0:0:0:0:
109,192,59009,1,0,0:0:0:0:
36,192,59009,1,0,0:0:0:0:
402,192,59103,1,0,0:0:0:0:
329,192,59103,1,0,0:0:0:0:
109,192,59197,1,0,0:0:0:0:
182,192,59197,1,0,0:0:0:0:
475,192,59197,1,0,0:0:0:0:
36,192,59197,1,0,0:0:0:0:
329,192,59291,1,0,0:0:0:0:
256,192,59291,1,0,0:0:0:0:
109,192,59385,1,0,0:0:0:0:
475,192,59385,1,0,0:0:0:0:
36,192,59385,1,0,0:0:0:0:
256,192,59479,1,0,0:0:0:0:
402,192,59479,1,0,0:0:0:0:
329,192,59573,1,0,0:0:0:0:
475,192,59573,1,0,0:0:0:0:
36,192,59573,1,0,0:0:0:0:
182,192,59573,1,0,0:0:0:0:
256,192,59666,1,0,0:0:0:0:
402,192,59666,1,0,0:0:0:0:
109,192,59760,1,0,0:0:0:0:
329,192,59760,1,0,0:0:0:0:
36,192,59760,1,0,0:0:0:0:
182,192,59854,1,0,0:0:0:0:
402,192,59854,1,0,0:0:0:0:
36,192,59948,1,0,0:0:0:0:
475,192,59948,1,0,0:0:0:0:
256,192,59948,1,0,0:0:0:0:
109,192,59948,1,0,0:0:0:0:
402,192,60042,1,0,0:0:0:0:
182,192,60042,1,0,0:0:0:0:
36,192,60136,1,0,0:0:0:0:
256,192,60136,1,0,0:0:0:0:
475,192,60136,1,0,0:0:0:0:
329,192,60230,1,0,0:0:0:0:
109,192,60230,1,0,0:0:0:0:
402,192,60323,1,0,0:0:0:0:
182,192,60323,1,0,0:0:0:0:
256,192,60417,1,0,0:0:0:0:
475,192,60417,1,0,0:0:0:0:
36,192,60511,1,0,0:0:0:0:
402,192,60511,1,0,0:0:0:0:
109,192,60511,1,0,0:0:0:0:
329,192,60511,1,0,0:0:0:0:
182,192,60511,1,0,0:0:0:0:
256,192,60605,1,0,0:0:0:0:
475,192,60605,1,0,0:0:0:0:
182,192,60699,1,0,0:0:0:0:
402,192,60699,1,0,0:0:0:0:
329,192,60793,1,0,0:0:0:0:
109,192,60793,1,0,0:0:0:0:
256,192,60887,1,0,0:0:0:0:
475,192,60887,1,0,0:0:0:0:
36,192,60887,1,0,0:0:0:0:
182,192,60981,1,0,0:0:0:0:
402,192,60981,1,0,0:0:0:0:
109,192,61074,1,0,0:0:0:0:
329,192,61074,1,0,0:0:0:0:
402,192,61168,1,0,0:0:0:0:
182,192,61168,1,0,0:0:0:0:
256,192,61262,1,0,0:0:0:0:
475,192,61262,1,0,0:0:0:0:
36,192,61262,1,0,0:0:0:0:
329,192,61356,1,0,0:0:0:0:
109,192,61356,1,0,0:0:0:0:
182,192,61450,1,0,0:0:0:0:
402,192,61450,1,0,0:0:0:0:
329,192,61544,1,0,0:0:0:0:
109,192,61544,1,0,0:0:0:0:
475,192,61638,1,0,0:0:0:0:
36,192,61638,1,0,0:0:0:0:
256,192,61638,1,0,0:0:0:0:
402,192,61638,1,0,0:0:0:0:
329,192,61731,1,0,0:0:0:0:
182,192,61731,1,0,0:0:0:0:
475,192,61825,1,0,0:0:0:0:
109,192,61825,1,0,0:0:0:0:
402,192,61825,1,0,0:0:0:0:
329,192,61919,1,0,0:0:0:0:
182,192,61919,1,0,0:0:0:0:
256,192,62013,1,0,0:0:0:0:
36,192,62013,1,0,0:0:0:0:
475,192,62013,1,0,0:0:0:0:
109,192,62107,1,0,0:0:0:0:
402,192,62107,1,0,0:0:0:0:
36,192,62201,1,0,0:0:0:0:
182,192,62201,1,0,0:0:0:0:
329,192,62201,1,0,0:0:0:0:
402,192,62295,1,0,0:0:0:0:
256,192,62295,1,0,0:0:0:0:
475,192,62389,1,0,0:0:0:0:
109,192,62389,1,0,0:0:0:0:
329,192,62482,1,0,0:0:0:0:
182,192,62482,1,0,0:0:0:0:
36,192,62576,1,0,0:0:0:0:
475,192,62576,1,0,0:0:0:0:
256,192,62576,1,0,0:0:0:0:
109,192,62576,1,0,0:0:0:0:
182,192,62670,1,0,0:0:0:0:
402,192,62670,1,0,0:0:0:0:
329,192,62764,1,0,0:0:0:0:
36,192,62764,1,0,0:0:0:0:
109,192,62858,1,0,0:0:0:0:
402,192,62858,1,0,0:0:0:0:
36,192,62952,1,0,0:0:0:0:
329,192,62952,1,0,0:0:0:0:
182,192,62952,1,0,0:0:0:0:
475,192,62952,1,0,0:0:0:0:
256,192,63046,1,0,0:0:0:0:
402,192,63046,1,0,0:0:0:0:
329,192,63139,1,0,0:0:0:0:
109,192,63139,1,0,0:0:0:0:
402,192,63233,1,0,0:0:0:0:
182,192,63233,1,0,0:0:0:0:
256,192,63327,1,0,0:0:0:0:
36,192,63327,1,0,0:0:0:0:
109,192,63327,1,0,0:0:0:0:
475,192,63327,1,0,0:0:0:0:
329,192,63421,1,0,0:0:0:0:
182,192,63421,1,0,0:0:0:0:
109,192,63515,1,0,0:0:0:0:
475,192,63515,1,0,0:0:0:0:
402,192,63609,1,0,0:0:0:0:
256,192,63609,1,0,0:0:0:0:
329,192,63703,1,0,0:0:0:0:
182,192,63703,1,0,0:0:0:0:
36,192,63703,1,0,0:0:0:0:
402,192,63797,1,0,0:0:0:0:
256,192,63797,1,0,0:0:0:0:
475,192,63890,1,0,0:0:0:0:
109,192,63890,1,0,0:0:0:0:
182,192,63984,1,0,0:0:0:0:
329,192,63984,1,0,0:0:0:0:
36,192,64078,1,0,0:0:0:0:
402,192,64078,1,0,0:0:0:0:
475,192,64078,1,0,0:0:0:0:
256,192,64078,1,0,0:0:0:0:
329,192,64172,1,0,0:0:0:0:
109,192,64172,1,0,0:0:0:0:
182,192,64172,1,0,0:0:0:0:
475,192,64266,1,0,0:0:0:0:
402,192,64266,1,0,0:0:0:0:
36,192,64266,1,0,0:0:0:0:
256,192,64266,1,0,0:0:0:0:
109,192,64360,1,0,0:0:0:0:
402,192,64454,1,0,0:0:0:0:
475,192,64454,1,0,0:0:0:0:
182,192,64454,1,0,0:0:0:0:
329,192,64454,1,0,0:0:0:0:
109,192,64547,1,0,0:0:0:0:
402,192,64641,1,0,0:0:0:0:
475,192,64641,1,0,0:0:0:0:
36,192,64641,1,0,0:0:0:0:
256,192,64641,1,0,0:0:0:0:
182,192,64735,1,0,0:0:0:0:
329,192,64829,1,0,0:0:0:0:
329,192,64923,1,0,0:0:0:0:
182,192,65017,1,0,0:0:0:0:
36,192,65017,1,0,0:0:0:0:
402,192,65111,1,0,0:0:0:0:
256,192,65205,1,0,0:0:0:0:
109,192,65298,1,0,0:0:0:0:
475,192,65392,1,0,0:0:0:0:
329,192,65392,1,0,0:0:0:0:
182,192,65486,1,0,0:0:0:0:
36,192,65580,1,0,0:0:0:0:
36,192,65674,1,0,0:0:0:0:
475,192,65768,1,0,0:0:0:0:
329,192,65768,1,0,0:0:0:0:
109,192,65862,1,0,0:0:0:0:
256,192,65955,1,0,0:0:0:0:
402,192,66049,1,0,0:0:0:0:
36,192,66143,1,0,0:0:0:0:
182,192,66143,1,0,0:0:0:0:
329,192,66237,1,0,0:0:0:0:
109,192,66331,1,0,0:0:0:0:
109,192,66425,1,0,0:0:0:0:
475,192,66519,1,0,0:0:0:0:
256,192,66519,1,0,0:0:0:0:
329,192,66613,1,0,0:0:0:0:
36,192,66706,1,0,0:0:0:0:
182,192,66800,1,0,0:0:0:0:
402,192,66894,1,0,0:0:0:0:
109,192,66894,1,0,0:0:0:0:
256,192,66988,1,0,0:0:0:0:
475,192,67082,1,0,0:0:0:0:
475,192,67176,1,0,0:0:0:0:
182,192,67270,1,0,0:0:0:0:
329,192,67270,1,0,0:0:0:0:
36,192,67364,1,0,0:0:0:0:
256,192,67457,1,0,0:0:0:0:
402,192,67551,1,0,0:0:0:0:
329,192,67645,1,0,0:0:0:0:
109,192,67645,1,0,0:0:0:0:
475,192,67739,1,0,0:0:0:0:
182,192,67833,1,0,0:0:0:0:
182,192,67927,1,0,0:0:0:0:
36,192,68021,1,0,0:0:0:0:
475,192,68021,1,0,0:0:0:0:
329,192,68114,1,0,0:0:0:0:
182,192,68208,1,0,0:0:0:0:
402,192,68302,1,0,0:0:0:0:
36,192,68396,1,0,0:0:0:0:
256,192,68396,1,0,0:0:0:0:
182,192,68490,1,0,0:0:0:0:
329,192,68584,1,0,0:0:0:0:
329,192,68678,1,0,0:0:0:0:
109,192,68772,1,0,0:0:0:0:
256,192,68772,1,0,0:0:0:0:
475,192,68865,1,0,0:0:0:0:
329,192,68959,1,0,0:0:0:0:
36,192,69053,1,0,0:0:0:0:
475,192,69147,1,0,0:0:0:0:
182,192,69147,1,0,0:0:0:0:
329,192,69241,1,0,0:0:0:0:
109,192,69335,1,0,0:0:0:0:
109,192,69429,1,0,0:0:0:0:
402,192,69522,1,0,0:0:0:0:
256,192,69522,1,0,0:0:0:0:
36,192,69616,1,0,0:0:0:0:
182,192,69710,1,0,0:0:0:0:
329,192,69804,1,0,0:0:0:0:
475,192,69898,1,0,0:0:0:0:
109,192,69898,1,0,0:0:0:0:
402,192,69992,1,0,0:0:0:0:
256,192,70086,1,0,0:0:0:0:
256,192,70180,1,0,0:0:0:0:
402,192,70273,1,0,0:0:0:0:
36,192,70273,1,0,0:0:0:0:
182,192,70367,1,0,0:0:0:0:
329,192,70461,1,0,0:0:0:0:
475,192,70555,1,0,0:0:0:0:
109,192,70649,1,0,0:0:0:0:
402,192,70649,1,0,0:0:0:0:
256,192,70743,1,0,0:0:0:0:
36,192,70837,1,0,0:0:0:0:
36,192,70930,1,0,0:0:0:0:
329,192,71024,1,0,0:0:0:0:
475,192,71024,1,0,0:0:0:0:
182,192,71118,1,0,0:0:0:0:
36,192,71212,1,0,0:0:0:0:
402,192,71306,1,0,0:0:0:0:
256,192,71400,1,0,0:0:0:0:
109,192,71400,1,0,0:0:0:0:
475,192,71494,1,0,0:0:0:0:
329,192,71588,1,0,0:0:0:0:
329,192,71681,1,0,0:0:0:0:
36,192,71775,1,0,0:0:0:0:
182,192,71775,1,0,0:0:0:0:
402,192,71869,1,0,0:0:0:0:
256,192,71963,1,0,0:0:0:0:
109,192,72057,1,0,0:0:0:0:
475,192,72151,1,0,0:0:0:0:
329,192,72151,1,0,0:0:0:0:
36,192,72245,1,0,0:0:0:0:
182,192,72338,1,0,0:0:0:0:
182,192,72432,1,0,0:0:0:0:
402,192,72526,1,0,0:0:0:0:
256,192,72526,1,0,0:0:0:0:
109,192,72620,1,0,0:0:0:0:
329,192,72714,1,0,0:0:0:0:
475,192,72808,1,0,0:0:0:0:
36,192,72902,1,0,0:0:0:0:
256,192,72902,1,0,0:0:0:0:
182,192,72996,1,0,0:0:0:0:
402,192,73089,1,0,0:0:0:0:
402,192,73183,1,0,0:0:0:0:
109,192,73277,1,0,0:0:0:0:
329,192,73277,1,0,0:0:0:0:
182,192,73371,1,0,0:0:0:0:
475,192,73465,1,0,0:0:0:0:
256,192,73559,1,0,0:0:0:0:
109,192,73653,1,0,0:0:0:0:
402,192,73653,1,0,0:0:0:0:
36,192,73746,1,0,0:0:0:0:
329,192,73840,1,0,0:0:0:0:
329,192,73934,1,0,0:0:0:0:
475,192,74028,1,0,0:0:0:0:
36,192,74028,1,0,0:0:0:0:
182,192,74122,1,0,0:0:0:0:
329,192,74216,1,0,0:0:0:0:
256,192,74310,1,0,0:0:0:0:
475,192,74404,1,0,0:0:0:0:
109,192,74404,1,0,0:0:0:0:
402,192,74497,1,0,0:0:0:0:
256,192,74591,1,0,0:0:0:0:
256,192,74685,1,0,0:0:0:0:
36,192,74779,1,0,0:0:0:0:
182,192,74779,1,0,0:0:0:0:
475,192,74873,1,0,0:0:0:0:
329,192,74967,1,0,0:0:0:0:
182,192,75061,1,0,0:0:0:0:
402,192,75154,1,0,0:0:0:0:
36,192,75154,1,0,0:0:0:0:
256,192,75248,1,0,0:0:0:0:
109,192,75342,1,0,0:0:0:0:
109,192,75436,1,0,0:0:0:0:
475,192,75530,1,0,0:0:0:0:
329,192,75530,1,0,0:0:0:0:
182,192,75624,1,0,0:0:0:0:
402,192,75718,1,0,0:0:0:0:
109,192,75812,1,0,0:0:0:0:
36,192,75905,1,0,0:0:0:0:
329,192,75905,1,0,0:0:0:0:
256,192,75999,1,0,0:0:0:0:
475,192,76093,1,0,0:0:0:0:
475,192,76187,1,0,0:0:0:0:
36,192,76281,1,0,0:0:0:0:
109,192,76281,1,0,0:0:0:0:
256,192,76281,1,0,0:0:0:0:
402,192,76375,1,0,0:0:0:0:
329,192,76469,1,0,0:0:0:0:
36,192,76469,1,0,0:0:0:0:
182,192,76469,1,0,0:0:0:0:
109,192,76562,1,0,0:0:0:0:
475,192,76656,1,0,0:0:0:0:
402,192,76656,1,0,0:0:0:0:
36,192,76656,1,0,0:0:0:0:
256,192,76656,1,0,0:0:0:0:
36,192,77032,1,0,0:0:0:0:
475,192,77220,1,0,0:0:0:0:
329,192,77220,1,0,0:0:0:0:
109,192,77407,1,0,0:0:0:0:
256,192,77407,1,0,0:0:0:0:
36,192,77783,1,0,0:0:0:0:
256,192,78158,1,0,0:0:0:0:
109,192,78158,1,0,0:0:0:0:
402,192,78158,1,0,0:0:0:0:
475,192,78158,1,0,0:0:0:0:
475,192,78534,1,0,0:0:0:0:
256,192,78534,1,0,0:0:0:0:
36,192,78534,1,0,0:0:0:0:
402,192,78721,1,0,0:0:0:0:
182,192,78721,1,0,0:0:0:0:
329,192,78909,1,0,0:0:0:0:
109,192,78909,1,0,0:0:0:0:
402,192,79097,1,0,0:0:0:0:
182,192,79097,1,0,0:0:0:0:
475,192,79285,1,0,0:0:0:0:
256,192,79285,1,0,0:0:0:0:
36,192,79285,1,0,0:0:0:0:
109,192,79472,1,0,0:0:0:0:
402,192,79472,1,0,0:0:0:0:
329,192,79660,1,0,0:0:0:0:
36,192,79660,1,0,0:0:0:0:
182,192,79660,1,0,0:0:0:0:
475,192,79660,1,0,0:0:0:0:
36,192,80036,1,0,0:0:0:0:
475,192,80223,1,0,0:0:0:0:
329,192,80223,1,0,0:0:0:0:
475,192,80411,1,0,0:0:0:0:
329,192,80411,1,0,0:0:0:0:
36,192,80787,1,0,0:0:0:0:
475,192,81162,1,0,0:0:0:0:
109,192,81162,1,0,0:0:0:0:
256,192,81162,1,0,0:0:0:0:
402,192,81162,1,0,0:0:0:0:
36,192,81537,1,0,0:0:0:0:
329,192,82288,1,0,0:0:0:0:
475,192,82288,1,0,0:0:0:0:
36,192,82288,1,0,0:0:0:0:
182,192,82288,1,0,0:0:0:0:
402,192,82476,1,0,0:0:0:0:
256,192,82476,1,0,0:0:0:0:
36,192,82664,1,0,0:0:0:0:
109,192,82664,1,0,0:0:0:0:
475,192,82664,1,0,0:0:0:0:
329,192,82664,1,0,0:0:0:0:
182,192,82664,1,0,0:0:0:0:
36,192,83039,1,0,0:0:0:0:
475,192,83227,1,0,0:0:0:0:
329,192,83227,1,0,0:0:0:0:
109,192,83415,1,0,0:0:0:0:
256,192,83415,1,0,0:0:0:0:
36,192,83790,1,0,0:0:0:0:
402,192,84166,1,0,0:0:0:0:
475,192,84166,1,0,0:0:0:0:
109,192,84166,1,0,0:0:0:0:
256,192,84166,1,0,0:0:0:0:
329,192,84541,1,0,0:0:0:0:
182,192,84541,1,0,0:0:0:0:
36,192,84541,1,0,0:0:0:0:
402,192,84729,1,0,0:0:0:0:
256,192,84729,1,0,0:0:0:0:
109,192,84917,1,0,0:0:0:0:
475,192,84917,1,0,0:0:0:0:
402,192,85104,1,0,0:0:0:0:
182,192,85104,1,0,0:0:0:0:
475,192,85292,1,0,0:0:0:0:
256,192,85292,1,0,0:0:0:0:
36,192,85292,1,0,0:0:0:0:
109,192,85480,1,0,0:0:0:0:
402,192,85480,1,0,0:0:0:0:
475,192,85668,1,0,0:0:0:0:
36,192,85668,1,0,0:0:0:0:
182,192,85668,1,0,0:0:0:0:
329,192,85668,1,0,0:0:0:0:
402,192,85761,1,0,0:0:0:0:
256,192,85761,1,0,0:0:0:0:
475,192,85855,1,0,0:0:0:0:
36,192,85855,1,0,0:0:0:0:
109,192,85855,1,0,0:0:0:0:
329,192,85949,1,0,0:0:0:0:
182,192,85949,1,0,0:0:0:0:
36,192,86043,1,0,0:0:0:0:
402,192,86043,1,0,0:0:0:0:
475,192,86043,1,0,0:0:0:0:
256,192,86137,1,0,0:0:0:0:
109,192,86137,1,0,0:0:0:0:
402,192,86231,1,0,0:0:0:0:
475,192,86231,1,0,0:0:0:0:
36,192,86231,1,0,0:0:0:0:
329,192,86325,1,0,0:0:0:0:
182,192,86325,1,0,0:0:0:0:
475,192,86419,1,0,0:0:0:0:
36,192,86419,1,0,0:0:0:0:
109,192,86419,1,0,0:0:0:0:
402,192,86512,1,0,0:0:0:0:
256,192,86512,1,0,0:0:0:0:
36,192,86606,1,0,0:0:0:0:
109,192,86606,1,0,0:0:0:0:
475,192,86606,1,0,0:0:0:0:
329,192,86700,1,0,0:0:0:0:
182,192,86700,1,0,0:0:0:0:
402,192,86794,1,0,0:0:0:0:
475,192,86794,1,0,0:0:0:0:
36,192,86794,1,0,0:0:0:0:
256,192,86888,1,0,0:0:0:0:
109,192,86888,1,0,0:0:0:0:
402,192,86982,1,0,0:0:0:0:
475,192,86982,1,0,0:0:0:0:
36,192,86982,1,0,0:0:0:0:
329,192,87076,1,0,0:0:0:0:
182,192,87076,1,0,0:0:0:0:
36,192,87170,1,0,0:0:0:0:
109,192,87170,1,0,0:0:0:0:
256,192,87170,1,0,0:0:0:0:
475,192,87263,1,0,0:0:0:0:
402,192,87263,1,0,0:0:0:0:
36,192,87357,1,0,0:0:0:0:
182,192,87357,1,0,0:0:0:0:
329,192,87357,1,0,0:0:0:0:
475,192,87451,1,0,0:0:0:0:
402,192,87451,1,0,0:0:0:0:
36,192,87545,1,0,0:0:0:0:
109,192,87545,1,0,0:0:0:0:
256,192,87545,1,0,0:0:0:0:
329,192,87639,1,0,0:0:0:0:
182,192,87639,1,0,0:0:0:0:
475,192,87733,1,0,0:0:0:0:
402,192,87733,1,0,0:0:0:0:
256,192,87733,1,0,0:0:0:0:
109,192,87827,1,0,0:0:0:0:
36,192,87827,1,0,0:0:0:0:
182,192,87920,1,0,0:0:0:0:
475,192,87920,1,0,0:0:0:0:
329,192,87920,1,0,0:0:0:0:
36,192,88014,1,0,0:0:0:0:
109,192,88014,1,0,0:0:0:0:
475,192,88108,1,0,0:0:0:0:
402,192,88108,1,0,0:0:0:0:
256,192,88108,1,0,0:0:0:0:
182,192,88202,1,0,0:0:0:0:
329,192,88202,1,0,0:0:0:0:
36,192,88296,1,0,0:0:0:0:
475,192,88296,1,0,0:0:0:0:
256,192,88296,1,0,0:0:0:0:
109,192,88296,1,0,0:0:0:0:
182,192,88390,1,0,0:0:0:0:
402,192,88390,1,0,0:0:0:0:
329,192,88390,1,0,0:0:0:0:
36,192,88484,1,0,0:0:0:0:
109,192,88484,1,0,0:0:0:0:
475,192,88484,1,0,0:0:0:0:
182,192,88578,1,0,0:0:0:0:
402,192,88578,1,0,0:0:0:0:
329,192,88578,1,0,0:0:0:0:
36,192,88671,1,0,0:0:0:0:
475,192,88671,1,0,0:0:0:0:
256,192,88671,1,0,0:0:0:0:
109,192,88671,1,0,0:0:0:0:
402,192,88765,1,0,0:0:0:0:
256,192,88859,1,0,0:0:0:0:
182,192,88953,1,0,0:0:0:0:
109,192,89047,1,0,0:0:0:0:
402,192,89047,1,0,0:0:0:0:
329,192,89141,1,0,0:0:0:0:
182,192,89235,1,0,0:0:0:0:
109,192,89328,1,0,0:0:0:0:
475,192,89422,1,0,0:0:0:0:
256,192,89422,1,0,0:0:0:0:
36,192,89422,1,0,0:0:0:0:
109,192,89516,1,0,0:0:0:0:
182,192,89516,1,0,0:0:0:0:
329,192,89516,1,0,0:0:0:0:
402,192,89516,1,0,0:0:0:0:
256,192,89610,1,0,0:0:0:0:
36,192,89610,1,0,0:0:0:0:
475,192,89610,1,0,0:0:0:0:
402,192,89704,1,0,0:0:0:0:
36,192,89798,1,0,0:0:0:0:
182,192,89798,1,0,0:0:0:0:
329,192,89798,1,0,0:0:0:0:
402,192,89892,1,0,0:0:0:0:
256,192,89892,1,0,0:0:0:0:
109,192,89892,1,0,0:0:0:0:
329,192,89986,1,0,0:0:0:0:
475,192,89986,1,0,0:0:0:0:
182,192,89986,1,0,0:0:0:0:
256,192,90079,1,0,0:0:0:0:
402,192,90079,1,0,0:0:0:0:
109,192,90079,1,0,0:0:0:0:
36,192,90173,1,0,0:0:0:0:
329,192,90173,1,0,0:0:0:0:
182,192,90173,1,0,0:0:0:0:
475,192,90173,1,0,0:0:0:0:
402,192,90267,1,0,0:0:0:0:
109,192,90267,1,0,0:0:0:0:
475,192,90361,1,0,0:0:0:0:
256,192,90361,1,0,0:0:0:0:
329,192,90455,1,0,0:0:0:0:
182,192,90455,1,0,0:0:0:0:
256,192,90549,1,0,0:0:0:0:
475,192,90549,1,0,0:0:0:0:
36,192,90549,1,0,0:0:0:0:
109,192,90549,1,0,0:0:0:0:
402,192,90643,1,0,0:0:0:0:
182,192,90643,1,0,0:0:0:0:
329,192,90736,1,0,0:0:0:0:
36,192,90736,1,0,0:0:0:0:
256,192,90830,1,0,0:0:0:0:
109,192,90830,1,0,0:0:0:0:
475,192,90924,1,0,0:0:0:0:
182,192,90924,1,0,0:0:0:0:
36,192,90924,1,0,0:0:0:0:
402,192,90924,1,0,0:0:0:0:
329,192,91018,1,0,0:0:0:0:
256,192,91018,1,0,0:0:0:0:
475,192,91112,1,0,0:0:0:0:
402,192,91112,1,0,0:0:0:0:
36,192,91112,1,0,0:0:0:0:
109,192,91112,1,0,0:0:0:0:
329,192,91206,1,0,0:0:0:0:
182,192,91206,1,0,0:0:0:0:
109,192,91300,1,0,0:0:0:0:
475,192,91300,1,0,0:0:0:0:
256,192,91394,1,0,0:0:0:0:
402,192,91394,1,0,0:0:0:0:
329,192,91487,1,0,0:0:0:0:
36,192,91487,1,0,0:0:0:0:
182,192,91487,1,0,0:0:0:0:
475,192,91487,1,0,0:0:0:0:
109,192,91581,1,0,0:0:0:0:
256,192,91581,1,0,0:0:0:0:
329,192,91675,1,0,0:0:0:0:
36,192,91675,1,0,0:0:0:0:
475,192,91675,1,0,0:0:0:0:
256,192,91769,1,0,0:0:0:0:
109,192,91769,1,0,0:0:0:0:
182,192,91863,1,0,0:0:0:0:
402,192,91863,1,0,0:0:0:0:
36,192,91957,1,0,0:0:0:0:
329,192,91957,1,0,0:0:0:0:
109,192,92051,1,0,0:0:0:0:
402,192,92051,1,0,0:0:0:0:
182,192,92051,1,0,0:0:0:0:
256,192,92051,1,0,0:0:0:0:
475,192,92051,1,0,0:0:0:0:
329,192,92144,1,0,0:0:0:0:
36,192,92144,1,0,0:0:0:0:
475,192,92238,1,0,0:0:0:0:
182,192,92238,1,0,0:0:0:0:
256,192,92332,1,0,0:0:0:0:
402,192,92332,1,0,0:0:0:0:
109,192,92426,1,0,0:0:0:0:
36,192,92426,1,0,0:0:0:0:
329,192,92426,1,0,0:0:0:0:
475,192,92520,1,0,0:0:0:0:
182,192,92520,1,0,0:0:0:0:
402,192,92614,1,0,0:0:0:0:
109,192,92614,1,0,0:0:0:0:
256,192,92614,1,0,0:0:0:0:
36,192,92614,1,0,0:0:0:0:
329,192,92708,1,0,0:0:0:0:
182,192,92708,1,0,0:0:0:0:
36,192,92802,1,0,0:0:0:0:
402,192,92802,1,0,0:0:0:0:
256,192,92802,1,0,0:0:0:0:
475,192,92802,1,0,0:0:0:0:
109,192,92895,1,0,0:0:0:0:
329,192,92895,1,0,0:0:0:0:
402,192,92989,1,0,0:0:0:0:
475,192,92989,1,0,0:0:0:0:
36,192,92989,1,0,0:0:0:0:
182,192,92989,1,0,0:0:0:0:
109,192,93083,1,0,0:0:0:0:
329,192,93083,1,0,0:0:0:0:
256,192,93177,1,0,0:0:0:0:
475,192,93177,1,0,0:0:0:0:
402,192,93177,1,0,0:0:0:0:
36,192,93177,1,0,0:0:0:0:
182,192,93271,1,0,0:0:0:0:
329,192,93271,1,0,0:0:0:0:
475,192,93365,1,0,0:0:0:0:
256,192,93365,1,0,0:0:0:0:
109,192,93365,1,0,0:0:0:0:
36,192,93365,1,0,0:0:0:0:
182,192,93459,1,0,0:0:0:0:
402,192,93459,1,0,0:0:0:0:
475,192,93552,1,0,0:0:0:0:
36,192,93552,1,0,0:0:0:0:
329,192,93552,1,0,0:0:0:0:
256,192,93646,1,0,0:0:0:0:
109,192,93646,1,0,0:0:0:0:
182,192,93740,1,0,0:0:0:0:
36,192,93740,1,0,0:0:0:0:
402,192,93740,1,0,0:0:0:0:
475,192,93740,1,0,0:0:0:0:
256,192,93834,1,0,0:0:0:0:
329,192,93834,1,0,0:0:0:0:
182,192,93928,1,0,0:0:0:0:
475,192,93928,1,0,0:0:0:0:
109,192,93928,1,0,0:0:0:0:
329,192,94022,1,0,0:0:0:0:
402,192,94022,1,0,0:0:0:0:
109,192,94116,1,0,0:0:0:0:
36,192,94116,1,0,0:0:0:0:
256,192,94116,1,0,0:0:0:0:
475,192,94116,1,0,0:0:0:0:
182,192,94210,1,0,0:0:0:0:
329,192,94210,1,0,0:0:0:0:
36,192,94303,1,0,0:0:0:0:
256,192,94303,1,0,0:0:0:0:
475,192,94303,1,0,0:0:0:0:
109,192,94397,1,0,0:0:0:0:
402,192,94397,1,0,0:0:0:0:
182,192,94491,1,0,0:0:0:0:
36,192,94491,1,0,0:0:0:0:
475,192,94491,1,0,0:0:0:0:
329,192,94491,1,0,0:0:0:0:
256,192,94585,1,0,0:0:0:0:
402,192,94585,1,0,0:0:0:0:
109,192,94679,1,0,0:0:0:0:
36,192,94679,1,0,0:0:0:0:
475,192,94679,1,0,0:0:0:0:
329,192,94773,1,0,0:0:0:0:
182,192,94773,1,0,0:0:0:0:
475,192,94867,1,0,0:0:0:0:
36,192,94867,1,0,0:0:0:0:
256,192,94867,1,0,0:0:0:0:
402,192,94867,1,0,0:0:0:0:
329,192,94960,1,0,0:0:0:0:
109,192,94960,1,0,0:0:0:0:
36,192,95054,1,0,0:0:0:0:
475,192,95054,1,0,0:0:0:0:
182,192,95054,1,0,0:0:0:0:
402,192,95148,1,0,0:0:0:0:
256,192,95148,1,0,0:0:0:0:
329,192,95242,1,0,0:0:0:0:
36,192,95242,1,0,0:0:0:0:
182,192,95242,1,0,0:0:0:0:
475,192,95242,1,0,0:0:0:0:
256,192,95336,1,0,0:0:0:0:
109,192,95336,1,0,0:0:0:0:
475,192,95430,1,0,0:0:0:0:
36,192,95430,1,0,0:0:0:0:
329,192,95430,1,0,0:0:0:0:
402,192,95524,1,0,0:0:0:0:
182,192,95524,1,0,0:0:0:0:
329,192,95618,1,0,0:0:0:0:
109,192,95618,1,0,0:0:0:0:
256,192,95711,1,0,0:0:0:0:
475,192,95711,1,0,0:0:0:0:
402,192,95805,1,0,0:0:0:0:
36,192,95805,1,0,0:0:0:0:
182,192,95805,1,0,0:0:0:0:
109,192,95899,1,0,0:0:0:0:
329,192,95899,1,0,0:0:0:0:
402,192,95993,1,0,0:0:0:0:
182,192,95993,1,0,0:0:0:0:
329,192,96087,1,0,0:0:0:0:
109,192,96087,1,0,0:0:0:0:
256,192,96181,1,0,0:0:0:0:
36,192,96181,1,0,0:0:0:0:
475,192,96181,1,0,0:0:0:0:
402,192,96181,1,0,0:0:0:0:
329,192,96275,1,0,0:0:0:0:
109,192,96275,1,0,0:0:0:0:
182,192,96369,1,0,0:0:0:0:
475,192,96369,1,0,0:0:0:0:
256,192,96462,1,0,0:0:0:0:
402,192,96462,1,0,0:0:0:0:
329,192,96556,1,0,0:0:0:0:
475,192,96556,1,0,0:0:0:0:
182,192,96556,1,0,0:0:0:0:
36,192,96556,1,0,0:0:0:0:
109,192,96650,1,0,0:0:0:0:
402,192,96650,1,0,0:0:0:0:
475,192,96744,1,0,0:0:0:0:
182,192,96744,1,0,0:0:0:0:
329,192,96744,1,0,0:0:0:0:
36,192,96744,1,0,0:0:0:0:
256,192,96838,1,0,0:0:0:0:
109,192,96838,1,0,0:0:0:0:
36,192,96932,1,0,0:0:0:0:
475,192,96932,1,0,0:0:0:0:
329,192,96932,1,0,0:0:0:0:
402,192,97026,1,0,0:0:0:0:
182,192,97026,1,0,0:0:0:0:
256,192,97119,1,0,0:0:0:0:
475,192,97119,1,0,0:0:0:0:
109,192,97119,1,0,0:0:0:0:
36,192,97119,1,0,0:0:0:0:
182,192,97213,1,0,0:0:0:0:
329,192,97213,1,0,0:0:0:0:
256,192,97307,1,0,0:0:0:0:
402,192,97307,1,0,0:0:0:0:
36,192,97307,1,0,0:0:0:0:
182,192,97401,1,0,0:0:0:0:
329,192,97401,1,0,0:0:0:0:
36,192,97495,1,0,0:0:0:0:
475,192,97495,1,0,0:0:0:0:
402,192,97495,1,0,0:0:0:0:
109,192,97495,1,0,0:0:0:0:
329,192,97589,1,0,0:0:0:0:
182,192,97589,1,0,0:0:0:0:
36,192,97683,1,0,0:0:0:0:
256,192,97683,1,0,0:0:0:0:
475,192,97683,1,0,0:0:0:0:
402,192,97777,1,0,0:0:0:0:
109,192,97777,1,0,0:0:0:0:
329,192,97870,1,0,0:0:0:0:
182,192,97870,1,0,0:0:0:0:
109,192,97964,1,0,0:0:0:0:
256,192,97964,1,0,0:0:0:0:
36,192,98058,1,0,0:0:0:0:
475,192,98058,1,0,0:0:0:0:
182,192,98058,1,0,0:0:0:0:
402,192,98058,1,0,0:0:0:0:
329,192,98058,1,0,0:0:0:0:
109,192,98152,1,0,0:0:0:0:
256,192,98152,1,0,0:0:0:0:
182,192,98246,1,0,0:0:0:0:
329,192,98246,1,0,0:0:0:0:
402,192,98340,1,0,0:0:0:0:
256,192,98340,1,0,0:0:0:0:
182,192,98434,1,0,0:0:0:0:
475,192,98434,1,0,0:0:0:0:
36,192,98434,1,0,0:0:0:0:
256,192,98527,1,0,0:0:0:0:
402,192,98527,1,0,0:0:0:0:
109,192,98621,1,0,0:0:0:0:
329,192,98621,1,0,0:0:0:0:
475,192,98715,1,0,0:0:0:0:
182,192,98715,1,0,0:0:0:0:
256,192,98809,1,0,0:0:0:0:
402,192,98809,1,0,0:0:0:0:
36,192,98809,1,0,0:0:0:0:
329,192,98903,1,0,0:0:0:0:
182,192,98903,1,0,0:0:0:0:
36,192,98997,1,0,0:0:0:0:
475,192,98997,1,0,0:0:0:0:
402,192,98997,1,0,0:0:0:0:
109,192,98997,1,0,0:0:0:0:
329,192,99091,1,0,0:0:0:0:
182,192,99091,1,0,0:0:0:0:
475,192,99185,1,0,0:0:0:0:
36,192,99185,1,0,0:0:0:0:
402,192,99185,1,0,0:0:0:0:
256,192,99185,1,0,0:0:0:0:
329,192,99278,1,0,0:0:0:0:
109,192,99278,1,0,0:0:0:0:
182,192,99372,1,0,0:0:0:0:
475,192,99372,1,0,0:0:0:0:
402,192,99466,1,0,0:0:0:0:
109,192,99466,1,0,0:0:0:0:
329,192,99560,1,0,0:0:0:0:
475,192,99560,1,0,0:0:0:0:
182,192,99560,1,0,0:0:0:0:
36,192,99560,1,0,0:0:0:0:
256,192,99654,1,0,0:0:0:0:
402,192,99654,1,0,0:0:0:0:
109,192,99748,1,0,0:0:0:0:
329,192,99748,1,0,0:0:0:0:
402,192,99842,1,0,0:0:0:0:
182,192,99842,1,0,0:0:0:0:
256,192,99935,1,0,0:0:0:0:
475,192,99935,1,0,0:0:0:0:
36,192,99935,1,0,0:0:0:0:
109,192,99935,1,0,0:0:0:0:
402,192,100029,1,0,0:0:0:0:
182,192,100029,1,0,0:0:0:0:
36,192,100123,1,0,0:0:0:0:
256,192,100123,1,0,0:0:0:0:
109,192,100217,1,0,0:0:0:0:
329,192,100217,1,0,0:0:0:0:
36,192,100311,1,0,0:0:0:0:
182,192,100311,1,0,0:0:0:0:
402,192,100311,1,0,0:0:0:0:
475,192,100311,1,0,0:0:0:0:
329,192,100405,1,0,0:0:0:0:
256,192,100405,1,0,0:0:0:0:
36,192,100499,1,0,0:0:0:0:
182,192,100499,1,0,0:0:0:0:
402,192,100499,1,0,0:0:0:0:
475,192,100499,1,0,0:0:0:0:
329,192,100593,1,0,0:0:0:0:
109,192,100593,1,0,0:0:0:0:
402,192,100686,1,0,0:0:0:0:
475,192,100686,1,0,0:0:0:0:
36,192,100686,1,0,0:0:0:0:
256,192,100686,1,0,0:0:0:0:
329,192,100780,1,0,0:0:0:0:
182,192,100780,1,0,0:0:0:0:
402,192,100874,1,0,0:0:0:0:
109,192,100874,1,0,0:0:0:0:
329,192,100968,1,0,0:0:0:0:
182,192,100968,1,0,0:0:0:0:
36,192,101062,1,0,0:0:0:0:
256,192,101062,1,0,0:0:0:0:
475,192,101062,1,0,0:0:0:0:
402,192,101062,1,0,0:0:0:0:
329,192,101156,1,0,0:0:0:0:
109,192,101156,1,0,0:0:0:0:
475,192,101250,1,0,0:0:0:0:
182,192,101250,1,0,0:0:0:0:
36,192,101250,1,0,0:0:0:0:
402,192,101250,1,0,0:0:0:0:
256,192,101343,1,0,0:0:0:0:
109,192,101343,1,0,0:0:0:0:
475,192,101437,1,0,0:0:0:0:
182,192,101437,1,0,0:0:0:0:
329,192,101437,1,0,0:0:0:0:
256,192,101531,1,0,0:0:0:0:
402,192,101531,1,0,0:0:0:0:
329,192,101625,1,0,0:0:0:0:
36,192,101625,1,0,0:0:0:0:
475,192,101625,1,0,0:0:0:0:
182,192,101625,1,0,0:0:0:0:
256,192,101719,1,0,0:0:0:0:
109,192,101719,1,0,0:0:0:0:
402,192,101813,1,0,0:0:0:0:
36,192,101813,1,0,0:0:0:0:
329,192,101907,1,0,0:0:0:0:
182,192,101907,1,0,0:0:0:0:
36,192,102001,1,0,0:0:0:0:
475,192,102001,1,0,0:0:0:0:
109,192,102001,1,0,0:0:0:0:
402,192,102001,1,0,0:0:0:0:
329,192,102094,1,0,0:0:0:0:
182,192,102094,1,0,0:0:0:0:
475,192,102188,1,0,0:0:0:0:
36,192,102188,1,0,0:0:0:0:
109,192,102188,1,0,0:0:0:0:
256,192,102188,1,0,0:0:0:0:
402,192,102282,1,0,0:0:0:0:
329,192,102282,1,0,0:0:0:0:
182,192,102376,1,0,0:0:0:0:
109,192,102376,1,0,0:0:0:0:
256,192,102470,1,0,0:0:0:0:
329,192,102470,1,0,0:0:0:0:
36,192,102564,1,0,0:0:0:0:
182,192,102564,1,0,0:0:0:0:
475,192,102564,1,0,0:0:0:0:
402,192,102564,1,0,0:0:0:0:
329,192,102658,1,0,0:0:0:0:
109,192,102658,1,0,0:0:0:0:
36,192,102751,1,0,0:0:0:0:
256,192,102751,1,0,0:0:0:0:
329,192,102845,1,0,0:0:0:0:
182,192,102845,1,0,0:0:0:0:
475,192,102939,1,0,0:0:0:0:
36,192,102939,1,0,0:0:0:0:
402,192,102939,1,0,0:0:0:0:
109,192,102939,1,0,0:0:0:0:
329,192,103033,1,0,0:0:0:0:
182,192,103033,1,0,0:0:0:0:
475,192,103127,1,0,0:0:0:0:
402,192,103127,1,0,0:0:0:0:
36,192,103127,1,0,0:0:0:0:
256,192,103127,1,0,0:0:0:0:
329,192,103221,1,0,0:0:0:0:
109,192,103221,1,0,0:0:0:0:
182,192,103315,1,0,0:0:0:0:
402,192,103315,1,0,0:0:0:0:
329,192,103409,1,0,0:0:0:0:
109,192,103409,1,0,0:0:0:0:
256,192,103502,1,0,0:0:0:0:
36,192,103502,1,0,0:0:0:0:
475,192,103502,1,0,0:0:0:0:
402,192,103502,1,0,0:0:0:0:
109,192,103596,1,0,0:0:0:0:
329,192,103596,1,0,0:0:0:0:
475,192,103690,1,0,0:0:0:0:
36,192,103690,1,0,0:0:0:0:
182,192,103690,1,0,0:0:0:0:
402,192,103784,1,0,0:0:0:0:
256,192,103784,1,0,0:0:0:0:
109,192,103878,1,0,0:0:0:0:
475,192,103878,1,0,0:0:0:0:
182,192,103972,1,0,0:0:0:0:
329,192,103972,1,0,0:0:0:0:
36,192,104066,1,0,0:0:0:0:
402,192,104066,1,0,0:0:0:0:
109,192,104066,1,0,0:0:0:0:
256,192,104066,1,0,0:0:0:0:
475,192,104066,1,0,0:0:0:0:
329,192,104159,1,0,0:0:0:0:
182,192,104159,1,0,0:0:0:0:
475,192,104253,1,0,0:0:0:0:
109,192,104253,1,0,0:0:0:0:
256,192,104347,1,0,0:0:0:0:
402,192,104347,1,0,0:0:0:0:
182,192,104441,1,0,0:0:0:0:
36,192,104441,1,0,0:0:0:0:
329,192,104441,1,0,0:0:0:0:
402,192,104535,1,0,0:0:0:0:
109,192,104535,1,0,0:0:0:0:
475,192,104629,1,0,0:0:0:0:
182,192,104629,1,0,0:0:0:0:
329,192,104629,1,0,0:0:0:0:
36,192,104629,1,0,0:0:0:0:
256,192,104723,1,0,0:0:0:0:
402,192,104723,1,0,0:0:0:0:
36,192,104817,1,0,0:0:0:0:
475,192,104817,1,0,0:0:0:0:
329,192,104817,1,0,0:0:0:0:
109,192,104817,1,0,0:0:0:0:
256,192,104910,1,0,0:0:0:0:
402,192,104910,1,0,0:0:0:0:
329,192,105004,1,0,0:0:0:0:
475,192,105004,1,0,0:0:0:0:
36,192,105004,1,0,0:0:0:0:
182,192,105004,1,0,0:0:0:0:
109,192,105098,1,0,0:0:0:0:
402,192,105098,1,0,0:0:0:0:
182,192,105192,1,0,0:0:0:0:
475,192,105192,1,0,0:0:0:0:
329,192,105192,1,0,0:0:0:0:
36,192,105192,1,0,0:0:0:0:
256,192,105286,1,0,0:0:0:0:
402,192,105286,1,0,0:0:0:0:
475,192,105380,1,0,0:0:0:0:
109,192,105380,1,0,0:0:0:0:
182,192,105380,1,0,0:0:0:0:
36,192,105380,1,0,0:0:0:0:
329,192,105474,1,0,0:0:0:0:
402,192,105474,1,0,0:0:0:0:
475,192,105568,1,0,0:0:0:0:
109,192,105568,1,0,0:0:0:0:
256,192,105568,1,0,0:0:0:0:
329,192,105661,1,0,0:0:0:0:
182,192,105661,1,0,0:0:0:0:
256,192,105755,1,0,0:0:0:0:
36,192,105755,1,0,0:0:0:0:
109,192,105755,1,0,0:0:0:0:
475,192,105755,1,0,0:0:0:0:
402,192,105849,1,0,0:0:0:0:
182,192,105849,1,0,0:0:0:0:
36,192,105943,1,0,0:0:0:0:
475,192,105943,1,0,0:0:0:0:
329,192,105943,1,0,0:0:0:0:
109,192,106037,1,0,0:0:0:0:
256,192,106037,1,0,0:0:0:0:
182,192,106131,1,0,0:0:0:0:
36,192,106131,1,0,0:0:0:0:
329,192,106131,1,0,0:0:0:0:
475,192,106131,1,0,0:0:0:0:
256,192,106225,1,0,0:0:0:0:
402,192,106225,1,0,0:0:0:0:
475,192,106318,1,0,0:0:0:0:
109,192,106318,1,0,0:0:0:0:
329,192,106318,1,0,0:0:0:0:
182,192,106412,1,0,0:0:0:0:
402,192,106412,1,0,0:0:0:0:
109,192,106506,1,0,0:0:0:0:
36,192,106506,1,0,0:0:0:0:
475,192,106506,1,0,0:0:0:0:
256,192,106506,1,0,0:0:0:0:
182,192,106600,1,0,0:0:0:0:
329,192,106600,1,0,0:0:0:0:
256,192,106694,1,0,0:0:0:0:
36,192,106694,1,0,0:0:0:0:
402,192,106694,1,0,0:0:0:0:
329,192,106788,1,0,0:0:0:0:
182,192,106788,1,0,0:0:0:0:
475,192,106882,1,0,0:0:0:0:
36,192,106882,1,0,0:0:0:0:
109,192,106882,1,0,0:0:0:0:
402,192,106882,1,0,0:0:0:0:
329,192,106976,1,0,0:0:0:0:
182,192,106976,1,0,0:0:0:0:
36,192,107069,1,0,0:0:0:0:
475,192,107069,1,0,0:0:0:0:
256,192,107069,1,0,0:0:0:0:
402,192,107163,1,0,0:0:0:0:
109,192,107163,1,0,0:0:0:0:
182,192,107257,1,0,0:0:0:0:
36,192,107257,1,0,0:0:0:0:
475,192,107257,1,0,0:0:0:0:
329,192,107257,1,0,0:0:0:0:
256,192,107351,1,0,0:0:0:0:
109,192,107351,1,0,0:0:0:0:
475,192,107445,1,0,0:0:0:0:
36,192,107445,1,0,0:0:0:0:
329,192,107445,1,0,0:0:0:0:
402,192,107539,1,0,0:0:0:0:
182,192,107539,1,0,0:0:0:0:
329,192,107633,1,0,0:0:0:0:
109,192,107633,1,0,0:0:0:0:
182,192,107726,1,0,0:0:0:0:
402,192,107726,1,0,0:0:0:0:
475,192,107820,1,0,0:0:0:0:
36,192,107820,1,0,0:0:0:0:
256,192,107820,1,0,0:0:0:0:
109,192,107914,1,0,0:0:0:0:
402,192,107914,1,0,0:0:0:0:
329,192,108008,1,0,0:0:0:0:
182,192,108008,1,0,0:0:0:0:
256,192,108102,1,0,0:0:0:0:
109,192,108102,1,0,0:0:0:0:
329,192,108196,1,0,0:0:0:0:
36,192,108196,1,0,0:0:0:0:
475,192,108196,1,0,0:0:0:0:
402,192,108196,1,0,0:0:0:0:
109,192,108290,1,0,0:0:0:0:
256,192,108290,1,0,0:0:0:0:
182,192,108384,1,0,0:0:0:0:
329,192,108384,1,0,0:0:0:0:
256,192,108477,1,0,0:0:0:0:
402,192,108477,1,0,0:0:0:0:
475,192,108571,1,0,0:0:0:0:
329,192,108571,1,0,0:0:0:0:
109,192,108571,1,0,0:0:0:0:
36,192,108571,1,0,0:0:0:0:
402,192,108665,1,0,0:0:0:0:
182,192,108665,1,0,0:0:0:0:
109,192,108759,1,0,0:0:0:0:
256,192,108759,1,0,0:0:0:0:
475,192,108759,1,0,0:0:0:0:
36,192,108759,1,0,0:0:0:0:
329,192,108853,1,0,0:0:0:0:
182,192,108853,1,0,0:0:0:0:
402,192,108947,1,0,0:0:0:0:
475,192,108947,1,0,0:0:0:0:
36,192,108947,1,0,0:0:0:0:
256,192,109041,1,0,0:0:0:0:
109,192,109041,1,0,0:0:0:0:
329,192,109134,1,0,0:0:0:0:
475,192,109134,1,0,0:0:0:0:
182,192,109134,1,0,0:0:0:0:
36,192,109134,1,0,0:0:0:0:
256,192,109228,1,0,0:0:0:0:
402,192,109228,1,0,0:0:0:0:
182,192,109322,1,0,0:0:0:0:
329,192,109322,1,0,0:0:0:0:
36,192,109322,1,0,0:0:0:0:
109,192,109416,1,0,0:0:0:0:
475,192,109416,1,0,0:0:0:0:
36,192,109510,1,0,0:0:0:0:
402,192,109510,1,0,0:0:0:0:
256,192,109510,1,0,0:0:0:0:
329,192,109510,1,0,0:0:0:0:
475,192,109604,1,0,0:0:0:0:
109,192,109604,1,0,0:0:0:0:
36,192,109698,1,0,0:0:0:0:
256,192,109698,1,0,0:0:0:0:
402,192,109698,1,0,0:0:0:0:
329,192,109792,1,0,0:0:0:0:
182,192,109792,1,0,0:0:0:0:
475,192,109885,1,0,0:0:0:0:
109,192,109885,1,0,0:0:0:0:
256,192,109979,1,0,0:0:0:0:
402,192,109979,1,0,0:0:0:0:
36,192,110073,1,0,0:0:0:0:
475,192,110073,1,0,0:0:0:0:
109,192,110073,1,0,0:0:0:0:
329,192,110073,1,0,0:0:0:0:
182,192,110073,1,0,0:0:0:0:
256,192,110167,1,0,0:0:0:0:
402,192,110167,1,0,0:0:0:0:
109,192,110261,1,0,0:0:0:0:
475,192,110261,1,0,0:0:0:0:
329,192,110355,1,0,0:0:0:0:
182,192,110355,1,0,0:0:0:0:
256,192,110449,1,0,0:0:0:0:
402,192,110449,1,0,0:0:0:0:
36,192,110449,1,0,0:0:0:0:
109,192,110542,1,0,0:0:0:0:
475,192,110542,1,0,0:0:0:0:
182,192,110636,1,0,0:0:0:0:
402,192,110636,1,0,0:0:0:0:
329,192,110730,1,0,0:0:0:0:
109,192,110730,1,0,0:0:0:0:
256,192,110824,1,0,0:0:0:0:
475,192,110824,1,0,0:0:0:0:
36,192,110824,1,0,0:0:0:0:
329,192,110918,1,0,0:0:0:0:
182,192,110918,1,0,0:0:0:0:
109,192,111012,1,0,0:0:0:0:
402,192,111012,1,0,0:0:0:0:
329,192,111106,1,0,0:0:0:0:
182,192,111106,1,0,0:0:0:0:
475,192,111200,1,0,0:0:0:0:
36,192,111200,1,0,0:0:0:0:
256,192,111200,1,0,0:0:0:0:
402,192,111200,1,0,0:0:0:0:
182,192,111293,1,0,0:0:0:0:
329,192,111293,1,0,0:0:0:0:
109,192,111293,1,0,0:0:0:0:
475,192,111387,1,0,0:0:0:0:
256,192,111387,1,0,0:0:0:0:
36,192,111387,1,0,0:0:0:0:
329,192,111481,1,0,0:0:0:0:
402,192,111481,1,0,0:0:0:0:
182,192,111481,1,0,0:0:0:0:
109,192,111575,1,0,0:0:0:0:
256,192,111575,1,0,0:0:0:0:
475,192,111575,1,0,0:0:0:0:
36,192,111669,1,0,0:0:0:0:
182,192,111669,1,0,0:0:0:0:
402,192,111669,1,0,0:0:0:0:
475,192,111763,1,0,0:0:0:0:
109,192,111763,1,0,0:0:0:0:
329,192,111763,1,0,0:0:0:0:
36,192,111857,1,0,0:0:0:0:
402,192,111857,1,0,0:0:0:0:
256,192,111857,1,0,0:0:0:0:
475,192,111950,1,0,0:0:0:0:
329,192,111950,1,0,0:0:0:0:
182,192,111950,1,0,0:0:0:0:
256,192,112044,1,0,0:0:0:0:
109,192,112044,1,0,0:0:0:0:
402,192,112044,1,0,0:0:0:0:
182,192,112138,1,0,0:0:0:0:
329,192,112138,1,0,0:0:0:0:
36,192,112138,1,0,0:0:0:0:
402,192,112232,1,0,0:0:0:0:
256,192,112232,1,0,0:0:0:0:
109,192,112232,1,0,0:0:0:0:
36,192,112326,1,0,0:0:0:0:
475,192,112326,1,0,0:0:0:0:
329,192,112326,1,0,0:0:0:0:
109,192,112420,1,0,0:0:0:0:
402,192,112420,1,0,0:0:0:0:
182,192,112420,1,0,0:0:0:0:
36,192,112514,1,0,0:0:0:0:
475,192,112514,1,0,0:0:0:0:
256,192,112514,1,0,0:0:0:0:
182,192,112608,1,0,0:0:0:0:
402,192,112608,1,0,0:0:0:0:
329,192,112608,1,0,0:0:0:0:
36,192,112701,1,0,0:0:0:0:
256,192,112701,1,0,0:0:0:0:
109,192,112701,1,0,0:0:0:0:
475,192,112701,1,0,0:0:0:0:
329,192,112795,1,0,0:0:0:0:
402,192,112795,1,0,0:0:0:0:
182,192,112795,1,0,0:0:0:0:
36,192,112889,1,0,0:0:0:0:
475,192,112889,1,0,0:0:0:0:
256,192,112889,1,0,0:0:0:0:
402,192,112983,1,0,0:0:0:0:
182,192,112983,1,0,0:0:0:0:
109,192,112983,1,0,0:0:0:0:
329,192,113077,1,0,0:0:0:0:
36,192,113077,1,0,0:0:0:0:
475,192,113077,1,0,0:0:0:0:
109,192,113171,1,0,0:0:0:0:
256,192,113171,1,0,0:0:0:0:
402,192,113171,1,0,0:0:0:0:
329,192,113265,1,0,0:0:0:0:
182,192,113265,1,0,0:0:0:0:
36,192,113265,1,0,0:0:0:0:
475,192,113358,1,0,0:0:0:0:
402,192,113358,1,0,0:0:0:0:
256,192,113358,1,0,0:0:0:0:
109,192,113452,1,0,0:0:0:0:
36,192,113452,1,0,0:0:0:0:
329,192,113452,1,0,0:0:0:0:
402,192,113546,1,0,0:0:0:0:
182,192,113546,1,0,0:0:0:0:
475,192,113546,1,0,0:0:0:0:
109,192,113640,1,0,0:0:0:0:
36,192,113640,1,0,0:0:0:0:
256,192,113640,1,0,0:0:0:0:
329,192,113734,1,0,0:0:0:0:
475,192,113734,1,0,0:0:0:0:
182,192,113734,1,0,0:0:0:0:
402,192,113828,1,0,0:0:0:0:
109,192,113828,1,0,0:0:0:0:
36,192,113828,1,0,0:0:0:0:
256,192,113828,1,0,0:0:0:0:
329,192,113922,1,0,0:0:0:0:
182,192,113922,1,0,0:0:0:0:
109,192,114016,1,0,0:0:0:0:
256,192,114016,1,0,0:0:0:0:
475,192,114016,1,0,0:0:0:0:
36,192,114016,1,0,0:0:0:0:
402,192,114016,1,0,0:0:0:0:
329,192,114109,1,0,0:0:0:0:
182,192,114109,1,0,0:0:0:0:
256,192,114203,1,0,0:0:0:0:
475,192,114203,1,0,0:0:0:0:
36,192,114203,1,0,0:0:0:0:
329,192,114297,1,0,0:0:0:0:
109,192,114297,1,0,0:0:0:0:
182,192,114297,1,0,0:0:0:0:
402,192,114297,1,0,0:0:0:0:
329,192,114579,1,0,0:0:0:0:
182,192,114579,1,0,0:0:0:0:
36,192,114579,1,0,0:0:0:0:
402,192,114673,1,0,0:0:0:0:
475,192,114673,1,0,0:0:0:0:
256,192,114673,1,0,0:0:0:0:
36,192,114767,1,0,0:0:0:0:
182,192,114767,1,0,0:0:0:0:
329,192,114767,1,0,0:0:0:0:
475,192,114860,1,0,0:0:0:0:
402,192,114860,1,0,0:0:0:0:
256,192,114860,1,0,0:0:0:0:
109,192,115048,1,0,0:0:0:0:
36,192,115048,1,0,0:0:0:0:
329,192,115048,1,0,0:0:0:0:
182,192,115142,1,0,0:0:0:0:
475,192,115142,1,0,0:0:0:0:
109,192,115236,1,0,0:0:0:0:
36,192,115236,1,0,0:0:0:0:
329,192,115236,1,0,0:0:0:0:
182,192,115330,1,0,0:0:0:0:
475,192,115330,1,0,0:0:0:0:
109,192,115424,1,0,0:0:0:0:
329,192,115424,1,0,0:0:0:0:
36,192,115424,1,0,0:0:0:0:
182,192,115517,1,0,0:0:0:0:
475,192,115517,1,0,0:0:0:0:
109,192,115611,1,0,0:0:0:0:
36,192,115611,1,0,0:0:0:0:
329,192,115611,1,0,0:0:0:0:
256,192,115705,1,0,0:0:0:0:
402,192,115705,1,0,0:0:0:0:
475,192,115705,1,0,0:0:0:0:
329,192,115799,1,0,0:0:0:0:
36,192,115799,1,0,0:0:0:0:
182,192,115799,1,0,0:0:0:0:
475,192,115893,1,0,0:0:0:0:
256,192,115893,1,0,0:0:0:0:
109,192,115893,1,0,0:0:0:0:
36,192,115987,1,0,0:0:0:0:
402,192,115987,1,0,0:0:0:0:
182,192,115987,1,0,0:0:0:0:
475,192,116081,1,0,0:0:0:0:
329,192,116081,1,0,0:0:0:0:
109,192,116081,1,0,0:0:0:0:
256,192,116175,1,0,0:0:0:0:
402,192,116268,1,0,0:0:0:0:
36,192,116268,1,0,0:0:0:0:
182,192,116268,1,0,0:0:0:0:
475,192,116268,1,0,0:0:0:0:
329,192,116362,1,0,0:0:0:0:
256,192,116456,1,0,0:0:0:0:
475,192,116456,1,0,0:0:0:0:
402,192,116456,1,0,0:0:0:0:
109,192,116456,1,0,0:0:0:0:
36,192,116456,1,0,0:0:0:0:
182,192,116550,1,0,0:0:0:0:
36,192,116644,1,0,0:0:0:0:
329,192,116644,1,0,0:0:0:0:
475,192,116644,1,0,0:0:0:0:
109,192,116644,1,0,0:0:0:0:
256,192,116738,1,0,0:0:0:0:
36,192,116832,1,0,0:0:0:0:
402,192,116832,1,0,0:0:0:0:
475,192,116832,1,0,0:0:0:0:
182,192,116832,1,0,0:0:0:0:
256,192,116925,1,0,0:0:0:0:
329,192,116925,1,0,0:0:0:0:
109,192,116925,1,0,0:0:0:0:
402,192,117019,1,0,0:0:0:0:
36,192,117019,1,0,0:0:0:0:
475,192,117019,1,0,0:0:0:0:
329,192,117113,1,0,0:0:0:0:
182,192,117113,1,0,0:0:0:0:
109,192,117113,1,0,0:0:0:0:
475,192,117207,1,0,0:0:0:0:
402,192,117207,1,0,0:0:0:0:
256,192,117207,1,0,0:0:0:0:
36,192,117207,1,0,0:0:0:0:
329,192,117301,1,0,0:0:0:0:
109,192,117301,1,0,0:0:0:0:
36,192,117395,1,0,0:0:0:0:
182,192,117395,1,0,0:0:0:0:
475,192,117395,1,0,0:0:0:0:
402,192,117489,1,0,0:0:0:0:
256,192,117489,1,0,0:0:0:0:
329,192,117583,1,0,0:0:0:0:
182,192,117583,1,0,0:0:0:0:
36,192,117583,1,0,0:0:0:0:
475,192,117583,1,0,0:0:0:0:
256,192,117676,1,0,0:0:0:0:
109,192,117676,1,0,0:0:0:0:
475,192,117770,1,0,0:0:0:0:
402,192,117770,1,0,0:0:0:0:
36,192,117770,1,0,0:0:0:0:
329,192,117864,1,0,0:0:0:0:
182,192,117864,1,0,0:0:0:0:
36,192,117958,1,0,0:0:0:0:
402,192,117958,1,0,0:0:0:0:
475,192,117958,1,0,0:0:0:0:
109,192,117958,1,0,0:0:0:0:
256,192,117958,1,0,0:0:0:0:
182,192,118052,1,0,0:0:0:0:
329,192,118146,1,0,0:0:0:0:
109,192,118146,1,0,0:0:0:0:
402,192,118146,1,0,0:0:0:0:
475,192,118146,1,0,0:0:0:0:
256,192,118240,1,0,0:0:0:0:
182,192,118333,1,0,0:0:0:0:
109,192,118333,1,0,0:0:0:0:
36,192,118333,1,0,0:0:0:0:
475,192,118333,1,0,0:0:0:0:
402,192,118333,1,0,0:0:0:0:
329,192,118427,1,0,0:0:0:0:
109,192,118521,1,0,0:0:0:0:
475,192,118521,1,0,0:0:0:0:
256,192,118521,1,0,0:0:0:0:
36,192,118521,1,0,0:0:0:0:
402,192,118615,1,0,0:0:0:0:
475,192,118709,1,0,0:0:0:0:
36,192,118709,1,0,0:0:0:0:
329,192,118709,1,0,0:0:0:0:
182,192,118709,1,0,0:0:0:0:
402,192,118803,1,0,0:0:0:0:
109,192,118803,1,0,0:0:0:0:
256,192,118803,1,0,0:0:0:0:
182,192,118897,1,0,0:0:0:0:
329,192,118897,1,0,0:0:0:0:
475,192,118991,1,0,0:0:0:0:
256,192,118991,1,0,0:0:0:0:
36,192,118991,1,0,0:0:0:0:
182,192,119084,1,0,0:0:0:0:
329,192,119084,1,0,0:0:0:0:
402,192,119084,1,0,0:0:0:0:
109,192,119084,1,0,0:0:0:0:
256,192,119178,1,0,0:0:0:0:
475,192,119272,1,0,0:0:0:0:
36,192,119272,1,0,0:0:0:0:
402,192,119272,1,0,0:0:0:0:
182,192,119272,1,0,0:0:0:0:
329,192,119366,1,0,0:0:0:0:
36,192,119460,1,0,0:0:0:0:
475,192,119460,1,0,0:0:0:0:
256,192,119460,1,0,0:0:0:0:
109,192,119460,1,0,0:0:0:0:
402,192,119460,1,0,0:0:0:0:
182,192,119554,1,0,0:0:0:0:
475,192,119648,1,0,0:0:0:0:
329,192,119648,1,0,0:0:0:0:
402,192,119648,1,0,0:0:0:0:
109,192,119648,1,0,0:0:0:0:
36,192,119648,1,0,0:0:0:0:
256,192,119741,1,0,0:0:0:0:
329,192,119835,1,0,0:0:0:0:
402,192,119835,1,0,0:0:0:0:
36,192,119835,1,0,0:0:0:0:
182,192,119835,1,0,0:0:0:0:
109,192,119835,1,0,0:0:0:0:
475,192,119929,1,0,0:0:0:0:
109,192,120023,1,0,0:0:0:0:
36,192,120023,1,0,0:0:0:0:
256,192,120023,1,0,0:0:0:0:
329,192,120023,1,0,0:0:0:0:
402,192,120023,1,0,0:0:0:0:
182,192,120117,1,0,0:0:0:0:
475,192,120211,1,0,0:0:0:0:
109,192,120211,1,0,0:0:0:0:
402,192,120211,1,0,0:0:0:0:
256,192,120211,1,0,0:0:0:0:
36,192,120211,1,0,0:0:0:0:
182,192,120305,1,0,0:0:0:0:
329,192,120305,1,0,0:0:0:0:
475,192,120399,1,0,0:0:0:0:
256,192,120399,1,0,0:0:0:0:
402,192,120399,1,0,0:0:0:0:
36,192,120399,1,0,0:0:0:0:
109,192,120492,1,0,0:0:0:0:
329,192,120586,1,0,0:0:0:0:
475,192,120586,1,0,0:0:0:0:
36,192,120586,1,0,0:0:0:0:
182,192,120586,1,0,0:0:0:0:
256,192,120680,1,0,0:0:0:0:
402,192,120680,1,0,0:0:0:0:
36,192,120774,1,0,0:0:0:0:
329,192,120774,1,0,0:0:0:0:
475,192,120774,1,0,0:0:0:0:
182,192,120774,1,0,0:0:0:0:
109,192,120868,1,0,0:0:0:0:
475,192,120962,1,0,0:0:0:0:
256,192,120962,1,0,0:0:0:0:
402,192,120962,1,0,0:0:0:0:
36,192,120962,1,0,0:0:0:0:
182,192,121056,1,0,0:0:0:0:
329,192,121056,1,0,0:0:0:0:
256,192,121149,1,0,0:0:0:0:
475,192,121149,1,0,0:0:0:0:
109,192,121149,1,0,0:0:0:0:
36,192,121149,1,0,0:0:0:0:
402,192,121243,1,0,0:0:0:0:
329,192,121337,1,0,0:0:0:0:
36,192,121337,1,0,0:0:0:0:
475,192,121337,1,0,0:0:0:0:
182,192,121337,1,0,0:0:0:0:
402,192,121431,1,0,0:0:0:0:
109,192,121431,1,0,0:0:0:0:
256,192,121431,1,0,0:0:0:0:
36,192,121525,1,0,0:0:0:0:
475,192,121525,1,0,0:0:0:0:
329,192,121525,1,0,0:0:0:0:
182,192,121525,1,0,0:0:0:0:
256,192,121713,1,0,0:0:0:0:
402,192,121713,1,0,0:0:0:0:
109,192,121713,1,0,0:0:0:0:
36,192,121713,1,0,0:0:0:0:
182,192,121807,1,0,0:0:0:0:
329,192,121807,1,0,0:0:0:0:
475,192,121807,1,0,0:0:0:0:
256,192,121900,1,0,0:0:0:0:
402,192,121900,1,0,0:0:0:0:
36,192,121900,1,0,0:0:0:0:
182,192,121994,1,0,0:0:0:0:
109,192,121994,1,0,0:0:0:0:
329,192,121994,1,0,0:0:0:0:
256,192,122088,1,0,0:0:0:0:
402,192,122088,1,0,0:0:0:0:
475,192,122088,1,0,0:0:0:0:
36,192,122088,1,0,0:0:0:0:
109,192,122182,1,0,0:0:0:0:
475,192,122276,1,0,0:0:0:0:
402,192,122276,1,0,0:0:0:0:
329,192,122276,1,0,0:0:0:0:
182,192,122276,1,0,0:0:0:0:
256,192,122370,1,0,0:0:0:0:
36,192,122464,1,0,0:0:0:0:
182,192,122464,1,0,0:0:0:0:
109,192,122464,1,0,0:0:0:0:
402,192,122464,1,0,0:0:0:0:
475,192,122464,1,0,0:0:0:0:
329,192,122557,1,0,0:0:0:0:
256,192,122651,1,0,0:0:0:0:
475,192,122651,1,0,0:0:0:0:
109,192,122651,1,0,0:0:0:0:
36,192,122651,1,0,0:0:0:0:
402,192,122745,1,0,0:0:0:0:
182,192,122839,1,0,0:0:0:0:
475,192,122839,1,0,0:0:0:0:
36,192,122839,1,0,0:0:0:0:
329,192,122839,1,0,0:0:0:0:
402,192,122933,1,0,0:0:0:0:
109,192,122933,1,0,0:0:0:0:
256,192,122933,1,0,0:0:0:0:
475,192,123027,1,0,0:0:0:0:
329,192,123027,1,0,0:0:0:0:
182,192,123027,1,0,0:0:0:0:
36,192,123121,1,0,0:0:0:0:
256,192,123121,1,0,0:0:0:0:
109,192,123121,1,0,0:0:0:0:
182,192,123215,1,0,0:0:0:0:
402,192,123215,1,0,0:0:0:0:
475,192,123215,1,0,0:0:0:0:
329,192,123215,1,0,0:0:0:0:
109,192,123308,1,0,0:0:0:0:
256,192,123402,1,0,0:0:0:0:
475,192,123402,1,0,0:0:0:0:
36,192,123402,1,0,0:0:0:0:
402,192,123402,1,0,0:0:0:0:
109,192,123496,1,0,0:0:0:0:
182,192,123590,1,0,0:0:0:0:
329,192,123590,1,0,0:0:0:0:
36,192,123590,1,0,0:0:0:0:
475,192,123590,1,0,0:0:0:0:
402,192,123590,1,0,0:0:0:0:
256,192,123684,1,0,0:0:0:0:
36,192,123778,1,0,0:0:0:0:
402,192,123778,1,0,0:0:0:0:
182,192,123778,1,0,0:0:0:0:
475,192,123778,1,0,0:0:0:0:
329,192,123872,1,0,0:0:0:0:
109,192,123966,1,0,0:0:0:0:
256,192,123966,1,0,0:0:0:0:
475,192,123966,1,0,0:0:0:0:
36,192,123966,1,0,0:0:0:0:
182,192,124059,1,0,0:0:0:0:
402,192,124059,1,0,0:0:0:0:
329,192,124059,1,0,0:0:0:0:
256,192,124153,1,0,0:0:0:0:
36,192,124153,1,0,0:0:0:0:
475,192,124153,1,0,0:0:0:0:
329,192,124247,1,0,0:0:0:0:
182,192,124247,1,0,0:0:0:0:
109,192,124247,1,0,0:0:0:0:
475,192,124341,1,0,0:0:0:0:
256,192,124341,1,0,0:0:0:0:
36,192,124341,1,0,0:0:0:0:
402,192,124341,1,0,0:0:0:0:
109,192,124435,1,0,0:0:0:0:
329,192,124529,1,0,0:0:0:0:
36,192,124529,1,0,0:0:0:0:
182,192,124529,1,0,0:0:0:0:
475,192,124529,1,0,0:0:0:0:
402,192,124623,1,0,0:0:0:0:
256,192,124716,1,0,0:0:0:0:
475,192,124716,1,0,0:0:0:0:
109,192,124716,1,0,0:0:0:0:
36,192,124716,1,0,0:0:0:0:
402,192,124810,1,0,0:0:0:0:
329,192,124810,1,0,0:0:0:0:
182,192,124810,1,0,0:0:0:0:
475,192,124904,1,0,0:0:0:0:
36,192,124904,1,0,0:0:0:0:
256,192,124904,1,0,0:0:0:0:
402,192,124998,1,0,0:0:0:0:
182,192,124998,1,0,0:0:0:0:
109,192,124998,1,0,0:0:0:0:
475,192,125092,1,0,0:0:0:0:
329,192,125092,1,0,0:0:0:0:
36,192,125092,1,0,0:0:0:0:
109,192,125186,1,0,0:0:0:0:
402,192,125186,1,0,0:0:0:0:
256,192,125186,1,0,0:0:0:0:
329,192,125280,1,0,0:0:0:0:
36,192,125280,1,0,0:0:0:0:
182,192,125280,1,0,0:0:0:0:
402,192,125374,1,0,0:0:0:0:
475,192,125374,1,0,0:0:0:0:
256,192,125374,1,0,0:0:0:0:
36,192,125467,1,0,0:0:0:0:
182,192,125467,1,0,0:0:0:0:
329,192,125467,1,0,0:0:0:0:
475,192,125561,1,0,0:0:0:0:
402,192,125561,1,0,0:0:0:0:
109,192,125561,1,0,0:0:0:0:
329,192,125655,1,0,0:0:0:0:
182,192,125655,1,0,0:0:0:0:
36,192,125655,1,0,0:0:0:0:
256,192,125749,1,0,0:0:0:0:
402,192,125749,1,0,0:0:0:0:
109,192,125749,1,0,0:0:0:0:
329,192,125843,1,0,0:0:0:0:
36,192,125843,1,0,0:0:0:0:
475,192,125843,1,0,0:0:0:0:
256,192,125937,1,0,0:0:0:0:
402,192,125937,1,0,0:0:0:0:
182,192,125937,1,0,0:0:0:0:
329,192,126031,1,0,0:0:0:0:
109,192,126031,1,0,0:0:0:0:
36,192,126031,1,0,0:0:0:0:
256,192,126124,1,0,0:0:0:0:
402,192,126124,1,0,0:0:0:0:
475,192,126124,1,0,0:0:0:0:
329,192,126218,1,0,0:0:0:0:
109,192,126218,1,0,0:0:0:0:
182,192,126218,1,0,0:0:0:0:
36,192,126218,1,0,0:0:0:0:
256,192,126312,1,0,0:0:0:0:
475,192,126312,1,0,0:0:0:0:
402,192,126312,1,0,0:0:0:0:
329,192,126406,1,0,0:0:0:0:
36,192,126406,1,0,0:0:0:0:
109,192,126406,1,0,0:0:0:0:
475,192,126500,1,0,0:0:0:0:
256,192,126500,1,0,0:0:0:0:
182,192,126500,1,0,0:0:0:0:
36,192,126594,1,0,0:0:0:0:
402,192,126594,1,0,0:0:0:0:
329,192,126594,1,0,0:0:0:0:
475,192,126688,1,0,0:0:0:0:
182,192,126688,1,0,0:0:0:0:
109,192,126688,1,0,0:0:0:0:
402,192,126782,1,0,0:0:0:0:
36,192,126782,1,0,0:0:0:0:
256,192,126782,1,0,0:0:0:0:
475,192,126875,1,0,0:0:0:0:
329,192,126875,1,0,0:0:0:0:
109,192,126875,1,0,0:0:0:0:
36,192,126969,1,0,0:0:0:0:
182,192,126969,1,0,0:0:0:0:
402,192,126969,1,0,0:0:0:0:
109,192,127063,1,0,0:0:0:0:
475,192,127063,1,0,0:0:0:0:
256,192,127063,1,0,0:0:0:0:
402,192,127157,1,0,0:0:0:0:
329,192,127157,1,0,0:0:0:0:
182,192,127157,1,0,0:0:0:0:
36,192,127251,1,0,0:0:0:0:
109,192,127251,1,0,0:0:0:0:
256,192,127251,1,0,0:0:0:0:
182,192,127345,1,0,0:0:0:0:
475,192,127345,1,0,0:0:0:0:
329,192,127345,1,0,0:0:0:0:
256,192,127439,1,0,0:0:0:0:
109,192,127439,1,0,0:0:0:0:
402,192,127439,1,0,0:0:0:0:
329,192,127532,1,0,0:0:0:0:
182,192,127532,1,0,0:0:0:0:
36,192,127532,1,0,0:0:0:0:
402,192,127626,1,0,0:0:0:0:
256,192,127626,1,0,0:0:0:0:
475,192,127626,1,0,0:0:0:0:
329,192,127720,1,0,0:0:0:0:
109,192,127720,1,0,0:0:0:0:
182,192,127720,1,0,0:0:0:0:
36,192,127720,1,0,0:0:0:0:
