osu file format v14

[General]
AudioFilename: audio.mp3
AudioLeadIn: 0
PreviewTime: 84785
Countdown: 0
SampleSet: None
StackLeniency: 0.7
Mode: 3
LetterboxInBreaks: 0
SpecialStyle: 0
WidescreenStoryboard: 0

[Editor]
Bookmarks: 25490,38196,60785,84785
DistanceSpacing: 0.1
BeatDivisor: 4
GridSize: 32
TimelineZoom: 1.3

[Metadata]
Title:Super Lovely
TitleUnicode:Super Lovely
Artist:EarBreaker
ArtistUnicode:EarBreaker
Creator:Kawawa
Version:Bracket Challenge(170)
Source:
Tags:
BeatmapID:1902626
BeatmapSetID:911477

[Difficulty]
HPDrainRate:8
CircleSize:7
OverallDifficulty:8
ApproachRate:5
SliderMultiplier:1.4
SliderTickRate:1

[Events]
//Background and Video events
0,0,"1-BG.jpg",0,0
//Break Periods
//Storyboard Layer 0 (Background)
//Storyboard Layer 1 (Fail)
//Storyboard Layer 2 (Pass)
//Storyboard Layer 3 (Foreground)
//Storyboard Sound Samples

[TimingPoints]
1491,352.941176470588,4,3,1,0,1,0

[HitObjects]
475,192,1491,5,0,0:0:0:0:
402,192,1491,1,0,0:0:0:0:
182,192,1491,1,0,0:0:0:0:
329,192,1491,1,0,0:0:0:0:
256,192,1579,1,0,0:0:0:0:
109,192,1579,1,0,0:0:0:0:
36,192,1579,1,0,0:0:0:0:
475,192,1843,1,0,0:0:0:0:
402,192,1843,1,0,0:0:0:0:
256,192,1932,1,0,0:0:0:0:
109,192,1932,1,0,0:0:0:0:
36,192,1932,1,0,0:0:0:0:
402,192,2020,1,0,0:0:0:0:
475,192,2020,1,0,0:0:0:0:
256,192,2108,1,0,0:0:0:0:
109,192,2108,1,0,0:0:0:0:
36,192,2108,1,0,0:0:0:0:
182,192,2285,1,0,0:0:0:0:
329,192,2285,1,0,0:0:0:0:
475,192,2373,1,0,0:0:0:0:
36,192,2373,1,0,0:0:0:0:
182,192,2461,1,0,0:0:0:0:
329,192,2461,1,0,0:0:0:0:
475,192,2549,1,0,0:0:0:0:
36,192,2549,1,0,0:0:0:0:
182,192,2638,1,0,0:0:0:0:
329,192,2638,1,0,0:0:0:0:
475,192,2726,1,0,0:0:0:0:
36,192,2726,1,0,0:0:0:0:
329,192,2814,1,0,0:0:0:0:
182,192,2814,1,0,0:0:0:0:
36,192,2902,1,0,0:0:0:0:
475,192,2902,1,0,0:0:0:0:
109,192,2902,1,0,0:0:0:0:
256,192,2902,1,0,0:0:0:0:
402,192,2902,1,0,0:0:0:0:
182,192,2990,1,0,0:0:0:0:
329,192,2990,1,0,0:0:0:0:
256,192,3079,1,0,0:0:0:0:
475,192,3079,1,0,0:0:0:0:
36,192,3079,1,0,0:0:0:0:
109,192,3167,1,0,0:0:0:0:
329,192,3167,1,0,0:0:0:0:
182,192,3255,1,0,0:0:0:0:
402,192,3255,1,0,0:0:0:0:
475,192,3255,1,0,0:0:0:0:
36,192,3255,1,0,0:0:0:0:
329,192,3343,1,0,0:0:0:0:
109,192,3432,1,0,0:0:0:0:
475,192,3432,1,0,0:0:0:0:
256,192,3432,1,0,0:0:0:0:
36,192,3432,1,0,0:0:0:0:
402,192,3520,1,0,0:0:0:0:
109,192,3608,1,0,0:0:0:0:
36,192,3608,1,0,0:0:0:0:
329,192,3608,1,0,0:0:0:0:
182,192,3608,1,0,0:0:0:0:
475,192,3608,1,0,0:0:0:0:
256,192,3696,1,0,0:0:0:0:
329,192,3785,1,0,0:0:0:0:
475,192,3785,1,0,0:0:0:0:
109,192,3785,1,0,0:0:0:0:
36,192,3785,1,0,0:0:0:0:
182,192,3873,1,0,0:0:0:0:
256,192,3961,1,0,0:0:0:0:
402,192,3961,1,0,0:0:0:0:
36,192,3961,1,0,0:0:0:0:
109,192,3961,1,0,0:0:0:0:
329,192,4049,1,0,0:0:0:0:
475,192,4049,1,0,0:0:0:0:
256,192,4138,1,0,0:0:0:0:
402,192,4138,1,0,0:0:0:0:
109,192,4138,1,0,0:0:0:0:
329,192,4226,1,0,0:0:0:0:
182,192,4226,1,0,0:0:0:0:
256,192,4314,1,0,0:0:0:0:
36,192,4314,1,0,0:0:0:0:
475,192,4314,1,0,0:0:0:0:
402,192,4314,1,0,0:0:0:0:
109,192,4402,1,0,0:0:0:0:
329,192,4402,1,0,0:0:0:0:
402,192,4490,1,0,0:0:0:0:
182,192,4490,1,0,0:0:0:0:
36,192,4490,1,0,0:0:0:0:
256,192,4579,1,0,0:0:0:0:
475,192,4579,1,0,0:0:0:0:
36,192,4667,1,0,0:0:0:0:
402,192,4667,1,0,0:0:0:0:
329,192,4667,1,0,0:0:0:0:
182,192,4667,1,0,0:0:0:0:
109,192,4755,1,0,0:0:0:0:
475,192,4755,1,0,0:0:0:0:
36,192,4843,1,0,0:0:0:0:
256,192,4843,1,0,0:0:0:0:
402,192,4843,1,0,0:0:0:0:
182,192,4932,1,0,0:0:0:0:
329,192,4932,1,0,0:0:0:0:
402,192,5020,1,0,0:0:0:0:
256,192,5020,1,0,0:0:0:0:
475,192,5020,1,0,0:0:0:0:
36,192,5020,1,0,0:0:0:0:
109,192,5108,1,0,0:0:0:0:
182,192,5196,1,0,0:0:0:0:
329,192,5196,1,0,0:0:0:0:
475,192,5196,1,0,0:0:0:0:
36,192,5196,1,0,0:0:0:0:
256,192,5285,1,0,0:0:0:0:
475,192,5373,1,0,0:0:0:0:
329,192,5373,1,0,0:0:0:0:
402,192,5373,1,0,0:0:0:0:
36,192,5373,1,0,0:0:0:0:
109,192,5373,1,0,0:0:0:0:
182,192,5461,1,0,0:0:0:0:
256,192,5549,1,0,0:0:0:0:
36,192,5549,1,0,0:0:0:0:
109,192,5549,1,0,0:0:0:0:
475,192,5549,1,0,0:0:0:0:
402,192,5638,1,0,0:0:0:0:
329,192,5726,1,0,0:0:0:0:
182,192,5726,1,0,0:0:0:0:
475,192,5726,1,0,0:0:0:0:
36,192,5726,1,0,0:0:0:0:
256,192,5814,1,0,0:0:0:0:
109,192,5814,1,0,0:0:0:0:
329,192,5902,1,0,0:0:0:0:
182,192,5902,1,0,0:0:0:0:
36,192,5902,1,0,0:0:0:0:
256,192,5990,1,0,0:0:0:0:
402,192,5990,1,0,0:0:0:0:
475,192,6079,1,0,0:0:0:0:
109,192,6079,1,0,0:0:0:0:
36,192,6079,1,0,0:0:0:0:
329,192,6079,1,0,0:0:0:0:
182,192,6167,1,0,0:0:0:0:
256,192,6255,1,0,0:0:0:0:
109,192,6255,1,0,0:0:0:0:
475,192,6255,1,0,0:0:0:0:
36,192,6255,1,0,0:0:0:0:
402,192,6343,1,0,0:0:0:0:
109,192,6432,1,0,0:0:0:0:
329,192,6432,1,0,0:0:0:0:
182,192,6432,1,0,0:0:0:0:
36,192,6432,1,0,0:0:0:0:
475,192,6432,1,0,0:0:0:0:
256,192,6520,1,0,0:0:0:0:
109,192,6608,1,0,0:0:0:0:
36,192,6608,1,0,0:0:0:0:
402,192,6608,1,0,0:0:0:0:
475,192,6608,1,0,0:0:0:0:
329,192,6608,1,0,0:0:0:0:
182,192,6696,1,0,0:0:0:0:
329,192,6785,1,0,0:0:0:0:
109,192,6785,1,0,0:0:0:0:
36,192,6785,1,0,0:0:0:0:
402,192,6785,1,0,0:0:0:0:
475,192,6785,1,0,0:0:0:0:
256,192,6873,1,0,0:0:0:0:
402,192,6961,1,0,0:0:0:0:
475,192,6961,1,0,0:0:0:0:
182,192,6961,1,0,0:0:0:0:
109,192,6961,1,0,0:0:0:0:
36,192,6961,1,0,0:0:0:0:
256,192,7049,1,0,0:0:0:0:
329,192,7138,1,0,0:0:0:0:
36,192,7138,1,0,0:0:0:0:
109,192,7138,1,0,0:0:0:0:
475,192,7138,1,0,0:0:0:0:
182,192,7226,1,0,0:0:0:0:
402,192,7226,1,0,0:0:0:0:
256,192,7314,1,0,0:0:0:0:
36,192,7314,1,0,0:0:0:0:
475,192,7314,1,0,0:0:0:0:
109,192,7314,1,0,0:0:0:0:
329,192,7402,1,0,0:0:0:0:
36,192,7490,1,0,0:0:0:0:
182,192,7490,1,0,0:0:0:0:
402,192,7490,1,0,0:0:0:0:
475,192,7490,1,0,0:0:0:0:
329,192,7579,1,0,0:0:0:0:
109,192,7579,1,0,0:0:0:0:
475,192,7667,1,0,0:0:0:0:
256,192,7667,1,0,0:0:0:0:
36,192,7667,1,0,0:0:0:0:
402,192,7667,1,0,0:0:0:0:
182,192,7755,1,0,0:0:0:0:
329,192,7843,1,0,0:0:0:0:
36,192,7843,1,0,0:0:0:0:
475,192,7843,1,0,0:0:0:0:
109,192,7843,1,0,0:0:0:0:
402,192,7932,1,0,0:0:0:0:
256,192,7932,1,0,0:0:0:0:
109,192,8020,1,0,0:0:0:0:
36,192,8020,1,0,0:0:0:0:
329,192,8020,1,0,0:0:0:0:
475,192,8020,1,0,0:0:0:0:
182,192,8108,1,0,0:0:0:0:
402,192,8196,1,0,0:0:0:0:
256,192,8196,1,0,0:0:0:0:
475,192,8196,1,0,0:0:0:0:
36,192,8196,1,0,0:0:0:0:
329,192,8285,1,0,0:0:0:0:
109,192,8285,1,0,0:0:0:0:
402,192,8373,1,0,0:0:0:0:
182,192,8373,1,0,0:0:0:0:
36,192,8373,1,0,0:0:0:0:
475,192,8373,1,0,0:0:0:0:
109,192,8549,1,0,0:0:0:0:
36,192,8549,1,0,0:0:0:0:
256,192,8549,1,0,0:0:0:0:
402,192,8549,1,0,0:0:0:0:
475,192,8549,1,0,0:0:0:0:
329,192,8638,1,0,0:0:0:0:
182,192,8638,1,0,0:0:0:0:
36,192,8726,1,0,0:0:0:0:
475,192,8726,1,0,0:0:0:0:
256,192,8726,1,0,0:0:0:0:
402,192,8814,1,0,0:0:0:0:
109,192,8814,1,0,0:0:0:0:
475,192,8902,1,0,0:0:0:0:
36,192,8902,1,0,0:0:0:0:
182,192,8902,1,0,0:0:0:0:
329,192,8902,1,0,0:0:0:0:
402,192,8990,1,0,0:0:0:0:
256,192,9079,1,0,0:0:0:0:
36,192,9079,1,0,0:0:0:0:
109,192,9079,1,0,0:0:0:0:
475,192,9079,1,0,0:0:0:0:
182,192,9167,1,0,0:0:0:0:
402,192,9255,1,0,0:0:0:0:
475,192,9255,1,0,0:0:0:0:
329,192,9255,1,0,0:0:0:0:
109,192,9255,1,0,0:0:0:0:
36,192,9255,1,0,0:0:0:0:
256,192,9343,1,0,0:0:0:0:
182,192,9432,1,0,0:0:0:0:
36,192,9432,1,0,0:0:0:0:
402,192,9432,1,0,0:0:0:0:
475,192,9432,1,0,0:0:0:0:
329,192,9520,1,0,0:0:0:0:
36,192,9608,1,0,0:0:0:0:
256,192,9608,1,0,0:0:0:0:
109,192,9608,1,0,0:0:0:0:
475,192,9608,1,0,0:0:0:0:
402,192,9696,1,0,0:0:0:0:
182,192,9696,1,0,0:0:0:0:
36,192,9785,1,0,0:0:0:0:
329,192,9785,1,0,0:0:0:0:
475,192,9785,1,0,0:0:0:0:
109,192,9873,1,0,0:0:0:0:
256,192,9873,1,0,0:0:0:0:
475,192,9961,1,0,0:0:0:0:
329,192,9961,1,0,0:0:0:0:
182,192,9961,1,0,0:0:0:0:
36,192,9961,1,0,0:0:0:0:
402,192,10049,1,0,0:0:0:0:
256,192,10049,1,0,0:0:0:0:
36,192,10138,1,0,0:0:0:0:
109,192,10138,1,0,0:0:0:0:
475,192,10138,1,0,0:0:0:0:
329,192,10226,1,0,0:0:0:0:
182,192,10226,1,0,0:0:0:0:
475,192,10314,1,0,0:0:0:0:
256,192,10314,1,0,0:0:0:0:
36,192,10314,1,0,0:0:0:0:
109,192,10314,1,0,0:0:0:0:
402,192,10402,1,0,0:0:0:0:
329,192,10490,1,0,0:0:0:0:
109,192,10490,1,0,0:0:0:0:
182,192,10490,1,0,0:0:0:0:
36,192,10490,1,0,0:0:0:0:
256,192,10579,1,0,0:0:0:0:
475,192,10667,1,0,0:0:0:0:
36,192,10667,1,0,0:0:0:0:
329,192,10667,1,0,0:0:0:0:
109,192,10667,1,0,0:0:0:0:
182,192,10755,1,0,0:0:0:0:
402,192,10755,1,0,0:0:0:0:
475,192,10843,1,0,0:0:0:0:
36,192,10843,1,0,0:0:0:0:
256,192,10843,1,0,0:0:0:0:
109,192,10932,1,0,0:0:0:0:
329,192,10932,1,0,0:0:0:0:
36,192,11020,1,0,0:0:0:0:
402,192,11020,1,0,0:0:0:0:
475,192,11020,1,0,0:0:0:0:
182,192,11020,1,0,0:0:0:0:
329,192,11108,1,0,0:0:0:0:
109,192,11196,1,0,0:0:0:0:
475,192,11196,1,0,0:0:0:0:
256,192,11196,1,0,0:0:0:0:
36,192,11196,1,0,0:0:0:0:
402,192,11285,1,0,0:0:0:0:
475,192,11373,1,0,0:0:0:0:
36,192,11373,1,0,0:0:0:0:
329,192,11373,1,0,0:0:0:0:
182,192,11373,1,0,0:0:0:0:
109,192,11461,1,0,0:0:0:0:
256,192,11461,1,0,0:0:0:0:
402,192,11461,1,0,0:0:0:0:
182,192,11549,1,0,0:0:0:0:
329,192,11549,1,0,0:0:0:0:
36,192,11549,1,0,0:0:0:0:
402,192,11638,1,0,0:0:0:0:
475,192,11638,1,0,0:0:0:0:
256,192,11638,1,0,0:0:0:0:
36,192,11726,1,0,0:0:0:0:
329,192,11726,1,0,0:0:0:0:
109,192,11726,1,0,0:0:0:0:
182,192,11814,1,0,0:0:0:0:
402,192,11814,1,0,0:0:0:0:
475,192,11814,1,0,0:0:0:0:
36,192,11902,1,0,0:0:0:0:
109,192,11902,1,0,0:0:0:0:
256,192,11902,1,0,0:0:0:0:
329,192,11990,1,0,0:0:0:0:
402,192,11990,1,0,0:0:0:0:
475,192,11990,1,0,0:0:0:0:
36,192,12079,1,0,0:0:0:0:
109,192,12079,1,0,0:0:0:0:
182,192,12079,1,0,0:0:0:0:
329,192,12167,1,0,0:0:0:0:
402,192,12167,1,0,0:0:0:0:
475,192,12167,1,0,0:0:0:0:
256,192,12255,1,0,0:0:0:0:
109,192,12255,1,0,0:0:0:0:
36,192,12255,1,0,0:0:0:0:
182,192,12343,1,0,0:0:0:0:
402,192,12343,1,0,0:0:0:0:
475,192,12343,1,0,0:0:0:0:
329,192,12432,1,0,0:0:0:0:
36,192,12432,1,0,0:0:0:0:
109,192,12432,1,0,0:0:0:0:
256,192,12520,1,0,0:0:0:0:
402,192,12520,1,0,0:0:0:0:
475,192,12520,1,0,0:0:0:0:
182,192,12608,1,0,0:0:0:0:
36,192,12608,1,0,0:0:0:0:
329,192,12608,1,0,0:0:0:0:
109,192,12696,1,0,0:0:0:0:
256,192,12696,1,0,0:0:0:0:
402,192,12696,1,0,0:0:0:0:
182,192,12785,1,0,0:0:0:0:
329,192,12785,1,0,0:0:0:0:
475,192,12785,1,0,0:0:0:0:
109,192,12873,1,0,0:0:0:0:
36,192,12873,1,0,0:0:0:0:
256,192,12873,1,0,0:0:0:0:
475,192,12961,1,0,0:0:0:0:
182,192,12961,1,0,0:0:0:0:
402,192,12961,1,0,0:0:0:0:
329,192,13049,1,0,0:0:0:0:
36,192,13049,1,0,0:0:0:0:
109,192,13049,1,0,0:0:0:0:
475,192,13138,1,0,0:0:0:0:
256,192,13138,1,0,0:0:0:0:
402,192,13138,1,0,0:0:0:0:
109,192,13226,1,0,0:0:0:0:
182,192,13226,1,0,0:0:0:0:
36,192,13226,1,0,0:0:0:0:
475,192,13314,1,0,0:0:0:0:
329,192,13314,1,0,0:0:0:0:
402,192,13314,1,0,0:0:0:0:
256,192,13402,1,0,0:0:0:0:
36,192,13402,1,0,0:0:0:0:
109,192,13402,1,0,0:0:0:0:
329,192,13490,1,0,0:0:0:0:
182,192,13490,1,0,0:0:0:0:
475,192,13490,1,0,0:0:0:0:
402,192,13579,1,0,0:0:0:0:
256,192,13579,1,0,0:0:0:0:
36,192,13579,1,0,0:0:0:0:
475,192,13667,1,0,0:0:0:0:
109,192,13667,1,0,0:0:0:0:
329,192,13667,1,0,0:0:0:0:
36,192,13755,1,0,0:0:0:0:
182,192,13755,1,0,0:0:0:0:
402,192,13755,1,0,0:0:0:0:
256,192,13843,1,0,0:0:0:0:
475,192,13843,1,0,0:0:0:0:
109,192,13843,1,0,0:0:0:0:
329,192,13932,1,0,0:0:0:0:
182,192,13932,1,0,0:0:0:0:
36,192,13932,1,0,0:0:0:0:
256,192,14020,1,0,0:0:0:0:
402,192,14020,1,0,0:0:0:0:
109,192,14020,1,0,0:0:0:0:
329,192,14108,1,0,0:0:0:0:
475,192,14108,1,0,0:0:0:0:
182,192,14108,1,0,0:0:0:0:
256,192,14196,1,0,0:0:0:0:
402,192,14196,1,0,0:0:0:0:
36,192,14196,1,0,0:0:0:0:
109,192,14285,1,0,0:0:0:0:
329,192,14373,1,0,0:0:0:0:
182,192,14373,1,0,0:0:0:0:
475,192,14373,1,0,0:0:0:0:
36,192,14549,1,0,0:0:0:0:
402,192,14549,1,0,0:0:0:0:
109,192,14549,1,0,0:0:0:0:
329,192,14638,1,0,0:0:0:0:
475,192,14726,1,0,0:0:0:0:
256,192,14726,1,0,0:0:0:0:
109,192,14726,1,0,0:0:0:0:
256,192,14902,1,0,0:0:0:0:
402,192,14902,1,0,0:0:0:0:
36,192,14902,1,0,0:0:0:0:
109,192,14990,1,0,0:0:0:0:
475,192,15079,1,0,0:0:0:0:
329,192,15079,1,0,0:0:0:0:
182,192,15079,1,0,0:0:0:0:
109,192,15255,1,0,0:0:0:0:
182,192,15343,1,0,0:0:0:0:
402,192,15432,1,0,0:0:0:0:
256,192,15432,1,0,0:0:0:0:
36,192,15432,1,0,0:0:0:0:
475,192,15608,1,0,0:0:0:0:
402,192,15696,1,0,0:0:0:0:
329,192,15785,1,0,0:0:0:0:
182,192,15785,1,0,0:0:0:0:
36,192,15785,1,0,0:0:0:0:
256,192,15961,1,0,0:0:0:0:
402,192,16049,1,0,0:0:0:0:
329,192,16138,1,0,0:0:0:0:
182,192,16138,1,0,0:0:0:0:
36,192,16138,1,0,0:0:0:0:
109,192,16314,1,0,0:0:0:0:
256,192,16402,1,0,0:0:0:0:
182,192,16490,1,0,0:0:0:0:
329,192,16490,1,0,0:0:0:0:
475,192,16490,1,0,0:0:0:0:
36,192,16667,1,0,0:0:0:0:
402,192,16667,1,0,0:0:0:0:
109,192,16667,1,0,0:0:0:0:
329,192,16755,1,0,0:0:0:0:
256,192,16843,1,0,0:0:0:0:
36,192,16843,1,0,0:0:0:0:
109,192,16843,1,0,0:0:0:0:
329,192,17020,1,0,0:0:0:0:
182,192,17020,1,0,0:0:0:0:
475,192,17020,1,0,0:0:0:0:
109,192,17108,1,0,0:0:0:0:
475,192,17196,1,0,0:0:0:0:
329,192,17196,1,0,0:0:0:0:
36,192,17196,1,0,0:0:0:0:
256,192,17373,1,0,0:0:0:0:
109,192,17373,1,0,0:0:0:0:
402,192,17373,1,0,0:0:0:0:
475,192,17461,1,0,0:0:0:0:
256,192,17549,1,0,0:0:0:0:
109,192,17549,1,0,0:0:0:0:
402,192,17549,1,0,0:0:0:0:
475,192,17726,1,0,0:0:0:0:
329,192,17726,1,0,0:0:0:0:
36,192,17726,1,0,0:0:0:0:
182,192,17814,1,0,0:0:0:0:
256,192,17902,1,0,0:0:0:0:
109,192,17902,1,0,0:0:0:0:
402,192,17902,1,0,0:0:0:0:
329,192,18079,1,0,0:0:0:0:
256,192,18167,1,0,0:0:0:0:
36,192,18255,1,0,0:0:0:0:
182,192,18255,1,0,0:0:0:0:
475,192,18255,1,0,0:0:0:0:
329,192,18432,1,0,0:0:0:0:
402,192,18432,1,0,0:0:0:0:
109,192,18520,1,0,0:0:0:0:
256,192,18608,1,0,0:0:0:0:
182,192,18785,1,0,0:0:0:0:
109,192,18785,1,0,0:0:0:0:
402,192,18873,1,0,0:0:0:0:
256,192,18961,1,0,0:0:0:0:
402,192,19138,1,0,0:0:0:0:
329,192,19138,1,0,0:0:0:0:
109,192,19226,1,0,0:0:0:0:
256,192,19314,1,0,0:0:0:0:
109,192,19490,1,0,0:0:0:0:
182,192,19490,1,0,0:0:0:0:
402,192,19579,1,0,0:0:0:0:
256,192,19667,1,0,0:0:0:0:
329,192,19843,1,0,0:0:0:0:
182,192,19843,1,0,0:0:0:0:
36,192,19843,1,0,0:0:0:0:
402,192,19932,1,0,0:0:0:0:
475,192,20020,1,0,0:0:0:0:
182,192,20020,1,0,0:0:0:0:
36,192,20020,1,0,0:0:0:0:
475,192,20196,1,0,0:0:0:0:
256,192,20196,1,0,0:0:0:0:
109,192,20196,1,0,0:0:0:0:
402,192,20285,1,0,0:0:0:0:
329,192,20373,1,0,0:0:0:0:
109,192,20373,1,0,0:0:0:0:
36,192,20373,1,0,0:0:0:0:
475,192,20549,1,0,0:0:0:0:
329,192,20549,1,0,0:0:0:0:
182,192,20549,1,0,0:0:0:0:
109,192,20638,1,0,0:0:0:0:
402,192,20726,1,0,0:0:0:0:
256,192,20726,1,0,0:0:0:0:
36,192,20726,1,0,0:0:0:0:
182,192,20902,1,0,0:0:0:0:
329,192,20990,1,0,0:0:0:0:
475,192,21079,1,0,0:0:0:0:
109,192,21079,1,0,0:0:0:0:
256,192,21079,1,0,0:0:0:0:
36,192,21255,1,0,0:0:0:0:
182,192,21343,1,0,0:0:0:0:
475,192,21432,1,0,0:0:0:0:
329,192,21432,1,0,0:0:0:0:
109,192,21432,1,0,0:0:0:0:
256,192,21608,1,0,0:0:0:0:
182,192,21696,1,0,0:0:0:0:
475,192,21785,1,0,0:0:0:0:
109,192,21785,1,0,0:0:0:0:
329,192,21785,1,0,0:0:0:0:
402,192,21961,1,0,0:0:0:0:
256,192,22049,1,0,0:0:0:0:
329,192,22138,1,0,0:0:0:0:
36,192,22138,1,0,0:0:0:0:
182,192,22138,1,0,0:0:0:0:
475,192,22314,1,0,0:0:0:0:
109,192,22314,1,0,0:0:0:0:
256,192,22314,1,0,0:0:0:0:
402,192,22402,1,0,0:0:0:0:
475,192,22490,1,0,0:0:0:0:
109,192,22490,1,0,0:0:0:0:
256,192,22490,1,0,0:0:0:0:
329,192,22667,1,0,0:0:0:0:
182,192,22667,1,0,0:0:0:0:
36,192,22667,1,0,0:0:0:0:
402,192,22755,1,0,0:0:0:0:
475,192,22843,1,0,0:0:0:0:
109,192,22843,1,0,0:0:0:0:
256,192,22843,1,0,0:0:0:0:
36,192,23020,1,0,0:0:0:0:
329,192,23020,1,0,0:0:0:0:
475,192,23020,1,0,0:0:0:0:
182,192,23108,1,0,0:0:0:0:
109,192,23196,1,0,0:0:0:0:
475,192,23196,1,0,0:0:0:0:
329,192,23196,1,0,0:0:0:0:
402,192,23373,1,0,0:0:0:0:
182,192,23373,1,0,0:0:0:0:
36,192,23373,1,0,0:0:0:0:
329,192,23461,1,0,0:0:0:0:
475,192,23549,1,0,0:0:0:0:
109,192,23549,1,0,0:0:0:0:
256,192,23549,1,0,0:0:0:0:
475,192,23726,1,0,0:0:0:0:
329,192,23726,1,0,0:0:0:0:
182,192,23726,1,0,0:0:0:0:
36,192,23814,1,0,0:0:0:0:
402,192,23902,1,0,0:0:0:0:
109,192,23902,1,0,0:0:0:0:
256,192,23902,1,0,0:0:0:0:
475,192,24079,1,0,0:0:0:0:
402,192,24167,1,0,0:0:0:0:
329,192,24255,1,0,0:0:0:0:
36,192,24255,1,0,0:0:0:0:
182,192,24255,1,0,0:0:0:0:
109,192,24432,1,0,0:0:0:0:
402,192,24432,1,0,0:0:0:0:
256,192,24520,1,0,0:0:0:0:
182,192,24608,1,0,0:0:0:0:
402,192,24785,1,0,0:0:0:0:
109,192,24785,1,0,0:0:0:0:
256,192,24873,1,0,0:0:0:0:
329,192,24961,1,0,0:0:0:0:
402,192,25138,1,0,0:0:0:0:
109,192,25138,1,0,0:0:0:0:
256,192,25226,1,0,0:0:0:0:
182,192,25314,1,0,0:0:0:0:
256,192,25490,1,0,0:0:0:0:
36,192,25490,1,0,0:0:0:0:
475,192,25490,1,0,0:0:0:0:
402,192,25579,1,0,0:0:0:0:
109,192,25579,1,0,0:0:0:0:
329,192,25667,1,0,0:0:0:0:
182,192,25667,1,0,0:0:0:0:
475,192,25755,1,0,0:0:0:0:
36,192,25755,1,0,0:0:0:0:
402,192,25843,1,0,0:0:0:0:
109,192,25843,1,0,0:0:0:0:
475,192,25932,1,0,0:0:0:0:
182,192,25932,1,0,0:0:0:0:
329,192,26020,1,0,0:0:0:0:
109,192,26020,1,0,0:0:0:0:
182,192,26108,1,0,0:0:0:0:
402,192,26108,1,0,0:0:0:0:
475,192,26196,1,0,0:0:0:0:
256,192,26196,1,0,0:0:0:0:
402,192,26285,1,0,0:0:0:0:
182,192,26285,1,0,0:0:0:0:
109,192,26373,1,0,0:0:0:0:
329,192,26373,1,0,0:0:0:0:
36,192,26461,1,0,0:0:0:0:
475,192,26461,1,0,0:0:0:0:
182,192,26549,1,0,0:0:0:0:
402,192,26549,1,0,0:0:0:0:
36,192,26638,1,0,0:0:0:0:
475,192,26638,1,0,0:0:0:0:
109,192,26726,1,0,0:0:0:0:
402,192,26726,1,0,0:0:0:0:
329,192,26814,1,0,0:0:0:0:
182,192,26814,1,0,0:0:0:0:
109,192,26902,1,0,0:0:0:0:
475,192,26902,1,0,0:0:0:0:
182,192,26990,1,0,0:0:0:0:
402,192,26990,1,0,0:0:0:0:
256,192,27079,1,0,0:0:0:0:
475,192,27079,1,0,0:0:0:0:
182,192,27167,1,0,0:0:0:0:
402,192,27167,1,0,0:0:0:0:
109,192,27255,1,0,0:0:0:0:
329,192,27255,1,0,0:0:0:0:
36,192,27343,1,0,0:0:0:0:
256,192,27343,1,0,0:0:0:0:
329,192,27432,1,0,0:0:0:0:
182,192,27432,1,0,0:0:0:0:
402,192,27520,1,0,0:0:0:0:
36,192,27520,1,0,0:0:0:0:
475,192,27608,1,0,0:0:0:0:
109,192,27608,1,0,0:0:0:0:
182,192,27696,1,0,0:0:0:0:
402,192,27696,1,0,0:0:0:0:
109,192,27785,1,0,0:0:0:0:
329,192,27785,1,0,0:0:0:0:
402,192,27873,1,0,0:0:0:0:
182,192,27873,1,0,0:0:0:0:
329,192,27961,1,0,0:0:0:0:
109,192,27961,1,0,0:0:0:0:
256,192,28049,1,0,0:0:0:0:
36,192,28049,1,0,0:0:0:0:
182,192,28138,1,0,0:0:0:0:
402,192,28138,1,0,0:0:0:0:
109,192,28226,1,0,0:0:0:0:
329,192,28226,1,0,0:0:0:0:
402,192,28314,1,0,0:0:0:0:
182,192,28314,1,0,0:0:0:0:
475,192,28402,1,0,0:0:0:0:
256,192,28402,1,0,0:0:0:0:
402,192,28490,1,0,0:0:0:0:
182,192,28490,1,0,0:0:0:0:
329,192,28579,1,0,0:0:0:0:
109,192,28579,1,0,0:0:0:0:
475,192,28667,1,0,0:0:0:0:
36,192,28667,1,0,0:0:0:0:
402,192,28755,1,0,0:0:0:0:
182,192,28755,1,0,0:0:0:0:
329,192,28843,1,0,0:0:0:0:
109,192,28843,1,0,0:0:0:0:
402,192,28932,1,0,0:0:0:0:
182,192,28932,1,0,0:0:0:0:
475,192,29020,1,0,0:0:0:0:
256,192,29020,1,0,0:0:0:0:
329,192,29108,1,0,0:0:0:0:
36,192,29108,1,0,0:0:0:0:
109,192,29196,1,0,0:0:0:0:
402,192,29196,1,0,0:0:0:0:
182,192,29285,1,0,0:0:0:0:
329,192,29285,1,0,0:0:0:0:
109,192,29373,1,0,0:0:0:0:
475,192,29373,1,0,0:0:0:0:
402,192,29461,1,0,0:0:0:0:
36,192,29461,1,0,0:0:0:0:
329,192,29549,1,0,0:0:0:0:
182,192,29549,1,0,0:0:0:0:
109,192,29638,1,0,0:0:0:0:
402,192,29638,1,0,0:0:0:0:
256,192,29726,1,0,0:0:0:0:
475,192,29726,1,0,0:0:0:0:
402,192,29814,1,0,0:0:0:0:
182,192,29814,1,0,0:0:0:0:
329,192,29902,1,0,0:0:0:0:
109,192,29902,1,0,0:0:0:0:
36,192,29990,1,0,0:0:0:0:
256,192,29990,1,0,0:0:0:0:
182,192,30079,1,0,0:0:0:0:
402,192,30079,1,0,0:0:0:0:
475,192,30167,1,0,0:0:0:0:
36,192,30167,1,0,0:0:0:0:
329,192,30255,1,0,0:0:0:0:
182,192,30255,1,0,0:0:0:0:
109,192,30343,1,0,0:0:0:0:
402,192,30343,1,0,0:0:0:0:
256,192,30432,1,0,0:0:0:0:
475,192,30432,1,0,0:0:0:0:
402,192,30520,1,0,0:0:0:0:
182,192,30520,1,0,0:0:0:0:
329,192,30608,1,0,0:0:0:0:
109,192,30608,1,0,0:0:0:0:
182,192,30696,1,0,0:0:0:0:
475,192,30696,1,0,0:0:0:0:
36,192,30785,1,0,0:0:0:0:
329,192,30785,1,0,0:0:0:0:
109,192,30873,1,0,0:0:0:0:
402,192,30873,1,0,0:0:0:0:
475,192,30961,1,0,0:0:0:0:
182,192,30961,1,0,0:0:0:0:
109,192,31049,1,0,0:0:0:0:
402,192,31049,1,0,0:0:0:0:
36,192,31138,1,0,0:0:0:0:
256,192,31138,1,0,0:0:0:0:
475,192,31138,1,0,0:0:0:0:
329,192,31226,1,0,0:0:0:0:
109,192,31226,1,0,0:0:0:0:
402,192,31314,1,0,0:0:0:0:
182,192,31314,1,0,0:0:0:0:
475,192,31402,1,0,0:0:0:0:
256,192,31402,1,0,0:0:0:0:
402,192,31490,1,0,0:0:0:0:
109,192,31490,1,0,0:0:0:0:
329,192,31579,1,0,0:0:0:0:
182,192,31579,1,0,0:0:0:0:
256,192,31667,1,0,0:0:0:0:
109,192,31667,1,0,0:0:0:0:
475,192,31755,1,0,0:0:0:0:
36,192,31755,1,0,0:0:0:0:
329,192,31843,1,0,0:0:0:0:
109,192,31843,1,0,0:0:0:0:
475,192,31932,1,0,0:0:0:0:
182,192,31932,1,0,0:0:0:0:
402,192,32020,1,0,0:0:0:0:
256,192,32020,1,0,0:0:0:0:
475,192,32108,1,0,0:0:0:0:
182,192,32108,1,0,0:0:0:0:
329,192,32196,1,0,0:0:0:0:
109,192,32196,1,0,0:0:0:0:
402,192,32285,1,0,0:0:0:0:
182,192,32285,1,0,0:0:0:0:
256,192,32373,1,0,0:0:0:0:
36,192,32373,1,0,0:0:0:0:
329,192,32461,1,0,0:0:0:0:
109,192,32461,1,0,0:0:0:0:
402,192,32549,1,0,0:0:0:0:
182,192,32549,1,0,0:0:0:0:
475,192,32638,1,0,0:0:0:0:
256,192,32638,1,0,0:0:0:0:
402,192,32726,1,0,0:0:0:0:
109,192,32726,1,0,0:0:0:0:
329,192,32814,1,0,0:0:0:0:
182,192,32814,1,0,0:0:0:0:
475,192,32902,1,0,0:0:0:0:
36,192,32902,1,0,0:0:0:0:
329,192,32990,1,0,0:0:0:0:
182,192,32990,1,0,0:0:0:0:
402,192,33079,1,0,0:0:0:0:
109,192,33079,1,0,0:0:0:0:
475,192,33167,1,0,0:0:0:0:
256,192,33167,1,0,0:0:0:0:
402,192,33255,1,0,0:0:0:0:
182,192,33255,1,0,0:0:0:0:
329,192,33343,1,0,0:0:0:0:
109,192,33343,1,0,0:0:0:0:
475,192,33432,1,0,0:0:0:0:
36,192,33432,1,0,0:0:0:0:
329,192,33520,1,0,0:0:0:0:
182,192,33520,1,0,0:0:0:0:
402,192,33608,1,0,0:0:0:0:
36,192,33608,1,0,0:0:0:0:
475,192,33696,1,0,0:0:0:0:
109,192,33696,1,0,0:0:0:0:
329,192,33785,1,0,0:0:0:0:
182,192,33785,1,0,0:0:0:0:
402,192,33873,1,0,0:0:0:0:
256,192,33873,1,0,0:0:0:0:
475,192,33961,1,0,0:0:0:0:
329,192,33961,1,0,0:0:0:0:
36,192,33961,1,0,0:0:0:0:
182,192,34049,1,0,0:0:0:0:
402,192,34049,1,0,0:0:0:0:
109,192,34049,1,0,0:0:0:0:
36,192,34138,1,0,0:0:0:0:
256,192,34138,1,0,0:0:0:0:
475,192,34138,1,0,0:0:0:0:
182,192,34226,1,0,0:0:0:0:
329,192,34226,1,0,0:0:0:0:
402,192,34226,1,0,0:0:0:0:
36,192,34314,1,0,0:0:0:0:
475,192,34314,1,0,0:0:0:0:
256,192,34314,1,0,0:0:0:0:
109,192,34402,1,0,0:0:0:0:
402,192,34402,1,0,0:0:0:0:
329,192,34490,1,0,0:0:0:0:
182,192,34490,1,0,0:0:0:0:
36,192,34490,1,0,0:0:0:0:
402,192,34579,1,0,0:0:0:0:
256,192,34579,1,0,0:0:0:0:
109,192,34579,1,0,0:0:0:0:
475,192,34667,1,0,0:0:0:0:
36,192,34667,1,0,0:0:0:0:
182,192,34667,1,0,0:0:0:0:
256,192,34755,1,0,0:0:0:0:
109,192,34755,1,0,0:0:0:0:
402,192,34755,1,0,0:0:0:0:
329,192,34843,1,0,0:0:0:0:
182,192,34843,1,0,0:0:0:0:
475,192,34843,1,0,0:0:0:0:
36,192,34932,1,0,0:0:0:0:
109,192,34932,1,0,0:0:0:0:
256,192,34932,1,0,0:0:0:0:
182,192,35020,1,0,0:0:0:0:
475,192,35020,1,0,0:0:0:0:
402,192,35020,1,0,0:0:0:0:
329,192,35108,1,0,0:0:0:0:
109,192,35108,1,0,0:0:0:0:
36,192,35108,1,0,0:0:0:0:
402,192,35196,1,0,0:0:0:0:
256,192,35196,1,0,0:0:0:0:
475,192,35196,1,0,0:0:0:0:
36,192,35285,1,0,0:0:0:0:
182,192,35285,1,0,0:0:0:0:
329,192,35285,1,0,0:0:0:0:
109,192,35373,1,0,0:0:0:0:
475,192,35373,1,0,0:0:0:0:
402,192,35373,1,0,0:0:0:0:
329,192,35461,1,0,0:0:0:0:
182,192,35461,1,0,0:0:0:0:
36,192,35461,1,0,0:0:0:0:
402,192,35549,1,0,0:0:0:0:
475,192,35549,1,0,0:0:0:0:
109,192,35549,1,0,0:0:0:0:
256,192,35549,1,0,0:0:0:0:
329,192,35638,1,0,0:0:0:0:
182,192,35638,1,0,0:0:0:0:
36,192,35726,1,0,0:0:0:0:
256,192,35726,1,0,0:0:0:0:
475,192,35726,1,0,0:0:0:0:
109,192,35814,1,0,0:0:0:0:
402,192,35814,1,0,0:0:0:0:
329,192,35814,1,0,0:0:0:0:
182,192,35902,1,0,0:0:0:0:
36,192,35902,1,0,0:0:0:0:
475,192,35902,1,0,0:0:0:0:
402,192,35990,1,0,0:0:0:0:
109,192,35990,1,0,0:0:0:0:
256,192,35990,1,0,0:0:0:0:
475,192,36079,1,0,0:0:0:0:
329,192,36079,1,0,0:0:0:0:
36,192,36079,1,0,0:0:0:0:
109,192,36167,1,0,0:0:0:0:
256,192,36167,1,0,0:0:0:0:
402,192,36167,1,0,0:0:0:0:
182,192,36255,1,0,0:0:0:0:
329,192,36255,1,0,0:0:0:0:
475,192,36255,1,0,0:0:0:0:
256,192,36343,1,0,0:0:0:0:
36,192,36343,1,0,0:0:0:0:
109,192,36343,1,0,0:0:0:0:
475,192,36432,1,0,0:0:0:0:
402,192,36432,1,0,0:0:0:0:
329,192,36432,1,0,0:0:0:0:
256,192,36520,1,0,0:0:0:0:
109,192,36520,1,0,0:0:0:0:
36,192,36520,1,0,0:0:0:0:
182,192,36608,1,0,0:0:0:0:
475,192,36608,1,0,0:0:0:0:
329,192,36608,1,0,0:0:0:0:
402,192,36696,1,0,0:0:0:0:
256,192,36696,1,0,0:0:0:0:
109,192,36696,1,0,0:0:0:0:
182,192,36785,1,0,0:0:0:0:
36,192,36785,1,0,0:0:0:0:
475,192,36785,1,0,0:0:0:0:
402,192,36873,1,0,0:0:0:0:
329,192,36961,1,0,0:0:0:0:
256,192,37049,1,0,0:0:0:0:
402,192,37138,1,0,0:0:0:0:
182,192,37138,1,0,0:0:0:0:
329,192,37226,1,0,0:0:0:0:
256,192,37314,1,0,0:0:0:0:
182,192,37402,1,0,0:0:0:0:
329,192,37490,1,0,0:0:0:0:
109,192,37490,1,0,0:0:0:0:
475,192,37490,1,0,0:0:0:0:
36,192,37490,1,0,0:0:0:0:
182,192,37579,1,0,0:0:0:0:
402,192,37579,1,0,0:0:0:0:
109,192,37667,1,0,0:0:0:0:
329,192,37667,1,0,0:0:0:0:
475,192,37667,1,0,0:0:0:0:
36,192,37667,1,0,0:0:0:0:
256,192,37755,1,0,0:0:0:0:
36,192,37843,1,0,0:0:0:0:
402,192,37843,1,0,0:0:0:0:
475,192,37843,1,0,0:0:0:0:
182,192,37843,1,0,0:0:0:0:
329,192,37932,1,0,0:0:0:0:
109,192,37932,1,0,0:0:0:0:
402,192,38020,1,0,0:0:0:0:
475,192,38020,1,0,0:0:0:0:
36,192,38020,1,0,0:0:0:0:
182,192,38020,1,0,0:0:0:0:
329,192,38108,1,0,0:0:0:0:
109,192,38108,1,0,0:0:0:0:
256,192,38196,1,0,0:0:0:0:
475,192,38196,1,0,0:0:0:0:
36,192,38196,1,0,0:0:0:0:
402,192,38196,1,0,0:0:0:0:
109,192,38285,1,0,0:0:0:0:
329,192,38285,1,0,0:0:0:0:
182,192,38373,1,0,0:0:0:0:
402,192,38373,1,0,0:0:0:0:
475,192,38461,1,0,0:0:0:0:
256,192,38461,1,0,0:0:0:0:
36,192,38549,1,0,0:0:0:0:
182,192,38549,1,0,0:0:0:0:
329,192,38549,1,0,0:0:0:0:
402,192,38549,1,0,0:0:0:0:
109,192,38638,1,0,0:0:0:0:
475,192,38638,1,0,0:0:0:0:
182,192,38726,1,0,0:0:0:0:
402,192,38726,1,0,0:0:0:0:
109,192,38814,1,0,0:0:0:0:
329,192,38814,1,0,0:0:0:0:
36,192,38902,1,0,0:0:0:0:
402,192,38902,1,0,0:0:0:0:
475,192,38902,1,0,0:0:0:0:
256,192,38902,1,0,0:0:0:0:
182,192,38990,1,0,0:0:0:0:
329,192,38990,1,0,0:0:0:0:
36,192,39079,1,0,0:0:0:0:
109,192,39079,1,0,0:0:0:0:
475,192,39079,1,0,0:0:0:0:
256,192,39079,1,0,0:0:0:0:
182,192,39167,1,0,0:0:0:0:
402,192,39167,1,0,0:0:0:0:
329,192,39255,1,0,0:0:0:0:
36,192,39255,1,0,0:0:0:0:
256,192,39343,1,0,0:0:0:0:
109,192,39343,1,0,0:0:0:0:
329,192,39432,1,0,0:0:0:0:
475,192,39432,1,0,0:0:0:0:
182,192,39432,1,0,0:0:0:0:
36,192,39432,1,0,0:0:0:0:
402,192,39520,1,0,0:0:0:0:
256,192,39520,1,0,0:0:0:0:
475,192,39608,1,0,0:0:0:0:
36,192,39608,1,0,0:0:0:0:
182,192,39608,1,0,0:0:0:0:
109,192,39696,1,0,0:0:0:0:
402,192,39696,1,0,0:0:0:0:
329,192,39785,1,0,0:0:0:0:
182,192,39785,1,0,0:0:0:0:
402,192,39873,1,0,0:0:0:0:
256,192,39873,1,0,0:0:0:0:
182,192,39961,1,0,0:0:0:0:
475,192,39961,1,0,0:0:0:0:
109,192,39961,1,0,0:0:0:0:
36,192,39961,1,0,0:0:0:0:
329,192,39961,1,0,0:0:0:0:
256,192,40049,1,0,0:0:0:0:
402,192,40049,1,0,0:0:0:0:
109,192,40138,1,0,0:0:0:0:
329,192,40138,1,0,0:0:0:0:
402,192,40226,1,0,0:0:0:0:
182,192,40226,1,0,0:0:0:0:
475,192,40314,1,0,0:0:0:0:
36,192,40314,1,0,0:0:0:0:
256,192,40314,1,0,0:0:0:0:
109,192,40402,1,0,0:0:0:0:
402,192,40402,1,0,0:0:0:0:
329,192,40490,1,0,0:0:0:0:
36,192,40490,1,0,0:0:0:0:
475,192,40490,1,0,0:0:0:0:
182,192,40490,1,0,0:0:0:0:
256,192,40579,1,0,0:0:0:0:
402,192,40579,1,0,0:0:0:0:
329,192,40667,1,0,0:0:0:0:
475,192,40667,1,0,0:0:0:0:
36,192,40667,1,0,0:0:0:0:
109,192,40667,1,0,0:0:0:0:
402,192,40755,1,0,0:0:0:0:
256,192,40755,1,0,0:0:0:0:
36,192,40843,1,0,0:0:0:0:
182,192,40843,1,0,0:0:0:0:
329,192,40843,1,0,0:0:0:0:
475,192,40843,1,0,0:0:0:0:
256,192,40932,1,0,0:0:0:0:
109,192,40932,1,0,0:0:0:0:
402,192,41020,1,0,0:0:0:0:
36,192,41020,1,0,0:0:0:0:
182,192,41020,1,0,0:0:0:0:
475,192,41020,1,0,0:0:0:0:
329,192,41108,1,0,0:0:0:0:
256,192,41108,1,0,0:0:0:0:
109,192,41196,1,0,0:0:0:0:
36,192,41196,1,0,0:0:0:0:
475,192,41196,1,0,0:0:0:0:
182,192,41196,1,0,0:0:0:0:
402,192,41285,1,0,0:0:0:0:
329,192,41285,1,0,0:0:0:0:
256,192,41373,1,0,0:0:0:0:
109,192,41373,1,0,0:0:0:0:
475,192,41373,1,0,0:0:0:0:
182,192,41461,1,0,0:0:0:0:
329,192,41461,1,0,0:0:0:0:
402,192,41549,1,0,0:0:0:0:
475,192,41549,1,0,0:0:0:0:
256,192,41549,1,0,0:0:0:0:
36,192,41549,1,0,0:0:0:0:
182,192,41638,1,0,0:0:0:0:
109,192,41638,1,0,0:0:0:0:
329,192,41726,1,0,0:0:0:0:
402,192,41726,1,0,0:0:0:0:
36,192,41726,1,0,0:0:0:0:
256,192,41814,1,0,0:0:0:0:
182,192,41814,1,0,0:0:0:0:
402,192,41902,1,0,0:0:0:0:
475,192,41902,1,0,0:0:0:0:
109,192,41902,1,0,0:0:0:0:
36,192,41902,1,0,0:0:0:0:
329,192,41990,1,0,0:0:0:0:
256,192,41990,1,0,0:0:0:0:
475,192,42079,1,0,0:0:0:0:
182,192,42079,1,0,0:0:0:0:
36,192,42079,1,0,0:0:0:0:
402,192,42167,1,0,0:0:0:0:
256,192,42167,1,0,0:0:0:0:
475,192,42255,1,0,0:0:0:0:
329,192,42255,1,0,0:0:0:0:
109,192,42255,1,0,0:0:0:0:
36,192,42255,1,0,0:0:0:0:
402,192,42343,1,0,0:0:0:0:
182,192,42343,1,0,0:0:0:0:
475,192,42432,1,0,0:0:0:0:
36,192,42432,1,0,0:0:0:0:
256,192,42432,1,0,0:0:0:0:
109,192,42520,1,0,0:0:0:0:
329,192,42520,1,0,0:0:0:0:
182,192,42608,1,0,0:0:0:0:
402,192,42608,1,0,0:0:0:0:
475,192,42608,1,0,0:0:0:0:
36,192,42608,1,0,0:0:0:0:
256,192,42696,1,0,0:0:0:0:
329,192,42696,1,0,0:0:0:0:
109,192,42785,1,0,0:0:0:0:
402,192,42785,1,0,0:0:0:0:
36,192,42785,1,0,0:0:0:0:
256,192,42873,1,0,0:0:0:0:
182,192,42873,1,0,0:0:0:0:
109,192,42961,1,0,0:0:0:0:
475,192,42961,1,0,0:0:0:0:
402,192,42961,1,0,0:0:0:0:
36,192,42961,1,0,0:0:0:0:
256,192,43049,1,0,0:0:0:0:
329,192,43049,1,0,0:0:0:0:
182,192,43138,1,0,0:0:0:0:
36,192,43138,1,0,0:0:0:0:
475,192,43138,1,0,0:0:0:0:
256,192,43226,1,0,0:0:0:0:
402,192,43226,1,0,0:0:0:0:
109,192,43314,1,0,0:0:0:0:
329,192,43314,1,0,0:0:0:0:
402,192,43402,1,0,0:0:0:0:
182,192,43402,1,0,0:0:0:0:
256,192,43490,1,0,0:0:0:0:
36,192,43490,1,0,0:0:0:0:
475,192,43490,1,0,0:0:0:0:
402,192,43579,1,0,0:0:0:0:
182,192,43579,1,0,0:0:0:0:
109,192,43667,1,0,0:0:0:0:
329,192,43667,1,0,0:0:0:0:
256,192,43755,1,0,0:0:0:0:
402,192,43755,1,0,0:0:0:0:
475,192,43843,1,0,0:0:0:0:
329,192,43843,1,0,0:0:0:0:
182,192,43843,1,0,0:0:0:0:
36,192,43843,1,0,0:0:0:0:
109,192,43932,1,0,0:0:0:0:
402,192,43932,1,0,0:0:0:0:
256,192,44020,1,0,0:0:0:0:
36,192,44020,1,0,0:0:0:0:
329,192,44108,1,0,0:0:0:0:
182,192,44108,1,0,0:0:0:0:
109,192,44196,1,0,0:0:0:0:
36,192,44196,1,0,0:0:0:0:
256,192,44196,1,0,0:0:0:0:
402,192,44196,1,0,0:0:0:0:
329,192,44285,1,0,0:0:0:0:
475,192,44285,1,0,0:0:0:0:
402,192,44373,1,0,0:0:0:0:
36,192,44373,1,0,0:0:0:0:
109,192,44373,1,0,0:0:0:0:
256,192,44373,1,0,0:0:0:0:
182,192,44461,1,0,0:0:0:0:
329,192,44461,1,0,0:0:0:0:
402,192,44549,1,0,0:0:0:0:
475,192,44549,1,0,0:0:0:0:
36,192,44549,1,0,0:0:0:0:
109,192,44638,1,0,0:0:0:0:
256,192,44638,1,0,0:0:0:0:
182,192,44726,1,0,0:0:0:0:
36,192,44726,1,0,0:0:0:0:
329,192,44726,1,0,0:0:0:0:
475,192,44726,1,0,0:0:0:0:
402,192,44814,1,0,0:0:0:0:
109,192,44814,1,0,0:0:0:0:
36,192,44902,1,0,0:0:0:0:
475,192,44902,1,0,0:0:0:0:
256,192,44902,1,0,0:0:0:0:
402,192,44990,1,0,0:0:0:0:
109,192,44990,1,0,0:0:0:0:
329,192,45079,1,0,0:0:0:0:
182,192,45079,1,0,0:0:0:0:
36,192,45079,1,0,0:0:0:0:
475,192,45079,1,0,0:0:0:0:
256,192,45167,1,0,0:0:0:0:
402,192,45167,1,0,0:0:0:0:
329,192,45255,1,0,0:0:0:0:
182,192,45255,1,0,0:0:0:0:
36,192,45255,1,0,0:0:0:0:
109,192,45343,1,0,0:0:0:0:
475,192,45343,1,0,0:0:0:0:
256,192,45432,1,0,0:0:0:0:
402,192,45432,1,0,0:0:0:0:
329,192,45520,1,0,0:0:0:0:
182,192,45520,1,0,0:0:0:0:
402,192,45608,1,0,0:0:0:0:
256,192,45608,1,0,0:0:0:0:
109,192,45608,1,0,0:0:0:0:
36,192,45608,1,0,0:0:0:0:
475,192,45608,1,0,0:0:0:0:
329,192,45696,1,0,0:0:0:0:
182,192,45696,1,0,0:0:0:0:
402,192,45785,1,0,0:0:0:0:
109,192,45785,1,0,0:0:0:0:
36,192,45873,1,0,0:0:0:0:
475,192,45873,1,0,0:0:0:0:
109,192,45961,1,0,0:0:0:0:
402,192,45961,1,0,0:0:0:0:
256,192,45961,1,0,0:0:0:0:
329,192,46049,1,0,0:0:0:0:
182,192,46049,1,0,0:0:0:0:
402,192,46138,1,0,0:0:0:0:
109,192,46138,1,0,0:0:0:0:
182,192,46226,1,0,0:0:0:0:
475,192,46226,1,0,0:0:0:0:
36,192,46314,1,0,0:0:0:0:
402,192,46314,1,0,0:0:0:0:
256,192,46314,1,0,0:0:0:0:
109,192,46402,1,0,0:0:0:0:
329,192,46402,1,0,0:0:0:0:
402,192,46490,1,0,0:0:0:0:
182,192,46490,1,0,0:0:0:0:
36,192,46490,1,0,0:0:0:0:
475,192,46490,1,0,0:0:0:0:
109,192,46579,1,0,0:0:0:0:
256,192,46579,1,0,0:0:0:0:
182,192,46667,1,0,0:0:0:0:
329,192,46667,1,0,0:0:0:0:
475,192,46667,1,0,0:0:0:0:
36,192,46667,1,0,0:0:0:0:
256,192,46755,1,0,0:0:0:0:
402,192,46755,1,0,0:0:0:0:
329,192,46843,1,0,0:0:0:0:
109,192,46843,1,0,0:0:0:0:
182,192,46932,1,0,0:0:0:0:
402,192,46932,1,0,0:0:0:0:
109,192,47020,1,0,0:0:0:0:
36,192,47020,1,0,0:0:0:0:
256,192,47020,1,0,0:0:0:0:
475,192,47020,1,0,0:0:0:0:
402,192,47108,1,0,0:0:0:0:
182,192,47108,1,0,0:0:0:0:
329,192,47196,1,0,0:0:0:0:
109,192,47196,1,0,0:0:0:0:
256,192,47285,1,0,0:0:0:0:
36,192,47285,1,0,0:0:0:0:
182,192,47373,1,0,0:0:0:0:
109,192,47373,1,0,0:0:0:0:
329,192,47373,1,0,0:0:0:0:
475,192,47373,1,0,0:0:0:0:
256,192,47461,1,0,0:0:0:0:
402,192,47461,1,0,0:0:0:0:
329,192,47549,1,0,0:0:0:0:
109,192,47549,1,0,0:0:0:0:
402,192,47638,1,0,0:0:0:0:
182,192,47638,1,0,0:0:0:0:
256,192,47726,1,0,0:0:0:0:
475,192,47726,1,0,0:0:0:0:
36,192,47726,1,0,0:0:0:0:
109,192,47726,1,0,0:0:0:0:
329,192,47814,1,0,0:0:0:0:
402,192,47814,1,0,0:0:0:0:
256,192,47902,1,0,0:0:0:0:
475,192,47902,1,0,0:0:0:0:
36,192,47902,1,0,0:0:0:0:
109,192,47902,1,0,0:0:0:0:
182,192,47990,1,0,0:0:0:0:
329,192,47990,1,0,0:0:0:0:
36,192,48079,1,0,0:0:0:0:
256,192,48079,1,0,0:0:0:0:
402,192,48079,1,0,0:0:0:0:
475,192,48079,1,0,0:0:0:0:
109,192,48167,1,0,0:0:0:0:
329,192,48167,1,0,0:0:0:0:
182,192,48255,1,0,0:0:0:0:
402,192,48255,1,0,0:0:0:0:
109,192,48343,1,0,0:0:0:0:
329,192,48343,1,0,0:0:0:0:
475,192,48432,1,0,0:0:0:0:
402,192,48432,1,0,0:0:0:0:
36,192,48432,1,0,0:0:0:0:
256,192,48432,1,0,0:0:0:0:
182,192,48520,1,0,0:0:0:0:
329,192,48520,1,0,0:0:0:0:
36,192,48608,1,0,0:0:0:0:
256,192,48608,1,0,0:0:0:0:
475,192,48608,1,0,0:0:0:0:
109,192,48608,1,0,0:0:0:0:
182,192,48696,1,0,0:0:0:0:
402,192,48696,1,0,0:0:0:0:
329,192,48785,1,0,0:0:0:0:
36,192,48785,1,0,0:0:0:0:
475,192,48785,1,0,0:0:0:0:
256,192,48873,1,0,0:0:0:0:
109,192,48873,1,0,0:0:0:0:
475,192,48961,1,0,0:0:0:0:
329,192,48961,1,0,0:0:0:0:
182,192,48961,1,0,0:0:0:0:
36,192,48961,1,0,0:0:0:0:
109,192,49049,1,0,0:0:0:0:
256,192,49049,1,0,0:0:0:0:
182,192,49138,1,0,0:0:0:0:
402,192,49138,1,0,0:0:0:0:
109,192,49226,1,0,0:0:0:0:
329,192,49226,1,0,0:0:0:0:
256,192,49314,1,0,0:0:0:0:
402,192,49314,1,0,0:0:0:0:
36,192,49314,1,0,0:0:0:0:
475,192,49314,1,0,0:0:0:0:
182,192,49402,1,0,0:0:0:0:
329,192,49402,1,0,0:0:0:0:
109,192,49490,1,0,0:0:0:0:
256,192,49490,1,0,0:0:0:0:
475,192,49490,1,0,0:0:0:0:
36,192,49490,1,0,0:0:0:0:
182,192,49579,1,0,0:0:0:0:
402,192,49579,1,0,0:0:0:0:
36,192,49667,1,0,0:0:0:0:
329,192,49667,1,0,0:0:0:0:
402,192,49755,1,0,0:0:0:0:
182,192,49755,1,0,0:0:0:0:
475,192,49843,1,0,0:0:0:0:
256,192,49843,1,0,0:0:0:0:
36,192,49843,1,0,0:0:0:0:
109,192,49843,1,0,0:0:0:0:
182,192,49932,1,0,0:0:0:0:
402,192,49932,1,0,0:0:0:0:
329,192,50020,1,0,0:0:0:0:
109,192,50020,1,0,0:0:0:0:
182,192,50108,1,0,0:0:0:0:
475,192,50108,1,0,0:0:0:0:
256,192,50196,1,0,0:0:0:0:
109,192,50196,1,0,0:0:0:0:
402,192,50196,1,0,0:0:0:0:
36,192,50196,1,0,0:0:0:0:
182,192,50285,1,0,0:0:0:0:
329,192,50285,1,0,0:0:0:0:
36,192,50373,1,0,0:0:0:0:
256,192,50373,1,0,0:0:0:0:
475,192,50373,1,0,0:0:0:0:
402,192,50373,1,0,0:0:0:0:
109,192,50461,1,0,0:0:0:0:
329,192,50461,1,0,0:0:0:0:
402,192,50549,1,0,0:0:0:0:
182,192,50549,1,0,0:0:0:0:
256,192,50638,1,0,0:0:0:0:
475,192,50638,1,0,0:0:0:0:
329,192,50726,1,0,0:0:0:0:
402,192,50726,1,0,0:0:0:0:
182,192,50726,1,0,0:0:0:0:
36,192,50726,1,0,0:0:0:0:
475,192,50814,1,0,0:0:0:0:
109,192,50814,1,0,0:0:0:0:
402,192,50902,1,0,0:0:0:0:
36,192,50902,1,0,0:0:0:0:
256,192,50902,1,0,0:0:0:0:
182,192,50990,1,0,0:0:0:0:
329,192,50990,1,0,0:0:0:0:
256,192,51079,1,0,0:0:0:0:
109,192,51079,1,0,0:0:0:0:
329,192,51167,1,0,0:0:0:0:
182,192,51167,1,0,0:0:0:0:
256,192,51255,1,0,0:0:0:0:
475,192,51255,1,0,0:0:0:0:
109,192,51255,1,0,0:0:0:0:
36,192,51255,1,0,0:0:0:0:
402,192,51255,1,0,0:0:0:0:
182,192,51343,1,0,0:0:0:0:
329,192,51343,1,0,0:0:0:0:
109,192,51432,1,0,0:0:0:0:
402,192,51432,1,0,0:0:0:0:
329,192,51520,1,0,0:0:0:0:
182,192,51520,1,0,0:0:0:0:
475,192,51608,1,0,0:0:0:0:
36,192,51608,1,0,0:0:0:0:
256,192,51608,1,0,0:0:0:0:
109,192,51696,1,0,0:0:0:0:
402,192,51696,1,0,0:0:0:0:
329,192,51785,1,0,0:0:0:0:
36,192,51785,1,0,0:0:0:0:
475,192,51785,1,0,0:0:0:0:
182,192,51785,1,0,0:0:0:0:
256,192,51873,1,0,0:0:0:0:
109,192,51873,1,0,0:0:0:0:
182,192,51961,1,0,0:0:0:0:
329,192,51961,1,0,0:0:0:0:
36,192,51961,1,0,0:0:0:0:
475,192,51961,1,0,0:0:0:0:
402,192,52049,1,0,0:0:0:0:
256,192,52049,1,0,0:0:0:0:
36,192,52138,1,0,0:0:0:0:
109,192,52138,1,0,0:0:0:0:
329,192,52138,1,0,0:0:0:0:
475,192,52138,1,0,0:0:0:0:
402,192,52226,1,0,0:0:0:0:
182,192,52226,1,0,0:0:0:0:
256,192,52314,1,0,0:0:0:0:
36,192,52314,1,0,0:0:0:0:
109,192,52314,1,0,0:0:0:0:
475,192,52314,1,0,0:0:0:0:
329,192,52402,1,0,0:0:0:0:
182,192,52402,1,0,0:0:0:0:
109,192,52490,1,0,0:0:0:0:
36,192,52490,1,0,0:0:0:0:
475,192,52490,1,0,0:0:0:0:
256,192,52490,1,0,0:0:0:0:
402,192,52579,1,0,0:0:0:0:
182,192,52579,1,0,0:0:0:0:
329,192,52667,1,0,0:0:0:0:
109,192,52667,1,0,0:0:0:0:
475,192,52667,1,0,0:0:0:0:
36,192,52755,1,0,0:0:0:0:
256,192,52755,1,0,0:0:0:0:
329,192,52843,1,0,0:0:0:0:
475,192,52843,1,0,0:0:0:0:
182,192,52843,1,0,0:0:0:0:
109,192,52843,1,0,0:0:0:0:
256,192,52932,1,0,0:0:0:0:
402,192,52932,1,0,0:0:0:0:
182,192,53020,1,0,0:0:0:0:
329,192,53020,1,0,0:0:0:0:
36,192,53020,1,0,0:0:0:0:
256,192,53108,1,0,0:0:0:0:
109,192,53108,1,0,0:0:0:0:
329,192,53196,1,0,0:0:0:0:
475,192,53196,1,0,0:0:0:0:
182,192,53196,1,0,0:0:0:0:
36,192,53196,1,0,0:0:0:0:
402,192,53285,1,0,0:0:0:0:
256,192,53285,1,0,0:0:0:0:
329,192,53373,1,0,0:0:0:0:
109,192,53373,1,0,0:0:0:0:
36,192,53373,1,0,0:0:0:0:
475,192,53461,1,0,0:0:0:0:
182,192,53461,1,0,0:0:0:0:
402,192,53549,1,0,0:0:0:0:
256,192,53549,1,0,0:0:0:0:
109,192,53549,1,0,0:0:0:0:
36,192,53549,1,0,0:0:0:0:
475,192,53638,1,0,0:0:0:0:
329,192,53638,1,0,0:0:0:0:
402,192,53726,1,0,0:0:0:0:
36,192,53726,1,0,0:0:0:0:
182,192,53726,1,0,0:0:0:0:
109,192,53814,1,0,0:0:0:0:
256,192,53814,1,0,0:0:0:0:
182,192,53902,1,0,0:0:0:0:
329,192,53902,1,0,0:0:0:0:
475,192,53902,1,0,0:0:0:0:
36,192,53902,1,0,0:0:0:0:
256,192,53990,1,0,0:0:0:0:
402,192,53990,1,0,0:0:0:0:
109,192,54079,1,0,0:0:0:0:
329,192,54079,1,0,0:0:0:0:
36,192,54079,1,0,0:0:0:0:
182,192,54167,1,0,0:0:0:0:
402,192,54167,1,0,0:0:0:0:
475,192,54255,1,0,0:0:0:0:
329,192,54255,1,0,0:0:0:0:
109,192,54255,1,0,0:0:0:0:
36,192,54255,1,0,0:0:0:0:
256,192,54343,1,0,0:0:0:0:
402,192,54343,1,0,0:0:0:0:
182,192,54432,1,0,0:0:0:0:
36,192,54432,1,0,0:0:0:0:
329,192,54432,1,0,0:0:0:0:
109,192,54520,1,0,0:0:0:0:
475,192,54520,1,0,0:0:0:0:
256,192,54608,1,0,0:0:0:0:
402,192,54608,1,0,0:0:0:0:
329,192,54696,1,0,0:0:0:0:
182,192,54696,1,0,0:0:0:0:
256,192,54785,1,0,0:0:0:0:
109,192,54785,1,0,0:0:0:0:
475,192,54785,1,0,0:0:0:0:
402,192,54873,1,0,0:0:0:0:
36,192,54873,1,0,0:0:0:0:
182,192,54961,1,0,0:0:0:0:
329,192,54961,1,0,0:0:0:0:
109,192,55049,1,0,0:0:0:0:
402,192,55049,1,0,0:0:0:0:
475,192,55138,1,0,0:0:0:0:
182,192,55138,1,0,0:0:0:0:
329,192,55138,1,0,0:0:0:0:
36,192,55138,1,0,0:0:0:0:
256,192,55226,1,0,0:0:0:0:
402,192,55226,1,0,0:0:0:0:
329,192,55314,1,0,0:0:0:0:
109,192,55314,1,0,0:0:0:0:
402,192,55402,1,0,0:0:0:0:
182,192,55402,1,0,0:0:0:0:
109,192,55490,1,0,0:0:0:0:
36,192,55490,1,0,0:0:0:0:
475,192,55490,1,0,0:0:0:0:
256,192,55490,1,0,0:0:0:0:
329,192,55579,1,0,0:0:0:0:
402,192,55579,1,0,0:0:0:0:
475,192,55667,1,0,0:0:0:0:
36,192,55667,1,0,0:0:0:0:
109,192,55667,1,0,0:0:0:0:
182,192,55667,1,0,0:0:0:0:
256,192,55755,1,0,0:0:0:0:
329,192,55755,1,0,0:0:0:0:
36,192,55843,1,0,0:0:0:0:
475,192,55843,1,0,0:0:0:0:
109,192,55843,1,0,0:0:0:0:
402,192,55932,1,0,0:0:0:0:
256,192,55932,1,0,0:0:0:0:
36,192,56020,1,0,0:0:0:0:
182,192,56020,1,0,0:0:0:0:
329,192,56020,1,0,0:0:0:0:
475,192,56020,1,0,0:0:0:0:
402,192,56108,1,0,0:0:0:0:
256,192,56108,1,0,0:0:0:0:
36,192,56196,1,0,0:0:0:0:
329,192,56196,1,0,0:0:0:0:
109,192,56196,1,0,0:0:0:0:
402,192,56285,1,0,0:0:0:0:
182,192,56285,1,0,0:0:0:0:
256,192,56373,1,0,0:0:0:0:
109,192,56373,1,0,0:0:0:0:
36,192,56373,1,0,0:0:0:0:
475,192,56373,1,0,0:0:0:0:
182,192,56461,1,0,0:0:0:0:
402,192,56461,1,0,0:0:0:0:
475,192,56549,1,0,0:0:0:0:
256,192,56549,1,0,0:0:0:0:
36,192,56549,1,0,0:0:0:0:
109,192,56638,1,0,0:0:0:0:
329,192,56638,1,0,0:0:0:0:
182,192,56726,1,0,0:0:0:0:
402,192,56726,1,0,0:0:0:0:
475,192,56814,1,0,0:0:0:0:
256,192,56814,1,0,0:0:0:0:
329,192,56902,1,0,0:0:0:0:
182,192,56902,1,0,0:0:0:0:
109,192,56902,1,0,0:0:0:0:
36,192,56902,1,0,0:0:0:0:
402,192,56902,1,0,0:0:0:0:
475,192,56990,1,0,0:0:0:0:
256,192,56990,1,0,0:0:0:0:
402,192,57079,1,0,0:0:0:0:
182,192,57079,1,0,0:0:0:0:
109,192,57167,1,0,0:0:0:0:
329,192,57167,1,0,0:0:0:0:
36,192,57255,1,0,0:0:0:0:
475,192,57255,1,0,0:0:0:0:
256,192,57255,1,0,0:0:0:0:
402,192,57343,1,0,0:0:0:0:
182,192,57343,1,0,0:0:0:0:
329,192,57432,1,0,0:0:0:0:
109,192,57432,1,0,0:0:0:0:
182,192,57520,1,0,0:0:0:0:
402,192,57520,1,0,0:0:0:0:
36,192,57608,1,0,0:0:0:0:
475,192,57608,1,0,0:0:0:0:
256,192,57608,1,0,0:0:0:0:
109,192,57696,1,0,0:0:0:0:
329,192,57696,1,0,0:0:0:0:
402,192,57785,1,0,0:0:0:0:
182,192,57785,1,0,0:0:0:0:
109,192,57873,1,0,0:0:0:0:
329,192,57873,1,0,0:0:0:0:
256,192,57961,1,0,0:0:0:0:
402,192,57961,1,0,0:0:0:0:
475,192,57961,1,0,0:0:0:0:
36,192,57961,1,0,0:0:0:0:
182,192,58049,1,0,0:0:0:0:
329,192,58049,1,0,0:0:0:0:
402,192,58138,1,0,0:0:0:0:
109,192,58138,1,0,0:0:0:0:
475,192,58138,1,0,0:0:0:0:
182,192,58226,1,0,0:0:0:0:
329,192,58226,1,0,0:0:0:0:
475,192,58314,1,0,0:0:0:0:
36,192,58314,1,0,0:0:0:0:
256,192,58314,1,0,0:0:0:0:
402,192,58402,1,0,0:0:0:0:
109,192,58402,1,0,0:0:0:0:
329,192,58490,1,0,0:0:0:0:
182,192,58490,1,0,0:0:0:0:
36,192,58490,1,0,0:0:0:0:
256,192,58579,1,0,0:0:0:0:
402,192,58579,1,0,0:0:0:0:
109,192,58667,1,0,0:0:0:0:
475,192,58667,1,0,0:0:0:0:
182,192,58755,1,0,0:0:0:0:
329,192,58755,1,0,0:0:0:0:
256,192,58843,1,0,0:0:0:0:
109,192,58843,1,0,0:0:0:0:
36,192,58843,1,0,0:0:0:0:
475,192,58843,1,0,0:0:0:0:
402,192,58932,1,0,0:0:0:0:
182,192,58932,1,0,0:0:0:0:
36,192,59020,1,0,0:0:0:0:
329,192,59020,1,0,0:0:0:0:
402,192,59108,1,0,0:0:0:0:
109,192,59108,1,0,0:0:0:0:
182,192,59196,1,0,0:0:0:0:
475,192,59196,1,0,0:0:0:0:
36,192,59196,1,0,0:0:0:0:
329,192,59196,1,0,0:0:0:0:
402,192,59285,1,0,0:0:0:0:
256,192,59285,1,0,0:0:0:0:
109,192,59373,1,0,0:0:0:0:
329,192,59373,1,0,0:0:0:0:
182,192,59461,1,0,0:0:0:0:
402,192,59461,1,0,0:0:0:0:
109,192,59549,1,0,0:0:0:0:
475,192,59549,1,0,0:0:0:0:
256,192,59549,1,0,0:0:0:0:
36,192,59549,1,0,0:0:0:0:
182,192,59638,1,0,0:0:0:0:
329,192,59638,1,0,0:0:0:0:
475,192,59726,1,0,0:0:0:0:
109,192,59726,1,0,0:0:0:0:
256,192,59814,1,0,0:0:0:0:
402,192,59814,1,0,0:0:0:0:
36,192,59902,1,0,0:0:0:0:
182,192,59902,1,0,0:0:0:0:
329,192,59902,1,0,0:0:0:0:
256,192,59990,1,0,0:0:0:0:
402,192,59990,1,0,0:0:0:0:
109,192,60079,1,0,0:0:0:0:
475,192,60079,1,0,0:0:0:0:
329,192,60167,1,0,0:0:0:0:
182,192,60167,1,0,0:0:0:0:
475,192,60255,1,0,0:0:0:0:
256,192,60255,1,0,0:0:0:0:
36,192,60255,1,0,0:0:0:0:
402,192,60255,1,0,0:0:0:0:
182,192,60343,1,0,0:0:0:0:
109,192,60343,1,0,0:0:0:0:
329,192,60343,1,0,0:0:0:0:
36,192,60432,1,0,0:0:0:0:
256,192,60432,1,0,0:0:0:0:
475,192,60432,1,0,0:0:0:0:
402,192,60432,1,0,0:0:0:0:
109,192,60520,1,0,0:0:0:0:
182,192,60608,1,0,0:0:0:0:
329,192,60608,1,0,0:0:0:0:
402,192,60608,1,0,0:0:0:0:
475,192,60608,1,0,0:0:0:0:
109,192,60696,1,0,0:0:0:0:
36,192,60785,1,0,0:0:0:0:
256,192,60785,1,0,0:0:0:0:
402,192,60785,1,0,0:0:0:0:
475,192,60785,1,0,0:0:0:0:
182,192,60873,1,0,0:0:0:0:
329,192,60961,1,0,0:0:0:0:
329,192,61049,1,0,0:0:0:0:
36,192,61138,1,0,0:0:0:0:
182,192,61138,1,0,0:0:0:0:
402,192,61226,1,0,0:0:0:0:
256,192,61314,1,0,0:0:0:0:
109,192,61402,1,0,0:0:0:0:
329,192,61490,1,0,0:0:0:0:
475,192,61490,1,0,0:0:0:0:
182,192,61579,1,0,0:0:0:0:
36,192,61667,1,0,0:0:0:0:
36,192,61755,1,0,0:0:0:0:
329,192,61843,1,0,0:0:0:0:
475,192,61843,1,0,0:0:0:0:
109,192,61932,1,0,0:0:0:0:
256,192,62020,1,0,0:0:0:0:
402,192,62108,1,0,0:0:0:0:
182,192,62196,1,0,0:0:0:0:
36,192,62196,1,0,0:0:0:0:
329,192,62285,1,0,0:0:0:0:
109,192,62373,1,0,0:0:0:0:
109,192,62461,1,0,0:0:0:0:
256,192,62549,1,0,0:0:0:0:
475,192,62549,1,0,0:0:0:0:
329,192,62638,1,0,0:0:0:0:
36,192,62726,1,0,0:0:0:0:
182,192,62814,1,0,0:0:0:0:
109,192,62902,1,0,0:0:0:0:
402,192,62902,1,0,0:0:0:0:
256,192,62990,1,0,0:0:0:0:
475,192,63079,1,0,0:0:0:0:
475,192,63167,1,0,0:0:0:0:
329,192,63255,1,0,0:0:0:0:
182,192,63255,1,0,0:0:0:0:
36,192,63343,1,0,0:0:0:0:
256,192,63432,1,0,0:0:0:0:
402,192,63520,1,0,0:0:0:0:
109,192,63608,1,0,0:0:0:0:
329,192,63608,1,0,0:0:0:0:
475,192,63696,1,0,0:0:0:0:
182,192,63785,1,0,0:0:0:0:
182,192,63873,1,0,0:0:0:0:
475,192,63961,1,0,0:0:0:0:
36,192,63961,1,0,0:0:0:0:
329,192,64049,1,0,0:0:0:0:
182,192,64138,1,0,0:0:0:0:
402,192,64226,1,0,0:0:0:0:
256,192,64314,1,0,0:0:0:0:
36,192,64314,1,0,0:0:0:0:
182,192,64402,1,0,0:0:0:0:
329,192,64490,1,0,0:0:0:0:
329,192,64579,1,0,0:0:0:0:
256,192,64667,1,0,0:0:0:0:
109,192,64667,1,0,0:0:0:0:
475,192,64755,1,0,0:0:0:0:
329,192,64843,1,0,0:0:0:0:
36,192,64932,1,0,0:0:0:0:
182,192,65020,1,0,0:0:0:0:
475,192,65020,1,0,0:0:0:0:
329,192,65108,1,0,0:0:0:0:
109,192,65196,1,0,0:0:0:0:
109,192,65285,1,0,0:0:0:0:
256,192,65373,1,0,0:0:0:0:
402,192,65373,1,0,0:0:0:0:
36,192,65461,1,0,0:0:0:0:
182,192,65549,1,0,0:0:0:0:
329,192,65638,1,0,0:0:0:0:
109,192,65726,1,0,0:0:0:0:
475,192,65726,1,0,0:0:0:0:
402,192,65814,1,0,0:0:0:0:
256,192,65902,1,0,0:0:0:0:
256,192,65990,1,0,0:0:0:0:
36,192,66079,1,0,0:0:0:0:
402,192,66079,1,0,0:0:0:0:
182,192,66167,1,0,0:0:0:0:
329,192,66255,1,0,0:0:0:0:
475,192,66343,1,0,0:0:0:0:
402,192,66432,1,0,0:0:0:0:
109,192,66432,1,0,0:0:0:0:
256,192,66520,1,0,0:0:0:0:
36,192,66608,1,0,0:0:0:0:
36,192,66696,1,0,0:0:0:0:
475,192,66785,1,0,0:0:0:0:
329,192,66785,1,0,0:0:0:0:
182,192,66873,1,0,0:0:0:0:
36,192,66961,1,0,0:0:0:0:
402,192,67049,1,0,0:0:0:0:
109,192,67138,1,0,0:0:0:0:
256,192,67138,1,0,0:0:0:0:
475,192,67226,1,0,0:0:0:0:
329,192,67314,1,0,0:0:0:0:
329,192,67402,1,0,0:0:0:0:
182,192,67490,1,0,0:0:0:0:
36,192,67490,1,0,0:0:0:0:
402,192,67579,1,0,0:0:0:0:
256,192,67667,1,0,0:0:0:0:
109,192,67755,1,0,0:0:0:0:
329,192,67843,1,0,0:0:0:0:
475,192,67843,1,0,0:0:0:0:
36,192,67932,1,0,0:0:0:0:
182,192,68020,1,0,0:0:0:0:
182,192,68108,1,0,0:0:0:0:
256,192,68196,1,0,0:0:0:0:
402,192,68196,1,0,0:0:0:0:
109,192,68285,1,0,0:0:0:0:
329,192,68373,1,0,0:0:0:0:
475,192,68461,1,0,0:0:0:0:
256,192,68549,1,0,0:0:0:0:
36,192,68549,1,0,0:0:0:0:
182,192,68638,1,0,0:0:0:0:
402,192,68726,1,0,0:0:0:0:
402,192,68814,1,0,0:0:0:0:
329,192,68902,1,0,0:0:0:0:
109,192,68902,1,0,0:0:0:0:
182,192,68990,1,0,0:0:0:0:
475,192,69079,1,0,0:0:0:0:
256,192,69167,1,0,0:0:0:0:
402,192,69255,1,0,0:0:0:0:
109,192,69255,1,0,0:0:0:0:
36,192,69343,1,0,0:0:0:0:
329,192,69432,1,0,0:0:0:0:
329,192,69520,1,0,0:0:0:0:
36,192,69608,1,0,0:0:0:0:
475,192,69608,1,0,0:0:0:0:
182,192,69696,1,0,0:0:0:0:
329,192,69785,1,0,0:0:0:0:
256,192,69873,1,0,0:0:0:0:
109,192,69961,1,0,0:0:0:0:
475,192,69961,1,0,0:0:0:0:
402,192,70049,1,0,0:0:0:0:
256,192,70138,1,0,0:0:0:0:
256,192,70226,1,0,0:0:0:0:
182,192,70314,1,0,0:0:0:0:
36,192,70314,1,0,0:0:0:0:
475,192,70402,1,0,0:0:0:0:
329,192,70490,1,0,0:0:0:0:
182,192,70579,1,0,0:0:0:0:
36,192,70667,1,0,0:0:0:0:
402,192,70667,1,0,0:0:0:0:
256,192,70755,1,0,0:0:0:0:
109,192,70843,1,0,0:0:0:0:
109,192,70932,1,0,0:0:0:0:
329,192,71020,1,0,0:0:0:0:
475,192,71020,1,0,0:0:0:0:
182,192,71108,1,0,0:0:0:0:
402,192,71196,1,0,0:0:0:0:
109,192,71285,1,0,0:0:0:0:
329,192,71373,1,0,0:0:0:0:
36,192,71373,1,0,0:0:0:0:
256,192,71461,1,0,0:0:0:0:
475,192,71549,1,0,0:0:0:0:
475,192,71638,1,0,0:0:0:0:
256,192,71726,1,0,0:0:0:0:
109,192,71726,1,0,0:0:0:0:
36,192,71726,1,0,0:0:0:0:
402,192,71814,1,0,0:0:0:0:
182,192,71902,1,0,0:0:0:0:
36,192,71902,1,0,0:0:0:0:
329,192,71902,1,0,0:0:0:0:
109,192,71990,1,0,0:0:0:0:
36,192,72079,1,0,0:0:0:0:
256,192,72079,1,0,0:0:0:0:
475,192,72079,1,0,0:0:0:0:
402,192,72079,1,0,0:0:0:0:
36,192,72432,1,0,0:0:0:0:
329,192,72608,1,0,0:0:0:0:
475,192,72608,1,0,0:0:0:0:
256,192,72785,1,0,0:0:0:0:
109,192,72785,1,0,0:0:0:0:
36,192,73138,1,0,0:0:0:0:
402,192,73490,1,0,0:0:0:0:
475,192,73490,1,0,0:0:0:0:
256,192,73490,1,0,0:0:0:0:
109,192,73490,1,0,0:0:0:0:
36,192,73843,1,0,0:0:0:0:
256,192,73843,1,0,0:0:0:0:
475,192,73843,1,0,0:0:0:0:
182,192,74020,1,0,0:0:0:0:
402,192,74020,1,0,0:0:0:0:
109,192,74196,1,0,0:0:0:0:
329,192,74196,1,0,0:0:0:0:
182,192,74373,1,0,0:0:0:0:
402,192,74373,1,0,0:0:0:0:
36,192,74549,1,0,0:0:0:0:
256,192,74549,1,0,0:0:0:0:
475,192,74549,1,0,0:0:0:0:
402,192,74726,1,0,0:0:0:0:
109,192,74726,1,0,0:0:0:0:
182,192,74902,1,0,0:0:0:0:
475,192,74902,1,0,0:0:0:0:
329,192,74902,1,0,0:0:0:0:
36,192,74902,1,0,0:0:0:0:
36,192,75255,1,0,0:0:0:0:
329,192,75432,1,0,0:0:0:0:
475,192,75432,1,0,0:0:0:0:
329,192,75608,1,0,0:0:0:0:
475,192,75608,1,0,0:0:0:0:
36,192,75961,1,0,0:0:0:0:
256,192,76314,1,0,0:0:0:0:
402,192,76314,1,0,0:0:0:0:
475,192,76314,1,0,0:0:0:0:
109,192,76314,1,0,0:0:0:0:
36,192,76667,1,0,0:0:0:0:
36,192,77373,1,0,0:0:0:0:
182,192,77373,1,0,0:0:0:0:
329,192,77373,1,0,0:0:0:0:
475,192,77373,1,0,0:0:0:0:
256,192,77549,1,0,0:0:0:0:
402,192,77549,1,0,0:0:0:0:
329,192,77726,1,0,0:0:0:0:
182,192,77726,1,0,0:0:0:0:
475,192,77726,1,0,0:0:0:0:
36,192,77726,1,0,0:0:0:0:
109,192,77726,1,0,0:0:0:0:
36,192,78079,1,0,0:0:0:0:
329,192,78255,1,0,0:0:0:0:
475,192,78255,1,0,0:0:0:0:
256,192,78432,1,0,0:0:0:0:
109,192,78432,1,0,0:0:0:0:
36,192,78785,1,0,0:0:0:0:
109,192,79138,1,0,0:0:0:0:
256,192,79138,1,0,0:0:0:0:
402,192,79138,1,0,0:0:0:0:
475,192,79138,1,0,0:0:0:0:
36,192,79490,1,0,0:0:0:0:
182,192,79490,1,0,0:0:0:0:
329,192,79490,1,0,0:0:0:0:
256,192,79667,1,0,0:0:0:0:
402,192,79667,1,0,0:0:0:0:
475,192,79843,1,0,0:0:0:0:
109,192,79843,1,0,0:0:0:0:
182,192,80020,1,0,0:0:0:0:
402,192,80020,1,0,0:0:0:0:
36,192,80196,1,0,0:0:0:0:
256,192,80196,1,0,0:0:0:0:
475,192,80196,1,0,0:0:0:0:
402,192,80373,1,0,0:0:0:0:
109,192,80373,1,0,0:0:0:0:
182,192,80549,1,0,0:0:0:0:
329,192,80549,1,0,0:0:0:0:
475,192,80549,1,0,0:0:0:0:
36,192,80549,1,0,0:0:0:0:
256,192,80638,1,0,0:0:0:0:
402,192,80638,1,0,0:0:0:0:
109,192,80726,1,0,0:0:0:0:
36,192,80726,1,0,0:0:0:0:
475,192,80726,1,0,0:0:0:0:
182,192,80814,1,0,0:0:0:0:
329,192,80814,1,0,0:0:0:0:
475,192,80902,1,0,0:0:0:0:
402,192,80902,1,0,0:0:0:0:
36,192,80902,1,0,0:0:0:0:
109,192,80990,1,0,0:0:0:0:
256,192,80990,1,0,0:0:0:0:
36,192,81079,1,0,0:0:0:0:
475,192,81079,1,0,0:0:0:0:
402,192,81079,1,0,0:0:0:0:
182,192,81167,1,0,0:0:0:0:
329,192,81167,1,0,0:0:0:0:
109,192,81255,1,0,0:0:0:0:
36,192,81255,1,0,0:0:0:0:
475,192,81255,1,0,0:0:0:0:
256,192,81343,1,0,0:0:0:0:
402,192,81343,1,0,0:0:0:0:
475,192,81432,1,0,0:0:0:0:
109,192,81432,1,0,0:0:0:0:
36,192,81432,1,0,0:0:0:0:
182,192,81520,1,0,0:0:0:0:
329,192,81520,1,0,0:0:0:0:
36,192,81608,1,0,0:0:0:0:
475,192,81608,1,0,0:0:0:0:
402,192,81608,1,0,0:0:0:0:
109,192,81696,1,0,0:0:0:0:
256,192,81696,1,0,0:0:0:0:
36,192,81785,1,0,0:0:0:0:
475,192,81785,1,0,0:0:0:0:
402,192,81785,1,0,0:0:0:0:
182,192,81873,1,0,0:0:0:0:
329,192,81873,1,0,0:0:0:0:
256,192,81961,1,0,0:0:0:0:
109,192,81961,1,0,0:0:0:0:
36,192,81961,1,0,0:0:0:0:
402,192,82049,1,0,0:0:0:0:
475,192,82049,1,0,0:0:0:0:
329,192,82138,1,0,0:0:0:0:
182,192,82138,1,0,0:0:0:0:
36,192,82138,1,0,0:0:0:0:
402,192,82226,1,0,0:0:0:0:
475,192,82226,1,0,0:0:0:0:
256,192,82314,1,0,0:0:0:0:
109,192,82314,1,0,0:0:0:0:
36,192,82314,1,0,0:0:0:0:
182,192,82402,1,0,0:0:0:0:
329,192,82402,1,0,0:0:0:0:
256,192,82490,1,0,0:0:0:0:
402,192,82490,1,0,0:0:0:0:
475,192,82490,1,0,0:0:0:0:
36,192,82579,1,0,0:0:0:0:
109,192,82579,1,0,0:0:0:0:
329,192,82667,1,0,0:0:0:0:
475,192,82667,1,0,0:0:0:0:
182,192,82667,1,0,0:0:0:0:
109,192,82755,1,0,0:0:0:0:
36,192,82755,1,0,0:0:0:0:
256,192,82843,1,0,0:0:0:0:
402,192,82843,1,0,0:0:0:0:
475,192,82843,1,0,0:0:0:0:
329,192,82932,1,0,0:0:0:0:
182,192,82932,1,0,0:0:0:0:
256,192,83020,1,0,0:0:0:0:
109,192,83020,1,0,0:0:0:0:
36,192,83020,1,0,0:0:0:0:
475,192,83020,1,0,0:0:0:0:
329,192,83108,1,0,0:0:0:0:
402,192,83108,1,0,0:0:0:0:
182,192,83108,1,0,0:0:0:0:
475,192,83196,1,0,0:0:0:0:
109,192,83196,1,0,0:0:0:0:
36,192,83196,1,0,0:0:0:0:
329,192,83285,1,0,0:0:0:0:
402,192,83285,1,0,0:0:0:0:
182,192,83285,1,0,0:0:0:0:
256,192,83373,1,0,0:0:0:0:
109,192,83373,1,0,0:0:0:0:
36,192,83373,1,0,0:0:0:0:
475,192,83373,1,0,0:0:0:0:
402,192,83461,1,0,0:0:0:0:
256,192,83549,1,0,0:0:0:0:
182,192,83638,1,0,0:0:0:0:
402,192,83726,1,0,0:0:0:0:
109,192,83726,1,0,0:0:0:0:
329,192,83814,1,0,0:0:0:0:
182,192,83902,1,0,0:0:0:0:
109,192,83990,1,0,0:0:0:0:
36,192,84079,1,0,0:0:0:0:
256,192,84079,1,0,0:0:0:0:
475,192,84079,1,0,0:0:0:0:
329,192,84167,1,0,0:0:0:0:
402,192,84167,1,0,0:0:0:0:
109,192,84167,1,0,0:0:0:0:
182,192,84167,1,0,0:0:0:0:
475,192,84255,1,0,0:0:0:0:
36,192,84255,1,0,0:0:0:0:
256,192,84255,1,0,0:0:0:0:
402,192,84343,1,0,0:0:0:0:
329,192,84432,1,0,0:0:0:0:
182,192,84432,1,0,0:0:0:0:
36,192,84432,1,0,0:0:0:0:
109,192,84520,1,0,0:0:0:0:
256,192,84520,1,0,0:0:0:0:
402,192,84520,1,0,0:0:0:0:
182,192,84608,1,0,0:0:0:0:
475,192,84608,1,0,0:0:0:0:
329,192,84608,1,0,0:0:0:0:
109,192,84696,1,0,0:0:0:0:
402,192,84696,1,0,0:0:0:0:
256,192,84696,1,0,0:0:0:0:
182,192,84785,1,0,0:0:0:0:
475,192,84785,1,0,0:0:0:0:
36,192,84785,1,0,0:0:0:0:
329,192,84785,1,0,0:0:0:0:
109,192,84873,1,0,0:0:0:0:
402,192,84873,1,0,0:0:0:0:
256,192,84961,1,0,0:0:0:0:
475,192,84961,1,0,0:0:0:0:
182,192,85049,1,0,0:0:0:0:
329,192,85049,1,0,0:0:0:0:
36,192,85138,1,0,0:0:0:0:
109,192,85138,1,0,0:0:0:0:
256,192,85138,1,0,0:0:0:0:
475,192,85138,1,0,0:0:0:0:
182,192,85226,1,0,0:0:0:0:
402,192,85226,1,0,0:0:0:0:
36,192,85314,1,0,0:0:0:0:
329,192,85314,1,0,0:0:0:0:
109,192,85402,1,0,0:0:0:0:
256,192,85402,1,0,0:0:0:0:
36,192,85490,1,0,0:0:0:0:
402,192,85490,1,0,0:0:0:0:
475,192,85490,1,0,0:0:0:0:
182,192,85490,1,0,0:0:0:0:
256,192,85579,1,0,0:0:0:0:
329,192,85579,1,0,0:0:0:0:
36,192,85667,1,0,0:0:0:0:
109,192,85667,1,0,0:0:0:0:
475,192,85667,1,0,0:0:0:0:
402,192,85667,1,0,0:0:0:0:
182,192,85755,1,0,0:0:0:0:
329,192,85755,1,0,0:0:0:0:
475,192,85843,1,0,0:0:0:0:
109,192,85843,1,0,0:0:0:0:
402,192,85932,1,0,0:0:0:0:
256,192,85932,1,0,0:0:0:0:
182,192,86020,1,0,0:0:0:0:
475,192,86020,1,0,0:0:0:0:
329,192,86020,1,0,0:0:0:0:
36,192,86020,1,0,0:0:0:0:
256,192,86108,1,0,0:0:0:0:
109,192,86108,1,0,0:0:0:0:
475,192,86196,1,0,0:0:0:0:
36,192,86196,1,0,0:0:0:0:
329,192,86196,1,0,0:0:0:0:
109,192,86285,1,0,0:0:0:0:
256,192,86285,1,0,0:0:0:0:
402,192,86373,1,0,0:0:0:0:
182,192,86373,1,0,0:0:0:0:
329,192,86461,1,0,0:0:0:0:
36,192,86461,1,0,0:0:0:0:
256,192,86549,1,0,0:0:0:0:
475,192,86549,1,0,0:0:0:0:
182,192,86549,1,0,0:0:0:0:
109,192,86549,1,0,0:0:0:0:
402,192,86549,1,0,0:0:0:0:
36,192,86638,1,0,0:0:0:0:
329,192,86638,1,0,0:0:0:0:
182,192,86726,1,0,0:0:0:0:
475,192,86726,1,0,0:0:0:0:
402,192,86814,1,0,0:0:0:0:
256,192,86814,1,0,0:0:0:0:
329,192,86902,1,0,0:0:0:0:
36,192,86902,1,0,0:0:0:0:
109,192,86902,1,0,0:0:0:0:
182,192,86990,1,0,0:0:0:0:
475,192,86990,1,0,0:0:0:0:
256,192,87079,1,0,0:0:0:0:
36,192,87079,1,0,0:0:0:0:
402,192,87079,1,0,0:0:0:0:
109,192,87079,1,0,0:0:0:0:
182,192,87167,1,0,0:0:0:0:
329,192,87167,1,0,0:0:0:0:
256,192,87255,1,0,0:0:0:0:
475,192,87255,1,0,0:0:0:0:
36,192,87255,1,0,0:0:0:0:
402,192,87255,1,0,0:0:0:0:
329,192,87343,1,0,0:0:0:0:
109,192,87343,1,0,0:0:0:0:
36,192,87432,1,0,0:0:0:0:
182,192,87432,1,0,0:0:0:0:
402,192,87432,1,0,0:0:0:0:
475,192,87432,1,0,0:0:0:0:
329,192,87520,1,0,0:0:0:0:
109,192,87520,1,0,0:0:0:0:
402,192,87608,1,0,0:0:0:0:
36,192,87608,1,0,0:0:0:0:
256,192,87608,1,0,0:0:0:0:
475,192,87608,1,0,0:0:0:0:
329,192,87696,1,0,0:0:0:0:
182,192,87696,1,0,0:0:0:0:
109,192,87785,1,0,0:0:0:0:
36,192,87785,1,0,0:0:0:0:
475,192,87785,1,0,0:0:0:0:
256,192,87785,1,0,0:0:0:0:
402,192,87873,1,0,0:0:0:0:
182,192,87873,1,0,0:0:0:0:
329,192,87961,1,0,0:0:0:0:
36,192,87961,1,0,0:0:0:0:
475,192,87961,1,0,0:0:0:0:
109,192,88049,1,0,0:0:0:0:
256,192,88049,1,0,0:0:0:0:
402,192,88138,1,0,0:0:0:0:
475,192,88138,1,0,0:0:0:0:
182,192,88138,1,0,0:0:0:0:
36,192,88138,1,0,0:0:0:0:
329,192,88226,1,0,0:0:0:0:
256,192,88226,1,0,0:0:0:0:
109,192,88314,1,0,0:0:0:0:
475,192,88314,1,0,0:0:0:0:
182,192,88314,1,0,0:0:0:0:
402,192,88402,1,0,0:0:0:0:
329,192,88402,1,0,0:0:0:0:
256,192,88490,1,0,0:0:0:0:
475,192,88490,1,0,0:0:0:0:
109,192,88490,1,0,0:0:0:0:
36,192,88490,1,0,0:0:0:0:
329,192,88579,1,0,0:0:0:0:
182,192,88579,1,0,0:0:0:0:
475,192,88667,1,0,0:0:0:0:
256,192,88667,1,0,0:0:0:0:
36,192,88667,1,0,0:0:0:0:
402,192,88755,1,0,0:0:0:0:
109,192,88755,1,0,0:0:0:0:
475,192,88843,1,0,0:0:0:0:
329,192,88843,1,0,0:0:0:0:
182,192,88843,1,0,0:0:0:0:
36,192,88843,1,0,0:0:0:0:
402,192,88932,1,0,0:0:0:0:
256,192,88932,1,0,0:0:0:0:
475,192,89020,1,0,0:0:0:0:
36,192,89020,1,0,0:0:0:0:
109,192,89020,1,0,0:0:0:0:
182,192,89108,1,0,0:0:0:0:
329,192,89108,1,0,0:0:0:0:
256,192,89196,1,0,0:0:0:0:
402,192,89196,1,0,0:0:0:0:
475,192,89196,1,0,0:0:0:0:
36,192,89196,1,0,0:0:0:0:
109,192,89285,1,0,0:0:0:0:
329,192,89285,1,0,0:0:0:0:
182,192,89373,1,0,0:0:0:0:
475,192,89373,1,0,0:0:0:0:
36,192,89373,1,0,0:0:0:0:
256,192,89461,1,0,0:0:0:0:
402,192,89461,1,0,0:0:0:0:
182,192,89549,1,0,0:0:0:0:
475,192,89549,1,0,0:0:0:0:
329,192,89549,1,0,0:0:0:0:
36,192,89549,1,0,0:0:0:0:
109,192,89638,1,0,0:0:0:0:
256,192,89638,1,0,0:0:0:0:
329,192,89726,1,0,0:0:0:0:
36,192,89726,1,0,0:0:0:0:
475,192,89726,1,0,0:0:0:0:
182,192,89814,1,0,0:0:0:0:
402,192,89814,1,0,0:0:0:0:
109,192,89902,1,0,0:0:0:0:
329,192,89902,1,0,0:0:0:0:
475,192,89990,1,0,0:0:0:0:
256,192,89990,1,0,0:0:0:0:
182,192,90079,1,0,0:0:0:0:
36,192,90079,1,0,0:0:0:0:
402,192,90079,1,0,0:0:0:0:
329,192,90167,1,0,0:0:0:0:
109,192,90167,1,0,0:0:0:0:
182,192,90255,1,0,0:0:0:0:
402,192,90255,1,0,0:0:0:0:
109,192,90343,1,0,0:0:0:0:
329,192,90343,1,0,0:0:0:0:
475,192,90432,1,0,0:0:0:0:
402,192,90432,1,0,0:0:0:0:
256,192,90432,1,0,0:0:0:0:
36,192,90432,1,0,0:0:0:0:
109,192,90520,1,0,0:0:0:0:
329,192,90520,1,0,0:0:0:0:
475,192,90608,1,0,0:0:0:0:
182,192,90608,1,0,0:0:0:0:
402,192,90696,1,0,0:0:0:0:
256,192,90696,1,0,0:0:0:0:
182,192,90785,1,0,0:0:0:0:
36,192,90785,1,0,0:0:0:0:
329,192,90785,1,0,0:0:0:0:
475,192,90785,1,0,0:0:0:0:
402,192,90873,1,0,0:0:0:0:
109,192,90873,1,0,0:0:0:0:
329,192,90961,1,0,0:0:0:0:
36,192,90961,1,0,0:0:0:0:
475,192,90961,1,0,0:0:0:0:
182,192,90961,1,0,0:0:0:0:
109,192,91049,1,0,0:0:0:0:
256,192,91049,1,0,0:0:0:0:
329,192,91138,1,0,0:0:0:0:
475,192,91138,1,0,0:0:0:0:
36,192,91138,1,0,0:0:0:0:
182,192,91226,1,0,0:0:0:0:
402,192,91226,1,0,0:0:0:0:
109,192,91314,1,0,0:0:0:0:
36,192,91314,1,0,0:0:0:0:
256,192,91314,1,0,0:0:0:0:
475,192,91314,1,0,0:0:0:0:
329,192,91402,1,0,0:0:0:0:
182,192,91402,1,0,0:0:0:0:
36,192,91490,1,0,0:0:0:0:
402,192,91490,1,0,0:0:0:0:
256,192,91490,1,0,0:0:0:0:
329,192,91579,1,0,0:0:0:0:
182,192,91579,1,0,0:0:0:0:
402,192,91667,1,0,0:0:0:0:
109,192,91667,1,0,0:0:0:0:
36,192,91667,1,0,0:0:0:0:
475,192,91667,1,0,0:0:0:0:
182,192,91755,1,0,0:0:0:0:
329,192,91755,1,0,0:0:0:0:
475,192,91843,1,0,0:0:0:0:
256,192,91843,1,0,0:0:0:0:
36,192,91843,1,0,0:0:0:0:
109,192,91932,1,0,0:0:0:0:
402,192,91932,1,0,0:0:0:0:
182,192,92020,1,0,0:0:0:0:
329,192,92020,1,0,0:0:0:0:
256,192,92108,1,0,0:0:0:0:
109,192,92108,1,0,0:0:0:0:
402,192,92196,1,0,0:0:0:0:
329,192,92196,1,0,0:0:0:0:
182,192,92196,1,0,0:0:0:0:
36,192,92196,1,0,0:0:0:0:
475,192,92196,1,0,0:0:0:0:
256,192,92285,1,0,0:0:0:0:
109,192,92285,1,0,0:0:0:0:
329,192,92373,1,0,0:0:0:0:
182,192,92373,1,0,0:0:0:0:
256,192,92461,1,0,0:0:0:0:
402,192,92461,1,0,0:0:0:0:
36,192,92549,1,0,0:0:0:0:
475,192,92549,1,0,0:0:0:0:
182,192,92549,1,0,0:0:0:0:
402,192,92638,1,0,0:0:0:0:
256,192,92638,1,0,0:0:0:0:
329,192,92726,1,0,0:0:0:0:
109,192,92726,1,0,0:0:0:0:
182,192,92814,1,0,0:0:0:0:
475,192,92814,1,0,0:0:0:0:
36,192,92902,1,0,0:0:0:0:
402,192,92902,1,0,0:0:0:0:
256,192,92902,1,0,0:0:0:0:
182,192,92990,1,0,0:0:0:0:
329,192,92990,1,0,0:0:0:0:
402,192,93079,1,0,0:0:0:0:
109,192,93079,1,0,0:0:0:0:
36,192,93079,1,0,0:0:0:0:
475,192,93079,1,0,0:0:0:0:
182,192,93167,1,0,0:0:0:0:
329,192,93167,1,0,0:0:0:0:
402,192,93255,1,0,0:0:0:0:
256,192,93255,1,0,0:0:0:0:
475,192,93255,1,0,0:0:0:0:
36,192,93255,1,0,0:0:0:0:
109,192,93343,1,0,0:0:0:0:
329,192,93343,1,0,0:0:0:0:
475,192,93432,1,0,0:0:0:0:
182,192,93432,1,0,0:0:0:0:
109,192,93520,1,0,0:0:0:0:
402,192,93520,1,0,0:0:0:0:
182,192,93608,1,0,0:0:0:0:
36,192,93608,1,0,0:0:0:0:
329,192,93608,1,0,0:0:0:0:
475,192,93608,1,0,0:0:0:0:
402,192,93696,1,0,0:0:0:0:
256,192,93696,1,0,0:0:0:0:
329,192,93785,1,0,0:0:0:0:
109,192,93785,1,0,0:0:0:0:
182,192,93873,1,0,0:0:0:0:
402,192,93873,1,0,0:0:0:0:
36,192,93961,1,0,0:0:0:0:
109,192,93961,1,0,0:0:0:0:
256,192,93961,1,0,0:0:0:0:
475,192,93961,1,0,0:0:0:0:
182,192,94049,1,0,0:0:0:0:
402,192,94049,1,0,0:0:0:0:
256,192,94138,1,0,0:0:0:0:
36,192,94138,1,0,0:0:0:0:
329,192,94226,1,0,0:0:0:0:
109,192,94226,1,0,0:0:0:0:
402,192,94314,1,0,0:0:0:0:
475,192,94314,1,0,0:0:0:0:
36,192,94314,1,0,0:0:0:0:
182,192,94314,1,0,0:0:0:0:
256,192,94402,1,0,0:0:0:0:
329,192,94402,1,0,0:0:0:0:
402,192,94490,1,0,0:0:0:0:
475,192,94490,1,0,0:0:0:0:
36,192,94490,1,0,0:0:0:0:
182,192,94490,1,0,0:0:0:0:
109,192,94579,1,0,0:0:0:0:
329,192,94579,1,0,0:0:0:0:
36,192,94667,1,0,0:0:0:0:
256,192,94667,1,0,0:0:0:0:
402,192,94667,1,0,0:0:0:0:
475,192,94667,1,0,0:0:0:0:
182,192,94755,1,0,0:0:0:0:
329,192,94755,1,0,0:0:0:0:
109,192,94843,1,0,0:0:0:0:
402,192,94843,1,0,0:0:0:0:
182,192,94932,1,0,0:0:0:0:
329,192,94932,1,0,0:0:0:0:
475,192,95020,1,0,0:0:0:0:
402,192,95020,1,0,0:0:0:0:
36,192,95020,1,0,0:0:0:0:
256,192,95020,1,0,0:0:0:0:
109,192,95108,1,0,0:0:0:0:
329,192,95108,1,0,0:0:0:0:
36,192,95196,1,0,0:0:0:0:
402,192,95196,1,0,0:0:0:0:
475,192,95196,1,0,0:0:0:0:
182,192,95196,1,0,0:0:0:0:
109,192,95285,1,0,0:0:0:0:
256,192,95285,1,0,0:0:0:0:
329,192,95373,1,0,0:0:0:0:
182,192,95373,1,0,0:0:0:0:
475,192,95373,1,0,0:0:0:0:
402,192,95461,1,0,0:0:0:0:
256,192,95461,1,0,0:0:0:0:
475,192,95549,1,0,0:0:0:0:
182,192,95549,1,0,0:0:0:0:
329,192,95549,1,0,0:0:0:0:
36,192,95549,1,0,0:0:0:0:
109,192,95638,1,0,0:0:0:0:
256,192,95638,1,0,0:0:0:0:
36,192,95726,1,0,0:0:0:0:
402,192,95726,1,0,0:0:0:0:
182,192,95814,1,0,0:0:0:0:
329,192,95814,1,0,0:0:0:0:
109,192,95902,1,0,0:0:0:0:
402,192,95902,1,0,0:0:0:0:
36,192,95902,1,0,0:0:0:0:
475,192,95902,1,0,0:0:0:0:
182,192,95990,1,0,0:0:0:0:
329,192,95990,1,0,0:0:0:0:
109,192,96079,1,0,0:0:0:0:
256,192,96079,1,0,0:0:0:0:
475,192,96079,1,0,0:0:0:0:
36,192,96079,1,0,0:0:0:0:
329,192,96167,1,0,0:0:0:0:
402,192,96167,1,0,0:0:0:0:
109,192,96255,1,0,0:0:0:0:
182,192,96255,1,0,0:0:0:0:
329,192,96343,1,0,0:0:0:0:
256,192,96343,1,0,0:0:0:0:
475,192,96432,1,0,0:0:0:0:
402,192,96432,1,0,0:0:0:0:
36,192,96432,1,0,0:0:0:0:
182,192,96432,1,0,0:0:0:0:
109,192,96520,1,0,0:0:0:0:
329,192,96520,1,0,0:0:0:0:
256,192,96608,1,0,0:0:0:0:
36,192,96608,1,0,0:0:0:0:
182,192,96696,1,0,0:0:0:0:
329,192,96696,1,0,0:0:0:0:
402,192,96785,1,0,0:0:0:0:
109,192,96785,1,0,0:0:0:0:
475,192,96785,1,0,0:0:0:0:
36,192,96785,1,0,0:0:0:0:
182,192,96873,1,0,0:0:0:0:
329,192,96873,1,0,0:0:0:0:
36,192,96961,1,0,0:0:0:0:
256,192,96961,1,0,0:0:0:0:
475,192,96961,1,0,0:0:0:0:
402,192,96961,1,0,0:0:0:0:
109,192,97049,1,0,0:0:0:0:
329,192,97049,1,0,0:0:0:0:
402,192,97138,1,0,0:0:0:0:
182,192,97138,1,0,0:0:0:0:
109,192,97226,1,0,0:0:0:0:
329,192,97226,1,0,0:0:0:0:
475,192,97314,1,0,0:0:0:0:
402,192,97314,1,0,0:0:0:0:
256,192,97314,1,0,0:0:0:0:
36,192,97314,1,0,0:0:0:0:
329,192,97402,1,0,0:0:0:0:
109,192,97402,1,0,0:0:0:0:
182,192,97490,1,0,0:0:0:0:
36,192,97490,1,0,0:0:0:0:
475,192,97490,1,0,0:0:0:0:
256,192,97579,1,0,0:0:0:0:
402,192,97579,1,0,0:0:0:0:
475,192,97667,1,0,0:0:0:0:
109,192,97667,1,0,0:0:0:0:
329,192,97755,1,0,0:0:0:0:
182,192,97755,1,0,0:0:0:0:
256,192,97843,1,0,0:0:0:0:
475,192,97843,1,0,0:0:0:0:
109,192,97843,1,0,0:0:0:0:
36,192,97843,1,0,0:0:0:0:
402,192,97843,1,0,0:0:0:0:
182,192,97932,1,0,0:0:0:0:
329,192,97932,1,0,0:0:0:0:
109,192,98020,1,0,0:0:0:0:
475,192,98020,1,0,0:0:0:0:
402,192,98108,1,0,0:0:0:0:
256,192,98108,1,0,0:0:0:0:
329,192,98196,1,0,0:0:0:0:
36,192,98196,1,0,0:0:0:0:
182,192,98196,1,0,0:0:0:0:
109,192,98285,1,0,0:0:0:0:
402,192,98285,1,0,0:0:0:0:
329,192,98373,1,0,0:0:0:0:
36,192,98373,1,0,0:0:0:0:
475,192,98373,1,0,0:0:0:0:
182,192,98373,1,0,0:0:0:0:
402,192,98461,1,0,0:0:0:0:
256,192,98461,1,0,0:0:0:0:
329,192,98549,1,0,0:0:0:0:
109,192,98549,1,0,0:0:0:0:
36,192,98549,1,0,0:0:0:0:
475,192,98549,1,0,0:0:0:0:
402,192,98638,1,0,0:0:0:0:
256,192,98638,1,0,0:0:0:0:
36,192,98726,1,0,0:0:0:0:
182,192,98726,1,0,0:0:0:0:
329,192,98726,1,0,0:0:0:0:
475,192,98726,1,0,0:0:0:0:
402,192,98814,1,0,0:0:0:0:
109,192,98814,1,0,0:0:0:0:
329,192,98902,1,0,0:0:0:0:
36,192,98902,1,0,0:0:0:0:
182,192,98902,1,0,0:0:0:0:
475,192,98902,1,0,0:0:0:0:
402,192,98990,1,0,0:0:0:0:
256,192,98990,1,0,0:0:0:0:
182,192,99079,1,0,0:0:0:0:
36,192,99079,1,0,0:0:0:0:
475,192,99079,1,0,0:0:0:0:
109,192,99079,1,0,0:0:0:0:
402,192,99167,1,0,0:0:0:0:
329,192,99167,1,0,0:0:0:0:
256,192,99255,1,0,0:0:0:0:
109,192,99255,1,0,0:0:0:0:
475,192,99255,1,0,0:0:0:0:
182,192,99343,1,0,0:0:0:0:
329,192,99343,1,0,0:0:0:0:
109,192,99432,1,0,0:0:0:0:
475,192,99432,1,0,0:0:0:0:
256,192,99432,1,0,0:0:0:0:
36,192,99432,1,0,0:0:0:0:
182,192,99520,1,0,0:0:0:0:
402,192,99520,1,0,0:0:0:0:
329,192,99608,1,0,0:0:0:0:
475,192,99608,1,0,0:0:0:0:
36,192,99608,1,0,0:0:0:0:
256,192,99696,1,0,0:0:0:0:
109,192,99696,1,0,0:0:0:0:
329,192,99785,1,0,0:0:0:0:
475,192,99785,1,0,0:0:0:0:
182,192,99785,1,0,0:0:0:0:
36,192,99785,1,0,0:0:0:0:
402,192,99873,1,0,0:0:0:0:
256,192,99873,1,0,0:0:0:0:
329,192,99961,1,0,0:0:0:0:
109,192,99961,1,0,0:0:0:0:
475,192,99961,1,0,0:0:0:0:
402,192,100049,1,0,0:0:0:0:
182,192,100049,1,0,0:0:0:0:
475,192,100138,1,0,0:0:0:0:
256,192,100138,1,0,0:0:0:0:
109,192,100138,1,0,0:0:0:0:
36,192,100138,1,0,0:0:0:0:
329,192,100226,1,0,0:0:0:0:
182,192,100226,1,0,0:0:0:0:
402,192,100314,1,0,0:0:0:0:
36,192,100314,1,0,0:0:0:0:
256,192,100314,1,0,0:0:0:0:
182,192,100402,1,0,0:0:0:0:
329,192,100402,1,0,0:0:0:0:
109,192,100490,1,0,0:0:0:0:
402,192,100490,1,0,0:0:0:0:
475,192,100490,1,0,0:0:0:0:
36,192,100490,1,0,0:0:0:0:
182,192,100579,1,0,0:0:0:0:
329,192,100579,1,0,0:0:0:0:
256,192,100667,1,0,0:0:0:0:
475,192,100667,1,0,0:0:0:0:
36,192,100667,1,0,0:0:0:0:
109,192,100755,1,0,0:0:0:0:
402,192,100755,1,0,0:0:0:0:
475,192,100843,1,0,0:0:0:0:
329,192,100843,1,0,0:0:0:0:
182,192,100843,1,0,0:0:0:0:
36,192,100843,1,0,0:0:0:0:
109,192,100932,1,0,0:0:0:0:
256,192,100932,1,0,0:0:0:0:
329,192,101020,1,0,0:0:0:0:
36,192,101020,1,0,0:0:0:0:
475,192,101020,1,0,0:0:0:0:
182,192,101108,1,0,0:0:0:0:
402,192,101108,1,0,0:0:0:0:
109,192,101196,1,0,0:0:0:0:
329,192,101196,1,0,0:0:0:0:
402,192,101285,1,0,0:0:0:0:
182,192,101285,1,0,0:0:0:0:
256,192,101373,1,0,0:0:0:0:
36,192,101373,1,0,0:0:0:0:
475,192,101373,1,0,0:0:0:0:
402,192,101461,1,0,0:0:0:0:
109,192,101461,1,0,0:0:0:0:
182,192,101549,1,0,0:0:0:0:
329,192,101549,1,0,0:0:0:0:
109,192,101638,1,0,0:0:0:0:
256,192,101638,1,0,0:0:0:0:
475,192,101726,1,0,0:0:0:0:
402,192,101726,1,0,0:0:0:0:
329,192,101726,1,0,0:0:0:0:
36,192,101726,1,0,0:0:0:0:
256,192,101814,1,0,0:0:0:0:
109,192,101814,1,0,0:0:0:0:
329,192,101902,1,0,0:0:0:0:
182,192,101902,1,0,0:0:0:0:
402,192,101990,1,0,0:0:0:0:
256,192,101990,1,0,0:0:0:0:
109,192,102079,1,0,0:0:0:0:
36,192,102079,1,0,0:0:0:0:
475,192,102079,1,0,0:0:0:0:
329,192,102079,1,0,0:0:0:0:
182,192,102167,1,0,0:0:0:0:
402,192,102167,1,0,0:0:0:0:
475,192,102255,1,0,0:0:0:0:
36,192,102255,1,0,0:0:0:0:
109,192,102255,1,0,0:0:0:0:
256,192,102255,1,0,0:0:0:0:
182,192,102343,1,0,0:0:0:0:
329,192,102343,1,0,0:0:0:0:
36,192,102432,1,0,0:0:0:0:
475,192,102432,1,0,0:0:0:0:
402,192,102432,1,0,0:0:0:0:
109,192,102520,1,0,0:0:0:0:
256,192,102520,1,0,0:0:0:0:
182,192,102608,1,0,0:0:0:0:
36,192,102608,1,0,0:0:0:0:
329,192,102608,1,0,0:0:0:0:
475,192,102608,1,0,0:0:0:0:
402,192,102696,1,0,0:0:0:0:
256,192,102696,1,0,0:0:0:0:
36,192,102785,1,0,0:0:0:0:
329,192,102785,1,0,0:0:0:0:
182,192,102785,1,0,0:0:0:0:
475,192,102873,1,0,0:0:0:0:
109,192,102873,1,0,0:0:0:0:
256,192,102961,1,0,0:0:0:0:
329,192,102961,1,0,0:0:0:0:
36,192,102961,1,0,0:0:0:0:
402,192,102961,1,0,0:0:0:0:
109,192,103049,1,0,0:0:0:0:
475,192,103049,1,0,0:0:0:0:
402,192,103138,1,0,0:0:0:0:
256,192,103138,1,0,0:0:0:0:
36,192,103138,1,0,0:0:0:0:
182,192,103226,1,0,0:0:0:0:
329,192,103226,1,0,0:0:0:0:
109,192,103314,1,0,0:0:0:0:
475,192,103314,1,0,0:0:0:0:
402,192,103402,1,0,0:0:0:0:
256,192,103402,1,0,0:0:0:0:
329,192,103490,1,0,0:0:0:0:
182,192,103490,1,0,0:0:0:0:
109,192,103490,1,0,0:0:0:0:
36,192,103490,1,0,0:0:0:0:
475,192,103490,1,0,0:0:0:0:
402,192,103579,1,0,0:0:0:0:
256,192,103579,1,0,0:0:0:0:
475,192,103667,1,0,0:0:0:0:
109,192,103667,1,0,0:0:0:0:
182,192,103755,1,0,0:0:0:0:
329,192,103755,1,0,0:0:0:0:
36,192,103843,1,0,0:0:0:0:
402,192,103843,1,0,0:0:0:0:
256,192,103843,1,0,0:0:0:0:
475,192,103932,1,0,0:0:0:0:
109,192,103932,1,0,0:0:0:0:
402,192,104020,1,0,0:0:0:0:
182,192,104020,1,0,0:0:0:0:
109,192,104108,1,0,0:0:0:0:
329,192,104108,1,0,0:0:0:0:
36,192,104196,1,0,0:0:0:0:
475,192,104196,1,0,0:0:0:0:
256,192,104196,1,0,0:0:0:0:
182,192,104285,1,0,0:0:0:0:
329,192,104285,1,0,0:0:0:0:
402,192,104373,1,0,0:0:0:0:
109,192,104373,1,0,0:0:0:0:
182,192,104461,1,0,0:0:0:0:
329,192,104461,1,0,0:0:0:0:
256,192,104549,1,0,0:0:0:0:
402,192,104549,1,0,0:0:0:0:
475,192,104549,1,0,0:0:0:0:
36,192,104549,1,0,0:0:0:0:
109,192,104638,1,0,0:0:0:0:
329,192,104638,1,0,0:0:0:0:
182,192,104638,1,0,0:0:0:0:
36,192,104726,1,0,0:0:0:0:
256,192,104726,1,0,0:0:0:0:
475,192,104726,1,0,0:0:0:0:
182,192,104814,1,0,0:0:0:0:
402,192,104814,1,0,0:0:0:0:
329,192,104814,1,0,0:0:0:0:
475,192,104902,1,0,0:0:0:0:
256,192,104902,1,0,0:0:0:0:
109,192,104902,1,0,0:0:0:0:
402,192,104990,1,0,0:0:0:0:
182,192,104990,1,0,0:0:0:0:
36,192,104990,1,0,0:0:0:0:
329,192,105079,1,0,0:0:0:0:
109,192,105079,1,0,0:0:0:0:
475,192,105079,1,0,0:0:0:0:
256,192,105167,1,0,0:0:0:0:
402,192,105167,1,0,0:0:0:0:
36,192,105167,1,0,0:0:0:0:
182,192,105255,1,0,0:0:0:0:
329,192,105255,1,0,0:0:0:0:
475,192,105255,1,0,0:0:0:0:
402,192,105343,1,0,0:0:0:0:
109,192,105343,1,0,0:0:0:0:
256,192,105343,1,0,0:0:0:0:
36,192,105432,1,0,0:0:0:0:
329,192,105432,1,0,0:0:0:0:
182,192,105432,1,0,0:0:0:0:
109,192,105520,1,0,0:0:0:0:
256,192,105520,1,0,0:0:0:0:
402,192,105520,1,0,0:0:0:0:
329,192,105608,1,0,0:0:0:0:
475,192,105608,1,0,0:0:0:0:
36,192,105608,1,0,0:0:0:0:
182,192,105696,1,0,0:0:0:0:
402,192,105696,1,0,0:0:0:0:
109,192,105696,1,0,0:0:0:0:
256,192,105785,1,0,0:0:0:0:
475,192,105785,1,0,0:0:0:0:
36,192,105785,1,0,0:0:0:0:
329,192,105873,1,0,0:0:0:0:
402,192,105873,1,0,0:0:0:0:
182,192,105873,1,0,0:0:0:0:
109,192,105961,1,0,0:0:0:0:
475,192,105961,1,0,0:0:0:0:
36,192,105961,1,0,0:0:0:0:
256,192,105961,1,0,0:0:0:0:
182,192,106049,1,0,0:0:0:0:
402,192,106049,1,0,0:0:0:0:
329,192,106049,1,0,0:0:0:0:
256,192,106138,1,0,0:0:0:0:
475,192,106138,1,0,0:0:0:0:
36,192,106138,1,0,0:0:0:0:
109,192,106226,1,0,0:0:0:0:
182,192,106226,1,0,0:0:0:0:
402,192,106226,1,0,0:0:0:0:
475,192,106314,1,0,0:0:0:0:
36,192,106314,1,0,0:0:0:0:
329,192,106314,1,0,0:0:0:0:
402,192,106402,1,0,0:0:0:0:
256,192,106402,1,0,0:0:0:0:
109,192,106402,1,0,0:0:0:0:
36,192,106490,1,0,0:0:0:0:
182,192,106490,1,0,0:0:0:0:
329,192,106490,1,0,0:0:0:0:
256,192,106579,1,0,0:0:0:0:
402,192,106579,1,0,0:0:0:0:
475,192,106579,1,0,0:0:0:0:
329,192,106667,1,0,0:0:0:0:
36,192,106667,1,0,0:0:0:0:
109,192,106667,1,0,0:0:0:0:
475,192,106755,1,0,0:0:0:0:
182,192,106755,1,0,0:0:0:0:
402,192,106755,1,0,0:0:0:0:
256,192,106843,1,0,0:0:0:0:
36,192,106843,1,0,0:0:0:0:
109,192,106843,1,0,0:0:0:0:
182,192,106932,1,0,0:0:0:0:
475,192,106932,1,0,0:0:0:0:
329,192,106932,1,0,0:0:0:0:
36,192,107020,1,0,0:0:0:0:
256,192,107020,1,0,0:0:0:0:
402,192,107020,1,0,0:0:0:0:
109,192,107020,1,0,0:0:0:0:
182,192,107108,1,0,0:0:0:0:
329,192,107108,1,0,0:0:0:0:
36,192,107196,1,0,0:0:0:0:
402,192,107196,1,0,0:0:0:0:
475,192,107196,1,0,0:0:0:0:
109,192,107196,1,0,0:0:0:0:
256,192,107196,1,0,0:0:0:0:
182,192,107285,1,0,0:0:0:0:
329,192,107285,1,0,0:0:0:0:
36,192,107373,1,0,0:0:0:0:
475,192,107373,1,0,0:0:0:0:
256,192,107373,1,0,0:0:0:0:
182,192,107461,1,0,0:0:0:0:
402,192,107461,1,0,0:0:0:0:
329,192,107461,1,0,0:0:0:0:
109,192,107461,1,0,0:0:0:0:
36,192,107726,1,0,0:0:0:0:
182,192,107726,1,0,0:0:0:0:
329,192,107726,1,0,0:0:0:0:
256,192,107814,1,0,0:0:0:0:
475,192,107814,1,0,0:0:0:0:
402,192,107814,1,0,0:0:0:0:
329,192,107902,1,0,0:0:0:0:
182,192,107902,1,0,0:0:0:0:
36,192,107902,1,0,0:0:0:0:
256,192,107990,1,0,0:0:0:0:
402,192,107990,1,0,0:0:0:0:
475,192,107990,1,0,0:0:0:0:
329,192,108167,1,0,0:0:0:0:
36,192,108167,1,0,0:0:0:0:
109,192,108167,1,0,0:0:0:0:
475,192,108255,1,0,0:0:0:0:
182,192,108255,1,0,0:0:0:0:
329,192,108343,1,0,0:0:0:0:
36,192,108343,1,0,0:0:0:0:
109,192,108343,1,0,0:0:0:0:
475,192,108432,1,0,0:0:0:0:
182,192,108432,1,0,0:0:0:0:
36,192,108520,1,0,0:0:0:0:
329,192,108520,1,0,0:0:0:0:
109,192,108520,1,0,0:0:0:0:
475,192,108608,1,0,0:0:0:0:
182,192,108608,1,0,0:0:0:0:
329,192,108696,1,0,0:0:0:0:
36,192,108696,1,0,0:0:0:0:
109,192,108696,1,0,0:0:0:0:
475,192,108785,1,0,0:0:0:0:
402,192,108785,1,0,0:0:0:0:
256,192,108785,1,0,0:0:0:0:
182,192,108873,1,0,0:0:0:0:
36,192,108873,1,0,0:0:0:0:
329,192,108873,1,0,0:0:0:0:
109,192,108961,1,0,0:0:0:0:
256,192,108961,1,0,0:0:0:0:
475,192,108961,1,0,0:0:0:0:
182,192,109049,1,0,0:0:0:0:
402,192,109049,1,0,0:0:0:0:
36,192,109049,1,0,0:0:0:0:
109,192,109138,1,0,0:0:0:0:
329,192,109138,1,0,0:0:0:0:
475,192,109138,1,0,0:0:0:0:
256,192,109226,1,0,0:0:0:0:
182,192,109314,1,0,0:0:0:0:
475,192,109314,1,0,0:0:0:0:
402,192,109314,1,0,0:0:0:0:
36,192,109314,1,0,0:0:0:0:
329,192,109402,1,0,0:0:0:0:
109,192,109490,1,0,0:0:0:0:
36,192,109490,1,0,0:0:0:0:
402,192,109490,1,0,0:0:0:0:
256,192,109490,1,0,0:0:0:0:
475,192,109490,1,0,0:0:0:0:
182,192,109579,1,0,0:0:0:0:
475,192,109667,1,0,0:0:0:0:
109,192,109667,1,0,0:0:0:0:
36,192,109667,1,0,0:0:0:0:
329,192,109667,1,0,0:0:0:0:
256,192,109755,1,0,0:0:0:0:
475,192,109843,1,0,0:0:0:0:
182,192,109843,1,0,0:0:0:0:
36,192,109843,1,0,0:0:0:0:
402,192,109843,1,0,0:0:0:0:
109,192,109932,1,0,0:0:0:0:
329,192,109932,1,0,0:0:0:0:
256,192,109932,1,0,0:0:0:0:
475,192,110020,1,0,0:0:0:0:
36,192,110020,1,0,0:0:0:0:
402,192,110020,1,0,0:0:0:0:
109,192,110108,1,0,0:0:0:0:
182,192,110108,1,0,0:0:0:0:
329,192,110108,1,0,0:0:0:0:
256,192,110196,1,0,0:0:0:0:
36,192,110196,1,0,0:0:0:0:
475,192,110196,1,0,0:0:0:0:
402,192,110196,1,0,0:0:0:0:
109,192,110285,1,0,0:0:0:0:
329,192,110285,1,0,0:0:0:0:
475,192,110373,1,0,0:0:0:0:
182,192,110373,1,0,0:0:0:0:
36,192,110373,1,0,0:0:0:0:
256,192,110461,1,0,0:0:0:0:
402,192,110461,1,0,0:0:0:0:
36,192,110549,1,0,0:0:0:0:
475,192,110549,1,0,0:0:0:0:
329,192,110549,1,0,0:0:0:0:
182,192,110549,1,0,0:0:0:0:
109,192,110638,1,0,0:0:0:0:
256,192,110638,1,0,0:0:0:0:
36,192,110726,1,0,0:0:0:0:
402,192,110726,1,0,0:0:0:0:
475,192,110726,1,0,0:0:0:0:
182,192,110814,1,0,0:0:0:0:
329,192,110814,1,0,0:0:0:0:
109,192,110902,1,0,0:0:0:0:
256,192,110902,1,0,0:0:0:0:
475,192,110902,1,0,0:0:0:0:
36,192,110902,1,0,0:0:0:0:
402,192,110902,1,0,0:0:0:0:
182,192,110990,1,0,0:0:0:0:
402,192,111079,1,0,0:0:0:0:
475,192,111079,1,0,0:0:0:0:
329,192,111079,1,0,0:0:0:0:
109,192,111079,1,0,0:0:0:0:
256,192,111167,1,0,0:0:0:0:
475,192,111255,1,0,0:0:0:0:
402,192,111255,1,0,0:0:0:0:
36,192,111255,1,0,0:0:0:0:
182,192,111255,1,0,0:0:0:0:
109,192,111255,1,0,0:0:0:0:
329,192,111343,1,0,0:0:0:0:
256,192,111432,1,0,0:0:0:0:
36,192,111432,1,0,0:0:0:0:
109,192,111432,1,0,0:0:0:0:
475,192,111432,1,0,0:0:0:0:
402,192,111520,1,0,0:0:0:0:
329,192,111608,1,0,0:0:0:0:
182,192,111608,1,0,0:0:0:0:
475,192,111608,1,0,0:0:0:0:
36,192,111608,1,0,0:0:0:0:
256,192,111696,1,0,0:0:0:0:
109,192,111696,1,0,0:0:0:0:
402,192,111696,1,0,0:0:0:0:
329,192,111785,1,0,0:0:0:0:
182,192,111785,1,0,0:0:0:0:
36,192,111873,1,0,0:0:0:0:
256,192,111873,1,0,0:0:0:0:
475,192,111873,1,0,0:0:0:0:
402,192,111961,1,0,0:0:0:0:
109,192,111961,1,0,0:0:0:0:
182,192,111961,1,0,0:0:0:0:
329,192,111961,1,0,0:0:0:0:
256,192,112049,1,0,0:0:0:0:
402,192,112138,1,0,0:0:0:0:
182,192,112138,1,0,0:0:0:0:
475,192,112138,1,0,0:0:0:0:
36,192,112138,1,0,0:0:0:0:
329,192,112226,1,0,0:0:0:0:
109,192,112314,1,0,0:0:0:0:
402,192,112314,1,0,0:0:0:0:
256,192,112314,1,0,0:0:0:0:
36,192,112314,1,0,0:0:0:0:
475,192,112314,1,0,0:0:0:0:
182,192,112402,1,0,0:0:0:0:
109,192,112490,1,0,0:0:0:0:
36,192,112490,1,0,0:0:0:0:
402,192,112490,1,0,0:0:0:0:
475,192,112490,1,0,0:0:0:0:
329,192,112490,1,0,0:0:0:0:
256,192,112579,1,0,0:0:0:0:
182,192,112667,1,0,0:0:0:0:
109,192,112667,1,0,0:0:0:0:
36,192,112667,1,0,0:0:0:0:
329,192,112667,1,0,0:0:0:0:
402,192,112667,1,0,0:0:0:0:
475,192,112755,1,0,0:0:0:0:
329,192,112843,1,0,0:0:0:0:
402,192,112843,1,0,0:0:0:0:
256,192,112843,1,0,0:0:0:0:
109,192,112843,1,0,0:0:0:0:
36,192,112843,1,0,0:0:0:0:
182,192,112932,1,0,0:0:0:0:
256,192,113020,1,0,0:0:0:0:
36,192,113020,1,0,0:0:0:0:
402,192,113020,1,0,0:0:0:0:
475,192,113020,1,0,0:0:0:0:
109,192,113020,1,0,0:0:0:0:
329,192,113108,1,0,0:0:0:0:
182,192,113108,1,0,0:0:0:0:
402,192,113196,1,0,0:0:0:0:
36,192,113196,1,0,0:0:0:0:
475,192,113196,1,0,0:0:0:0:
256,192,113196,1,0,0:0:0:0:
109,192,113285,1,0,0:0:0:0:
36,192,113373,1,0,0:0:0:0:
182,192,113373,1,0,0:0:0:0:
329,192,113373,1,0,0:0:0:0:
475,192,113373,1,0,0:0:0:0:
402,192,113461,1,0,0:0:0:0:
256,192,113461,1,0,0:0:0:0:
475,192,113549,1,0,0:0:0:0:
182,192,113549,1,0,0:0:0:0:
36,192,113549,1,0,0:0:0:0:
329,192,113549,1,0,0:0:0:0:
109,192,113638,1,0,0:0:0:0:
402,192,113726,1,0,0:0:0:0:
36,192,113726,1,0,0:0:0:0:
475,192,113726,1,0,0:0:0:0:
256,192,113726,1,0,0:0:0:0:
329,192,113814,1,0,0:0:0:0:
182,192,113814,1,0,0:0:0:0:
109,192,113902,1,0,0:0:0:0:
36,192,113902,1,0,0:0:0:0:
256,192,113902,1,0,0:0:0:0:
475,192,113902,1,0,0:0:0:0:
402,192,113990,1,0,0:0:0:0:
475,192,114079,1,0,0:0:0:0:
182,192,114079,1,0,0:0:0:0:
329,192,114079,1,0,0:0:0:0:
36,192,114079,1,0,0:0:0:0:
256,192,114167,1,0,0:0:0:0:
109,192,114167,1,0,0:0:0:0:
402,192,114167,1,0,0:0:0:0:
329,192,114255,1,0,0:0:0:0:
182,192,114255,1,0,0:0:0:0:
36,192,114255,1,0,0:0:0:0:
475,192,114255,1,0,0:0:0:0:
109,192,114432,1,0,0:0:0:0:
36,192,114432,1,0,0:0:0:0:
256,192,114432,1,0,0:0:0:0:
402,192,114432,1,0,0:0:0:0:
475,192,114520,1,0,0:0:0:0:
329,192,114520,1,0,0:0:0:0:
182,192,114520,1,0,0:0:0:0:
36,192,114608,1,0,0:0:0:0:
402,192,114608,1,0,0:0:0:0:
256,192,114608,1,0,0:0:0:0:
329,192,114696,1,0,0:0:0:0:
109,192,114696,1,0,0:0:0:0:
182,192,114696,1,0,0:0:0:0:
475,192,114785,1,0,0:0:0:0:
36,192,114785,1,0,0:0:0:0:
256,192,114785,1,0,0:0:0:0:
402,192,114785,1,0,0:0:0:0:
109,192,114873,1,0,0:0:0:0:
329,192,114961,1,0,0:0:0:0:
182,192,114961,1,0,0:0:0:0:
475,192,114961,1,0,0:0:0:0:
402,192,114961,1,0,0:0:0:0:
256,192,115049,1,0,0:0:0:0:
402,192,115138,1,0,0:0:0:0:
475,192,115138,1,0,0:0:0:0:
109,192,115138,1,0,0:0:0:0:
36,192,115138,1,0,0:0:0:0:
182,192,115138,1,0,0:0:0:0:
329,192,115226,1,0,0:0:0:0:
109,192,115314,1,0,0:0:0:0:
36,192,115314,1,0,0:0:0:0:
256,192,115314,1,0,0:0:0:0:
475,192,115314,1,0,0:0:0:0:
402,192,115402,1,0,0:0:0:0:
36,192,115490,1,0,0:0:0:0:
329,192,115490,1,0,0:0:0:0:
182,192,115490,1,0,0:0:0:0:
475,192,115490,1,0,0:0:0:0:
256,192,115579,1,0,0:0:0:0:
109,192,115579,1,0,0:0:0:0:
402,192,115579,1,0,0:0:0:0:
182,192,115667,1,0,0:0:0:0:
329,192,115667,1,0,0:0:0:0:
475,192,115667,1,0,0:0:0:0:
109,192,115755,1,0,0:0:0:0:
256,192,115755,1,0,0:0:0:0:
36,192,115755,1,0,0:0:0:0:
475,192,115843,1,0,0:0:0:0:
329,192,115843,1,0,0:0:0:0:
182,192,115843,1,0,0:0:0:0:
402,192,115843,1,0,0:0:0:0:
109,192,115932,1,0,0:0:0:0:
36,192,116020,1,0,0:0:0:0:
402,192,116020,1,0,0:0:0:0:
256,192,116020,1,0,0:0:0:0:
475,192,116020,1,0,0:0:0:0:
109,192,116108,1,0,0:0:0:0:
475,192,116196,1,0,0:0:0:0:
402,192,116196,1,0,0:0:0:0:
36,192,116196,1,0,0:0:0:0:
182,192,116196,1,0,0:0:0:0:
329,192,116196,1,0,0:0:0:0:
256,192,116285,1,0,0:0:0:0:
182,192,116373,1,0,0:0:0:0:
475,192,116373,1,0,0:0:0:0:
36,192,116373,1,0,0:0:0:0:
402,192,116373,1,0,0:0:0:0:
329,192,116461,1,0,0:0:0:0:
475,192,116549,1,0,0:0:0:0:
36,192,116549,1,0,0:0:0:0:
109,192,116549,1,0,0:0:0:0:
256,192,116549,1,0,0:0:0:0:
329,192,116638,1,0,0:0:0:0:
402,192,116638,1,0,0:0:0:0:
182,192,116638,1,0,0:0:0:0:
475,192,116726,1,0,0:0:0:0:
36,192,116726,1,0,0:0:0:0:
256,192,116726,1,0,0:0:0:0:
109,192,116814,1,0,0:0:0:0:
182,192,116814,1,0,0:0:0:0:
329,192,116814,1,0,0:0:0:0:
36,192,116902,1,0,0:0:0:0:
402,192,116902,1,0,0:0:0:0:
475,192,116902,1,0,0:0:0:0:
256,192,116902,1,0,0:0:0:0:
109,192,116990,1,0,0:0:0:0:
182,192,117079,1,0,0:0:0:0:
475,192,117079,1,0,0:0:0:0:
329,192,117079,1,0,0:0:0:0:
36,192,117079,1,0,0:0:0:0:
402,192,117167,1,0,0:0:0:0:
109,192,117255,1,0,0:0:0:0:
36,192,117255,1,0,0:0:0:0:
256,192,117255,1,0,0:0:0:0:
475,192,117255,1,0,0:0:0:0:
182,192,117343,1,0,0:0:0:0:
329,192,117343,1,0,0:0:0:0:
402,192,117343,1,0,0:0:0:0:
256,192,117432,1,0,0:0:0:0:
36,192,117432,1,0,0:0:0:0:
475,192,117432,1,0,0:0:0:0:
109,192,117520,1,0,0:0:0:0:
182,192,117520,1,0,0:0:0:0:
402,192,117520,1,0,0:0:0:0:
36,192,117608,1,0,0:0:0:0:
329,192,117608,1,0,0:0:0:0:
475,192,117608,1,0,0:0:0:0:
256,192,117696,1,0,0:0:0:0:
402,192,117696,1,0,0:0:0:0:
109,192,117696,1,0,0:0:0:0:
182,192,117785,1,0,0:0:0:0:
36,192,117785,1,0,0:0:0:0:
329,192,117785,1,0,0:0:0:0:
256,192,117873,1,0,0:0:0:0:
475,192,117873,1,0,0:0:0:0:
402,192,117873,1,0,0:0:0:0:
329,192,117961,1,0,0:0:0:0:
182,192,117961,1,0,0:0:0:0:
36,192,117961,1,0,0:0:0:0:
109,192,118049,1,0,0:0:0:0:
402,192,118049,1,0,0:0:0:0:
475,192,118049,1,0,0:0:0:0:
36,192,118138,1,0,0:0:0:0:
182,192,118138,1,0,0:0:0:0:
329,192,118138,1,0,0:0:0:0:
109,192,118226,1,0,0:0:0:0:
402,192,118226,1,0,0:0:0:0:
256,192,118226,1,0,0:0:0:0:
475,192,118314,1,0,0:0:0:0:
36,192,118314,1,0,0:0:0:0:
329,192,118314,1,0,0:0:0:0:
182,192,118402,1,0,0:0:0:0:
402,192,118402,1,0,0:0:0:0:
256,192,118402,1,0,0:0:0:0:
36,192,118490,1,0,0:0:0:0:
109,192,118490,1,0,0:0:0:0:
329,192,118490,1,0,0:0:0:0:
475,192,118579,1,0,0:0:0:0:
402,192,118579,1,0,0:0:0:0:
256,192,118579,1,0,0:0:0:0:
182,192,118667,1,0,0:0:0:0:
36,192,118667,1,0,0:0:0:0:
329,192,118667,1,0,0:0:0:0:
109,192,118667,1,0,0:0:0:0:
402,192,118755,1,0,0:0:0:0:
475,192,118755,1,0,0:0:0:0:
256,192,118755,1,0,0:0:0:0:
109,192,118843,1,0,0:0:0:0:
36,192,118843,1,0,0:0:0:0:
329,192,118843,1,0,0:0:0:0:
182,192,118932,1,0,0:0:0:0:
256,192,118932,1,0,0:0:0:0:
475,192,118932,1,0,0:0:0:0:
329,192,119020,1,0,0:0:0:0:
402,192,119020,1,0,0:0:0:0:
36,192,119020,1,0,0:0:0:0:
109,192,119108,1,0,0:0:0:0:
182,192,119108,1,0,0:0:0:0:
475,192,119108,1,0,0:0:0:0:
256,192,119196,1,0,0:0:0:0:
36,192,119196,1,0,0:0:0:0:
402,192,119196,1,0,0:0:0:0:
109,192,119285,1,0,0:0:0:0:
329,192,119285,1,0,0:0:0:0:
475,192,119285,1,0,0:0:0:0:
402,192,119373,1,0,0:0:0:0:
182,192,119373,1,0,0:0:0:0:
36,192,119373,1,0,0:0:0:0:
256,192,119461,1,0,0:0:0:0:
475,192,119461,1,0,0:0:0:0:
109,192,119461,1,0,0:0:0:0:
182,192,119549,1,0,0:0:0:0:
329,192,119549,1,0,0:0:0:0:
402,192,119549,1,0,0:0:0:0:
256,192,119638,1,0,0:0:0:0:
109,192,119638,1,0,0:0:0:0:
36,192,119638,1,0,0:0:0:0:
329,192,119726,1,0,0:0:0:0:
475,192,119726,1,0,0:0:0:0:
182,192,119726,1,0,0:0:0:0:
402,192,119814,1,0,0:0:0:0:
109,192,119814,1,0,0:0:0:0:
256,192,119814,1,0,0:0:0:0:
36,192,119902,1,0,0:0:0:0:
182,192,119902,1,0,0:0:0:0:
329,192,119902,1,0,0:0:0:0:
475,192,119990,1,0,0:0:0:0:
256,192,119990,1,0,0:0:0:0:
402,192,119990,1,0,0:0:0:0:
182,192,120079,1,0,0:0:0:0:
36,192,120079,1,0,0:0:0:0:
329,192,120079,1,0,0:0:0:0:
109,192,120079,1,0,0:0:0:0:
