osu file format v14

[General]
AudioFilename: audio.mp3
AudioLeadIn: 0
PreviewTime: -1
Countdown: 0
SampleSet: Normal
StackLeniency: 0.5
Mode: 0
LetterboxInBreaks: 0
WidescreenStoryboard: 1

[Editor]
Bookmarks: 43106,56033,86033,101643,109448,116277,117253,148472
DistanceSpacing: 1.6
BeatDivisor: 4
GridSize: 8
TimelineZoom: 3.699998

[Metadata]
Title:Kirby
TitleUnicode:Kirby
Artist:Eagle Ensemble
ArtistUnicode:Eagle Ensemble
Creator:Launcher
Version:Mini Square Fat
Source:
Tags:Launcher Tyty Meme Spectacular Collab Kirby Mix iDubbbzTV Beautiful
BeatmapID:1432643
BeatmapSetID:677419

[Difficulty]
HPDrainRate:3
CircleSize:4
OverallDifficulty:7
ApproachRate:9
SliderMultiplier:1.5
SliderTickRate:1

[Events]
//Background and Video events
0,0,"KORBY.jpg",0,0
//Break Periods
2,109404,116653
//Storyboard Layer 0 (Background)
//Storyboard Layer 1 (Fail)
//Storyboard Layer 2 (Pass)
//Storyboard Layer 3 (Foreground)
//Storyboard Sound Samples

[TimingPoints]
180,243.90243902439,4,1,0,40,1,0
180,-200,4,1,0,40,0,0
1155,-100,4,1,0,40,0,0
2131,-66.6666666666667,4,1,0,40,0,0
3106,-50,4,1,0,40,0,0
3594,-40,4,1,0,40,0,0
4082,-200,4,1,0,55,0,0
7497,-50,4,1,0,55,0,0
7984,-200,4,1,0,40,0,0
11399,-100,4,1,0,55,0,0
11887,-40,4,1,0,55,0,0
12740,-100,4,1,0,55,0,0
13350,-66.6666666666667,4,1,0,55,0,0
13838,-40,4,1,0,55,0,0
14692,-100,4,1,0,60,0,0
15789,-100,4,1,0,60,0,0
16765,-50,4,1,0,60,0,0
17253,-66.6666666666667,4,1,0,60,0,0
19204,-50,4,1,0,60,0,0
20179,-66.6666666666667,4,1,0,60,0,0
20667,-50,4,1,0,60,0,0
21643,-66.6666666666667,4,1,0,60,0,0
22619,-100,4,1,0,60,0,0
24570,-50,4,1,0,60,0,0
25058,-100,4,1,0,60,0,0
25545,-66.6666666666667,4,1,0,60,0,0
27009,-40,4,1,0,60,0,0
27497,-100,4,1,0,60,0,0
28472,-40,4,1,0,69,0,0
28960,-100,4,1,0,69,0,0
29448,-50,4,1,0,69,0,0
29936,-200,4,1,0,69,0,0
30423,-50,4,1,0,69,0,0
31399,-66.6666666666667,4,1,0,69,0,0
32375,-50,4,1,0,69,0,0
32862,-57.1428571428571,4,1,0,69,0,0
33350,-50,4,1,0,69,0,0
33838,-57.1428571428571,4,1,0,69,0,0
34326,-66.6666666666667,4,1,0,69,0,0
34814,-50,4,1,0,69,0,0
35789,-66.6666666666667,4,1,0,69,0,0
36765,-57.1428571428571,4,1,0,69,0,0
38716,-66.6666666666667,4,1,0,69,0,0
40179,-50,4,1,0,69,0,0
43045,-100,4,1,0,69,0,0
44082,-50,4,1,0,69,0,1
57679,-100,4,1,0,69,0,0
58716,-66.6666666666667,4,1,0,69,0,0
63472,-50,4,1,0,69,0,0
64463,-100,4,1,0,69,0,0
64997,-66.6666666666667,4,1,0,69,0,0
65484,-50,4,1,0,69,0,0
89692,-68.9655172413792,4,1,0,69,0,0
91643,-66.6666666666667,4,1,0,69,0,0
93777,-83.3333333333333,4,1,0,69,0,0
94448,-50,4,1,0,69,0,0
95179,-66.6666666666667,4,1,0,69,0,0
117253,-50,4,1,0,69,0,1
136765,-68.9655172413793,4,1,0,69,0,1
141338,-57.1428571428571,4,1,0,69,0,1
145972,-66.6666666666667,4,1,0,69,0,1
148188,-50,4,1,0,69,0,1
148472,-50,4,1,0,69,0,0

[Colours]
Combo1 : 0,255,0
Combo2 : 254,52,204
Combo3 : 255,30,30
Combo4 : 240,240,40
Combo5 : 250,0,255

[HitObjects]
189,120,180,6,0,P|141:130|103:200,1,75
189,238,667,2,0,L|282:183,1,75
299,114,1155,6,0,B|277:84|277:84|232:104|192:90|192:90|134:127,1,150
168,237,1643,2,0,P|252:188|307:215,1,150
357,112,2131,6,0,P|242:78|105:145,1,225.000008583069
267,293,2619,2,0,P|385:258|386:73,1,225.000008583069
253,261,3106,6,0,P|420:231|434:102,1,300
262,225,3594,6,0,P|419:154|313:60,1,375
118,63,4082,6,0,L|134:131,1,37.5
315,137,4570,6,0,L|299:205,1,37.5
111,215,4936,5,0,0:0:0:0:
117,235,5058,2,0,L|133:303,1,37.5
317,311,5545,6,0,L|301:379,1,37.5
193,194,6033,6,0,L|261:210,1,37.5
365,109,6521,6,0,L|348:177,1,37.5
473,260,6887,5,0,0:0:0:0:
455,255,7009,2,0,L|386:239,1,37.5
186,209,7497,6,0,P|244:73|173:94,1,300
265,250,7984,6,0,P|323:194|324:176,1,75
221,78,8472,2,0,P|176:121|175:132,1,75
312,130,8960,2,0,P|312:185|296:197,1,75
251,232,9448,2,0,P|288:191|312:203,1,75
407,194,9936,2,0,P|393:140|369:132,1,75
194,259,10423,2,0,P|237:293|275:286,1,75
400,133,10911,2,0,L|400:38,1,75
135,166,11399,6,0,P|164:232|283:232,1,150
431,189,11887,6,0,P|336:49|336:335,1,750
279,105,12740,5,0,0:0:0:0:
244,115,12862,2,0,L|210:193,1,75
373,204,13350,6,0,P|392:253|264:269,1,225.000008583069
292,51,13838,6,0,P|101:141|379:140,1,750
172,161,14692,5,0,0:0:0:0:
179,193,14814,2,0,L|276:230,1,75
256,192,15058,12,0,15667,0:0:0:0:
289,112,15789,6,0,P|200:125|181:231,1,150
330,237,16277,2,0,P|339:167|288:111,1,150
146,197,16765,6,0,P|215:303|350:232,1,300
240,97,17253,2,0,P|147:214|171:273,1,225.000008583069
298,177,17740,2,0,P|215:230|307:196,1,225.000008583069
221,78,18228,6,0,B|152:120|152:120|152:195,1,112.500004291535
330,288,18472,2,0,B|416:183|380:115,1,112.500004291535
102,150,18716,6,0,P|194:308|270:358,1,225.000008583069
224,332,19204,2,0,B|186:187|186:187|280:201|280:75|310:153|310:153,1,300
313,155,19692,6,0,P|173:110|203:197,1,300
243,136,20179,2,0,B|372:167|407:290|407:290,1,225.000008583069
140,298,20667,6,0,B|169:248|263:253|263:253|358:196|329:56|153:42|129:159|161:166|188:173,1,450
229,181,21155,2,0,P|311:38|358:169,1,300
441,212,21643,2,0,B|290:264|246:318|290:264|441:212,1,225.000008583069
271,88,22131,6,0,B|214:121|214:121|182:197,1,112.500004291535
450,284,22375,2,0,B|486:215|486:215|455:109|455:109,1,112.500004291535
265,166,22619,6,0,P|235:261|277:306,1,150
372,230,23106,2,0,P|414:180|329:181,1,150
151,207,23594,6,0,P|59:179|91:91,1,150
170,45,24082,2,0,P|259:68|257:127,1,150
273,134,24570,2,0,B|242:97|196:119|195:192|226:177|295:177|283:152|278:118|266:203|266:203|295:226|337:204|367:238|367:307|323:319|269:343|235:328|213:301|221:239,1,450
229,297,25058,2,0,P|256:222|324:228,1,150
446,281,25545,6,0,P|485:204|415:99,1,225.000008583069
144,98,26033,2,0,P|84:202|102:225,1,112.500004291535
229,240,26277,2,0,P|286:197|286:134,1,112.500004291535
158,162,26521,2,0,P|161:264|248:231,1,225.000008583069
246,234,27009,2,0,B|265:178|265:178|246:137|246:137|246:82|246:82|290:58|349:58|381:71|399:127|387:183|340:181|350:169,1,375
247,82,27497,6,0,P|109:111|93:154,1,150
210,241,27984,2,0,P|313:197|329:161,1,150
168,131,28472,2,0,P|124:236|259:161,1,375
131,194,28960,2,0,P|160:261|231:259,1,150
196,204,29448,6,0,B|168:138|236:116|236:116|166:17|250:17|250:69|318:43,1,300
315,273,29936,2,0,L|315:189,1,75
313,159,30301,1,0,0:0:0:0:
311,36,30423,2,0,P|212:65|313:157,1,300
438,91,30911,2,0,B|438:30|438:30|421:77|383:91|383:91|420:103|438:152|438:152|451:106|492:91|492:91|452:76|438:30|438:30|422:78,1,450
256,37,31399,6,0,P|154:47|207:173,1,225.000008583069
397,150,31887,2,0,B|312:150|312:150|312:234|312:234|397:234|397:234|397:150,1,337.500012874604
200,150,32375,2,0,B|129:168|129:168|152:232|152:232|191:223|191:223|152:232|152:232|200:360,1,300
446,192,32862,6,0,B|419:130|398:156|373:146|365:173|375:194|372:208|372:208|362:201|331:178|313:181|308:200|285:200|290:227|316:259,1,262.500002503395
139,280,33350,2,0,B|170:273|186:253|193:220|163:194|120:190|120:190|150:154|159:109|115:74|58:94|41:122,1,300
256,272,33838,2,0,B|357:272|357:272|357:172|357:172|256:172|256:172|256:282,1,393.750003755093
443,271,34326,2,0,B|460:164|460:164|378:148|460:164|460:164|450:229|450:229|426:221|426:221|450:229|450:229|442:272,1,337.500012874604
324,212,34814,6,0,B|324:135|324:135|247:135|247:135|247:212|247:212|318:212,1,300
204,171,35301,2,0,P|38:140|129:281,1,300
125,259,35789,2,0,P|200:161|116:102,1,225.000008583069
26,163,36277,2,0,P|94:260|203:195,1,225.000008583069
296,76,36765,2,0,B|229:76|229:76|229:143|229:143|296:143|296:143|296:77,1,262.500002503395
432,130,37253,6,0,B|382:85|382:85|332:106|291:71|291:71|249:91|226:151,1,262.500002503395
281,319,37740,2,0,B|281:380|281:380|348:380|348:380|348:313|348:313|281:313,1,262.500002503395
85,241,38228,2,0,B|63:179|63:179|86:115|86:115|148:75|148:75|210:85|210:85,1,262.500002503395
409,166,38716,6,0,B|503:108|425:94|425:94|440:-8|301:87,1,225.000008583069
76,161,39204,2,0,B|-18:219|64:237|64:237|35:331|158:258,1,225.000008583069
342,170,39692,2,0,B|342:109|342:109|281:109|281:109|281:170|281:170|365:170,1,225.000008583069
445,239,40179,6,0,P|533:143|433:28,1,300
189,248,40667,2,0,B|266:248|266:248|266:173|266:173|190:173|190:173|190:247,1,300
453,184,41155,2,0,B|445:74|356:101|356:101|269:127|191:86,1,300
89,49,41643,2,0,P|118:210|-27:188,1,300
93,50,42131,2,0,P|201:168|102:286,1,300
93,88,42619,2,0,B|93:50|93:50|132:50|132:50|132:88|132:88|93:88|93:88|93:50|93:50|132:50|132:50|132:88|132:88|93:88|93:88|87:88,1,300
344,72,43106,2,0,P|368:64|474:145,1,150
464,240,43594,1,0,0:0:0:0:
384,176,43838,1,0,0:0:0:0:
312,0,44082,2,0,B|458:75|458:75|365:38|365:38|365:38|304:215,1,450
313,213,44570,2,0,B|306:363|306:363|306:362|306:362|419:266|419:266|335:337|335:337|442:240|442:240|297:445|153:349,1,900
80,264,45423,5,0,0:0:0:0:
120,208,45544,1,0,0:0:0:0:
160,152,45666,1,0,0:0:0:0:
200,96,45788,1,0,0:0:0:0:
176,272,46033,5,0,0:0:0:0:
160,128,46277,1,0,0:0:0:0:
80,272,46521,1,0,0:0:0:0:
416,128,46765,5,8,0:0:0:0:
416,128,46886,1,8,0:0:0:0:
416,128,47008,1,8,0:0:0:0:
405,124,47253,6,0,P|228:90|154:130,1,150,8|0,0:0|0:0,0:0:0:0:
304,160,47497,2,0,L|535:30,1,150
456,168,47740,2,0,L|296:256,1,150
200,192,47984,2,0,P|320:80|328:80,1,150
368,240,48228,2,0,L|216:288,1,150
64,176,48472,2,0,B|106:106|106:106|174:37,1,150
216,88,48716,5,0,0:0:0:0:
400,160,48959,1,0,0:0:0:0:
400,160,49081,1,0,0:0:0:0:
400,160,49204,1,0,0:0:0:0:
176,120,49447,6,0,L|44:192,1,150
220,299,49691,2,0,P|283:259|312:192,1,150
287,98,49935,2,0,L|144:144,1,150
96,288,50179,2,0,L|143:145,1,150
144,144,50423,2,0,L|312:192,1,150
288,184,50667,2,0,L|419:258,1,150
472,304,50911,5,8,0:0:0:0:
200,72,51155,1,8,0:0:0:0:
272,48,51399,1,8,0:0:0:0:
208,304,51643,1,8,0:0:0:0:
264,96,51887,5,2,0:0:0:0:
240,184,52009,1,2,0:0:0:0:
264,96,52131,1,2,0:0:0:0:
208,304,52375,5,0,0:0:0:0:
296,32,52619,1,0,0:0:0:0:
296,32,52862,1,8,0:0:0:0:
59,30,53106,1,4,0:0:0:0:
50,298,53350,1,2,0:0:0:0:
296,298,53594,1,2,0:0:0:0:
208,158,54082,6,0,L|-22:28,1,150
56,168,54325,2,0,L|216:256,1,150
312,192,54569,2,0,P|192:80|184:80,1,150
144,280,54813,2,0,B|205:322|205:322|296:328,1,150
424,280,55057,2,0,B|417:213|417:213|368:112,1,150
240,224,55301,2,0,P|328:248|408:216,1,150
296,40,55545,1,8,0:0:0:0:
240,224,55667,1,0,0:0:0:0:
158,125,55789,1,8,0:0:0:0:
312,64,55911,1,0,0:0:0:0:
392,224,56033,1,8,0:0:0:0:
176,128,56277,6,0,P|352:162|427:121,1,150
316,168,56521,2,0,L|196:328,1,150
140,251,56765,2,0,L|244:115,1,150
256,0,57009,2,0,P|177:9|120:48,1,150
335,55,57252,2,0,P|263:68|232:134,1,150
320,144,57496,2,0,P|319:215|400:168,1,150
320,144,57740,5,0,0:0:0:0:
320,181,57800,1,0,0:0:0:0:
320,219,57861,1,0,0:0:0:0:
320,256,57922,1,0,0:0:0:0:
337,277,57983,1,0,0:0:0:0:
374,277,58044,1,0,0:0:0:0:
412,277,58105,1,0,0:0:0:0:
448,275,58166,1,0,0:0:0:0:
448,238,58227,1,0,0:0:0:0:
448,200,58288,1,0,0:0:0:0:
448,163,58349,1,0,0:0:0:0:
432,141,58410,1,0,0:0:0:0:
395,141,58471,1,0,0:0:0:0:
357,141,58532,1,0,0:0:0:0:
320,141,58593,1,0,0:0:0:0:
223,272,58716,6,0,P|312:259|331:153,1,150
182,147,59204,2,0,P|173:217|224:273,1,150
366,187,59692,6,0,P|297:81|162:152,1,300
272,287,60180,2,0,P|365:170|341:111,1,225.000008583069
214,207,60667,2,0,P|297:154|205:188,1,225.000008583069
291,306,61155,6,0,B|360:264|360:264|360:189,1,112.500004291535
182,96,61399,2,0,B|96:201|132:269,1,112.500004291535
410,234,61643,6,0,P|318:76|242:26,1,225.000008583069
288,52,62131,2,0,B|326:197|326:197|232:183|232:309|202:231|202:231,1,300
202,232,62619,6,0,P|342:277|312:190,1,300
269,248,63106,2,0,B|140:217|105:94|105:94,1,225.000008583069
372,86,63594,6,0,B|343:136|249:131|249:131|154:188|183:328|359:342|383:225|351:218|324:211,1,450
283,203,64082,2,0,P|201:346|154:215,1,300
71,172,64570,6,0,B|222:120|266:66|222:120|71:172,1,225.000008583069
241,296,65058,6,0,B|298:263|298:263|330:187,1,112.500004291535
140,154,65301,6,0,P|98:204|183:203,1,150
247,218,65546,6,0,P|277:123|235:78,1,150
62,100,66033,6,0,B|26:169|26:169|57:275|57:275,1,112.500004291535
361,177,66521,6,0,P|453:205|421:293,1,150
342,339,67009,2,0,P|253:316|255:257,1,150
239,250,67497,2,0,B|270:287|316:265|317:192|286:207|217:207|229:232|234:266|246:181|246:181|217:158|175:180|145:146|145:77|189:65|243:41|277:56|299:83|291:145,1,450
283,87,67985,2,0,P|256:162|188:156,1,150
66,103,68472,6,0,P|27:180|97:285,1,225.000008583069
368,286,68960,2,0,P|428:182|410:159,1,112.500004291535
283,144,69204,2,0,P|226:187|226:250,1,112.500004291535
354,222,69448,2,0,P|351:120|264:153,1,225.000008583069
266,150,69936,2,0,B|247:206|247:206|266:247|266:247|266:302|266:302|222:326|163:326|131:313|113:257|125:201|172:203|162:215,1,375
265,302,70424,6,0,P|403:273|419:230,1,150
302,143,70911,2,0,P|199:187|183:223,1,150
344,253,71399,2,0,P|388:148|253:223,1,375
381,190,71887,2,0,P|352:123|281:125,1,150
316,180,72375,6,0,B|344:246|276:268|276:268|346:367|262:367|262:315|194:341,1,300
197,111,72863,2,0,L|197:195,1,75
199,225,73228,1,0,0:0:0:0:
201,348,73350,2,0,P|300:319|199:227,1,300
74,293,73838,2,0,B|74:354|74:354|91:307|129:293|129:293|92:281|74:232|74:232|61:278|20:293|20:293|60:308|74:354|74:354|90:306,1,450
307,287,74326,6,0,B|298:294|355:314|399:279|390:234|360:198|360:198|403:194|433:168|426:135|410:115|379:108,1,300
115,234,74814,2,0,B|200:234|200:234|200:150|200:150|115:150|115:150|115:234,1,337.500012874604
312,234,75302,2,0,B|383:216|383:216|360:152|360:152|321:161|321:161|360:152|360:152|312:24,1,300
66,192,75789,6,0,B|93:254|114:228|139:238|147:211|137:190|140:176|140:176|150:183|181:206|199:203|204:184|227:184|222:157|196:125,1,262.500002503395
373,104,76277,2,0,B|342:111|326:131|319:164|349:190|392:194|392:194|362:230|353:275|397:310|454:290|471:262,1,300
256,112,76765,2,0,B|155:112|155:112|155:212|155:212|256:212|256:212|256:102,1,393.750003755093
69,113,77253,2,0,B|52:220|52:220|134:236|52:220|52:220|62:155|62:155|86:163|86:163|62:155|62:155|70:112,1,337.500012874604
188,172,77741,6,0,B|188:249|188:249|265:249|265:249|265:172|265:172|194:172,1,300
308,213,78228,2,0,P|474:244|383:103,1,300
387,125,78716,2,0,P|312:223|396:282,1,225.000008583069
486,221,79204,2,0,P|418:124|309:189,1,225.000008583069
216,308,79692,2,0,B|283:308|283:308|283:241|283:241|216:241|216:241|216:307,1,262.500002503395
80,254,80180,6,0,B|130:299|130:299|180:278|221:313|221:313|263:293|286:233,1,262.500002503395
231,65,80667,2,0,B|231:4|231:4|164:4|164:4|164:71|164:71|231:71,1,262.500002503395
427,143,81155,2,0,B|449:205|449:205|426:269|426:269|364:309|364:309|302:299|302:299,1,262.500002503395
103,218,81643,6,0,B|9:276|87:290|87:290|72:392|211:297,1,225.000008583069
436,223,82131,2,0,B|530:165|448:147|448:147|477:53|354:126,1,225.000008583069
170,214,82619,2,0,B|170:275|170:275|231:275|231:275|231:214|231:214|147:214,1,225.000008583069
67,145,83106,6,0,P|-21:241|79:356,1,300
323,136,83594,2,0,B|246:136|246:136|246:211|246:211|322:211|322:211|322:137,1,300
59,200,84082,2,0,B|67:310|156:283|156:283|243:257|321:298,1,300
423,335,84570,2,0,P|394:174|539:196,1,300
419,334,85058,2,0,P|311:216|410:98,1,300
419,296,85546,2,0,B|419:334|419:334|380:334|380:334|380:296|380:296|419:296|419:296|419:334|419:334|380:334|380:334|380:296|380:296|419:296|419:296|425:296,1,300
80,184,86033,2,0,B|192:64|192:64|320:128,1,300
192,152,86521,2,0,B|152:104|168:64|208:48|288:64|320:96|320:112|288:120|288:120|400:96|400:96|320:176|320:176|432:176,1,562.5
336,264,87131,2,0,B|216:264|216:264|216:64|216:64|464:64|464:64|464:360|464:360|256:360|256:360,1,1050
336,216,88228,2,0,B|253:216|253:216|253:156|253:156|375:156|375:156|375:263|375:263|284:263|284:263|284:164|284:164,1,525
288,96,88838,2,0,B|408:96|408:96|408:176|408:176|352:176|352:176,1,225
383,176,89082,2,0,B|383:40|383:40|487:40|487:40|487:104|487:104,1,300
382,176,89448,2,0,L|495:176,1,112.5
304,264,89692,2,0,P|264:288|200:264,1,112.500004291535
80,128,90179,2,0,B|136:120|136:120|144:192,1,108.750003318787
104,288,90423,2,0,L|10:218,1,108.750003318787
224,160,90667,2,0,L|339:180,1,108.750003318787
240,312,90911,2,0,L|330:389,1,108.750003318787
368,40,91155,2,0,L|474:-6,1,108.750003318787
416,200,91399,2,0,L|304:216,1,108.750003318787
192,224,91643,5,0,0:0:0:0:
112,144,91765,1,0,0:0:0:0:
160,48,91887,2,0,L|272:112,1,112.500004291535
240,232,92131,2,0,B|167:240|246:81|136:176,1,168.750006437302
344,128,92375,2,0,L|344:232,1,75
344,328,92619,1,0,0:0:0:0:
416,192,92740,1,0,0:0:0:0:
344,240,92862,2,0,L|344:128,1,112.5
296,176,93106,2,0,P|242:162|216:114,1,112.5
312,48,93350,2,0,P|365:61|391:109,1,112.5
160,280,93838,6,0,P|112:224|96:184,1,89.9999972534181
184,160,94082,2,0,P|280:208|288:280,1,179.999994506836
216,248,94570,2,0,B|256:264|256:264|288:176|288:176|200:144|200:144|165:239,2,300
64,48,95301,1,8,0:0:0:0:
424,48,95545,1,10,0:0:0:0:
432,336,95789,1,14,0:0:0:0:
64,336,96033,1,10,0:0:0:0:
64,48,96277,1,8,0:0:0:0:
424,48,96521,1,14,0:0:0:0:
432,336,96765,1,10,0:0:0:0:
64,336,97009,1,14,0:0:0:0:
238,170,97253,2,0,B|271:170|271:170|271:204|271:204|238:204|238:204|238:170|238:170,1,112.500004291535
240,168,97497,2,0,L|360:264,1,140.625005364418
364,267,97740,2,0,B|364:249|364:249|359:263|348:267|348:267|359:271|364:286|364:286|368:272|381:267|381:267|368:263|364:249|364:249|359:263,1,112.500004291535
451,338,97984,2,0,L|363:266,1,112.500004291535
384,168,98228,2,0,P|328:88|224:72,1,196.875007510186
288,168,98594,2,0,P|384:112|472:128,1,196.875007510186
248,120,99204,2,0,B|352:0|352:0|208:0|208:0|160:80,1,393.750015020371
168,72,99814,2,0,P|240:136|240:160,1,112.500004291535
216,96,100058,2,0,P|272:152|256:192,1,112.500004291535
112,176,100301,2,0,P|152:240|224:248,1,112.500004291535
152,240,100545,2,0,P|208:176|208:136,1,112.500004291535
304,160,100789,2,0,P|408:192|416:200,1,112.500004291535
288,312,101033,2,0,L|240:208,1,112.500004291535
272,256,101277,2,0,L|232:144,1,112.500004291535
264,192,101521,2,0,L|248:80,1,112.500004291535
256,192,101704,12,0,109204,0:0:0:0:
168,312,117253,6,0,P|144:320|38:239,1,150
48,144,117741,1,0,0:0:0:0:
128,208,117985,1,0,0:0:0:0:
200,384,118229,2,0,B|54:309|54:309|147:346|147:346|147:346|208:169,1,450
199,171,118717,2,0,B|206:21|206:21|206:22|206:22|93:118|93:118|177:47|177:47|70:144|70:144|215:-61|359:35,1,900
432,120,119570,5,0,0:0:0:0:
392,176,119691,1,0,0:0:0:0:
352,232,119813,1,0,0:0:0:0:
312,288,119935,1,0,0:0:0:0:
336,112,120180,5,0,0:0:0:0:
352,256,120424,1,0,0:0:0:0:
432,112,120668,1,0,0:0:0:0:
96,256,120912,5,8,0:0:0:0:
96,256,121033,1,8,0:0:0:0:
96,256,121155,1,8,0:0:0:0:
107,260,121400,6,0,P|284:294|358:254,1,150,8|0,0:0|0:0,0:0:0:0:
208,224,121644,2,0,L|-23:354,1,150
56,216,121887,2,0,L|216:128,1,150
312,192,122131,2,0,P|192:304|184:304,1,150
144,144,122375,2,0,L|296:96,1,150
448,208,122619,2,0,B|406:278|406:278|338:347,1,150
296,296,122863,5,0,0:0:0:0:
112,224,123106,1,0,0:0:0:0:
112,224,123228,1,0,0:0:0:0:
112,224,123351,1,0,0:0:0:0:
336,264,123594,6,0,L|468:192,1,150
292,85,123838,2,0,P|229:125|200:192,1,150
225,286,124082,2,0,L|368:240,1,150
416,96,124326,2,0,L|369:239,1,150
256,352,124570,2,0,L|88:304,1,150
248,112,124814,2,0,L|117:38,1,150
40,80,125058,5,8,0:0:0:0:
384,328,125302,1,8,0:0:0:0:
80,240,125546,1,8,0:0:0:0:
104,64,125790,1,8,0:0:0:0:
80,240,126034,5,2,0:0:0:0:
80,240,126156,1,2,0:0:0:0:
424,224,126278,1,2,0:0:0:0:
304,80,126522,5,0,0:0:0:0:
216,352,126766,1,0,0:0:0:0:
216,352,127009,1,8,0:0:0:0:
452,352,127253,1,4,0:0:0:0:
458,86,127497,1,2,0:0:0:0:
208,88,127741,1,2,0:0:0:0:
200,304,128229,6,0,L|430:434,1,150
184,128,128472,2,0,L|24:40,1,150
408,32,128716,2,0,P|528:144|536:144,1,150
416,280,128960,2,0,B|355:238|355:238|264:232,1,150
320,48,129204,2,0,B|327:115|327:115|376:216,1,150
176,176,129448,2,0,P|88:152|8:184,1,150
288,344,129692,1,8,0:0:0:0:
240,64,129814,1,0,0:0:0:0:
354,259,129936,1,8,0:0:0:0:
32,328,130058,1,0,0:0:0:0:
120,160,130180,1,8,0:0:0:0:
336,256,130424,6,0,P|160:222|85:263,1,150
196,216,130668,2,0,L|316:56,1,150
483,216,130912,2,0,L|379:352,1,150
256,384,131156,2,0,P|335:375|392:336,1,150
192,240,131399,2,0,P|264:227|295:161,1,150
192,240,131643,2,0,P|187:172|255:166,1,150
294,162,131887,2,0,B|209:162|209:162|209:246|209:246|294:246|294:246|294:162,1,337.500012874604
179,305,132375,2,0,B|152:232|152:232|191:223|191:223|152:232|152:232|129:168|129:168|200:150,1,300
313,259,132862,2,0,B|192:320|192:320|80:200,1,300
192,232,133350,2,0,B|152:280|168:320|208:336|288:320|320:288|320:272|288:264|288:264|400:288|400:288|320:208|320:208|432:208,1,562.5
336,120,133960,2,0,B|216:120|216:120|216:320|216:320|464:320|464:320|464:24|464:24|256:24|256:24,1,1050
336,168,135057,2,0,B|253:168|253:168|253:227|253:227|375:227|375:227|375:120|375:120|284:120|284:120|284:219|284:219,1,525
288,288,135667,2,0,B|408:288|408:288|408:208|408:208|352:208|352:208,1,225
383,208,135911,2,0,B|383:344|383:344|487:344|487:344|487:280|487:280,1,300
382,208,136277,2,0,L|495:208,1,112.5
304,120,136521,2,0,P|264:96|200:120,1,112.500004291535
80,256,137008,2,0,B|136:264|136:264|144:192,1,108.750003318787
104,96,137252,2,0,L|10:165,1,108.750003318787
224,224,137496,2,0,L|339:203,1,108.750003318787
240,72,137740,2,0,L|330:-5,1,108.750003318787
368,344,137984,2,0,L|474:390,1,108.750003318787
416,184,138228,2,0,L|304:168,1,108.750003318787
192,160,138472,5,0,0:0:0:0:
112,240,138594,1,0,0:0:0:0:
160,336,138716,2,0,L|272:272,1,112.500004291535
240,152,138960,2,0,B|167:143|246:302|136:208,1,168.750006437302
344,256,139204,2,0,L|344:152,1,75
344,56,139448,1,0,0:0:0:0:
416,192,139569,1,0,0:0:0:0:
344,144,139691,2,0,L|344:256,1,112.5
296,208,139935,2,0,P|242:221|216:269,1,112.5
312,336,140179,2,0,P|365:322|391:274,1,112.5
160,104,140667,6,0,P|112:160|96:200,1,89.9999972534181
184,224,140911,2,0,P|280:176|288:104,1,179.999994506836
216,136,141399,2,0,B|256:120|256:120|288:208|288:208|200:240|200:240|163:144,2,306.250002920628
64,336,142130,1,8,0:0:0:0:
424,336,142374,1,10,0:0:0:0:
432,48,142618,1,14,0:0:0:0:
64,48,142862,1,10,0:0:0:0:
64,336,143106,1,8,0:0:0:0:
424,336,143350,1,14,0:0:0:0:
432,48,143594,1,10,0:0:0:0:
64,48,143838,1,14,0:0:0:0:
238,213,144082,2,0,B|271:213|271:213|271:179|271:179|238:179|238:179|238:213|238:213,1,112.500004291535
240,216,144326,2,0,L|360:120,1,140.625005364418
364,116,144569,2,0,B|364:134|364:134|359:120|348:116|348:116|359:112|364:97|364:97|368:111|381:116|381:116|368:120|364:134|364:134|359:120,1,112.500004291535
451,46,144813,2,0,L|363:118,1,112.500004291535
384,216,145057,2,0,P|328:296|224:312,1,196.875007510186
288,216,145423,2,0,P|384:272|472:256,1,196.875007510186
248,264,146033,2,0,B|352:384|352:384|208:384|208:384|160:304,1,393.750015020371
248,264,146643,2,0,P|320:200|320:176,1,112.500004291535
432,280,146887,2,0,P|428:333|381:360,1,112.500004291535
176,96,147130,2,0,P|216:32|288:24,1,112.500004291535
328,48,147374,2,0,P|384:112|384:152,1,112.500004291535
312,216,147618,2,0,P|416:184|424:176,1,112.500004291535
432,88,147862,6,0,L|527:-19,1,112.500004291535
512,0,148076,1,0,0:0:0:0:
512,0,148147,1,0,0:0:0:0:
512,0,148228,2,0,B|512:384|512:384|0:384|0:384|0:0|0:0|512:0,1,1762.50006723404
