osu file format v14

[General]
AudioFilename: audio.mp3
AudioLeadIn: 0
PreviewTime: 129849
Countdown: 0
SampleSet: Soft
StackLeniency: 0.2
Mode: 0
LetterboxInBreaks: 0
WidescreenStoryboard: 0

[Editor]
Bookmarks: 43408,63747,81374,86798,130188,141035,173578,184425,195273,211883,216968,238663
DistanceSpacing: 2.1
BeatDivisor: 8
GridSize: 8
TimelineZoom: 1

[Metadata]
Title:S!ck (VIP)
TitleUnicode:S!ck (VIP)
Artist:Eagle
ArtistUnicode:Eagle
Creator:Markden
Version:Another
Source:beatmania IIDX 20 trivago
Tags:quickiez
BeatmapID:1289860
BeatmapSetID:610963

[Difficulty]
HPDrainRate:7
CircleSize:4.3
OverallDifficulty:8
ApproachRate:9
SliderMultiplier:2.4
SliderTickRate:1

[Events]
//Background and Video events
0,0,"bg.png",0,0
//Break Periods
2,152082,172978
//Storyboard Layer 0 (Background)
//Storyboard Layer 1 (Fail)
//Storyboard Layer 2 (Pass)
//Storyboard Layer 3 (Foreground)
//Storyboard Sound Samples

[TimingPoints]
19,338.983050847458,4,2,0,30,1,0
41968,-100,4,2,0,10,0,0
42052,-100,4,2,0,40,0,0
43408,-200,4,2,0,20,0,0
43747,-142.857142857143,4,2,0,20,0,0
44086,-111.111111111111,4,2,0,20,0,0
44425,-83.3333333333333,4,2,0,20,0,0
44764,-200,4,2,0,20,0,0
45103,-142.857142857143,4,2,0,20,0,0
45442,-111.111111111111,4,2,0,20,0,0
45781,-83.3333333333333,4,2,0,20,0,0
46120,-200,4,2,0,20,0,0
46459,-142.857142857143,4,2,0,20,0,0
46798,-111.111111111111,4,2,0,20,0,0
47137,-83.3333333333333,4,2,0,20,0,0
47476,-200,4,2,0,20,0,0
47815,-142.857142857143,4,2,0,20,0,0
48154,-111.111111111111,4,2,0,20,0,0
48493,-83.3333333333333,4,2,0,20,0,0
48832,-200,4,2,0,20,0,0
49171,-142.857142857143,4,2,0,20,0,0
49510,-111.111111111111,4,2,0,20,0,0
49849,-83.3333333333333,4,2,0,20,0,0
50188,-200,4,2,0,20,0,0
50527,-142.857142857143,4,2,0,20,0,0
50866,-111.111111111111,4,2,0,20,0,0
51205,-83.3333333333333,4,2,0,20,0,0
51544,-200,4,2,0,20,0,0
51883,-142.857142857143,4,2,0,20,0,0
52222,-111.111111111111,4,2,0,20,0,0
52561,-83.3333333333333,4,2,0,20,0,0
52900,-200,4,2,0,20,0,0
53239,-142.857142857143,4,2,0,20,0,0
53578,-111.111111111111,4,2,0,20,0,0
53917,-83.3333333333333,4,2,0,20,0,0
54256,-200,4,2,0,20,0,0
54595,-142.857142857143,4,2,0,20,0,0
54934,-111.111111111111,4,2,0,20,0,0
55273,-83.3333333333333,4,2,0,20,0,0
55612,-200,4,2,0,20,0,0
55951,-142.857142857143,4,2,0,20,0,0
56290,-111.111111111111,4,2,0,20,0,0
56629,-83.3333333333333,4,2,0,20,0,0
56968,-200,4,2,0,20,0,0
57307,-142.857142857143,4,2,0,20,0,0
57646,-111.111111111111,4,2,0,20,0,0
57985,-83.3333333333333,4,2,0,20,0,0
58324,-200,4,2,0,20,0,0
58663,-133.333333333333,4,2,0,20,0,0
59002,-66.6666666666667,4,2,0,20,0,0
63747,-200,4,2,0,40,0,0
64086,-133.333333333333,4,2,0,40,0,0
64764,-100,4,2,0,40,0,0
65103,-200,4,2,0,40,0,0
69849,-100,4,2,0,40,0,0
70188,-66.6666666666667,4,2,0,40,0,0
70527,-133.333333333333,4,2,0,40,0,0
75951,-200,4,2,0,40,0,0
76290,-100,4,2,0,40,0,0
76629,-200,4,2,0,40,0,0
76968,-100,4,2,0,40,0,0
77307,-200,4,2,0,40,0,0
77646,-100,4,2,0,40,0,0
77985,-200,4,2,0,40,0,0
78324,-100,4,2,0,40,0,0
78663,-200,4,2,0,40,0,0
79002,-100,4,2,0,40,0,0
79341,-200,4,2,0,40,0,0
79680,-100,4,2,0,40,0,0
80019,-200,4,2,0,40,0,0
80357,-100,4,2,0,40,0,0
81035,-66.6666666666667,4,2,0,40,0,0
81374,-66.6666666666667,4,2,0,50,0,0
84425,-133.333333333333,4,2,0,50,0,0
84764,-100,4,2,0,50,0,0
85103,-66.6666666666667,4,2,0,50,0,0
86459,-100,4,2,0,50,0,0
88154,-83.3333333333333,4,2,0,50,0,0
89510,-100,4,2,0,50,0,0
92222,-133.333333333333,4,2,0,50,0,0
92900,-166.666666666667,4,2,0,50,0,0
93578,-100,4,2,0,50,0,0
94256,-83.3333333333333,4,2,0,50,0,0
94595,-66.6666666666667,4,2,0,50,0,0
94934,-133.333333333333,4,2,0,50,0,0
95188,-133.333333333333,4,2,0,10,0,0
95273,-100,4,2,0,50,0,0
96290,-83.3333333333333,4,2,0,50,0,0
97476,-66.6666666666667,4,2,0,50,0,0
97646,-100,4,2,0,50,0,0
98832,-66.6666666666667,4,2,0,50,0,0
99002,-100,4,2,0,50,0,0
99849,-66.6666666666667,4,2,0,50,0,0
100357,-83.3333333333333,4,2,0,50,0,0
102391,-133.333333333333,4,2,0,50,0,0
102730,-83.3333333333333,4,2,0,50,0,0
103069,-100,4,2,0,50,0,0
103324,-83.3333333333333,4,2,0,50,0,0
103578,-66.6666666666667,4,2,0,50,0,0
103747,-100,4,2,0,50,0,0
106290,-111.111111111111,4,2,0,50,0,0
106798,-125,4,2,0,50,0,0
107307,-142.857142857143,4,2,0,50,0,0
107815,-166.666666666667,4,2,0,50,0,0
108493,-100,4,2,0,50,0,0
109171,-200,4,2,0,50,0,0
109510,-83.3333333333333,4,2,0,50,0,0
114595,-133.333333333333,4,2,0,50,0,0
117307,-83.3333333333333,4,2,0,50,0,0
118324,-86.9565217391304,4,2,0,50,0,0
118493,-76.9230769230769,4,2,0,50,0,0
118663,-68.9655172413793,4,2,0,50,0,0
118832,-62.5,4,2,0,50,0,0
119002,-57.1428571428571,4,2,0,50,0,0
119171,-52.6315789473684,4,2,0,50,0,0
119341,-100,4,2,0,50,0,0
123408,-83.3333333333333,4,2,0,50,0,0
124425,-133.333333333333,4,2,0,50,0,0
124764,-100,4,2,0,50,0,0
125019,-83.3333333333333,4,2,0,50,0,0
125273,-66.6666666666667,4,2,0,50,0,0
125442,-100,4,2,0,50,0,0
127985,-125,4,2,0,50,0,0
128493,-166.666666666667,4,2,0,50,0,0
128832,-100,4,2,0,50,0,0
130527,-117.647058823529,4,2,0,40,0,0
130866,-142.857142857143,4,2,0,30,0,0
131205,-181.818181818182,4,2,0,20,0,0
131544,-200,4,2,0,40,0,0
132222,-133.333333333333,4,2,0,40,0,0
137646,-100,4,2,0,50,0,0
145103,-200,4,2,0,50,0,0
145781,-133.333333333333,4,2,0,50,0,0
146035,-100,4,2,0,50,0,0
146459,-83.3333333333333,4,2,0,50,0,0
146798,-71.4285714285714,4,2,0,50,0,0
147137,-66.6666666666667,4,2,0,50,0,0
149510,-100,4,2,0,50,0,0
178663,-66.6666666666667,4,2,0,50,0,0
179002,-100,4,2,0,50,0,0
185103,-83.3333333333333,4,2,0,50,0,0
192561,-100,4,2,0,50,0,0
194821,-133.333333333333,4,2,0,50,0,0
195273,-83.3333333333333,4,2,0,50,0,0
197307,-66.6666666666667,4,2,0,50,0,0
198663,-55.5555555555556,4,2,0,50,0,0
199680,-66.6666666666667,4,2,0,50,0,0
205103,-83.3333333333333,4,2,0,50,0,0
205329,-100,4,2,0,50,0,0
205555,-133.333333333333,4,2,0,50,0,0
205781,-100,4,2,0,50,0,0
206120,-66.6666666666667,4,2,0,50,0,0
209171,-133.333333333333,4,2,0,50,0,0
209510,-58.8235294117647,4,2,0,50,0,0
209849,-133.333333333333,4,2,0,50,0,0
210188,-100,4,2,0,50,0,0
210527,-76.9230769230769,4,2,0,50,0,0
210866,-66.6666666666667,4,2,0,50,0,0
211544,-100,4,2,0,50,0,0
211883,-76.9230769230769,4,2,0,50,0,0
213239,-66.6666666666667,4,2,0,50,0,0
214595,-83.3333333333333,4,2,0,50,0,0
215612,-133.333333333333,4,2,0,50,0,0
215951,-100,4,2,0,50,0,0
216968,-83.3333333333333,4,2,0,50,0,0
217307,-100,4,2,0,50,0,0
218324,-83.3333333333333,4,2,0,50,0,0
219002,-66.6666666666667,4,2,0,50,0,0
219341,-83.3333333333333,4,2,0,50,0,0
219680,-100,4,2,0,50,0,0
220612,-100,4,2,0,10,0,0
220696,-100,4,2,0,50,0,0
221035,-83.3333333333333,4,2,0,50,0,0
224425,-66.6666666666667,4,2,0,50,0,0
224764,-142.857142857143,4,2,0,50,0,0
225103,-100,4,2,0,50,0,0
227646,-83.3333333333333,4,2,0,50,0,0
228832,-100,4,2,0,50,0,0
230188,-83.3333333333333,4,2,0,50,0,0
232561,-133.333333333333,4,2,0,50,0,0
232815,-133.333333333333,4,2,0,10,0,0
232900,-83.3333333333333,4,2,0,50,0,0
235273,-71.4285714285714,4,2,0,50,0,0
236290,-100,4,2,0,50,0,0
236629,-125,4,2,0,50,0,0
236968,-100,4,2,0,50,0,0

[Colours]
Combo1 : 128,128,128
Combo2 : 0,128,255
Combo3 : 192,192,192
Combo4 : 0,0,255

[HitObjects]
256,192,33747,12,0,41968,0:0:0:0:
384,161,42052,5,0,0:0:0:0:
384,161,42222,1,0,0:0:0:0:
252,129,42391,1,0,0:0:0:0:
131,136,42561,1,0,0:0:0:0:
135,174,42645,1,0,0:0:0:0:
151,209,42730,1,0,0:0:0:0:
177,238,42815,1,0,0:0:0:0:
210,257,42899,1,0,0:0:0:0:
252,129,43069,1,0,0:0:0:0:
252,129,43408,6,0,P|254:178|268:213,1,60
199,138,43747,2,0,P|201:187|215:222,1,83.9999974365235
148,143,44086,2,0,P|150:206|168:252,1,107.999996704102
28,283,44425,2,0,P|3:211|2:136,1,143.999995605469
67,72,44764,6,0,P|92:118|96:152,1,60
157,69,45103,2,0,P|171:119|167:153,1,83.9999974365235
251,101,45442,2,0,P|243:169|221:209,1,107.999996704102
370,273,45781,2,0,P|300:328|244:345,1,143.999995605469
67,302,46120,6,0,P|48:266|47:223,1,60
126,247,46459,2,0,P|120:206|134:165,1,83.9999974365235
213,218,46798,2,0,P|224:166|259:122,1,107.999996704102
298,210,47137,2,0,P|282:280|235:340,1,143.999995605469
105,328,47476,6,0,P|142:282|164:275,1,60
67,292,47815,2,0,P|90:257|129:233,1,83.9999974365235
29,260,48154,2,0,P|68:208|107:187,1,107.999996704102
105,328,48493,2,0,P|167:294|205:233,1,143.999995605469
261,66,48832,6,0,L|328:97,1,60
214,132,49171,2,0,L|271:199,1,83.9999974365235
131,154,49510,2,0,L|165:282,1,107.999996704102
18,275,49849,2,0,L|42:133,1,143.999995605469
168,107,50188,6,0,L|121:164,1,60
239,145,50527,2,0,L|217:230,1,83.9999974365235
323,129,50866,2,0,L|347:259,1,107.999996704102
478,188,51205,2,0,L|393:71,1,143.999995605469
239,85,51544,6,0,L|239:149,1,60
165,111,51883,2,0,L|165:194,1,83.9999974365235
91,139,52222,2,0,L|91:252,1,107.999996704102
16,312,52561,2,0,L|16:168,1,143.999995605469
65,65,52900,6,0,L|129:65,1,60
91,139,53239,2,0,L|174:139,1,83.9999974365235
119,213,53578,2,0,L|232:213,1,107.999996704102
292,288,53917,2,0,L|148:288,1,143.999995605469
43,204,54256,6,0,P|41:152|53:134,1,60
103,79,54595,2,0,P|179:75|207:93,1,83.9999974365235
261,127,54934,2,0,P|265:224|242:259,1,107.999996704102
56,288,55273,2,0,P|127:304|198:285,1,143.999995605469
335,160,55612,6,0,P|337:211|325:229,1,60
275,285,55951,2,0,P|198:288|170:270,1,83.9999974365235
117,237,56290,2,0,P|112:139|135:104,1,107.999996704102
322,76,56629,2,0,P|250:59|179:78,1,143.999995605469
60,158,56968,6,0,L|126:128,1,60
70,313,57307,2,0,L|34:233,1,83.9999974365235
246,272,57646,2,0,L|143:318,1,107.999996704102
281,199,57985,2,0,L|222:68,1,143.999995605469
120,196,58324,6,0,P|146:235|146:259,1,60
129,106,58663,2,0,P|63:110|34:93,1,90.0000034332277
201,159,59002,2,0,P|221:116|242:104,9,60
256,192,59680,12,0,63578,0:0:0:0:
9,161,63747,6,0,B|2:131|2:131|10:102,1,60
142,69,64086,2,0,B|156:135|156:135|133:208,1,135.000005149841
179,256,64425,1,0,0:0:0:0:
290,323,64595,2,0,P|284:294|297:253,1,45.0000017166138
281,335,64764,2,0,B|250:254|324:259|285:157,1,180
115,36,65103,6,0,P|155:72|201:95,1,90
192,106,65442,1,0,0:0:0:0:
257,41,65612,2,0,P|295:63|328:94,1,90
334,111,65951,1,0,0:0:0:0:
384,257,66120,5,0,0:0:0:0:
310,224,66290,1,0,0:0:0:0:
235,253,66459,1,0,0:0:0:0:
194,183,66713,5,0,0:0:0:0:
194,183,66798,1,0,0:0:0:0:
115,162,66967,1,0,0:0:0:0:
45,204,67222,1,0,0:0:0:0:
45,204,67307,1,0,0:0:0:0:
235,253,67476,5,0,0:0:0:0:
265,318,67646,1,0,0:0:0:0:
331,348,67815,2,0,B|337:303|337:303|332:248,1,90
236,163,68154,1,0,0:0:0:0:
236,163,68324,2,0,B|230:208|230:208|235:263,1,90
234,252,68663,1,0,0:0:0:0:
413,205,68832,5,0,0:0:0:0:
360,153,69002,1,0,0:0:0:0:
290,166,69171,1,0,0:0:0:0:
258,233,69425,5,0,0:0:0:0:
259,230,69510,1,0,0:0:0:0:
360,153,69680,1,0,0:0:0:0:
437,254,69849,1,0,0:0:0:0:
429,266,69934,1,0,0:0:0:0:
421,278,70019,2,0,P|383:286|349:277,1,60
335,295,70188,2,0,P|327:314|307:332,7,45.0000017166138
293,337,70527,6,0,P|230:317|176:264,1,135.000005149841
186,247,70866,1,0,0:0:0:0:
294,227,71035,2,0,P|357:207|411:154,1,135.000005149841
396,140,71374,1,0,0:0:0:0:
270,92,71544,5,0,0:0:0:0:
256,164,71713,1,0,0:0:0:0:
294,227,71883,1,0,0:0:0:0:
364,255,72137,5,0,0:0:0:0:
364,255,72222,1,0,0:0:0:0:
442,250,72391,1,0,0:0:0:0:
401,185,72645,1,0,0:0:0:0:
401,185,72730,1,0,0:0:0:0:
332,159,72900,5,0,0:0:0:0:
294,227,73069,1,0,0:0:0:0:
294,227,73154,1,0,0:0:0:0:
294,227,73239,2,0,P|339:215|414:149,1,135.000005149841
392,152,73578,1,0,0:0:0:0:
342,31,73747,6,0,P|297:43|222:109,1,135.000005149841
244,106,74086,1,0,0:0:0:0:
325,128,74256,2,0,P|315:171|319:216,1,90.0000034332277
270,323,74595,2,0,P|240:287|216:190,1,135.000005149841
232,205,74934,1,0,0:0:0:0:
431,264,75103,5,0,0:0:0:0:
431,264,75188,2,0,B|387:284|387:284|359:342,1,90.0000034332277
225,319,75612,2,0,B|269:299|269:299|297:241,1,90.0000034332277
325,128,75951,6,0,P|349:151|381:172,1,60
423,194,76290,2,0,P|372:150|325:129,1,120
187,128,76629,2,0,P|163:151|131:172,1,60
89,194,76968,2,0,P|140:150|187:129,1,120
325,127,77307,6,0,B|333:97|333:97|335:56,1,60
332,9,77646,2,0,B|315:67|315:67|324:126,1,120
318,245,77985,2,0,B|326:215|326:215|328:174,1,60
325,127,78324,2,0,B|308:185|308:185|317:244,1,120
346,333,78663,6,0,P|379:329|413:311,1,60
462,362,79002,2,0,L|305:322,1,120
256,248,79341,2,0,P|222:244|189:226,1,60
140,278,79680,2,0,L|297:238,1,120
351,173,80019,6,0,P|384:169|418:151,1,60
468,203,80358,2,0,L|311:163,1,120
192,105,80696,1,0,0:0:0:0:
200,97,80781,1,0,0:0:0:0:
208,89,80866,2,0,P|245:83|278:93,1,60
262,165,81035,2,0,P|281:173|299:193,7,45.0000017166138
298,209,81374,5,0,0:0:0:0:
331,262,81543,1,0,0:0:0:0:
394,262,81712,1,0,0:0:0:0:
429,209,81882,1,0,0:0:0:0:
302,127,82052,5,0,0:0:0:0:
267,73,82221,1,0,0:0:0:0:
205,73,82390,1,0,0:0:0:0:
171,125,82560,1,0,0:0:0:0:
208,208,82730,5,0,0:0:0:0:
208,296,82900,1,0,0:0:0:0:
120,296,83069,1,0,0:0:0:0:
120,208,83239,1,0,0:0:0:0:
171,125,83408,5,0,0:0:0:0:
92,123,83577,1,0,0:0:0:0:
35,177,83746,1,0,0:0:0:0:
29,255,83916,1,0,0:0:0:0:
88,307,84086,5,0,0:0:0:0:
115,294,84170,1,0,0:0:0:0:
136,273,84255,1,0,0:0:0:0:
149,246,84340,1,0,0:0:0:0:
153,222,84425,6,0,P|191:198|213:198,1,45.0000017166138
256,207,84595,2,0,P|218:231|196:231,1,45.0000017166138
133,228,84764,6,0,P|195:165|205:165,1,90.0000034332277
274,201,84934,2,0,P|211:263|201:263,1,60
117,232,85103,6,0,P|122:155|172:107,1,120
290,194,85273,2,0,P|284:270|234:318,1,90.0000034332277
145,343,85442,5,0,0:0:0:0:
42,286,85612,1,0,0:0:0:0:
112,217,85781,1,0,0:0:0:0:
33,173,85951,1,0,0:0:0:0:
92,120,86120,1,0,0:0:0:0:
35,89,86290,1,0,0:0:0:0:
33,173,86459,2,0,P|35:219|95:160,1,180
105,171,86798,6,0,B|120:282|74:375|74:375|24:282|32:168,1,420
51,69,87476,1,0,0:0:0:0:
162,98,87646,5,0,0:0:0:0:
188,111,87730,1,0,0:0:0:0:
215,137,87815,1,0,0:0:0:0:
241,150,87900,1,0,0:0:0:0:
268,176,87984,1,0,0:0:0:0:
295,190,88069,1,0,0:0:0:0:
322,217,88154,6,0,B|243:261|231:171|312:173|414:238|414:238|384:160|407:87,1,359.999989013672
457,47,88663,1,0,0:0:0:0:
465,81,88747,1,0,0:0:0:0:
475,117,88832,2,0,P|469:167|481:209,1,71.9999978027344
477,365,89001,1,0,0:0:0:0:
451,339,89085,1,0,0:0:0:0:
427,314,89171,2,0,B|464:248|453:175|453:175|414:205|407:249,1,215.999993408203
316,252,89510,6,0,P|321:225|338:202,12,30
343,306,90103,1,0,0:0:0:0:
312,352,90188,2,0,B|253:344|253:344|168:352,1,120
96,248,90527,2,0,B|104:189|104:189|98:128,1,120
207,185,90866,6,0,B|287:185|287:185|287:281|287:281|191:281|191:281|191:193,1,360
191,193,91544,6,0,B|174:232|192:271|192:271|237:294|260:339|260:339|287:294|328:271|328:271|347:234|329:190,1,360
413,190,92222,6,0,B|374:242|373:316|373:316|373:242|329:190,1,270.000010299683
260,228,92815,1,0,0:0:0:0:
258,260,92900,2,0,B|212:224|215:149|215:149|291:140|338:199,1,251.999992309571
480,248,93578,6,0,P|472:312|432:360,1,120
310,343,93832,1,0,0:0:0:0:
325,369,93917,2,0,P|261:361|213:321,1,120
51,181,94256,6,0,B|84:116|84:116|114:183,1,143.999995605469
165,273,94595,2,0,B|123:354|123:354|86:270,1,180.000006866455
51,181,94934,6,0,B|113:182|113:182|80:108,1,135.000005149841
135,37,95273,2,0,L|170:116,1,60
152,48,95442,2,0,L|187:127,1,60
169,59,95612,2,0,B|199:123|199:123|310:122|310:122|353:208|353:208|305:309,1,360
257,335,96205,5,0,0:0:0:0:
203,287,96290,2,0,B|142:204,1,71.9999978027344
249,213,96459,2,0,L|237:142,1,71.9999978027344
311,285,96629,2,0,B|352:227,1,71.9999978027344
261,213,96798,2,0,L|277:126,1,71.9999978027344
224,0,96968,6,0,B|224:72|224:72|304:72,1,143.999995605469
296,72,97222,2,0,B|296:0|296:0|216:0,1,143.999995605469
224,0,97476,2,0,B|196:38|196:38|235:85,1,90.0000034332277
256,219,97646,6,0,B|398:219|398:219|398:355|398:355|232:355,1,420
100,320,98324,6,0,P|71:280|77:193,1,120
94,195,98578,1,0,0:0:0:0:
112,160,98663,1,0,0:0:0:0:
112,136,98747,1,0,0:0:0:0:
112,112,98832,2,0,B|97:67|97:67|120:0,1,90.0000034332277
189,5,99002,6,0,B|284:28|328:135|288:212|224:255|224:255|217:191|255:158,1,420
359,86,99680,5,0,0:0:0:0:
359,86,99764,1,0,0:0:0:0:
359,86,99849,2,0,P|366:131|357:192,1,90.0000034332277
335,243,100019,2,0,P|308:279|258:316,5,60.0000022888184
186,341,100357,6,0,B|102:279|102:279|211:279|211:279|137:253|102:187|132:103,1,431.999986816407
235,86,100951,1,0,0:0:0:0:
259,108,101035,2,0,P|189:166|272:205,1,215.999993408203
456,120,101374,6,0,P|465:161|453:210,1,71.9999978027344
360,120,101544,2,0,P|350:161|362:210,1,71.9999978027344
405,248,101713,2,0,B|405:328|405:328|332:328|332:328|332:232|332:232|300:192|300:192|300:120|300:120|364:120|364:120,1,431.999986816407
456,120,102391,2,0,L|456:184,3,45.0000017166138
456,256,102730,6,0,B|456:328|456:328|384:328,1,143.999995605469
264,328,102985,1,0,0:0:0:0:
240,312,103069,2,0,L|200:184,1,120
216,304,103324,2,0,L|168:150,1,143.999995605469
168,222,103578,2,0,L|117:60,1,90.0000034332277
69,62,103747,6,0,B|158:-3|254:70|240:152|240:152|256:168|256:168|232:184|256:200|256:200|232:216|256:232|256:232|232:248|256:264|256:264|241:285,1,420
120,328,104425,6,0,L|24:248,1,120
296,328,104680,1,0,0:0:0:0:
296,328,104764,2,0,L|392:248,1,120
120,232,105103,2,0,B|94:175|94:175|136:88,1,120
295,123,105442,2,0,B|320:175|320:175|295:232,1,120
208,336,105781,6,0,B|190:248|190:248|212:143,1,180
209,159,106120,1,0,0:0:0:0:
304,48,106290,2,0,B|320:128|320:128|299:240,1,161.999995056153
305,207,106629,1,0,0:0:0:0:
208,336,106798,6,0,P|193:255|200:187,1,144
198,194,107137,1,0,0:0:0:0:
304,48,107307,2,0,P|319:129|312:197,1,125.999996154785
316,172,107646,1,0,0:0:0:0:
208,336,107815,6,0,P|212:269|203:207,1,107.999996704102
414,229,108154,2,0,P|365:207|317:172,1,107.999996704102
317,359,108493,6,0,P|345:337|380:324,1,60
414,229,108663,2,0,B|332:228|363:271|267:264|267:264|227:217|252:165|252:165|228:176|194:164,1,300
145,116,109171,6,0,P|173:151|214:169,1,90
306,242,109510,6,0,B|321:180|304:132|304:132|276:145|276:172,1,143.999995605469
193,210,109764,1,0,0:0:0:0:
186,242,109849,2,0,P|157:265|146:267,8,35.9999989013672
280,153,110357,6,0,P|324:146|357:130,1,71.9999978027344
396,73,110527,2,0,P|432:67|443:71,6,35.9999989013672
280,153,110866,6,0,P|287:201|282:237,1,71.9999978027344
237,226,111035,2,0,P|230:274|235:310,1,71.9999978027344
279,310,111205,2,0,P|274:346|268:355,10,35.9999989013672
280,153,111713,5,0,0:0:0:0:
272,128,111798,1,0,0:0:0:0:
264,104,111883,2,0,B|223:98|223:98|174:109,1,71.9999978027344
121,173,112052,2,0,B|114:213|114:213|126:263,1,71.9999978027344
197,303,112222,2,0,B|237:309|237:309|287:298,1,71.9999978027344
340,234,112391,2,0,B|346:195|346:195|335:144,1,71.9999978027344
349,79,112561,2,0,P|353:42|359:33,10,35.9999989013672
330,165,113069,5,0,0:0:0:0:
323,188,113154,1,0,0:0:0:0:
316,210,113239,2,0,B|279:205|279:205|235:215,1,71.9999978027344
187,171,113408,2,0,B|193:134|193:134|183:90,1,71.9999978027344
226,41,113578,2,0,B|263:47|263:47|307:37,1,71.9999978027344
355,81,113747,2,0,B|349:118|349:118|359:162,1,71.9999978027344
395,230,113917,6,0,B|368:255|359:295|359:295|330:215|249:195|181:220|181:220|246:252|331:222|357:183|371:96,1,503.999984619141
366,69,114595,6,0,B|322:61|322:61|232:98,1,135.000005149841
159,174,114934,2,0,B|125:258|125:258|133:302,1,135.000005149841
258,352,115273,6,0,B|394:201|243:198|384:49,1,315.000012016297
428,113,115951,2,0,P|392:152|413:240,1,135.000005149841
214,290,116290,2,0,P|245:256|223:164,1,135.000005149841
111,64,116629,6,0,B|147:159|239:181|239:181|253:126|309:95|352:98,1,315.000012016297
441,327,117307,2,0,P|251:300|293:113,1,431.999986816407
311,102,117900,1,0,0:0:0:0:
330,92,117985,1,0,0:0:0:0:
471,127,118154,6,0,B|479:162|479:162|462:199,1,71.9999978027344
391,255,118324,2,0,B|380:216|380:216|401:170,1,69.0000013160706
330,92,118493,6,0,B|340:130|340:130|319:176,1,77.9999964294435
248,245,118663,2,0,B|236:200|236:200|259:147,1,87.0000026550294
189,58,118832,6,0,B|200:102|200:102|177:156,1,96
97,243,119002,2,0,B|83:191|83:191|110:129,1,105.000001001358
35,28,119171,6,0,B|49:81|49:81|20:146,1,113.999996955872
28,323,119341,2,0,B|-14:236|-14:236|326:248,1,420
461,200,120019,2,0,P|454:160|438:124,2,80
422,277,120357,2,0,P|457:297|495:308,2,80
422,277,120696,2,0,B|338:209|360:146|360:146|415:190|363:299|363:299|300:317,1,360
105,328,121374,5,0,0:0:0:0:
88,316,121459,1,0,0:0:0:0:
69,304,121544,1,0,0:0:0:0:
37,218,121713,2,0,B|67:132|67:132|140:187,1,180
326,310,122052,6,0,B|308:374|203:360|217:283|243:224|308:254|332:284|332:284|341:224|308:163,1,360
250,105,122646,1,0,0:0:0:0:
222,77,122730,2,0,P|218:136|236:193,1,120
377,242,123069,6,0,P|445:264|468:288,1,60
377,142,123239,2,0,P|445:120|468:96,1,60
250,105,123408,2,0,B|106:105|106:105|162:185|162:185|298:185|298:185|250:273,1,431.999986816407
218,326,124086,6,0,L|253:263,3,71.9999978027344
400,97,124425,2,0,B|355:97|355:97|325:140,1,90.0000034332277
254,264,124680,5,0,0:0:0:0:
236,295,124764,2,0,P|173:261|129:208,1,120
366,143,125019,2,0,P|368:215|343:281,1,143.999995605469
266,81,125273,2,0,P|208:96|158:129,1,90.0000034332277
142,225,125442,6,0,B|304:237|304:237|338:320|338:320|312:320|312:320|288:304|264:320|264:320|240:304|216:320|216:320|192:304|176:312,1,420
142,225,126120,6,0,P|109:162|33:145,1,120
95,67,126374,1,0,0:0:0:0:
95,67,126459,2,0,P|166:68|217:10,1,120
249,104,126798,2,0,B|211:148|211:148|229:208,1,120
455,130,127137,2,0,B|472:189|472:189|434:233,1,120
267,325,127476,6,0,L|210:145,1,180
257,187,127815,1,0,0:0:0:0:
301,325,127985,2,0,L|255:181,1,144
302,220,128324,1,0,0:0:0:0:
335,323,128493,6,0,L|298:207,1,107.999996704102
127,226,128832,6,0,L|165:346,1,120
195,165,129171,2,0,L|307:223,1,120
162,339,129510,2,0,L|49:280,1,120
232,280,129849,2,0,L|193:159,1,120
134,94,130188,6,0,P|201:75|263:99,1,120
195,165,130527,2,0,P|128:184|77:169,1,102.000001945496
152,95,130866,2,0,P|199:81|242:98,1,83.9999974365235
178,164,131205,2,0,P|130:177|87:160,1,66.0000020141602
152,95,131544,6,0,P|84:77|60:193,1,210
19,270,132222,2,0,L|64:161,1,90.0000034332277
104,142,132561,1,0,0:0:0:0:
258,106,132900,5,0,0:0:0:0:
359,207,133069,1,0,0:0:0:0:
336,226,133153,1,0,0:0:0:0:
309,240,133238,1,0,0:0:0:0:
149,215,133408,1,0,0:0:0:0:
309,240,133578,2,0,P|404:202|430:175,1,135.000005149841
309,240,134256,5,0,0:0:0:0:
208,341,134425,1,0,0:0:0:0:
230,360,134509,1,0,0:0:0:0:
257,374,134594,1,0,0:0:0:0:
413,348,134764,1,0,0:0:0:0:
509,216,134934,1,0,0:0:0:0:
192,299,135103,2,0,P|287:261|313:234,1,135.000005149841
413,84,135612,2,0,L|470:177,1,90.0000034332277
383,207,135951,2,0,L|326:114,1,90.0000034332277
258,176,136290,2,0,B|305:253|305:253|147:189,1,225.000008583069
156,163,136798,2,0,L|195:227,1,45.0000017166138
328,18,137137,6,0,L|351:56,1,45.0000017166138
404,129,137307,1,0,0:0:0:0:
404,222,137476,1,0,0:0:0:0:
404,314,137646,2,0,B|360:336|360:336|304:200,1,180
175,126,137985,2,0,L|222:243,1,120
265,383,138324,6,0,P|305:307|308:205,1,180
309,106,138663,1,0,0:0:0:0:
83,271,138832,2,0,P|165:245|239:175,1,180
309,106,139171,1,0,0:0:0:0:
33,63,139341,2,0,P|108:103|210:106,1,180
309,106,139680,5,0,0:0:0:0:
317,134,139764,1,0,0:0:0:0:
325,163,139849,1,0,0:0:0:0:
333,192,139934,1,0,0:0:0:0:
341,221,140019,2,0,B|319:280|319:280|257:297,1,120
206,75,140273,2,0,B|267:65|267:65|313:110,1,120
148,260,140527,2,0,P|113:226|126:153,2,120
252,326,141035,2,0,P|321:314|368:296,1,120
446,188,141290,1,0,0:0:0:0:
452,216,141374,2,0,P|492:158|512:112,1,120
511,18,141713,5,0,0:0:0:0:
430,34,141883,1,0,0:0:0:0:
390,142,142052,1,0,0:0:0:0:
280,179,142221,1,0,0:0:0:0:
183,114,142391,6,0,P|172:197|181:262,1,120
201,253,142646,1,0,0:0:0:0:
180,288,142730,1,0,0:0:0:0:
180,303,142814,1,0,0:0:0:0:
180,318,142899,1,0,0:0:0:0:
180,333,142984,1,0,0:0:0:0:
180,348,143069,6,0,P|291:341|339:311,1,120
175,233,143408,2,0,P|64:226|16:196,1,120
14,115,143747,5,0,0:0:0:0:
170,156,143917,1,0,0:0:0:0:
172,194,144002,1,0,0:0:0:0:
175,233,144086,1,0,0:0:0:0:
331,274,144256,5,0,0:0:0:0:
289,119,144426,1,0,0:0:0:0:
175,233,144595,1,0,0:0:0:0:
177,278,144680,1,0,0:0:0:0:
180,325,144764,1,0,0:0:0:0:
336,351,144934,1,0,0:0:0:0:
294,196,145103,6,0,P|225:146|184:247,1,210
147,332,145781,2,0,P|112:284|99:247,1,90.0000034332277
102,154,146035,2,0,P|176:84|321:104,1,240
411,135,146459,6,0,P|402:206|334:308,1,191.999994140625
214,313,146798,2,0,B|155:316|155:316|220:128,1,223.999993164063
108,130,147137,6,0,P|241:67|309:141,1,240.000009155274
362,212,147476,1,0,0:0:0:0:
224,85,147702,1,0,0:0:0:0:
141,57,147815,6,0,B|112:131|112:131|175:329,1,240.000009155274
283,384,148154,2,0,B|312:310|312:310|249:112,1,240.000009155274
141,57,148493,6,0,B|49:124|35:226|35:226|136:171,1,240.000009155274
205,266,148832,6,0,B|297:199|311:97|311:97|210:152,1,240.000009155274
173,163,149171,5,0,0:0:0:0:
304,371,149510,1,0,0:0:0:0:
367,236,149736,1,0,0:0:0:0:
393,253,149849,2,0,P|400:166|344:84,1,160
229,100,150188,2,0,P|199:162|101:206,1,160
332,251,150527,6,0,B|374:181|374:181|364:82,1,160
156,57,150866,2,0,B|113:126|113:126|123:225,1,160
187,277,151205,5,0,0:0:0:0:
206,299,151317,1,0,0:0:0:0:
230,317,151430,1,0,0:0:0:0:
258,327,151543,1,0,0:0:0:0:
287,337,151656,1,0,0:0:0:0:
312,353,151769,1,0,0:0:0:0:
334,373,151882,1,0,0:0:0:0:
226,319,173578,6,0,P|296:277|261:203,1,180
257,224,173917,1,0,0:0:0:0:
162,265,174086,2,0,P|91:223|127:150,1,180
131,171,174425,1,0,0:0:0:0:
63,102,174595,2,0,P|25:152|13:216,1,120
66,295,174934,5,0,0:0:0:0:
166,286,175188,1,0,0:0:0:0:
166,286,175272,1,0,0:0:0:0:
212,196,175441,1,0,0:0:0:0:
162,109,175696,1,0,0:0:0:0:
162,109,175780,1,0,0:0:0:0:
62,104,175951,2,0,P|24:154|12:218,1,120
165,340,176290,6,0,P|121:299|110:180,1,180
162,109,176629,1,0,0:0:0:0:
12,38,176798,2,0,P|99:45|161:108,1,180
212,196,177137,1,0,0:0:0:0:
292,120,177307,2,0,B|268:175|268:175|204:199,1,120
92,255,177561,5,0,0:0:0:0:
99,236,177646,2,0,B|42:257|42:257|-3:373,1,180
0,368,177985,1,0,0:0:0:0:
131,326,178154,6,0,B|187:304|187:304|210:249,1,120
224,216,178408,1,0,0:0:0:0:
216,200,178493,1,0,0:0:0:0:
208,184,178578,1,0,0:0:0:0:
186,175,178663,2,0,P|194:151|226:127,6,45.0000017166138
303,35,179002,6,0,P|343:147|311:227,1,180.000006866455
313,183,179341,1,0,0:0:0:0:
149,222,179510,2,0,P|109:110|141:30,1,180
137,76,179849,1,0,0:0:0:0:
331,84,180019,2,0,P|343:142|324:199,1,120
228,364,180357,6,0,B|214:279|214:279|239:189,1,180
239,188,180696,1,0,0:0:0:0:
325,199,180866,2,0,B|340:285|340:285|315:375,1,180
315,375,181204,1,0,0:0:0:0:
100,269,181374,1,0,0:0:0:0:
136,178,181544,5,0,0:0:0:0:
152,188,181629,1,0,0:0:0:0:
167,198,181713,2,0,P|194:266|143:366,1,180
152,358,182052,1,0,0:0:0:0:
247,111,182222,2,0,P|334:115|398:56,1,180
398,56,182561,1,0,0:0:0:0:
274,273,182730,2,0,B|285:214|285:214|344:188,1,120
362,102,183069,6,0,L|185:180,1,180
197,174,183408,1,0,0:0:0:0:
265,250,183578,1,0,0:0:0:0:
274,273,183663,2,0,B|285:214|285:214|344:188,1,120
366,304,184086,2,0,P|339:350|277:371,1,120
174,358,184425,5,0,0:0:0:0:
149,287,184594,1,0,0:0:0:0:
125,216,184763,1,0,0:0:0:0:
101,145,184933,1,0,0:0:0:0:
77,74,185103,2,0,B|3:61|3:61|3:131,1,143.999995605469
79,312,185442,5,0,0:0:0:0:
79,312,185612,1,0,0:0:0:0:
79,312,185781,1,0,0:0:0:0:
149,287,185950,1,0,0:0:0:0:
220,263,186119,1,0,0:0:0:0:
291,239,186289,1,0,0:0:0:0:
362,215,186459,2,0,B|374:141|374:141|304:141,1,143.999995605469
171,122,186798,5,0,0:0:0:0:
171,122,186968,1,0,0:0:0:0:
171,122,187137,1,0,0:0:0:0:
196,192,187306,1,0,0:0:0:0:
220,263,187475,1,0,0:0:0:0:
287,296,187645,1,0,0:0:0:0:
354,329,187815,2,0,B|414:285|414:285|365:236,1,143.999995605469
337,143,188154,5,0,0:0:0:0:
337,143,188324,1,0,0:0:0:0:
337,143,188493,1,0,0:0:0:0:
267,168,188662,1,0,0:0:0:0:
196,192,188832,1,0,0:0:0:0:
129,159,189001,1,0,0:0:0:0:
62,127,189171,2,0,B|1:170|1:170|50:219,1,143.999995605469
337,143,189510,2,0,B|386:192|386:192|325:235,1,143.999995605469
115,354,189849,5,0,0:0:0:0:
115,354,190019,1,0,0:0:0:0:
71,198,190188,1,0,0:0:0:0:
368,321,190527,5,0,0:0:0:0:
368,321,190697,1,0,0:0:0:0:
404,196,190866,1,0,0:0:0:0:
165,295,191205,5,0,0:0:0:0:
165,295,191375,1,0,0:0:0:0:
137,195,191544,1,0,0:0:0:0:
328,274,191883,5,0,0:0:0:0:
328,274,192053,1,0,0:0:0:0:
350,195,192222,1,0,0:0:0:0:
350,195,192391,1,0,0:0:0:0:
210,169,192561,2,0,B|232:107|306:97,2,80
215,215,192900,1,0,0:0:0:0:
191,268,193013,1,0,0:0:0:0:
136,286,193125,1,0,0:0:0:0:
80,276,193239,5,0,0:0:0:0:
41,217,193352,1,0,0:0:0:0:
40,147,193464,1,0,0:0:0:0:
76,87,193578,1,0,0:0:0:0:
149,59,193691,1,0,0:0:0:0:
225,80,193803,1,0,0:0:0:0:
225,80,193917,5,0,0:0:0:0:
309,262,194143,1,0,0:0:0:0:
292,132,194255,1,0,0:0:0:0:
411,153,194482,1,0,0:0:0:0:
398,249,194594,1,0,0:0:0:0:
512,235,194821,1,0,0:0:0:0:
504,174,194934,2,0,P|441:156|428:244,1,135.000005149841
454,279,195273,6,0,P|368:213|469:128,1,215.999993408203
284,78,195612,2,0,P|353:129|420:130,1,143.999995605469
499,150,195951,5,0,0:0:0:0:
468,214,196063,1,0,0:0:0:0:
437,279,196176,1,0,0:0:0:0:
362,278,196290,5,0,0:0:0:0:
394,214,196403,1,0,0:0:0:0:
320,213,196517,1,0,0:0:0:0:
288,278,196628,5,0,0:0:0:0:
257,342,196741,1,0,0:0:0:0:
216,282,196855,1,0,0:0:0:0:
248,218,196968,5,0,0:0:0:0:
175,222,197082,1,0,0:0:0:0:
207,158,197194,1,0,0:0:0:0:
239,94,197307,6,0,B|301:109|301:109|378:75,1,120.000004577637
270,252,197533,2,0,B|251:190|251:190|184:141,1,120.000004577637
391,145,197759,2,0,B|347:191|347:191|337:274,1,120.000004577637
352,338,197985,6,0,B|457:339|457:339|433:251|433:251|241:251,1,360.000013732911
193,252,198550,5,0,0:0:0:0:
250,340,198663,2,0,B|73:340|73:340|34:252|34:252|193:252,1,431.999986816407
289,252,199228,5,0,0:0:0:0:
376,283,199341,2,0,P|320:171|288:251,1,287.999991210938
321,347,199680,5,0,0:0:0:0:
358,361,199792,1,0,0:0:0:0:
398,360,199905,1,0,0:0:0:0:
434,344,200019,2,0,B|519:280|397:140|329:232|301:300|152:246,1,360.000013732911
37,293,200583,5,0,0:0:0:0:
3,282,200696,2,0,P|168:255|75:148,1,360.000013732911
21,196,201148,5,0,0:0:0:0:
47,226,201261,1,0,0:0:0:0:
81,237,201374,2,0,B|218:258|177:189|326:199,1,240.000009155274
451,218,201713,5,0,0:0:0:0:
416,281,201826,1,0,0:0:0:0:
378,219,201939,1,0,0:0:0:0:
315,183,202052,5,0,0:0:0:0:
316,256,202165,1,0,0:0:0:0:
317,329,202278,1,0,0:0:0:0:
254,294,202391,5,0,0:0:0:0:
253,221,202504,1,0,0:0:0:0:
316,256,202617,1,0,0:0:0:0:
379,291,202730,5,0,0:0:0:0:
442,256,202843,1,0,0:0:0:0:
378,219,202956,1,0,0:0:0:0:
476,179,203069,1,0,0:0:0:0:
391,141,203182,1,0,0:0:0:0:
488,86,203295,1,0,0:0:0:0:
390,60,203408,6,0,P|272:37|306:220,1,360.000013732911
338,153,203973,1,0,0:0:0:0:
317,123,204086,2,0,B|180:74|50:111|50:111|88:137|135:140,1,360.000013732911
344,118,204650,5,0,0:0:0:0:
364,91,204764,2,0,P|250:130|131:139,1,240.000009155274
41,203,205103,6,0,P|86:221|133:229,1,95.9999970703126
111,295,205329,6,0,P|71:289|33:276,1,80
29,350,205555,6,0,P|57:357|87:362,1,60.0000022888184
255,300,205781,6,0,P|197:255|264:203,1,160
287,123,206120,6,0,P|119:227|380:254,1,600.000022888184
332,226,206798,5,0,0:0:0:0:
366,165,206911,1,0,0:0:0:0:
400,105,207024,1,0,0:0:0:0:
435,164,207137,5,0,0:0:0:0:
401,225,207250,1,0,0:0:0:0:
367,285,207363,1,0,0:0:0:0:
332,226,207476,5,0,0:0:0:0:
255,226,207589,1,0,0:0:0:0:
292,159,207702,1,0,0:0:0:0:
216,161,207815,5,0,0:0:0:0:
176,94,207928,1,0,0:0:0:0:
139,161,208041,1,0,0:0:0:0:
88,227,208154,6,0,P|59:176|70:118,1,120.000004577637
139,161,208380,2,0,L|283:130,1,120.000004577637
307,69,208606,2,0,P|336:120|325:177,1,120.000004577637
209,255,208832,6,0,B|380:195|380:195|314:174,1,240.000009155274
321,297,209171,2,0,L|183:245,1,120.000004577637
381,195,209510,6,0,B|190:131|190:131|261:110,1,272.000005187988
321,297,209849,2,0,B|379:262|379:262|380:195,1,135.000005149841
212,261,210188,6,0,P|219:180|252:202,1,160
250,261,210527,6,0,P|184:182|233:173,1,207.999990478516
179,267,210866,6,0,P|254:176|198:165,1,240.000009155274
157,178,211205,2,0,P|184:130|200:167,1,120.000004577637
215,221,211431,1,0,0:0:0:0:
179,267,211544,2,0,B|227:267|227:267|275:307|275:307|347:307,1,160
373,238,211883,6,0,L|261:57,1,207.999990478516
324,307,212222,2,0,L|212:126,1,207.999990478516
275,376,212561,2,0,L|163:195,1,207.999990478516
214,129,212900,1,0,0:0:0:0:
165,198,213239,6,0,L|310:-5,1,240.000009155274
215,282,213578,2,0,L|360:78,1,240.000009155274
267,367,213917,2,0,L|412:163,1,240.000009155274
355,86,214256,1,0,0:0:0:0:
211,279,214595,6,0,L|155:112,1,143.999995605469
191,33,214934,1,0,0:0:0:0:
332,329,215273,6,0,L|387:162,1,143.999995605469
351,83,215612,6,0,P|298:86|255:110,1,90.0000034332277
334,187,215951,2,0,P|428:185|492:104,1,180
479,95,216290,1,0,0:0:0:0:
381,32,216459,1,0,0:0:0:0:
362,55,216543,1,0,0:0:0:0:
350,82,216629,2,0,B|323:140|363:174|363:174|386:142|365:97,1,180
362,55,216968,6,0,P|269:97|303:223,1,215.999993408203
224,306,217307,6,0,P|244:246|295:173,1,120
338,153,217561,1,0,0:0:0:0:
349,144,217646,2,0,L|270:156,1,60
238,180,217815,1,0,0:0:0:0:
213,184,217899,1,0,0:0:0:0:
172,171,217985,1,0,0:0:0:0:
147,174,218069,1,0,0:0:0:0:
112,196,218154,1,0,0:0:0:0:
87,200,218238,1,0,0:0:0:0:
46,187,218324,6,0,B|21:229|45:278|45:278|112:293|145:251|145:251|163:293|214:306,1,287.999991210938
424,303,218832,5,0,0:0:0:0:
409,334,218916,1,0,0:0:0:0:
381,357,219002,2,0,P|336:371|289:364,1,90.0000034332277
21,361,219171,1,0,0:0:0:0:
36,329,219255,1,0,0:0:0:0:
64,306,219341,2,0,P|108:291|204:303,1,143.999995605469
424,303,219680,6,0,P|297:262|357:169,1,240
405,170,220188,5,0,0:0:0:0:
402,214,220272,1,0,0:0:0:0:
372,246,220357,2,0,B|248:284|248:284|276:226,1,180
242,145,220696,2,0,B|264:100|264:100|140:138,1,180
66,221,221035,6,0,L|221:269,1,143.999995605469
242,145,221374,2,0,L|397:193,1,143.999995605469
108,358,221713,2,0,L|60:203,1,143.999995605469
336,325,222052,2,0,L|384:170,1,143.999995605469
421,58,222391,6,0,P|364:2|254:125,1,287.999991210938
310,281,222900,2,0,P|331:202|325:190,1,71.9999978027344
252,121,223069,2,0,B|239:203|177:240|177:240|252:238|319:288,1,287.999991210938
488,342,223578,5,0,0:0:0:0:
459,321,223662,1,0,0:0:0:0:
424,318,223747,2,0,P|388:321|359:342,1,71.9999978027344
256,363,223917,2,0,L|354:206,1,143.999995605469
395,134,224256,1,0,0:0:0:0:
395,134,224425,2,0,B|205:134|205:134|277:198,1,270.000010299683
331,242,224764,6,0,L|394:133,1,125.999996154785
318,46,225103,6,0,P|252:100|276:199,1,180
331,242,225442,2,0,L|287:305,1,60
204,277,225612,2,0,L|160:340,1,60
42,361,225781,5,0,0:0:0:0:
68,234,225951,1,0,0:0:0:0:
243,87,226120,1,0,0:0:0:0:
204,277,226290,1,0,0:0:0:0:
74,137,226459,6,0,P|54:77|45:70,1,60
155,193,226629,2,0,P|175:133|184:126,1,60
258,142,226798,2,0,P|238:82|229:75,1,60
338,200,226968,2,0,P|358:140|367:133,1,60
417,36,227137,6,0,P|466:60|476:127,1,120
478,120,227391,2,0,P|429:96|419:29,1,120
417,36,227646,2,0,P|466:60|479:117,1,71.9999978027344
478,120,227815,6,0,B|446:176|446:176|486:176|486:176|542:248|542:248|406:248,1,287.999991210938
253,320,228324,6,0,P|301:240|301:224,1,71.9999978027344
326,80,228493,2,0,L|382:232,1,143.999995605469
364,333,228747,1,0,0:0:0:0:
364,333,228832,2,0,P|378:286|376:215,1,120
326,80,229171,5,0,0:0:0:0:
300,207,229341,1,0,0:0:0:0:
125,354,229510,2,0,P|111:307|113:236,1,120
193,102,229849,5,0,0:0:0:0:
195,137,229933,1,0,0:0:0:0:
207,171,230018,1,0,0:0:0:0:
314,347,230188,2,0,P|297:290|299:205,1,143.999995605469
326,80,230527,6,0,B|278:38|278:38|444:38|444:38|402:80,1,287.999991210938
252,210,231035,1,0,0:0:0:0:
226,235,231119,1,0,0:0:0:0:
201,261,231205,2,0,B|236:292|236:292|112:292|112:292|143:261,1,215.999993408203
290,97,231544,2,0,L|377:65,1,71.9999978027344
368,160,231713,2,0,L|464:160,1,71.9999978027344
290,223,231883,6,0,B|406:265|406:265|381:335|381:335|291:302|291:302|168:302|168:302|81:270,1,503.999984619141
54,182,232561,2,0,L|190:231,1,135.000005149841
290,223,232900,6,0,L|290:55,1,143.999995605469
229,42,233154,1,0,0:0:0:0:
205,56,233239,2,0,P|261:0|341:8,1,143.999995605469
375,103,233493,2,0,P|319:159|239:151,1,143.999995605469
290,79,233747,2,0,P|239:51|204:9,1,71.9999978027344
148,32,233917,2,0,P|148:120|289:67,1,287.999991210938
263,219,234425,6,0,P|313:191|348:149,1,71.9999978027344
405,172,234595,2,0,P|394:273|315:289,1,143.999995605469
220,323,234849,1,0,0:0:0:0:
246,294,234934,2,0,L|88:271,1,143.999995605469
0,162,235273,2,0,B|73:119|73:119|96:39,1,167.999994873047
191,213,235612,2,0,B|148:139|148:139|168:58,1,167.999994873047
87,214,235951,1,0,0:0:0:0:
428,342,236290,6,0,P|377:311|319:302,1,120
270,212,236629,2,0,P|225:250|215:302,1,96
83,364,236968,2,0,P|121:317|123:254,1,120
84,164,237307,5,0,0:0:0:0:
63,152,237391,1,0,0:0:0:0:
46,137,237476,1,0,0:0:0:0:
36,117,237561,1,0,0:0:0:0:
109,69,237646,5,0,0:0:0:0:
125,84,237731,1,0,0:0:0:0:
136,104,237816,1,0,0:0:0:0:
141,127,237900,1,0,0:0:0:0:
144,195,237985,5,0,0:0:0:0:
164,200,238069,1,0,0:0:0:0:
186,203,238154,1,0,0:0:0:0:
208,203,238239,1,0,0:0:0:0:
229,200,238323,1,0,0:0:0:0:
250,194,238408,1,0,0:0:0:0:
270,186,238493,1,0,0:0:0:0:
288,174,238578,1,0,0:0:0:0:
305,161,238662,1,0,0:0:0:0:
