osu file format v14

[General]
AudioFilename: S!ck.mp3
AudioLeadIn: 1500
PreviewTime: 54163
Countdown: 0
SampleSet: Normal
StackLeniency: 0.2
Mode: 0
LetterboxInBreaks: 0
WidescreenStoryboard: 0

[Editor]
Bookmarks: 8120,12527,23374,34222,45069,55917,72188,81451,88459,99307,108570,112977
DistanceSpacing: 0.5
BeatDivisor: 4
GridSize: 32
TimelineZoom: 1.6

[Metadata]
Title:S!ck
TitleUnicode:S!ck
Artist:Eagle
ArtistUnicode:Eagle
Creator:6th
Version:Standard
Source:beatmania IIDX 20 tricoro
Tags:kors k
BeatmapID:1177691
BeatmapSetID:549438

[Difficulty]
HPDrainRate:5
CircleSize:3.6
OverallDifficulty:5
ApproachRate:6
SliderMultiplier:1.3
SliderTickRate:1

[Events]
//Background and Video events
0,0,"bg.png",0,0
//Break Periods
2,76215,80388
//Storyboard Layer 0 (Background)
//Storyboard Layer 1 (Fail)
//Storyboard Layer 2 (Pass)
//Storyboard Layer 3 (Foreground)
//Storyboard Sound Samples

[TimingPoints]
83,338.983050847458,4,2,0,55,1,0
83,-133.333333333333,4,2,0,55,0,0
8218,-133.333333333333,4,1,0,55,0,0
9574,-100,4,1,0,55,0,0
10888,-66.6666666666667,4,1,0,55,0,0
10930,-100,4,2,0,55,0,0
21777,-100,4,1,0,55,0,0
32286,-133.333333333333,4,1,1,55,0,0
32625,-100,4,1,1,55,0,0
33981,-83.3333333333333,4,1,1,55,0,0
36015,-100,4,1,1,55,0,0
39405,-76.9230769230769,4,1,1,55,0,0
40760,-100,4,1,1,55,0,0
42116,-76.9230769230769,4,1,1,55,0,0
42794,-100,4,1,1,55,0,0
46184,-76.9230769230769,4,1,1,55,0,0
47540,-100,4,1,1,55,0,0
50252,-83.3333333333333,4,1,1,55,0,0
51608,-100,4,1,1,55,0,0
65167,-133.333333333333,4,1,1,55,0,0
65845,-100,4,1,1,55,0,0
69913,-83.3333333333333,4,1,1,55,0,0
70591,-90.9090909090909,4,1,1,55,0,0
74659,-100,4,2,0,55,0,0
92286,-100,4,1,0,55,0,0
97371,-133.333333333333,4,1,0,55,0,0
97710,-83.3333333333333,4,1,1,55,0,1
99066,-76.9230769230769,4,1,1,55,0,1
100421,-90.9090909090909,4,1,1,55,0,1
101099,-83.3333333333333,4,1,1,55,0,1
103133,-90.9090909090909,4,1,1,55,0,1
103811,-76.9230769230769,4,1,1,55,0,1
104150,-90.9090909090909,4,1,1,55,0,1
104489,-71.4285714285714,4,1,1,55,0,1
105845,-90.9090909090909,4,1,1,55,0,1
106184,-76.9230769230769,4,1,1,55,0,1
106523,-90.9090909090909,4,1,1,55,0,1
107201,-76.9230769230769,4,1,1,55,0,1
108896,-83.3333333333333,4,1,1,55,0,1
109913,-90.9090909090909,4,1,1,55,0,1
111269,-76.9230769230769,4,1,1,55,0,1
111608,-83.3333333333333,4,1,1,55,0,1
111947,-76.9230769230769,4,1,1,55,0,1
112286,-83.3333333333333,4,1,1,55,0,1
114659,-76.9230769230769,4,1,1,55,0,1
114998,-83.3333333333333,4,1,1,55,0,1
115337,-76.9230769230769,4,1,1,55,0,1
117032,-100,4,1,1,55,0,0
118388,-133.333333333333,4,1,1,55,0,0
118557,-117.647058823529,4,1,1,55,0,0
118727,-105.263157894737,4,1,1,55,0,0
118896,-95.2380952380952,4,1,1,55,0,0
119066,-86.9565217391304,4,1,1,55,0,0
119235,-80,4,1,1,55,0,0
119405,-133.333333333333,4,1,1,55,0,0
120676,-133.333333333333,4,1,0,5,0,0

[Colours]
Combo1 : 141,254,218
Combo2 : 255,172,89
Combo3 : 255,128,255
Combo4 : 148,148,203

[HitObjects]
328,228,83,6,0,P|389:247|477:155,2,195.00000743866,4|2|2,1:0|0:2|0:2,0:0:0:0:
165,119,2116,1,2,0:2:0:0:
347,119,2794,1,2,0:2:0:0:
183,228,3472,2,0,P|91:239|35:165,2,195.00000743866,2|2|2,0:2|0:2|0:2,0:0:0:0:
255,160,5167,1,2,0:2:0:0:
328,228,5506,6,0,P|420:239|476:165,2,195.00000743866,2|2|2,0:2|0:2|0:2,0:0:0:0:
256,46,7540,2,0,L|256:151,1,97.50000371933,8|0,1:0|0:0,0:0:0:0:
256,241,8218,2,0,B|288:288|408:279|426:220,1,195.00000743866,0|8,0:0|0:0,0:0:0:0:
165,192,9574,6,0,L|85:199,2,65
145,320,10252,2,0,L|65:327,2,65,0|0|0,0:0|0:0|0:0,0:0:0:0:
264,268,10930,6,0,B|312:260|312:260|397:281|397:281|479:270,2,195,2|0|2,0:0|0:0|0:0,0:0:0:0:
231,271,12116,1,0,0:0:0:0:
231,271,12286,2,0,B|183:263|183:263|98:284|98:284|16:273,2,195,2|0|2,0:2|0:0|0:0,0:0:0:0:
263,270,13472,1,0,0:0:0:0:
295,268,13642,6,0,B|299:209|299:209|280:151,2,97.5,2|0|0,0:0|0:0|0:0,0:0:0:0:
251,354,14405,1,0,0:0:0:0:
169,301,14659,2,0,L|80:299,1,65,2|0,0:0|0:0,0:0:0:0:
78,278,14998,2,0,B|74:219|74:219|93:161,2,97.5,2|0|0,0:0|0:0|0:0,0:0:0:0:
104,299,15676,1,0,0:0:0:0:
213,229,16015,1,0,0:0:0:0:
322,158,16354,6,0,B|378:181|416:160|416:160|455:171|455:171|486:157|532:161,2,195,6|2|2,0:0|0:0|0:0,0:0:0:0:
322,121,17540,1,0,0:0:0:0:
321,86,17710,6,0,B|377:63|415:84|415:84|454:73|454:73|485:87|532:83,2,195,6|2|2,0:0|0:0|0:0,0:0:0:0:
288,96,18896,1,2,0:0:0:0:
259,110,19066,6,0,B|222:121|222:121|163:117,2,97.5,2|0|0,0:0|0:0|0:0,0:0:0:0:
202,30,19829,1,0,0:0:0:0:
107,53,20083,2,0,P|80:79|75:133,1,65,0|0,0:0|0:0,0:0:0:0:
74,138,20422,2,0,B|67:207|67:207|43:261,2,97.5,0|0|0,0:0|0:0|0:0,0:0:0:0:
72,105,21100,1,0,0:0:0:0:
175,183,21438,1,0,0:0:0:0:
114,297,21777,6,0,B|132:339|132:339|206:349,2,97.5,0|0|0,0:0|0:0|0:0,0:0:0:0:
126,263,22455,2,0,L|258:280,1,130,0|0,0:0|0:0,0:0:0:0:
287,283,22964,1,0,0:0:0:0:
323,289,23133,2,0,B|365:271|365:271|375:197,2,97.5,0|0|0,0:0|0:0|0:0,0:0:0:0:
287,283,23811,2,0,L|304:151,1,130,0|0,0:0|0:0,0:0:0:0:
307,122,24320,1,0,0:0:0:0:
311,89,24489,6,0,P|280:57|219:57,2,97.5,0|0|0,0:0|0:0|0:0,0:0:0:0:
307,122,25167,2,0,L|157:129,1,130,0|0,0:0|0:0,0:0:0:0:
144,131,25676,1,0,0:0:0:0:
111,132,25845,2,0,B|85:81|85:81|86:29,2,97.5,0|0|0,0:0|0:0|0:0,0:0:0:0:
94,158,26523,2,0,L|102:227,2,65,0|0|0,0:0|0:0|0:0,0:0:0:0:
28,270,27201,5,2,0:0:0:0:
155,296,27540,1,8,0:0:0:0:
279,257,27879,1,2,0:0:0:0:
406,283,28218,1,8,0:0:0:0:
406,153,28557,5,2,0:0:0:0:
279,179,28896,1,8,0:0:0:0:
155,140,29235,1,2,0:0:0:0:
28,166,29574,1,8,0:0:0:0:
256,192,29913,12,0,31269,0:0:0:0:
27,226,32625,6,0,B|107:231|107:231|158:208,1,130,4|0,0:0|0:0,0:0:0:0:
178,190,33133,1,0,2:0:0:0:
203,170,33303,2,0,L|350:172,1,130,8|0,0:0|0:0,0:0:0:0:
425,277,33981,2,0,P|348:250|283:299,1,155.999995239258,2|0,0:0|0:0,0:0:0:0:
267,320,34489,1,0,0:0:0:0:
243,351,34659,2,0,L|67:360,1,155.999995239258,8|2,0:0|0:0,0:0:0:0:
16,237,35337,6,0,B|25:165|13:75|13:75|41:93|84:137,1,233.999992858887,2|0,0:0|0:0,0:0:0:0:
89,152,36015,2,0,P|162:172|226:135,1,130,8|0,0:0|0:0,0:0:0:0:
236,132,36523,1,0,0:0:0:0:
262,112,36692,2,0,P|326:116|362:235,1,195,2|0,0:0|0:0,0:0:0:0:
354,256,37371,2,0,P|418:260|454:379,1,195,10|0,0:0|0:0,0:0:0:0:
431,354,38049,6,0,L|274:362,1,130,2|0,0:0|2:0,0:0:0:0:
269,353,38557,1,0,0:0:0:0:
236,347,38727,2,0,L|106:340,1,130,8|0,0:0|0:0,0:0:0:0:
1,256,39405,2,0,B|4:167,2,84.4999961318971,2|0|0,0:0|0:0|0:0,0:0:0:0:
116,166,40083,2,0,B|149:158|149:158|210:164,1,84.4999961318971,10|0,0:0|0:0,0:0:0:0:
263,186,40421,2,0,B|296:193|296:193|357:188,1,84.4999961318971,2|0,0:0|0:0,0:0:0:0:
407,158,40760,6,0,B|405:301,1,130
380,309,41269,1,0,0:0:0:0:
353,327,41438,2,0,P|289:335|252:260,1,130,8|0,0:0|0:0,0:0:0:0:
225,137,42116,2,0,L|349:129,1,84.4999961318971,0|0,0:0|0:0,0:0:0:0:
343,141,42455,2,0,L|467:133,1,84.4999961318971
461,151,42794,2,0,P|465:88|458:54,2,97.5,8|0|0,0:0|0:0|0:0,0:0:0:0:
461,194,43472,6,0,L|449:323,1,130,2|0,0:0|0:0,0:0:0:0:
336,364,44150,2,0,P|271:365|211:341,1,130,8|0,0:0|0:0,0:0:0:0:
187,318,44659,1,0,0:0:0:0:
178,286,44828,2,0,P|209:229|259:189,1,130,2|0,0:0|0:0,0:0:0:0:
346,110,45506,6,0,B|308:97|308:97|208:105,1,130,8|0,0:0|0:0,0:0:0:0:
186,112,46014,1,0,0:0:0:0:
156,123,46184,2,0,P|75:124|33:55,1,168.999992263794,0|0,0:0|0:0,0:0:0:0:
48,24,46692,1,0,0:0:0:0:
77,7,46862,2,0,L|275:24,1,168.999992263794,8|0,0:0|0:0,0:0:0:0:
350,74,47540,6,0,P|361:119|350:159,1,65,2|0,0:0|0:0,0:0:0:0:
331,188,47879,2,0,P|320:233|331:273,1,65,0|0,0:0|0:0,0:0:0:0:
368,290,48218,2,0,P|317:273|231:366,1,195,8|0,0:0|0:0,0:0:0:0:
201,377,48896,2,0,P|143:381|106:360,2,97.5,0|0|0,0:0|0:0|0:0,0:0:0:0:
230,364,49574,2,0,L|383:372,1,130,8|0,0:0|0:0,0:0:0:0:
390,361,50082,1,0,0:0:0:0:
419,349,50252,6,0,L|411:249,1,77.999997619629,0|0,0:0|0:0,0:0:0:0:
370,225,50591,2,0,L|362:125,1,77.999997619629,0|0,0:0|0:0,0:0:0:0:
315,107,50930,2,0,L|237:113,1,77.999997619629,8|0,0:0|0:0,0:0:0:0:
191,156,51269,2,0,L|113:162,1,77.999997619629,0|0,0:0|0:0,0:0:0:0:
77,200,51608,1,0,0:0:0:0:
100,85,51947,6,0,B|79:71|79:71|-16:76,2,97.5,8|0|8,0:0|0:0|0:0,0:0:0:0:
178,124,52710,2,0,B|251:127|251:127|271:114,2,97.5,0|8|0,0:0|0:0|2:0,0:0:0:0:
103,170,53472,2,0,L|102:282,2,97.5,0|0|8,0:0|0:0|0:0,0:0:0:0:
45,52,54320,6,0,L|197:42,1,130,2|2,0:0|0:0,0:0:0:0:
244,137,54998,2,0,L|114:145,1,130,2|2,0:0|0:0,0:0:0:0:
53,246,55676,2,0,L|205:236,1,130,0|0,0:0|0:0,0:0:0:0:
252,331,56354,2,0,L|122:339,1,130,8|8,0:0|0:0,0:0:0:0:
182,237,57032,6,0,P|268:218|372:363,1,260,4|8,0:0|0:0,0:0:0:0:
490,320,58049,1,0,0:0:0:0:
432,217,58388,2,0,B|407:171|407:171|417:6,1,195,0|2,0:0|0:0,0:0:0:0:
385,15,59066,2,0,B|242:6|242:6|196:31,1,195,8|0,0:0|0:0,0:0:0:0:
173,53,59744,6,0,P|159:115|180:176,1,130,2|2,0:0|0:0,0:0:0:0:
269,252,60421,1,8,0:0:0:0:
269,252,60591,2,0,L|428:265,1,130,0|0,0:0|0:0,0:0:0:0:
426,244,61099,2,0,P|444:186|435:163,1,65,0|0,0:0|0:0,0:0:0:0:
432,152,61438,2,0,P|414:124|386:108,1,65,2|2,0:0|0:0,0:0:0:0:
354,112,61777,2,0,L|218:119,1,130,8|0,0:0|0:0,0:0:0:0:
114,77,62455,6,0,B|142:116|142:116|147:205,1,130,0|8,0:0|0:0,0:0:0:0:
118,216,62964,2,0,P|52:185|52:111,2,130,0|8|0,0:0|0:0|0:0,0:0:0:0:
146,197,63811,2,0,B|189:191|189:191|298:207,1,130,0|8,0:0|0:0,0:0:0:0:
306,214,64320,2,0,B|349:208|349:208|458:224,1,130,0|8,0:0|0:0,0:0:0:0:
466,232,64828,1,0,0:0:0:0:
455,332,65167,6,0,B|420:356|420:356|296:351,1,146.250005578995,0|0,0:0|0:0,0:0:0:0:
290,340,65845,6,0,P|246:328|210:330,1,65,4|2,0:0|0:0,0:0:0:0:
193,326,66184,2,0,P|160:328|129:338,1,65,2|2,0:0|0:0,0:0:0:0:
101,355,66523,2,0,B|65:334|65:334|59:173,1,195,2|0,0:0|0:0,0:0:0:0:
79,156,67201,2,0,P|129:133|210:176,1,130,8|8,0:0|0:0,0:0:0:0:
270,66,67879,6,0,B|409:59|409:59|434:79|424:129,1,195,4|0,0:0|0:0,0:0:0:0:
419,139,68557,2,0,L|421:203,1,65,8|0,0:0|0:0,0:0:0:0:
395,318,69066,1,0,0:0:0:0:
395,318,69235,2,0,P|325:305|195:338,1,195,0|0,0:0|0:0,0:0:0:0:
179,351,69913,1,0,0:0:0:0:
54,326,70252,1,0,0:0:0:0:
142,253,70591,6,0,P|149:188|85:108,1,143.000004364014,0|2,0:0|0:0,0:0:0:0:
214,75,71269,2,0,P|176:134|182:204,1,143.000004364014,2|2,0:0|0:0,0:0:0:0:
265,283,71947,2,0,P|335:288|394:251,1,143.000004364014,2|2,0:0|0:0,0:0:0:0:
346,355,72625,2,0,P|286:317|216:323,1,143.000004364014,2|2,0:0|0:0,0:0:0:0:
106,354,73303,6,0,B|3:361|3:361|34:319,1,143.000004364014,2|8,0:0|0:0,0:0:0:0:
104,244,73981,2,0,B|125:209|125:209|103:108,1,143.000004364014,2|8,0:0|0:0,0:0:0:0:
71,9,74659,1,4,0:0:0:0:
256,192,74744,12,0,76015,0:0:0:0:
319,346,81438,6,0,B|391:349|391:349|431:328,2,97.5,0|0|0,0:0|0:0|0:0,0:0:0:0:
216,288,82286,1,0,0:0:0:0:
216,288,82455,2,0,B|165:285|165:285|123:371,2,130,0|0|0,0:0|0:0|0:0,0:0:0:0:
242,306,83303,2,0,B|291:308|291:308|321:270,1,97.5,0|0,0:0|0:0,0:0:0:0:
368,187,83811,2,0,L|289:186,1,65,0|0,0:0|0:0,0:0:0:0:
275,168,84150,6,0,B|197:167|197:167|160:188,2,97.5,0|0|0,0:0|0:0|0:0,0:0:0:0:
396,115,84998,1,0,0:0:0:0:
396,115,85167,2,0,L|311:114,1,65,0|0,0:0|0:0,0:0:0:0:
306,92,85506,2,0,B|228:91|228:91|191:112,2,97.5,0|0|0,0:0|0:0|0:0,0:0:0:0:
106,312,86862,6,0,P|93:266|113:215,2,97.5,2|0|2,0:0|0:0|0:0,0:0:0:0:
194,354,87625,2,0,L|294:352,1,97.5,2|2,0:0|0:0,0:0:0:0:
321,339,88049,1,0,0:0:0:0:
351,327,88218,2,0,P|397:314|448:334,2,97.5,2|0|2,0:0|0:0|0:0,0:0:0:0:
283,258,88981,2,0,L|285:158,1,97.5,2|2,0:0|0:0,0:0:0:0:
285,127,89405,1,0,0:0:0:0:
285,94,89574,6,0,B|239:78|239:78|189:93,2,97.5,2|0|0,0:0|0:0|0:0,0:0:0:0:
210,164,90337,2,0,L|112:165,1,97.5,2|2,0:0|0:0,0:0:0:0:
79,166,90761,1,0,0:0:0:0:
46,166,90930,2,0,B|30:120|30:120|44:73,2,97.5,2|2|2,0:0|0:0|0:0,0:0:0:0:
30,194,91608,2,0,L|32:273,2,65,0|0|2,0:0|0:0|0:0,0:0:0:0:
110,296,92286,5,2,0:0:0:0:
239,306,92625,1,8,0:0:0:0:
348,236,92964,1,2,0:0:0:0:
219,226,93303,1,8,0:0:0:0:
121,139,93642,5,2,0:0:0:0:
250,149,93981,1,8,0:0:0:0:
359,79,94320,1,2,0:0:0:0:
230,69,94659,1,8,0:0:0:0:
256,192,94998,12,0,96354,0:0:0:0:
453,163,97710,6,0,B|487:114|443:43|443:43|425:62|431:94,1,155.999995239258,6|8,0:0|0:0,0:0:0:0:
380,127,98218,1,0,0:0:0:0:
380,127,98388,2,0,L|205:122,1,155.999995239258,2|8,0:0|0:0,0:0:0:0:
151,256,99066,2,0,P|64:232|3:294,1,168.999992263794,2|8,0:0|0:0,0:0:0:0:
92,314,99574,1,0,0:0:0:0:
92,314,99744,2,0,L|271:324,1,168.999992263794,0|8,0:0|0:0,0:0:0:0:
369,259,100421,6,0,B|418:270|459:334|459:334|484:286|453:219,1,214.500006546021,2|0,0:0|2:0,0:0:0:0:
406,187,101099,2,0,P|381:154|396:41,1,155.999995239258,2|10,0:0|0:0,0:0:0:0:
452,105,101608,1,2,0:0:0:0:
452,105,101777,2,0,B|338:109|338:109|301:83,1,155.999995239258,2|10,0:0|0:0,0:0:0:0:
232,119,102286,1,0,0:0:0:0:
232,119,102455,2,0,B|118:115|118:115|81:141,1,155.999995239258,2|10,0:0|0:0,0:0:0:0:
108,265,103133,6,0,B|49:262|49:262|72:342,1,143.000004364014,2|8,0:0|0:0,0:0:0:0:
152,335,103642,1,0,2:0:0:0:
152,335,103811,2,0,L|333:345,1,168.999992263794,6|8,0:0|0:0,0:0:0:0:
484,349,104489,2,0,B|483:276|483:276|454:250,1,90.9999972229005,2|0,0:0|0:0,0:0:0:0:
392,225,104828,2,0,B|393:152|393:152|406:139,1,90.9999972229005,10|0,0:0|0:0,0:0:0:0:
505,10,105337,1,2,0:0:0:0:
505,10,105506,6,0,P|477:70|357:62,1,181.999994445801,10|2,0:0|0:0,0:0:0:0:
229,21,106184,2,0,B|219:118,1,84.4999961318971,8|2,0:0|0:0,0:0:0:0:
169,163,106523,2,0,B|78:164|78:164|29:192,1,143.000004364014,2|8,0:0|0:0,0:0:0:0:
25,342,107201,2,0,L|149:350,1,84.4999961318971,0|0,0:0|0:0,0:0:0:0:
182,325,107540,2,0,L|306:333,1,84.4999961318971,8|0,0:0|0:0,0:0:0:0:
333,294,107879,2,0,B|430:297|430:297|451:329,2,126.749994197846,0|0|0,0:0|0:0|0:0,0:0:0:0:
268,253,108557,6,0,P|258:193|357:141,1,168.999992263794,6|8,0:0|0:0,0:0:0:0:
336,215,109066,1,0,0:0:0:0:
336,215,109235,2,0,L|144:217,1,155.999995239258,2|8,0:0|0:0,0:0:0:0:
60,265,109913,2,0,P|44:231|54:181,1,71.5000021820069,2|0,0:0|0:0,0:0:0:0:
102,148,110252,2,0,P|118:114|108:64,1,71.5000021820069,8|2,0:0|0:0,0:0:0:0:
64,27,110591,2,0,B|167:18|167:18|217:34,1,143.000004364014,2|10,0:0|0:0,0:0:0:0:
273,75,111099,1,2,0:0:0:0:
273,75,111269,6,0,P|329:150|417:123,1,168.999992263794,0|8,0:0|0:0,0:0:0:0:
465,106,111777,1,0,0:0:0:0:
465,106,111947,2,0,B|475:168|475:168|462:289,1,168.999992263794,2|0,0:0|0:0,0:0:0:0:
349,355,112625,2,0,L|244:357,1,77.999997619629,2|0,0:0|0:0,0:0:0:0:
201,321,112964,2,0,L|96:323,1,77.999997619629,8|0,0:0|0:0,0:0:0:0:
59,368,113303,2,0,B|37:299|37:299|41:180,1,155.999995239258,2|8,0:0|0:0,0:0:0:0:
127,86,113981,6,0,P|164:149|133:210,2,116.999996429443,2|2|2,0:0|0:0|0:0,0:0:0:0:
86,149,114659,2,0,L|285:160,1,168.999992263794,6|8,0:0|0:0,0:0:0:0:
318,113,115167,1,0,0:0:0:0:
318,113,115337,2,0,B|353:90|358:43|358:43|404:64|424:130,1,168.999992263794,0|10,0:0|0:0,0:0:0:0:
383,254,116015,2,0,P|368:308|385:349,1,84.4999961318971,2|0,0:0|0:0,0:0:0:0:
445,299,116354,2,0,P|460:260|452:218,1,84.4999961318971,10|0,0:0|0:0,0:0:0:0:
387,178,116693,5,4,0:0:0:0:
283,231,117032,2,0,L|188:222,2,65,0|0|0,0:0|0:0|0:0,0:0:0:0:
210,323,117710,2,0,L|115:332,2,65,2|2|0,0:0|0:0|0:2,0:0:0:0:
256,192,118388,12,0,120676,0:0:0:0:
