osu file format v14

[General]
AudioFilename: S!ck.mp3
AudioLeadIn: 1500
PreviewTime: 54163
Countdown: 0
SampleSet: Normal
StackLeniency: 0.2
Mode: 0
LetterboxInBreaks: 0
WidescreenStoryboard: 0

[Editor]
Bookmarks: 8120,12527,23374,34222,45069,55917,72188,81451,88459,99307,108570,112977
DistanceSpacing: 0.6
BeatDivisor: 4
GridSize: 4
TimelineZoom: 1.6

[Metadata]
Title:S!ck
TitleUnicode:S!ck
Artist:Eagle
ArtistUnicode:Eagle
Creator:6th
Version:Extra
Source:beatmania IIDX 20 tricoro
Tags:kors k
BeatmapID:1191229
BeatmapSetID:549438

[Difficulty]
HPDrainRate:6.5
CircleSize:5
OverallDifficulty:8.5
ApproachRate:9.1
SliderMultiplier:1.9
SliderTickRate:1

[Events]
//Background and Video events
0,0,"bg.png",0,0
//Break Periods
//Storyboard Layer 0 (Background)
//Storyboard Layer 1 (Fail)
//Storyboard Layer 2 (Pass)
//Storyboard Layer 3 (Foreground)
//Storyboard Sound Samples

[TimingPoints]
83,338.983050847458,4,2,0,55,1,0
83,-133.333333333333,4,2,0,55,0,0
8218,-100,4,1,0,55,0,0
9574,-76.9230769230769,4,1,0,55,0,0
9998,-100,4,1,0,55,0,0
10591,-66.6666666666667,4,1,0,55,0,0
10888,-66.6666666666667,4,1,0,55,0,0
10930,-100,4,2,1,55,0,0
21015,-133.333333333333,4,2,1,55,0,0
21777,-133.333333333333,4,1,0,55,0,0
32286,-76.9230769230769,4,1,1,55,0,0
32625,-100,4,1,1,55,0,0
33303,-83.3333333333333,4,1,1,55,0,0
33981,-66.6666666666667,4,1,1,55,0,0
34489,-100,4,1,1,55,0,0
34998,-66.6666666666667,4,1,1,55,0,0
35337,-100,4,1,1,55,0,0
36015,-83.3333333333333,4,1,1,55,0,0
36354,-76.9230769230769,4,1,1,55,0,0
36693,-71.4285714285714,4,1,1,55,0,0
38049,-100,4,1,1,55,0,0
38727,-66.6666666666667,4,1,1,55,0,0
39066,-100,4,1,1,55,0,0
39405,-90.9090909090909,4,1,1,55,0,0
40083,-76.9230769230769,4,1,1,55,0,0
40760,-100,4,1,1,55,0,0
41099,-66.6666666666667,4,1,1,55,0,0
41438,-100,4,1,1,55,0,0
42116,-83.3333333333333,4,1,1,55,0,0
42794,-90.9090909090909,4,1,1,55,0,0
43049,-100,4,1,1,55,0,0
43303,-111.111111111111,4,1,1,55,0,0
43472,-66.6666666666667,4,1,1,55,0,0
43811,-83.3333333333333,4,1,1,55,0,0
44150,-76.9230769230769,4,1,1,55,0,0
44828,-83.3333333333333,4,1,1,55,0,0
45506,-100,4,1,1,55,0,0
46184,-66.6666666666667,4,1,1,55,0,0
47540,-100,4,1,1,55,0,0
48896,-100,4,1,1,55,0,0
49150,-86.9565217391304,4,1,1,55,0,0
49405,-76.9230769230769,4,1,1,55,0,0
49574,-66.6666666666667,4,1,1,55,0,0
49913,-100,4,1,1,55,0,0
50252,-76.9230769230769,4,1,1,55,0,0
51608,-100,4,1,1,55,0,0
54320,-100,4,1,1,55,0,0
63811,-100,4,1,1,55,0,0
65167,-133.333333333333,4,1,1,55,0,0
65845,-100,4,1,1,55,0,0
67879,-133.333333333333,4,1,1,55,0,0
69913,-76.9230769230769,4,1,1,55,0,0
70252,-66.6666666666667,4,1,1,55,0,0
70591,-83.3333333333333,4,1,1,55,0,0
71947,-66.6666666666667,4,1,1,55,0,0
72286,-83.3333333333333,4,1,1,55,0,0
74659,-100,4,2,0,55,0,0
76015,-133.333333333333,4,2,0,55,0,0
92286,-133.333333333333,4,1,0,55,0,0
97371,-71.4285714285714,4,1,0,55,0,0
97710,-90.9090909090909,4,1,1,55,0,1
98388,-76.9230769230769,4,1,1,55,0,1
99066,-62.5,4,1,1,55,0,1
99574,-90.9090909090909,4,1,1,55,0,1
100083,-62.5,4,1,1,55,0,1
100421,-90.9090909090909,4,1,1,55,0,1
101099,-76.9230769230769,4,1,1,55,0,1
101438,-71.4285714285714,4,1,1,55,0,1
101777,-66.6666666666667,4,1,1,55,0,1
103133,-90.9090909090909,4,1,1,55,0,1
103811,-62.5,4,1,1,55,0,1
104150,-90.9090909090909,4,1,1,55,0,1
104489,-83.3333333333333,4,1,1,55,0,1
105506,-71.4285714285714,4,1,1,55,0,1
105845,-90.9090909090909,4,1,1,55,0,1
106184,-62.5,4,1,1,55,0,1
106523,-90.9090909090909,4,1,1,55,0,1
107201,-76.9230769230769,4,1,1,55,0,1
107879,-83.3333333333333,4,1,1,55,0,1
108133,-86.9565217391304,4,1,1,55,0,1
108388,-90.9090909090909,4,1,1,55,0,1
108557,-62.5,4,1,1,55,0,1
108896,-83.3333333333333,4,1,1,55,0,1
109235,-71.4285714285714,4,1,1,55,0,1
109913,-83.3333333333333,4,1,1,55,0,1
110591,-90.9090909090909,4,1,1,55,0,1
111269,-62.5,4,1,1,55,0,1
111608,-76.9230769230769,4,1,1,55,0,1
111947,-62.5,4,1,1,55,0,1
112286,-76.9230769230769,4,1,1,55,0,1
112625,-83.3333333333333,4,1,1,55,0,1
113303,-86.9565217391304,4,1,1,55,0,1
113981,-90.9090909090909,4,1,1,55,0,1
114235,-83.3333333333333,4,1,1,55,0,1
114489,-76.9230769230769,4,1,1,55,0,1
114659,-62.5,4,1,1,55,0,1
114998,-83.3333333333333,4,1,1,55,0,1
115337,-76.9230769230769,4,1,1,55,0,1
116015,-71.4285714285714,4,1,1,55,0,1
116693,-90.9090909090909,4,1,1,55,0,1
117032,-100,4,1,1,55,0,0
118388,-133.333333333333,4,1,1,55,0,0
118557,-117.647058823529,4,1,1,55,0,0
118727,-105.263157894737,4,1,1,55,0,0
118896,-95.2380952380952,4,1,1,55,0,0
119066,-86.9565217391304,4,1,1,55,0,0
119235,-80,4,1,1,55,0,0
119405,-133.333333333333,4,1,1,55,0,0
120676,-133.333333333333,4,1,1,5,0,0

[Colours]
Combo1 : 141,254,218
Combo2 : 255,172,89
Combo3 : 255,128,255
Combo4 : 148,148,203

[HitObjects]
75,216,83,6,0,L|156:208,3,71.2500027179719,4|0|0|0,1:0|0:0|0:0|0:0,0:0:0:0:
215,239,760,2,0,L|221:157,3,71.2500027179719,2|0|0|0,0:2|0:0|0:0|0:0,0:0:0:0:
291,167,1438,2,0,L|297:239,2,71.2500027179719,2|0|0,0:2|0:0|0:0,0:0:0:0:
366,208,1947,1,2,0:2:0:0:
366,208,2116,2,0,L|437:216,3,71.2500027179719,2|0|0|0,0:2|0:0|0:0|0:0,0:0:0:0:
385,275,2794,6,0,P|340:273|310:250,3,71.2500027179719,2|0|0|0,0:2|0:0|0:0|0:0,0:0:0:0:
292,198,3472,2,0,P|294:153|317:123,3,71.2500027179719,2|0|0|0,0:2|0:0|0:0|0:0,0:0:0:0:
204,131,4150,2,0,P|221:162|220:198,2,71.2500027179719,2|0|0,0:2|0:0|0:0,0:0:0:0:
193,259,4659,1,2,0:2:0:0:
193,259,4828,2,0,P|162:276|127:275,1,71.2500027179719,2|0,0:2|0:0,0:0:0:0:
61,243,5167,1,2,0:2:0:0:
193,259,5336,1,2,0:2:0:0:
117,347,5506,6,0,P|81:339|41:351,3,71.2500027179719,2|0|0|0,0:2|0:0|0:0|0:0,0:0:0:0:
186,330,6184,2,0,P|222:322|262:334,3,71.2500027179719,2|0|0|0,0:2|0:0|0:0|0:0,0:0:0:0:
323,349,6862,2,0,P|359:341|399:353,2,71.2500027179719,2|0|0,0:2|0:0|0:0,0:0:0:0:
466,330,7371,1,2,0:2:0:0:
414,283,7540,2,0,B|408:245|408:245|414:199,1,71.2500027179719,8|0,1:0|0:0,0:0:0:0:
464,133,7879,1,0,0:0:0:0:
466,147,7964,1,0,0:0:0:0:
467,161,8049,1,0,0:0:0:0:
343,148,8218,6,0,B|347:84|347:84|369:63|369:63|392:90|392:90|387:168,1,190
309,211,8727,1,0,0:0:0:0:
255,255,8896,2,0,P|239:206|278:150,1,95,8|0,0:0|0:0,0:0:0:0:
309,211,9235,1,0,0:0:0:0:
293,335,9405,1,0,0:0:0:0:
458,346,9574,6,0,B|447:311|447:311|361:311,1,123.499994346619,0|0,0:0|0:0,0:0:0:0:
228,368,9913,1,0,0:0:0:0:
204,378,9998,2,0,P|150:379|104:322,1,95
110,332,10252,2,0,P|120:278|185:245,1,95,0|0,0:0|0:0,0:0:0:0:
157,270,10506,1,0,0:0:0:0:
167,293,10591,6,0,B|171:77,1,213.750008153916,0|0,0:0|0:0,0:0:0:0:
171,59,10930,5,2,0:0:0:0:
252,74,11184,1,0,0:0:0:0:
237,161,11438,1,0,0:0:0:0:
156,146,11692,1,0,0:0:0:0:
94,212,11947,1,2,0:0:0:0:
94,212,12116,1,0,0:0:0:0:
94,212,12286,5,2,0:2:0:0:
13,227,12540,1,0,0:0:0:0:
28,314,12794,1,0,0:0:0:0:
109,299,13049,2,0,B|165:288|165:288|196:314,1,95,0|0,0:0|0:0,0:0:0:0:
176,335,13303,1,2,0:0:0:0:
256,275,13472,1,0,0:0:0:0:
336,335,13642,5,2,0:0:0:0:
420,348,13896,1,0,0:0:0:0:
436,264,14150,1,0,0:0:0:0:
352,251,14404,1,0,0:0:0:0:
336,335,14659,1,2,0:0:0:0:
256,275,14828,1,0,0:0:0:0:
256,275,14913,1,0,0:0:0:0:
256,275,14998,5,2,0:0:0:0:
172,288,15252,1,0,0:0:0:0:
156,204,15506,2,0,P|101:197|70:227,1,95,0|0,0:0|0:0,0:0:0:0:
78,252,15760,2,0,L|134:265,2,47.5
159,320,16015,2,0,P|184:293|191:269,1,47.5,2|0,0:0|0:0,0:0:0:0:
156,204,16184,2,0,P|144:168|127:150,1,47.5
64,125,16354,5,6,0:0:0:0:
124,262,16608,1,0,0:0:0:0:
217,157,16862,2,0,P|225:93|102:53,1,190,2|0,0:0|0:0,0:0:0:0:
118,48,17286,1,0,0:0:0:0:
112,56,17371,2,0,L|1:67,1,95,2|0,0:0|0:0,0:0:0:0:
11,93,17625,1,0,0:0:0:0:
6,119,17710,6,0,L|154:138,1,142.5,2|0,0:0|0:0,0:0:0:0:
163,160,18049,2,0,P|166:190|158:209,1,47.5,0|0,0:0|2:0,0:0:0:0:
144,229,18218,2,0,L|292:210,1,142.5,2|0,0:0|0:0,0:0:0:0:
301,188,18557,6,0,P|304:158|296:139,1,47.5,2|0,2:0|2:0,0:0:0:0:
278,120,18727,1,2,0:0:0:0:
296,77,18811,1,0,0:0:0:0:
340,65,18896,1,2,0:0:0:0:
376,93,18981,1,0,0:0:0:0:
378,139,19065,5,2,0:0:0:0:
229,75,19320,1,0,0:0:0:0:
378,139,19574,1,0,0:0:0:0:
297,252,19828,1,0,0:0:0:0:
297,252,19913,1,0,0:0:0:0:
371,220,20083,1,0,0:0:0:0:
304,171,20252,1,0,0:0:0:0:
229,204,20421,1,0,0:0:0:0:
377,141,20676,1,0,0:0:0:0:
229,204,20930,5,0,0:0:0:0:
229,204,21015,2,0,L|147:198,1,71.2500027179719,0|0,0:0|0:0,0:0:0:0:
133,203,21269,2,0,P|118:251|131:288,2,71.2500027179719,0|0|0,0:0|0:0|0:0,0:0:0:0:
132,137,21777,5,0,0:0:0:0:
187,249,22032,1,0,0:0:0:0:
116,337,22286,1,0,0:0:0:0:
62,235,22541,1,0,0:0:0:0:
325,249,22794,1,0,0:0:0:0:
325,249,22964,1,0,0:0:0:0:
325,249,23133,5,0,0:0:0:0:
396,337,23387,1,0,0:0:0:0:
450,235,23642,1,0,0:0:0:0:
380,137,23896,2,0,P|343:124|296:135,1,71.2500027179719,0|0,0:0|2:0,0:0:0:0:
294,146,24150,2,0,L|296:234,1,71.2500027179719
255,83,24489,5,0,0:0:0:0:
295,217,24744,1,0,0:0:0:0:
255,83,24998,1,0,0:0:0:0:
213,217,25253,1,0,0:0:0:0:
256,338,25506,2,0,P|307:349|342:325,1,71.2500027179719,0|0,0:0|0:0,0:0:0:0:
343,328,25760,1,0,0:0:0:0:
350,304,25845,5,0,0:0:0:0:
256,338,26099,1,0,0:0:0:0:
408,367,26354,1,0,0:0:0:0:
448,294,26523,2,0,P|450:247|423:213,1,71.2500027179719,0|0,0:0|0:0,0:0:0:0:
380,270,26862,2,0,P|365:302|370:337,1,71.2500027179719,0|0,0:0|0:0,0:0:0:0:
436,384,27201,5,2,0:0:0:0:
393,376,27370,1,0,0:0:0:0:
350,368,27540,1,8,0:0:0:0:
307,361,27709,1,0,0:0:0:0:
200,304,27879,5,2,0:0:0:0:
256,294,28048,1,0,0:0:0:0:
313,284,28218,1,8,0:0:0:0:
370,273,28387,1,0,0:0:0:0:
472,205,28557,5,2,0:0:0:0:
388,188,28726,1,0,0:0:0:0:
304,174,28896,1,8,0:0:0:0:
222,159,29065,1,0,0:0:0:0:
159,59,29235,5,2,0:0:0:0:
262,40,29404,1,0,0:0:0:0:
363,19,29574,1,8,0:0:0:0:
466,0,29743,1,0,0:0:0:0:
432,84,29913,5,2,0:0:0:0:
436,119,29997,1,0,0:0:0:0:
439,154,30082,1,0,0:0:0:0:
445,189,30167,1,0,0:0:0:0:
469,215,30251,1,8,0:0:0:0:
478,243,30336,1,0,0:0:0:0:
457,267,30421,1,0,0:0:0:0:
422,268,30506,1,0,0:0:0:0:
405,248,30591,5,2,0:0:0:0:
376,229,30675,1,2,0:2:0:0:
340,229,30760,1,2,0:2:0:0:
310,246,30845,1,2,0:2:0:0:
293,277,30929,1,10,0:1:0:0:
294,312,31014,1,2,0:2:0:0:
313,342,31099,1,2,0:2:0:0:
345,357,31184,1,2,0:2:0:0:
376,363,31269,5,0,0:0:0:0:
418,296,31438,1,0,0:0:0:0:
394,223,31608,1,0,0:0:0:0:
436,156,31777,1,0,0:0:0:0:
376,363,31947,1,0,0:0:0:0:
472,232,32116,1,0,0:0:0:0:
293,162,32286,6,0,P|366:154|388:46,1,185.249991519928,0|0,1:0|2:0,0:0:0:0:
387,56,32625,6,0,B|323:73|323:73|440:111,1,190,4|0,0:0|0:0,0:0:0:0:
458,46,33133,1,0,2:0:0:0:
332,0,33303,1,8,0:0:0:0:
383,181,33472,5,0,0:0:0:0:
380,204,33556,1,0,0:0:0:0:
378,228,33641,1,0,0:0:0:0:
375,251,33726,1,0,0:0:0:0:
373,275,33810,1,0,0:0:0:0:
371,299,33895,1,0,0:0:0:0:
368,322,33981,6,0,B|298:339|260:294|260:294|238:312|213:317|213:317|229:342|229:365|229:365|256:348|317:351,1,285.000010871888,2|0,0:0|0:0,0:0:0:0:
328,250,34489,1,0,0:0:0:0:
304,225,34574,1,0,0:0:0:0:
272,214,34659,2,0,P|251:213|223:223,1,47.5,8|0,0:0|0:0,0:0:0:0:
127,311,34828,1,0,0:0:0:0:
103,336,34913,1,0,0:0:0:0:
71,347,34998,6,0,P|50:348|39:223,1,142.500005435944,2|0,0:0|0:0,0:0:0:0:
193,105,35337,6,0,B|83:101|83:101|56:133,1,142.5,2|0,0:0|2:0,0:0:0:0:
60,153,35676,2,0,P|130:168|168:137,1,95
171,137,35930,1,0,0:0:0:0:
193,105,36015,6,0,P|190:44|144:9,1,113.999996520996,8|0,0:0|0:0,0:0:0:0:
227,173,36354,2,0,P|295:151|387:211,1,185.249991519928,0|0,0:0|2:0,0:0:0:0:
391,232,36693,6,0,B|388:272|363:297|363:297|384:322|385:355|385:355|475:310|447:230,1,265.999991882324,2|0,0:0|0:0,0:0:0:0:
297,232,37201,1,0,0:0:0:0:
302,351,37371,5,10,0:0:0:0:
281,361,37455,1,0,0:0:0:0:
257,364,37540,1,0,0:0:0:0:
234,360,37625,1,0,0:0:0:0:
213,349,37710,2,0,L|141:359,1,66.4999979705811,0|0,1:0|2:0,0:0:0:0:
147,223,37879,1,0,0:0:0:0:
147,223,37963,1,0,0:0:0:0:
147,223,38049,6,0,B|217:213|217:213|287:197|296:153|281:94,1,190,2|0,0:0|2:0,0:0:0:0:
224,38,38557,1,0,0:0:0:0:
218,56,38642,1,0,0:0:0:0:
223,74,38727,6,0,P|294:46|344:195,1,213.750008153916,8|0,0:0|2:0,0:0:0:0:
368,152,39066,1,0,0:0:0:0:
192,192,39235,1,0,0:0:0:0:
368,224,39405,6,0,B|451:235|451:235|397:266,1,104.500003189087,2|0,0:0|0:0,0:0:0:0:
372,296,39659,1,0,0:0:0:0:
372,296,39744,2,0,L|311:287,1,52.2500015945435,0|0,0:0|2:0,0:0:0:0:
416,152,39913,2,0,L|467:159,1,52.2500015945435,0|0,0:0|2:0,0:0:0:0:
444,314,40083,1,10,0:0:0:0:
434,336,40167,1,0,0:0:0:0:
424,358,40252,1,0,0:0:0:0:
296,384,40421,1,2,0:0:0:0:
286,362,40506,1,0,0:0:0:0:
276,340,40590,1,0,0:0:0:0:
200,364,40760,6,0,B|106:356|106:356|53:376,1,142.5,0|0,0:0|2:0,0:0:0:0:
32,375,41099,2,0,P|23:344|32:297,1,71.2500027179719,0|0,0:0|0:0,0:0:0:0:
59,160,41269,1,0,0:0:0:0:
69,131,41354,1,0,0:0:0:0:
60,100,41438,2,0,P|27:143|117:243,1,190,8|0,0:0|0:0,0:0:0:0:
186,255,41947,1,0,0:0:0:0:
186,255,42032,1,0,0:0:0:0:
186,255,42116,6,0,B|212:256|212:256|238:276,1,56.9999982604981,0|0,0:0|2:0,0:0:0:0:
292,229,42286,2,0,B|318:230|318:230|344:250,1,56.9999982604981,0|0,0:0|2:0,0:0:0:0:
336,358,42455,2,0,B|362:357|362:357|388:337,1,56.9999982604981,0|0,0:0|2:0,0:0:0:0:
442,384,42625,2,0,B|468:383|468:383|494:363,1,56.9999982604981,0|0,0:0|2:0,0:0:0:0:
421,207,42794,1,0,0:0:0:0:
444,196,42878,1,0,0:0:0:0:
468,205,42963,1,0,0:0:0:0:
478,228,43048,1,0,0:0:0:0:
469,252,43132,1,0,0:0:0:0:
449,73,43303,1,0,0:0:0:0:
453,93,43388,1,0,0:0:0:0:
456,109,43472,6,0,P|384:95|483:18,1,285.000010871888,2|0,0:0|0:0,0:0:0:0:
456,109,43981,1,0,0:0:0:0:
420,208,44150,2,0,L|296:203,1,123.499994346619,8|0,0:0|0:0,0:0:0:0:
312,222,44405,1,0,0:0:0:0:
327,240,44489,1,0,0:0:0:0:
367,114,44659,1,0,0:0:0:0:
377,291,44828,6,0,P|428:296|504:172,1,170.999994781494,2|0,0:0|2:0,0:0:0:0:
497,198,45167,2,0,B|404:192|404:192|432:224,1,113.999996520996
452,368,45506,5,8,0:0:0:0:
419,366,45590,1,0,0:0:0:0:
385,364,45676,2,0,L|315:361,1,47.5,0|0,0:0|2:0,0:0:0:0:
266,310,45845,1,0,0:0:0:0:
233,308,45929,1,0,0:0:0:0:
199,306,46015,2,0,L|129:303,1,47.5,0|0,0:0|2:0,0:0:0:0:
80,359,46184,6,0,B|50:282|50:282|91:250|79:193|79:193|129:227|129:227|67:253,1,285.000010871888,0|0,0:0|0:0,0:0:0:0:
11,219,46693,1,0,0:0:0:0:
11,190,46777,1,0,0:0:0:0:
11,161,46862,2,0,L|164:155,1,142.500005435944,8|0,0:0|0:0,0:0:0:0:
319,293,47201,1,0,0:0:0:0:
193,293,47371,1,0,0:0:0:0:
358,155,47540,6,0,B|413:157|413:157|444:199,1,95,2|0,0:0|0:0,0:0:0:0:
490,265,47879,2,0,L|386:262,1,95
425,365,48218,5,8,0:0:0:0:
402,358,48302,1,0,0:0:0:0:
379,351,48387,1,0,0:0:0:0:
355,353,48472,1,8,0:0:0:0:
332,355,48556,1,0,0:0:0:0:
282,199,48727,1,0,0:0:0:0:
278,176,48812,1,0,0:0:0:0:
276,153,48896,6,0,B|254:178|254:178|272:286,2,142.5
244,289,49489,1,0,0:0:0:0:
219,291,49574,6,0,B|128:298|128:298|99:238,1,142.500005435944,8|0,0:0|0:0,0:0:0:0:
44,60,49913,1,0,0:0:0:0:
194,46,50083,1,0,0:0:0:0:
105,251,50252,5,0,0:0:0:0:
196,212,50421,1,0,0:0:0:0:
196,212,50506,1,0,0:0:0:0:
196,212,50591,1,0,0:0:0:0:
279,264,50760,1,0,0:0:0:0:
383,234,50929,5,8,0:0:0:0:
402,293,51014,1,0,0:0:0:0:
341,280,51099,1,0,0:0:0:0:
467,186,51269,5,8,0:0:0:0:
508,231,51354,1,0,0:0:0:0:
447,246,51439,1,0,0:0:0:0:
403,373,51608,5,0,0:0:0:0:
403,373,51947,6,0,B|365:346|365:346|299:346,1,95,8|0,0:0|2:0,0:0:0:0:
316,346,52201,2,0,B|267:346|267:346|229:373,1,95,0|0,0:0|2:0,0:0:0:0:
143,346,52455,6,0,B|181:319|181:319|247:319,1,95,8|0,0:0|2:0,0:0:0:0:
230,319,52709,2,0,B|278:319|278:319|316:346,1,95,0|0,0:0|2:0,0:0:0:0:
343,279,52964,6,0,P|353:227|326:182,1,95,8|0,0:0|0:0,0:0:0:0:
303,170,53218,1,0,2:0:0:0:
303,170,53303,2,0,L|408:174,1,95,8|0,0:0|0:0,0:0:0:0:
245,287,53642,5,8,0:0:0:0:
199,297,53726,1,0,0:0:0:0:
153,285,53811,1,0,0:0:0:0:
118,254,53896,1,0,0:0:0:0:
100,210,53980,1,8,0:0:0:0:
220,164,54150,1,8,1:0:0:0:
124,360,54320,6,0,B|54:364|54:364|30:337,1,95,2|0,0:0|0:0,0:0:0:0:
37,333,54659,2,0,B|53:314|53:314|123:318,1,95,2|0,0:0|0:0,0:0:0:0:
247,294,54998,2,0,B|317:298|317:298|333:279,1,95,2|0,0:0|0:0,0:0:0:0:
249,370,55337,2,0,B|319:366|319:366|336:385,1,95,2|0,0:0|0:0,0:0:0:0:
188,336,55676,5,0,0:0:0:0:
491,359,56015,1,0,0:0:0:0:
455,287,56184,1,0,0:0:0:0:
478,182,56354,1,8,0:0:0:0:
488,207,56438,1,0,0:0:0:0:
496,226,56523,1,2,0:0:0:0:
409,222,56693,1,8,0:0:0:0:
476,50,56862,1,2,0:0:0:0:
394,145,57032,6,0,L|262:136,1,95,4|0,0:0|0:0,0:0:0:0:
272,158,57286,1,0,0:0:0:0:
245,177,57371,1,0,0:0:0:0:
166,245,57540,1,0,0:0:0:0:
200,248,57625,1,0,0:0:0:0:
233,252,57710,2,0,B|291:258|291:258|317:283,1,95,8|0,0:0|0:0,0:0:0:0:
337,310,57964,2,0,B|279:316|279:316|253:341,1,95,2|0,0:0|0:0,0:0:0:0:
241,358,58218,1,2,0:0:0:0:
396,345,58388,6,0,B|493:333|493:333|384:304,1,190
173,332,58896,1,2,0:0:0:0:
285,245,59066,1,8,0:0:0:0:
286,268,59150,1,2,0:2:0:0:
287,292,59235,1,2,0:2:0:0:
289,316,59320,1,2,0:2:0:0:
384,172,59573,1,2,0:2:0:0:
385,196,59658,1,2,0:2:0:0:
387,220,59744,6,0,P|346:176|353:122,1,95,2|0,0:0|0:0,0:0:0:0:
414,66,60083,2,0,L|515:79,1,95,2|0,0:0|0:0,0:0:0:0:
508,101,60337,1,0,0:0:0:0:
508,124,60421,1,8,0:0:0:0:
474,0,60591,1,0,0:0:0:0:
369,364,60930,1,0,0:0:0:0:
208,341,61099,6,0,B|256:328|256:328|319:352,1,95,0|0,0:0|0:0,0:0:0:0:
293,360,61354,1,0,0:0:0:0:
288,377,61438,1,2,0:0:0:0:
140,366,61608,1,2,0:0:0:0:
58,363,61777,1,8,0:0:0:0:
58,363,61862,1,0,0:0:0:0:
58,363,61947,1,0,0:0:0:0:
125,209,62116,1,0,0:0:0:0:
104,304,62286,1,0,0:0:0:0:
79,150,62455,6,0,P|64:100|92:48,1,95
367,98,62794,1,8,0:0:0:0:
440,143,62964,2,0,P|455:99|440:55,1,95
360,176,63303,1,8,0:0:0:0:
380,258,63472,1,0,0:0:0:0:
400,340,63642,1,0,0:0:0:0:
320,312,63811,5,0,0:0:0:0:
272,315,63895,1,0,0:0:0:0:
225,318,63980,1,0,0:0:0:0:
177,321,64065,1,0,0:0:0:0:
130,325,64150,2,0,L|145:379,1,47.5,0|0,0:0|2:0,0:0:0:0:
58,234,64320,5,0,0:0:0:0:
105,237,64404,1,0,0:0:0:0:
152,240,64489,1,0,0:0:0:0:
200,243,64574,1,0,0:0:0:0:
247,247,64659,2,0,L|232:300,1,47.5,0|0,0:0|2:0,0:0:0:0:
163,157,64828,6,0,L|177:210,1,47.5,0|0,0:0|2:0,0:0:0:0:
231,68,64998,1,0,0:0:0:0:
227,87,65083,1,0,0:0:0:0:
223,105,65167,6,0,B|179:67|111:77|88:130|88:130|80:106|95:56,1,213.750008153916
163,160,65845,5,4,0:0:0:0:
279,53,66015,1,2,0:0:0:0:
321,31,66099,1,0,0:0:0:0:
367,34,66184,1,2,0:0:0:0:
405,61,66269,1,0,0:0:0:0:
415,42,66353,1,2,0:0:0:0:
428,23,66438,1,0,0:0:0:0:
438,4,66523,6,0,L|449:114,1,95,2|0,0:0|0:0,0:0:0:0:
473,167,66777,1,0,2:0:0:0:
473,167,66862,2,0,L|462:277,1,95,0|0,0:0|0:0,0:0:0:0:
440,344,67201,1,8,0:0:0:0:
440,344,67286,1,0,0:0:0:0:
440,344,67371,1,2,0:0:0:0:
368,280,67540,1,8,0:0:0:0:
332,356,67710,1,0,0:0:0:0:
136,292,67879,6,0,L|53:289,2,71.2500027179719,4|0|0,0:0|0:0|0:0,0:0:0:0:
208,224,68388,1,0,0:0:0:0:
218,216,68472,1,0,0:0:0:0:
228,208,68557,2,0,P|256:198|311:205,1,71.2500027179719,8|0,0:0|0:0,0:0:0:0:
448,276,68896,2,0,P|412:278|378:267,1,71.2500027179719
372,192,69235,5,0,0:0:0:0:
476,204,69405,1,0,0:0:0:0:
448,348,69574,1,0,0:0:0:0:
344,336,69744,1,0,0:0:0:0:
208,368,69913,2,0,P|116:356|104:252,1,185.249991519928
120,216,70252,2,0,B|164:152|105:79|105:79|80:117|116:172,1,213.750008153916
120,216,70591,6,0,P|184:236|256:168,1,151.999995361328
252,168,70930,1,2,0:0:0:0:
100,140,71156,1,0,0:0:0:0:
116,124,71269,2,0,P|180:104|252:172,1,151.999995361328
252,168,71608,2,0,P|201:213|225:309,1,151.999995361328
228,312,71947,1,0,0:0:0:0:
376,125,72286,6,0,P|303:115|252:167,1,151.999995361328
234,161,72625,2,0,P|189:102|207:32,1,151.999995361328
228,21,72964,1,0,0:0:0:0:
368,52,73190,5,0,0:0:0:0:
382,33,73303,2,0,B|397:112|397:112|378:187,1,151.999995361328,2|0,0:0|0:0,0:0:0:0:
400,247,73642,2,0,P|360:248|319:213,1,75.9999976806641,8|0,0:0|0:0,0:0:0:0:
256,168,73868,1,0,0:0:0:0:
244,155,73981,2,0,B|229:234|229:234|248:309,1,151.999995361328,2|0,0:0|0:0,0:0:0:0:
226,369,74320,2,0,P|266:370|307:335,1,75.9999976806641,8|0,0:0|0:0,0:0:0:0:
165,327,74546,1,0,0:0:0:0:
92,311,74659,6,0,B|34:316|34:316|29:349|29:349|84:346,1,126.666666666667,4|0,0:0|0:0,0:0:0:0:
165,327,74998,1,0,0:0:0:0:
160,264,75110,1,0,0:0:0:0:
155,200,75223,1,0,0:0:0:0:
151,135,75337,6,0,L|220:128,1,63.3333333333333
308,161,75563,2,0,L|370:167,1,63.3333333333333
472,136,75789,1,0,1:0:0:0:
470,59,75902,1,0,1:0:0:0:
408,7,76015,6,0,B|341:6|341:6|283:17,2,106.875004076958,0|0|0,0:0|0:0|0:0,0:0:0:0:
215,129,76778,1,0,0:0:0:0:
215,129,76862,2,0,P|213:88|230:54,2,71.2500027179719,0|0|0,0:0|0:0|0:0,0:0:0:0:
271,173,77371,2,0,B|338:174|338:174|396:163,2,106.875004076958,0|0|0,0:0|0:0|0:0,0:0:0:0:
120,116,78049,1,0,0:0:0:0:
120,116,78133,2,0,P|108:165|123:201,1,71.2500027179719,0|0,0:0|0:0,0:0:0:0:
127,200,78388,2,0,P|139:249|124:285,1,71.2500027179719,0|0,0:0|0:0,0:0:0:0:
77,348,78727,6,0,L|63:238,3,106.875004076958,0|0|0|0,0:0|0:0|0:0|0:0,0:0:0:0:
255,348,79744,1,0,0:0:0:0:
448,241,79913,1,0,0:0:0:0:
448,241,79998,1,0,0:0:0:0:
448,241,80083,2,0,L|435:348,3,106.875004076958,0|0|0|0,0:0|0:0|0:0|0:0,0:0:0:0:
255,348,81099,1,0,0:0:0:0:
326,303,81269,1,0,0:0:0:0:
174,346,81438,6,0,P|117:343|72:310,2,106.875004076958,0|0|0,0:0|0:0|0:0,0:0:0:0:
326,303,82286,1,0,0:0:0:0:
255,348,82456,1,0,0:0:0:0:
294,236,82625,1,0,0:0:0:0:
372,237,82794,6,0,P|394:186|368:123,1,106.875004076958
362,127,83133,1,0,0:0:0:0:
304,71,83303,2,0,P|282:122|308:185,1,106.875004076958
314,181,83642,1,0,0:0:0:0:
362,127,83811,1,0,0:0:0:0:
343,96,83895,1,0,0:0:0:0:
315,75,83980,1,0,0:0:0:0:
281,64,84065,1,0,0:0:0:0:
246,67,84149,5,0,0:0:0:0:
404,38,84405,1,0,0:0:0:0:
279,146,84659,1,0,0:0:0:0:
436,120,84913,1,0,0:0:0:0:
447,137,84998,5,0,0:0:0:0:
371,170,85167,1,0,0:0:0:0:
451,219,85337,1,0,0:0:0:0:
368,248,85506,1,0,0:0:0:0:
200,252,85760,1,0,0:0:0:0:
328,312,86015,1,0,0:0:0:0:
339,329,86100,5,0,0:0:0:0:
243,312,86269,2,0,P|200:326|147:307,1,71.2500027179719,0|0,0:0|0:0,0:0:0:0:
154,315,86523,1,0,0:0:0:0:
88,249,86692,1,0,0:0:0:0:
199,258,86862,6,0,B|247:241|247:241|301:252,1,106.875004076958,2|0,0:0|0:0,0:0:0:0:
320,257,87201,1,0,0:0:0:0:
340,187,87371,2,0,P|379:179|412:193,1,71.2500027179719,2|0,0:0|0:0,0:0:0:0:
429,212,87625,2,0,P|434:246|419:279,1,71.2500027179719,2|0,0:0|0:0,0:0:0:0:
392,295,87879,1,2,0:0:0:0:
288,299,88049,1,0,0:0:0:0:
392,295,88218,6,0,B|343:311|343:311|289:300,1,106.875004076958,2|0,0:0|0:0,0:0:0:0:
243,346,88557,1,0,0:0:0:0:
231,329,88642,1,0,0:0:0:0:
219,312,88727,2,0,L|171:307,2,35.625001358986,2|0|0,0:0|0:0|0:0,0:0:0:0:
121,336,88981,2,0,L|47:329,1,71.2500027179719,2|2,0:0|0:0,0:0:0:0:
31,310,89235,1,2,0:0:0:0:
50,208,89405,1,0,0:0:0:0:
77,202,89490,1,2,0:0:0:0:
103,195,89574,6,0,P|108:145|60:94,2,106.875004076958,2|0|0,0:0|0:0|0:0,0:0:0:0:
62,85,90252,1,2,0:0:0:0:
75,101,90337,2,0,P|117:112|169:100,1,71.2500027179719,2|0,0:0|0:0,0:0:0:0:
163,100,90591,2,0,L|243:109,1,71.2500027179719,2|0,0:0|0:0,0:0:0:0:
253,99,90845,1,0,0:0:0:0:
273,92,90930,6,0,P|293:132|280:174,1,71.2500027179719,2|0,0:0|0:0,0:0:0:0:
276,173,91184,2,0,P|256:213|269:255,1,71.2500027179719,2|0,0:0|0:0,0:0:0:0:
268,260,91438,1,2,0:0:0:0:
332,224,91608,1,0,0:0:0:0:
336,296,91777,1,0,0:0:0:0:
392,184,91947,1,2,0:0:0:0:
404,320,92116,1,0,0:0:0:0:
472,280,92286,5,2,0:0:0:0:
464,237,92455,1,0,0:0:0:0:
456,194,92625,1,8,0:0:0:0:
449,151,92794,1,0,0:0:0:0:
392,44,92964,5,2,0:0:0:0:
382,100,93133,1,0,0:0:0:0:
372,157,93303,1,8,0:0:0:0:
361,214,93472,1,0,0:0:0:0:
293,316,93642,5,2,0:0:0:0:
276,232,93811,1,0,0:0:0:0:
262,148,93981,1,8,0:0:0:0:
247,66,94150,1,0,0:0:0:0:
147,3,94320,5,2,0:0:0:0:
128,106,94489,1,0,0:0:0:0:
110,211,94659,1,8,0:0:0:0:
89,317,94828,1,0,0:0:0:0:
224,178,94998,5,0,0:0:0:0:
256,190,95082,1,0,0:0:0:0:
282,215,95167,1,0,0:0:0:0:
297,247,95252,1,0,0:0:0:0:
298,282,95336,1,0,0:0:0:0:
287,316,95421,1,0,0:0:0:0:
263,342,95506,1,0,0:0:0:0:
232,358,95591,1,0,0:0:0:0:
196,351,95676,5,2,0:2:0:0:
208,318,95760,1,2,0:2:0:0:
233,292,95845,1,2,0:2:0:0:
265,277,95930,1,2,0:2:0:0:
300,276,96014,1,2,0:2:0:0:
334,287,96099,1,2,0:2:0:0:
360,311,96184,1,2,0:2:0:0:
376,342,96269,1,2,0:2:0:0:
361,377,96354,5,0,0:0:0:0:
435,312,96523,1,0,0:0:0:0:
476,375,96693,1,0,0:0:0:0:
351,264,96862,1,0,0:0:0:0:
361,377,97032,1,0,0:0:0:0:
487,248,97201,1,0,0:0:0:0:
164,248,97371,5,0,0:0:0:0:
174,361,97541,1,0,0:0:0:0:
48,157,97710,6,0,L|182:147,1,104.500003189087,6|0,0:0|0:0,0:0:0:0:
332,132,98049,1,8,0:0:0:0:
234,92,98218,2,0,L|248:171,1,52.2500015945435,0|0,0:0|2:0,0:0:0:0:
256,224,98388,6,0,L|268:284,1,61.7499971733095,2|0,0:0|2:0,0:0:0:0:
179,235,98557,2,0,L|96:245,1,61.7499971733095,0|0,0:0|2:0,0:0:0:0:
331,210,98727,2,0,L|392:202,1,61.7499971733095,0|0,0:0|2:0,0:0:0:0:
256,224,98896,2,0,L|268:284,1,61.7499971733095,0|0,0:0|2:0,0:0:0:0:
253,381,99066,6,0,B|291:349|291:349|414:348|414:348|468:318,1,228,2|0,0:0|0:0,0:0:0:0:
479,308,99405,1,8,0:0:0:0:
313,258,99574,5,0,0:0:0:0:
287,253,99659,1,0,0:0:0:0:
261,249,99744,2,0,L|325:237,1,52.2500015945435,0|0,0:0|2:0,0:0:0:0:
409,166,99913,1,0,0:0:0:0:
435,161,99998,1,0,2:0:0:0:
461,157,100083,2,0,L|382:141,1,76,8|0,0:0|0:0,0:0:0:0:
248,96,100252,5,0,0:0:0:0:
222,91,100337,1,0,2:0:0:0:
196,87,100422,2,0,P|229:51|333:80,1,156.750004783631,2|0,0:0|0:0,0:0:0:0:
335,90,100760,2,0,L|325:216,1,104.500003189087,8|0,0:0|2:0,0:0:0:0:
312,360,101099,1,2,0:0:0:0:
451,329,101269,1,0,0:0:0:0:
212,280,101438,1,10,0:0:0:0:
58,299,101608,1,2,0:0:0:0:
51,198,101777,6,0,B|196:185,1,142.500005435944,2|0,0:0|0:0,0:0:0:0:
244,120,102116,2,0,B|221:106|188:108|188:108|88:116,1,142.500005435944,10|0,0:0|0:0,0:0:0:0:
275,197,102455,1,2,0:0:0:0:
311,21,102625,1,2,0:0:0:0:
348,231,102794,1,10,0:0:0:0:
467,102,102964,1,0,0:0:0:0:
252,336,103133,6,0,B|252:268|252:268|304:292,1,104.500003189087,2|0,0:0|0:0,0:0:0:0:
299,292,103388,1,0,0:0:0:0:
312,300,103472,1,8,0:0:0:0:
152,324,103642,1,0,2:0:0:0:
398,286,103811,6,0,P|422:194|313:80,1,228,6|0,0:0|0:0,0:0:0:0:
324,86,104150,1,8,0:0:0:0:
260,203,104320,6,0,L|313:203,1,52.2500015945435,0|0,0:0|2:0,0:0:0:0:
181,156,104489,2,0,B|101:157|101:157|77:193,1,113.999996520996,2|0,0:0|0:0,0:0:0:0:
32,225,104744,1,0,0:0:0:0:
32,225,104828,2,0,B|112:226|112:226|136:262,1,113.999996520996,10|0,0:0|0:0,0:0:0:0:
173,358,105167,6,0,L|112:359,1,56.9999982604981,2|0,0:0|2:0,0:0:0:0:
11,299,105337,2,0,L|72:300,1,56.9999982604981,2|0,0:0|2:0,0:0:0:0:
245,279,105506,6,0,B|325:279|325:279|351:299|351:299|453:299,1,199.499993911743,10|0,0:0|0:0,0:0:0:0:
460,287,105845,2,0,P|479:223|448:157,1,104.500003189087,2|0,0:0|0:0,0:0:0:0:
453,168,106099,1,0,0:0:0:0:
453,168,106184,5,8,0:0:0:0:
277,109,106354,1,2,0:0:0:0:
482,90,106523,6,0,B|402:90|402:90|368:109|368:109|273:109,1,209.000006378174,2|8,0:0|0:0,0:0:0:0:
380,204,107032,1,0,0:0:0:0:
352,204,107116,1,0,0:0:0:0:
324,205,107201,6,0,L|233:206,1,61.7499971733095,0|0,0:0|2:0,0:0:0:0:
184,78,107371,2,0,L|184:139,1,61.7499971733095,0|0,0:0|2:0,0:0:0:0:
187,277,107540,2,0,L|188:339,1,61.7499971733095,0|0,0:0|2:0,0:0:0:0:
48,212,107710,2,0,L|109:211,1,61.7499971733095,0|0,0:0|2:0,0:0:0:0:
256,140,107879,5,0,0:0:0:0:
277,122,107964,2,0,B|354:120|354:120|389:137,1,113.999996520996,2|0,0:0|0:0,0:0:0:0:
430,262,108218,2,0,B|358:265|358:265|317:246,1,109.250002083778,10|0,0:0|0:0,0:0:0:0:
277,122,108472,1,2,0:0:0:0:
298,104,108557,6,0,B|301:7|301:7|217:-3|187:89,1,228,6|0,0:0|0:0,0:0:0:0:
168,92,108896,2,0,P|138:98|107:87,1,56.9999982604981,8|0,0:0|2:0,0:0:0:0:
32,20,109066,2,0,P|62:14|93:25,1,56.9999982604981,0|0,0:0|2:0,0:0:0:0:
192,172,109235,2,0,P|262:192|335:155,1,132.999995941162,2|0,0:0|0:0,0:0:0:0:
368,108,109489,1,0,0:0:0:0:
386,80,109574,2,0,P|456:60|529:97,1,132.999995941162,8|0,0:0|0:0,0:0:0:0:
503,301,109913,5,2,0:0:0:0:
258,309,110083,1,0,0:0:0:0:
503,301,110252,1,8,0:0:0:0:
388,361,110421,5,2,0:0:0:0:
143,353,110591,1,2,0:0:0:0:
258,309,110760,6,0,L|340:318,1,52.2500015945435,2|0,0:0|0:0,0:0:0:0:
421,237,110930,2,0,L|339:246,1,52.2500015945435,10|0,0:0|0:0,0:0:0:0:
234,180,111099,2,0,L|316:189,1,52.2500015945435,2|0,0:0|0:0,0:0:0:0:
472,144,111269,6,0,B|479:90|526:47|526:47|462:7|462:7|404:43|394:96,1,304,0|8,0:0|0:0,0:0:0:0:
354,314,111777,1,0,0:0:0:0:
372,342,111862,1,0,0:0:0:0:
398,359,111947,5,2,0:0:0:0:
424,291,112116,1,2,0:0:0:0:
218,311,112286,2,0,L|157:304,1,61.7499971733095,0|0,0:0|2:0,0:0:0:0:
195,197,112455,2,0,L|134:190,1,61.7499971733095,0|0,0:0|2:0,0:0:0:0:
316,109,112625,6,0,B|397:119|397:119|447:98,1,113.999996520996,2|0,0:0|0:0,0:0:0:0:
474,193,112964,2,0,B|444:180|444:180|363:190,1,113.999996520996,8|0,0:0|0:0,0:0:0:0:
144,304,113303,1,2,0:0:0:0:
102,224,113472,1,2,0:0:0:0:
399,336,113642,5,8,0:0:0:0:
258,342,113811,1,0,0:0:0:0:
325,251,113981,6,0,P|401:240|442:275,1,104.500003189087,2|0,0:0|0:0,0:0:0:0:
472,201,114235,2,0,P|407:185|355:225,1,113.999996520996,2|0,0:0|0:0,0:0:0:0:
374,302,114489,2,0,P|401:318|440:317,1,61.7499971733095,2|0,0:0|2:0,0:0:0:0:
472,201,114659,2,0,B|482:7|482:7|427:22|419:96|487:125,1,304,6|8,0:0|0:0,0:0:0:0:
310,22,115167,1,0,0:0:0:0:
268,101,115337,6,0,P|185:112|148:69,1,123.499994346619,0|0,0:0|0:0,0:0:0:0:
146,61,115591,1,0,0:0:0:0:
139,30,115676,2,0,P|107:69|96:111,1,61.7499971733095,10|0,0:0|2:0,0:0:0:0:
57,153,115845,2,0,P|25:114|33:59,1,61.7499971733095,2|0,0:0|2:0,0:0:0:0:
146,157,116015,6,0,B|160:194|160:194|148:293,1,132.999995941162,2|0,0:0|0:0,0:0:0:0:
95,333,116354,2,0,B|132:319|132:319|231:331,1,132.999995941162,10|0,0:0|0:0,0:0:0:0:
413,359,116693,5,4,0:0:0:0:
413,359,117032,5,0,0:0:0:0:
320,380,117201,1,0,0:0:0:0:
246,320,117371,1,0,0:0:0:0:
246,225,117540,1,0,0:0:0:0:
320,166,117710,2,0,L|335:88,1,47.5,2|0,0:0|0:0,0:0:0:0:
413,187,117879,2,0,L|421:233,1,47.5,2|0,0:0|0:0,0:0:0:0:
435,64,118049,5,0,0:2:0:0:
395,37,118133,1,0,0:2:0:0:
348,34,118218,1,2,0:2:0:0:
307,56,118303,1,2,0:2:0:0:
261,121,118388,5,2,0:2:0:0:
292,136,118473,1,2,0:2:0:0:
327,133,118558,1,2,0:2:0:0:
357,115,118642,1,2,0:2:0:0:
307,56,118727,5,2,0:2:0:0:
270,28,118812,1,2,0:2:0:0:
224,22,118897,1,0,0:2:0:0:
180,42,118981,1,0,0:2:0:0:
165,115,119066,5,2,0:1:0:0:
216,166,119150,1,2,0:1:0:0:
297,175,119235,1,2,0:1:0:0:
372,132,119320,1,2,0:1:0:0:
435,64,119405,5,2,0:1:0:0:
256,192,119489,12,0,120676,0:0:0:0:
