osu file format v14

[General]
AudioFilename: S!ck.mp3
AudioLeadIn: 1500
PreviewTime: 54163
Countdown: 0
SampleSet: Normal
StackLeniency: 0.2
Mode: 0
LetterboxInBreaks: 0
WidescreenStoryboard: 0

[Editor]
Bookmarks: 8120,12527,23374,34222,45069,55917,72188,81451,88459,99307,108570,112977
DistanceSpacing: 0.9
BeatDivisor: 4
GridSize: 32
TimelineZoom: 1.6

[Metadata]
Title:S!ck
TitleUnicode:S!ck
Artist:Eagle
ArtistUnicode:Eagle
Creator:6th
Version:Basic
Source:beatmania IIDX 20 tricoro
Tags:kors k
BeatmapID:1185809
BeatmapSetID:549438

[Difficulty]
HPDrainRate:3
CircleSize:3
OverallDifficulty:3
ApproachRate:4
SliderMultiplier:1
SliderTickRate:1

[Events]
//Background and Video events
0,0,"bg.png",0,0
//Break Periods
2,76215,85542
//Storyboard Layer 0 (Background)
//Storyboard Layer 1 (Fail)
//Storyboard Layer 2 (Pass)
//Storyboard Layer 3 (Foreground)
//Storyboard Sound Samples

[TimingPoints]
83,338.983050847458,4,2,0,55,1,0
8218,-100,4,1,0,55,0,0
10930,-100,4,2,0,55,0,0
21777,-100,4,1,0,55,0,0
32286,-100,4,1,1,55,0,0
74659,-100,4,2,0,55,0,0
92286,-100,4,1,0,55,0,0
97710,-100,4,1,1,55,0,1
117032,-100,4,1,0,55,0,0
120676,-100,4,1,0,5,0,0

[Colours]
Combo1 : 141,254,218
Combo2 : 255,172,89
Combo3 : 255,128,255
Combo4 : 148,148,203

[HitObjects]
160,224,83,6,0,B|147:94|147:94|192:32,3,200
324,37,2794,2,0,B|365:94|365:94|352:224,3,200
340,311,5167,1,0,0:0:0:0:
257,345,5506,6,0,L|46:354,1,200
56,173,6862,2,0,L|255:181,1,200
331,230,7879,1,0,0:0:0:0:
379,154,8218,2,0,B|460:129|473:201|470:242|445:292,1,200
256,329,9574,1,0,0:0:0:0:
371,196,10930,6,0,P|392:162|349:63,2,150,2|0|2,0:0|0:0|0:0,0:0:0:0:
304,251,12286,2,0,B|410:251|410:251|448:302,2,150,2|0|2,0:2|0:0|0:0,0:0:0:0:
208,251,13642,2,0,B|102:251|102:251|75:286,2,150,2|0|2,0:0|0:0|0:0,0:0:0:0:
141,196,14998,2,0,P|116:127|155:66,2,150,2|0|2,0:0|0:0|0:0,0:0:0:0:
199,137,16354,5,6,0:0:0:0:
313,137,17710,1,2,0:0:0:0:
313,247,19066,1,2,0:0:0:0:
199,247,20422,1,0,0:0:0:0:
313,247,21777,6,0,B|335:291|328:338|328:338|379:341|427:372,1,200
408,272,22794,1,0,0:0:0:0:
503,297,23133,2,0,B|481:253|488:206|488:206|437:203|389:172,1,200,0|0,0:0|0:0,0:0:0:0:
199,247,24489,6,0,B|177:291|184:338|184:338|133:341|85:372,1,200,0|0,0:0|0:0,0:0:0:0:
104,272,25506,1,0,0:0:0:0:
9,297,25845,2,0,B|31:253|24:206|24:206|75:203|123:172,1,200,0|0,0:0|0:0,0:0:0:0:
177,99,26862,1,0,0:0:0:0:
246,156,27201,6,0,L|353:162,1,100,2|8,0:0|0:0,0:0:0:0:
344,261,27879,2,0,L|244:255,1,100,2|8,0:0|0:0,0:0:0:0:
156,206,28557,2,0,L|49:212,1,100,2|8,0:0|0:0,0:0:0:0:
58,311,29235,2,0,L|157:305,1,100,2|8,0:0|0:0,0:0:0:0:
256,192,29913,12,0,31269,0:0:0:0:
284,324,32625,6,0,B|332:360|332:360|412:356|412:356|455:309,1,200,4|8,0:0|0:0,0:0:0:0:
459,151,33981,2,0,L|252:166,1,200,2|8,0:0|0:0,0:0:0:0:
182,118,34998,1,2,0:0:0:0:
171,207,35337,2,0,B|129:296|129:296|87:258|93:192,1,200,2|8,0:0|0:0,0:0:0:0:
315,52,36693,6,0,B|470:78|470:78|421:93,1,200,2|10,0:0|0:0,0:0:0:0:
277,187,38049,2,0,L|63:168,1,200,2|8,0:0|0:0,0:0:0:0:
35,344,39405,1,2,0:0:0:0:
215,342,40083,1,10,0:0:0:0:
301,319,40421,1,2,0:0:0:0:
382,357,40760,6,0,L|497:364,2,100,0|0|8,0:0|0:0|0:0,0:0:0:0:
453,223,42116,2,0,B|449:162|449:162|464:125,1,100,0|0,0:0|0:0,0:0:0:0:
403,63,42794,2,0,B|350:158|350:158|254:132,1,200,8|2,0:0|0:0,0:0:0:0:
194,73,43811,2,0,P|172:117|176:166,1,100,0|8,0:0|0:0,0:0:0:0:
307,289,44828,6,0,P|288:246|234:332,1,200,2|8,0:0|0:0,0:0:0:0:
289,373,45845,1,0,0:0:0:0:
372,339,46184,1,0,0:0:0:0:
404,124,46862,2,0,B|411:187|411:187|382:216,1,100,8|0,0:0|0:0,0:0:0:0:
307,167,47540,6,0,P|299:122|419:28,1,200,2|8,0:0|0:0,0:0:0:0:
386,210,48896,2,0,B|315:256|315:256|246:227|246:227|206:240|206:240,1,200,0|8,0:0|0:0,0:0:0:0:
81,368,50252,2,0,B|52:338|52:338|63:277,1,100,0|0,0:0|0:0,0:0:0:0:
125,216,50930,2,0,B|154:186|154:186|143:125,2,100,8|0|0,0:0|0:0|0:0,0:0:0:0:
256,192,51947,12,2,54320,0:0:0:0:
129,282,55676,6,0,B|121:236|67:192|67:192|148:178|213:229,1,250,0|2,0:0|0:0,0:0:0:0:
296,159,57032,2,0,B|280:302|280:302|319:293|338:270,1,200,4|8,0:0|0:0,0:0:0:0:
412,117,58388,2,0,P|432:161|411:263,2,150,0|2|0,0:0|0:0|0:0,0:0:0:0:
323,98,59744,6,0,B|248:110|248:110|228:131,1,100,2|2,0:0|0:0,0:0:0:0:
153,173,60421,1,8,0:0:0:0:
142,352,61099,2,0,B|158:335|157:305|157:305|216:350|299:314,1,200,0|8,0:0|0:0,0:0:0:0:
343,236,62116,1,0,0:0:0:0:
392,311,62455,6,0,P|430:257|402:172,2,150,0|0|0,0:0|0:0|0:0,0:0:0:0:
301,315,63811,2,0,B|239:315|239:315|206:349,1,100,0|0,0:0|0:0,0:0:0:0:
129,307,64489,2,0,B|67:307|67:307|34:341,1,100
2,252,65167,1,0,0:0:0:0:
160,118,65845,6,0,P|159:75|122:33,1,100,4|2,0:0|0:0,0:0:0:0:
78,103,66523,2,0,B|98:260|98:260|133:286,1,200,2|8,0:0|0:0,0:0:0:0:
221,280,67540,1,8,0:0:0:0:
310,276,67879,2,0,B|345:210|303:151|303:151|243:215,1,200,4|8,0:0|0:0,0:0:0:0:
319,369,69235,6,0,B|458:344|458:344|409:313,1,200
323,281,70252,1,0,0:0:0:0:
357,199,70591,6,0,B|339:122|339:122|364:27|364:27|402:22|402:22|454:106|454:106|454:194,1,400,0|2,0:0|0:0,0:0:0:0:
155,199,73303,2,0,B|173:122|173:122|148:27|148:27|110:22|110:22|58:106|58:106|58:194,1,400,0|2,0:0|0:0,0:0:0:0:
256,352,76015,5,0,0:0:0:0:
35,235,86862,6,0,B|133:257|133:257|236:236,1,200,2|0,0:0|0:0,0:0:0:0:
389,151,88218,2,0,B|291:131|291:131|193:153,1,200,2|0,0:0|0:0,0:0:0:0:
230,237,89235,1,2,0:0:0:0:
262,321,89574,6,0,B|346:345|346:345|371:338|371:338|457:360,1,200,2|2,0:0|0:0,0:0:0:0:
322,236,90930,2,0,P|336:142|435:127,1,200,2|0,0:0|0:0,0:0:0:0:
396,199,91947,1,2,0:0:0:0:
322,236,92286,6,0,L|212:240,1,100,2|8,0:0|0:0,0:0:0:0:
133,257,92964,2,0,L|33:260,1,100,2|8,0:0|0:0,0:0:0:0:
33,351,93642,2,0,L|132:354,1,100,2|8,0:0|0:0,0:0:0:0:
222,372,94320,2,0,L|321:375,1,100,2|8,0:0|0:0,0:0:0:0:
256,192,94998,12,0,96354,0:0:0:0:
446,340,97710,6,0,P|470:300|390:181,1,200,6|2,0:0|0:0,0:0:0:0:
187,212,99066,2,0,L|69:224,2,100,2|8|0,0:0|0:0|0:0,0:0:0:0:
214,300,100083,1,8,0:0:0:0:
141,352,100421,6,0,B|7:368|7:368|43:309,1,200,2|2,0:0|0:0,0:0:0:0:
113,258,101438,1,10,0:0:0:0:
128,171,101777,2,0,P|124:119|-14:60,2,200,2|2|2,0:0|0:0|0:0,0:0:0:0:
295,237,103811,6,0,P|251:220|196:236,1,100,6|8,0:0|0:0,0:0:0:0:
244,305,104489,2,0,B|305:284|305:284|414:286,2,150,2|0|10,0:0|0:0|0:0,0:0:0:0:
201,232,105845,1,2,0:0:0:0:
125,272,106184,2,0,L|12:271,2,100,8|2|8,0:0|0:0|0:0,0:0:0:0:
201,232,107201,6,0,P|221:140|153:54,1,200,0|0,0:0|0:0,0:0:0:0:
72,48,108218,1,10,0:0:0:0:
104,131,108557,2,0,B|169:136|169:136|200:119|200:119|226:138|226:138|300:146,1,200,6|2,0:0|0:0,0:0:0:0:
425,267,109913,6,0,B|314:254|314:254|277:286|293:338,1,200,2|2,0:0|0:0,0:0:0:0:
207,365,110930,1,10,0:0:0:0:
154,291,111269,2,0,B|66:250|66:250|1:353,2,200,0|2|2,0:0|0:0|0:0,0:0:0:0:
256,142,113303,1,2,0:0:0:0:
358,291,113981,6,0,B|431:297|431:297|461:277,1,100,2|8,0:0|0:0,0:0:0:0:
474,194,114659,2,0,P|404:145|453:46,1,200,6|0,0:0|0:0,0:0:0:0:
356,15,115676,1,10,0:0:0:0:
274,53,116015,2,0,B|216:59|216:59|164:38,1,100,2|10,0:0|0:0,0:0:0:0:
96,2,116693,5,4,0:0:0:0:
256,192,117032,12,0,120676,0:1:0:0:
