osu file format v14

[General]
AudioFilename: S!ck.mp3
AudioLeadIn: 1500
PreviewTime: 54163
Countdown: 0
SampleSet: Normal
StackLeniency: 0.2
Mode: 0
LetterboxInBreaks: 0
WidescreenStoryboard: 0

[Editor]
Bookmarks: 8120,12527,23374,34222,45069,55917,72188,81451,88459,99307,108570,112977
DistanceSpacing: 1.1
BeatDivisor: 4
GridSize: 4
TimelineZoom: 1.6

[Metadata]
Title:S!ck
TitleUnicode:S!ck
Artist:Eagle
ArtistUnicode:Eagle
Creator:6th
Version:Another
Source:beatmania IIDX 20 tricoro
Tags:kors k
BeatmapID:1163483
BeatmapSetID:549438

[Difficulty]
HPDrainRate:6
CircleSize:4
OverallDifficulty:7.5
ApproachRate:9
SliderMultiplier:1.7
SliderTickRate:1

[Events]
//Background and Video events
0,0,"bg.png",0,0
//Break Periods
//Storyboard Layer 0 (Background)
//Storyboard Layer 1 (Fail)
//Storyboard Layer 2 (Pass)
//Storyboard Layer 3 (Foreground)
//Storyboard Sound Samples

[TimingPoints]
83,338.983050847458,4,2,0,55,1,0
83,-133.333333333333,4,2,0,55,0,0
8218,-100,4,1,0,55,0,0
9574,-76.9230769230769,4,1,0,55,0,0
9913,-133.333333333333,4,1,0,55,0,0
10252,-76.9230769230769,4,1,0,55,0,0
10591,-66.6666666666667,4,1,0,55,0,0
10845,-66.6666666666667,4,1,0,55,0,0
10930,-100,4,2,0,55,0,0
21777,-100,4,1,0,55,0,0
32286,-76.9230769230769,4,1,0,55,0,0
32625,-100,4,1,1,55,0,0
33303,-83.3333333333333,4,1,1,55,0,0
33981,-66.6666666666667,4,1,1,55,0,0
34489,-100,4,1,1,55,0,0
34998,-66.6666666666667,4,1,1,55,0,0
35337,-100,4,1,1,55,0,0
36015,-83.3333333333333,4,1,1,55,0,0
36354,-76.9230769230769,4,1,1,55,0,0
36693,-71.4285714285714,4,1,1,55,0,0
38049,-100,4,1,1,55,0,0
38727,-66.6666666666667,4,1,1,55,0,0
39066,-100,4,1,1,55,0,0
39405,-90.9090909090909,4,1,1,55,0,0
40083,-76.9230769230769,4,1,1,55,0,0
40760,-100,4,1,1,55,0,0
41099,-66.6666666666667,4,1,1,55,0,0
41438,-100,4,1,1,55,0,0
42116,-83.3333333333333,4,1,1,55,0,0
42794,-90.9090909090909,4,1,1,55,0,0
43049,-100,4,1,1,55,0,0
43303,-111.111111111111,4,1,1,55,0,0
43472,-66.6666666666667,4,1,1,55,0,0
43811,-83.3333333333333,4,1,1,55,0,0
44150,-76.9230769230769,4,1,1,55,0,0
44828,-83.3333333333333,4,1,1,55,0,0
45506,-100,4,1,1,55,0,0
46184,-66.6666666666667,4,1,1,55,0,0
47540,-100,4,1,1,55,0,0
48218,-83.3333333333333,4,1,1,55,0,0
48896,-100,4,1,1,55,0,0
49150,-86.9565217391304,4,1,1,55,0,0
49405,-76.9230769230769,4,1,1,55,0,0
49574,-66.6666666666667,4,1,1,55,0,0
49913,-100,4,1,1,55,0,0
50252,-76.9230769230769,4,1,1,55,0,0
51608,-100,4,1,1,55,0,0
54320,-100,4,1,1,55,0,0
65167,-133.333333333333,4,1,1,55,0,0
65845,-100,4,1,1,55,0,0
69913,-76.9230769230769,4,1,1,55,0,0
70252,-66.6666666666667,4,1,1,55,0,0
70591,-83.3333333333333,4,1,1,55,0,0
74659,-100,4,2,0,55,0,0
92286,-100,4,1,0,55,0,0
97371,-71.4285714285714,4,1,0,55,0,0
97710,-90.9090909090909,4,1,1,55,0,1
98388,-76.9230769230769,4,1,1,55,0,1
99066,-62.5,4,1,1,55,0,1
99574,-90.9090909090909,4,1,1,55,0,1
100083,-62.5,4,1,1,55,0,1
100421,-90.9090909090909,4,1,1,55,0,1
101099,-76.9230769230769,4,1,1,55,0,1
101438,-71.4285714285714,4,1,1,55,0,1
101777,-66.6666666666667,4,1,1,55,0,1
103133,-90.9090909090909,4,1,1,55,0,1
103811,-62.5,4,1,1,55,0,1
104150,-90.9090909090909,4,1,1,55,0,1
104489,-83.3333333333333,4,1,1,55,0,1
105506,-71.4285714285714,4,1,1,55,0,1
105845,-90.9090909090909,4,1,1,55,0,1
106184,-62.5,4,1,1,55,0,1
106523,-90.9090909090909,4,1,1,55,0,1
107201,-76.9230769230769,4,1,1,55,0,1
107879,-83.3333333333333,4,1,1,55,0,1
108133,-86.9565217391304,4,1,1,55,0,1
108388,-90.9090909090909,4,1,1,55,0,1
108557,-62.5,4,1,1,55,0,1
108896,-83.3333333333333,4,1,1,55,0,1
109235,-71.4285714285714,4,1,1,55,0,1
109913,-83.3333333333333,4,1,1,55,0,1
110591,-90.9090909090909,4,1,1,55,0,1
111269,-62.5,4,1,1,55,0,1
111608,-76.9230769230769,4,1,1,55,0,1
111947,-62.5,4,1,1,55,0,1
112286,-76.9230769230769,4,1,1,55,0,1
112625,-83.3333333333333,4,1,1,55,0,1
113303,-86.9565217391304,4,1,1,55,0,1
113981,-90.9090909090909,4,1,1,55,0,1
114235,-83.3333333333333,4,1,1,55,0,1
114489,-76.9230769230769,4,1,1,55,0,1
114659,-62.5,4,1,1,55,0,1
114998,-83.3333333333333,4,1,1,55,0,1
115337,-76.9230769230769,4,1,1,55,0,1
116015,-71.4285714285714,4,1,1,55,0,1
116693,-90.9090909090909,4,1,1,55,0,1
117032,-100,4,1,1,55,0,0
118388,-133.333333333333,4,1,1,55,0,0
118557,-117.647058823529,4,1,1,55,0,0
118727,-105.263157894737,4,1,1,55,0,0
118896,-95.2380952380952,4,1,1,55,0,0
119066,-86.9565217391304,4,1,1,55,0,0
119235,-80,4,1,1,55,0,0
119405,-133.333333333333,4,1,1,55,0,0
120676,-133.333333333333,4,1,0,5,0,0

[Colours]
Combo1 : 141,254,218
Combo2 : 255,172,89
Combo3 : 255,128,255
Combo4 : 148,148,203

[HitObjects]
172,220,83,5,4,1:0:0:0:
248,100,760,1,2,0:2:0:0:
324,220,1438,1,2,0:2:0:0:
248,100,1947,1,2,0:2:0:0:
248,184,2116,1,2,0:2:0:0:
172,220,2794,5,2,0:2:0:0:
324,220,3472,1,2,0:2:0:0:
248,100,4150,1,2,0:2:0:0:
324,220,4659,1,2,0:2:0:0:
248,184,4828,1,2,0:2:0:0:
172,220,5167,2,0,L|80:212,1,63.7500024318696,2|2,0:2|0:2,0:0:0:0:
36,236,5506,6,0,P|24:168|64:100,1,127.500004863739,2|0,0:2|0:0,0:0:0:0:
200,128,6184,2,0,P|212:196|172:264,1,127.500004863739,2|0,0:2|0:0,0:0:0:0:
128,296,6693,1,0,0:0:0:0:
128,296,6862,1,2,0:2:0:0:
248,100,7371,1,2,0:2:0:0:
288,164,7540,2,0,L|380:172,1,63.7500024318696,8|0,1:0|0:0,0:0:0:0:
416,108,7879,1,0,0:0:0:0:
424,120,7964,1,0,0:0:0:0:
432,132,8049,1,0,0:0:0:0:
468,196,8218,6,0,L|496:124,7,42.5,0|0|0|0|0|0|0|0,0:0|0:0|0:0|0:0|0:0|0:0|0:0|0:0,0:0:0:0:
456,232,8896,2,0,L|280:240,1,170,8|0,0:0|0:0,0:0:0:0:
200,244,9405,1,0,0:0:0:0:
104,280,9574,6,0,B|96:252|96:252|104:208,2,55.2499974708558
240,156,9913,1,0,0:0:0:0:
240,156,9998,1,0,0:0:0:0:
333,296,10167,1,0,0:0:0:0:
348,306,10252,2,0,B|344:278|344:278|350:244,2,55.2499974708558,0|0|0,0:0|0:0|0:0,0:0:0:0:
363,316,10506,1,0,0:0:0:0:
384,328,10591,6,0,P|432:264|408:128,1,191.250007295609,0|0,0:0|2:0,0:0:0:0:
396,116,10930,6,0,L|256:112,1,127.5,2|0,0:0|0:0,0:0:0:0:
408,36,11438,1,2,0:0:0:0:
256,192,11693,2,0,L|116:188,1,127.5,0|2,0:0|0:0,0:0:0:0:
104,108,12116,1,0,0:0:0:0:
268,112,12286,6,0,L|408:116,1,127.5,2|0,0:2|0:0,0:0:0:0:
256,192,12794,1,2,0:0:0:0:
280,32,13049,2,0,L|375:34,1,85,0|0,0:0|0:0,0:0:0:0:
388,36,13303,2,0,P|416:92|404:136,1,85,2|0,0:0|0:0,0:0:0:0:
376,188,13642,6,0,L|384:328,1,127.5,2|0,0:0|0:0,0:0:0:0:
464,180,14150,1,2,0:0:0:0:
383,315,14405,1,0,0:0:0:0:
414,112,14659,1,2,0:0:0:0:
328,128,14828,1,0,0:0:0:0:
328,128,14913,1,0,0:0:0:0:
328,128,14998,6,0,L|200:139,1,127.5,2|0,0:0|0:0,0:0:0:0:
44,156,15506,1,0,0:0:0:0:
36,240,15676,6,0,P|36:260|48:292,3,42.5,0|0|0|0,0:0|0:0|0:0|0:0,0:0:0:0:
80,296,16015,2,0,P|80:316|68:348,3,42.5,2|0|0|0,0:0|0:0|0:0|0:0,0:0:0:0:
36,360,16354,6,0,L|192:364,1,127.5,6|0,0:0|0:0,0:0:0:0:
276,308,16862,1,2,0:0:0:0:
384,372,17116,1,0,0:0:0:0:
163,363,17371,1,2,0:0:0:0:
204,288,17540,1,0,0:0:0:0:
242,291,17625,1,0,0:0:0:0:
276,308,17710,6,0,P|339:299|396:256,1,127.5,2|0,0:0|0:0,0:0:0:0:
408,240,18049,1,0,0:0:0:0:
384,160,18218,2,0,P|320:151|264:108,2,127.5,2|0|2,0:0|0:0|0:0,0:0:0:0:
400,164,18811,1,0,0:0:0:0:
416,168,18896,1,2,0:0:0:0:
432,172,18981,1,0,0:0:0:0:
448,176,19066,6,0,B|455:77|455:77|440:54,1,127.5,2|0,0:0|0:0,0:0:0:0:
343,173,19574,2,0,B|350:272|350:272|335:295,1,127.5,2|0,0:0|0:0,0:0:0:0:
314,311,19913,2,0,P|261:314|227:291,1,85,2|2,0:0|0:0,0:0:0:0:
162,237,20252,1,0,0:0:0:0:
150,221,20337,1,0,0:0:0:0:
138,205,20421,6,0,B|132:278|132:278|145:330,1,127.5,2|0,0:0|0:0,0:0:0:0:
268,172,20930,2,0,P|272:124|268:116,3,42.5
264,112,21269,1,0,0:0:0:0:
220,52,21438,1,0,0:0:0:0:
144,48,21608,1,2,0:0:0:0:
100,108,21777,6,0,L|108:256,1,127.5,0|0,0:0|0:0,0:0:0:0:
144,48,22286,1,0,0:0:0:0:
106,235,22540,1,0,0:0:0:0:
100,108,22794,1,0,0:0:0:0:
144,48,22964,1,0,0:0:0:0:
183,120,23133,6,0,L|339:128,1,127.5,0|0,0:0|0:0,0:0:0:0:
121,164,23642,1,0,0:0:0:0:
310,126,23896,1,0,0:0:0:0:
183,120,24066,1,0,2:0:0:0:
183,120,24150,1,0,0:0:0:0:
121,164,24320,1,0,0:0:0:0:
48,152,24489,6,0,P|32:200|64:272,1,127.5,0|0,0:0|0:0,0:0:0:0:
96,92,24998,1,0,0:0:0:0:
0,212,25252,2,0,P|-16:260|16:332,1,127.5
83,274,25676,1,0,0:0:0:0:
83,274,25760,1,0,0:0:0:0:
83,274,25845,6,0,L|47:151,1,127.5,0|0,0:0|0:0,0:0:0:0:
12,328,26354,1,0,0:0:0:0:
96,360,26523,2,0,L|206:354,1,85,0|0,0:0|0:0,0:0:0:0:
304,244,26862,1,0,0:0:0:0:
208,128,27032,1,0,0:0:0:0:
164,200,27201,5,2,0:0:0:0:
296,156,27371,1,0,0:0:0:0:
164,200,27540,1,8,0:0:0:0:
296,156,27710,1,0,0:0:0:0:
253,78,27879,5,2,0:0:0:0:
385,122,28049,1,0,0:0:0:0:
253,78,28218,1,8,0:0:0:0:
385,122,28388,1,0,0:0:0:0:
296,156,28557,5,2,0:0:0:0:
344,40,28727,1,0,0:0:0:0:
296,156,28896,1,8,0:0:0:0:
344,40,29066,1,0,0:0:0:0:
253,78,29235,5,2,0:0:0:0:
121,34,29405,1,0,0:0:0:0:
253,78,29574,1,8,0:0:0:0:
121,34,29744,1,0,0:0:0:0:
48,100,29913,5,2,0:0:0:0:
52,124,29998,1,0,0:0:0:0:
76,148,30083,1,0,0:0:0:0:
72,172,30167,1,0,0:0:0:0:
44,200,30252,1,8,0:0:0:0:
48,224,30337,1,0,0:0:0:0:
72,248,30421,1,0,0:0:0:0:
68,272,30506,1,0,0:0:0:0:
52,312,30591,6,0,B|56:336|56:336|52:364,1,42.5,2|2,0:0|0:2,0:0:0:0:
131,231,30760,2,0,B|135:255|135:255|131:283,1,42.5,2|2,0:2|0:2,0:0:0:0:
204,328,30930,2,0,B|208:352|208:352|204:380,1,42.5,10|2,0:1|0:2,0:0:0:0:
283,248,31099,2,0,B|287:272|287:272|283:300,1,42.5,2|2,0:2|0:2,0:0:0:0:
360,352,31269,5,0,0:0:0:0:
492,316,31438,1,0,0:0:0:0:
460,248,31608,1,0,0:0:0:0:
354,219,31777,1,0,0:0:0:0:
380,150,31947,1,0,0:0:0:0:
464,126,32116,1,0,0:0:0:0:
396,76,32286,6,0,P|328:48|232:88,1,165.749992412568,0|0,1:0|2:0,0:0:0:0:
232,96,32625,6,0,B|204:199|204:199|245:219|256:256|256:256|272:224|259:188,1,255,4|0,0:0|2:0,0:0:0:0:
176,276,33303,6,0,L|64:264,1,101.999996887207,8|0,0:0|0:0,0:0:0:0:
44,264,33557,1,0,0:0:0:0:
56,280,33642,1,0,0:0:0:0:
68,296,33727,1,0,0:0:0:0:
80,312,33811,1,0,0:0:0:0:
92,328,33896,1,0,0:0:0:0:
108,344,33981,6,0,B|176:340|176:340|236:368|236:368|312:376|332:320|296:256|244:276,1,318.750012159348,2|0,0:0|2:0,0:0:0:0:
228,280,34489,1,0,0:0:0:0:
196,253,34573,1,0,0:0:0:0:
176,216,34658,1,8,0:0:0:0:
174,174,34743,1,0,0:0:0:0:
190,134,34827,1,0,0:0:0:0:
228,280,34998,1,2,0:0:0:0:
269,92,35167,1,0,0:0:0:0:
360,172,35337,6,0,B|296:148|296:192|235:167,1,127.5,2|0,0:0|2:0,0:0:0:0:
148,192,35676,2,0,L|144:300,1,85
180,296,35930,1,0,0:0:0:0:
224,320,36015,1,8,0:0:0:0:
236,168,36184,1,0,0:0:0:0:
396,184,36354,2,0,P|428:240|412:352,1,165.749992412568,0|0,0:0|2:0,0:0:0:0:
408,356,36693,6,0,L|280:348,1,118.999996368408,2|0,0:0|0:0,0:0:0:0:
72,356,37032,1,0,0:0:0:0:
164,308,37201,1,0,0:0:0:0:
74,258,37371,1,10,0:0:0:0:
76,233,37455,1,0,0:0:0:0:
78,209,37540,1,0,0:0:0:0:
79,184,37625,2,0,L|64:109,3,39.6666654561361,0|0|0|0,0:0|1:0|0:0|0:0,0:0:0:0:
136,97,37879,1,0,0:0:0:0:
161,108,37964,1,0,2:0:0:0:
185,117,38049,6,0,B|249:109|249:109|293:125|293:125|381:133,1,170,2|0,0:0|2:0,0:0:0:0:
485,91,38557,1,0,0:0:0:0:
500,73,38642,1,0,0:0:0:0:
506,55,38727,6,0,B|498:156|498:156|514:184|514:184|506:272,1,191.250007295609,8|0,0:0|2:0,0:0:0:0:
488,268,39066,2,0,L|408:268,1,42.5,0|0,0:0|2:0,0:0:0:0:
360,284,39235,2,0,L|280:284,1,42.5,0|0,0:0|2:0,0:0:0:0:
212,264,39405,6,0,B|161:265|161:265|117:285|117:285,1,93.5000028533936,2|0,0:0|0:0,0:0:0:0:
72,336,39659,1,0,0:0:0:0:
76,352,39744,1,0,0:0:0:0:
24,272,39913,1,0,0:0:0:0:
108,184,40083,5,10,0:0:0:0:
112,152,40167,1,0,0:0:0:0:
116,120,40252,1,0,0:0:0:0:
200,60,40421,1,2,0:0:0:0:
232,64,40506,1,0,0:0:0:0:
264,68,40591,1,0,0:0:0:0:
336,152,40760,6,0,B|390:135|432:160|432:160|400:176,1,127.5,0|0,0:0|2:0,0:0:0:0:
368,232,41099,2,0,L|200:224,1,127.500004863739
169,260,41354,1,0,0:0:0:0:
145,275,41438,6,0,P|108:283|45:245,1,85,8|0,0:0|0:0,0:0:0:0:
45,243,41693,1,0,0:0:0:0:
41,213,41777,1,0,0:0:0:0:
104,100,41947,1,0,0:0:0:0:
128,100,42032,1,0,0:0:0:0:
160,100,42116,6,0,L|179:157,1,50.9999984436036,0|0,0:0|2:0,0:0:0:0:
294,152,42286,2,0,L|310:103,1,50.9999984436036,0|0,0:0|2:0,0:0:0:0:
238,42,42455,2,0,L|236:92,1,50.9999984436036,0|0,0:0|2:0,0:0:0:0:
236,205,42625,2,0,L|234:266,1,50.9999984436036,0|0,0:0|2:0,0:0:0:0:
232,359,42794,5,8,0:0:0:0:
251,372,42879,2,0,L|367:369,1,93.5000028533936
399,313,43133,2,0,B|445:317|445:317|469:347,1,85
480,252,43388,1,0,0:0:0:0:
480,252,43472,6,0,P|488:180|384:72,1,191.250007295609,2|0,0:0|0:0,0:0:0:0:
396,72,43811,2,0,L|256:80,1,101.999996887207,0|0,0:0|0:0,0:0:0:0:
88,92,44150,1,8,0:0:0:0:
164,184,44320,1,0,0:0:0:0:
160,212,44405,1,0,0:0:0:0:
156,236,44489,1,0,0:0:0:0:
64,188,44659,1,0,0:0:0:0:
80,296,44828,6,0,B|135:293|135:293|166:293|176:312|176:312|188:351|188:351|265:350|265:350|254:300|254:300|318:298,1,305.999990661621,2|0,0:0|0:0,0:0:0:0:
385,325,45506,1,8,0:0:0:0:
405,345,45591,1,0,0:0:0:0:
421,362,45676,1,0,0:0:0:0:
437,257,45845,1,0,0:0:0:0:
457,277,45930,1,0,0:0:0:0:
473,294,46015,1,0,0:0:0:0:
488,184,46184,6,0,P|492:108|272:52,1,318.750012159348,0|0,0:0|0:0,0:0:0:0:
224,68,46693,1,0,0:0:0:0:
208,88,46777,1,0,0:0:0:0:
196,112,46862,2,0,P|232:176|372:128,1,191.250007295609,8|0,0:0|0:0,0:0:0:0:
368,156,47201,2,0,P|364:80|332:48,1,63.7500024318696,0|0,0:0|2:0,0:0:0:0:
299,29,47371,2,0,P|267:24|236:31,1,63.7500024318696,0|0,0:0|2:0,0:0:0:0:
132,68,47540,6,0,L|32:72,1,85,2|0,0:0|0:0,0:0:0:0:
196,112,47879,2,0,L|296:108,1,85,0|0,0:0|0:0,0:0:0:0:
96,156,48218,1,8,0:0:0:0:
88,180,48303,1,0,0:0:0:0:
228,220,48472,1,8,0:0:0:0:
236,244,48557,1,0,0:0:0:0:
120,276,48727,1,0,0:0:0:0:
112,300,48811,1,0,0:0:0:0:
104,323,48896,6,0,B|212:335,1,85,0|0,0:0|2:0,0:0:0:0:
270,331,49150,2,0,B|382:343,1,97.7500018644333,0|0,0:0|2:0,0:0:0:0:
476,332,49405,1,0,0:0:0:0:
484,344,49489,1,0,0:0:0:0:
488,360,49574,6,0,B|496:264|496:264|484:216|484:216|496:112,1,191.250007295609,8|0,0:0|0:0,0:0:0:0:
476,136,49913,6,0,P|448:124|424:124,1,42.5,0|0,0:0|2:0,0:0:0:0:
380,264,50083,2,0,P|407:275|432:276,1,42.5,0|0,0:0|2:0,0:0:0:0:
432,204,50252,6,0,L|300:204,1,110.499994941712,0|0,0:0|0:0,0:0:0:0:
268,152,50506,1,0,0:0:0:0:
260,144,50591,1,0,0:0:0:0:
244,272,50760,1,0,0:0:0:0:
190,204,50930,5,10,0:0:0:0:
135,204,51015,1,0,0:0:0:0:
80,204,51099,1,0,0:0:0:0:
192,128,51269,1,2,0:0:0:0:
136,128,51354,1,0,0:0:0:0:
81,128,51438,1,0,0:0:0:0:
308,40,51608,5,0,0:0:0:0:
388,60,51947,6,0,P|408:112|396:160,1,85,8|0,0:0|2:0,0:0:0:0:
404,139,52201,2,0,P|368:182|321:195,1,85,0|0,0:0|2:0,0:0:0:0:
268,208,52455,2,0,P|248:260|260:308,1,85,8|0,0:0|2:0,0:0:0:0:
252,287,52710,2,0,P|287:330|334:343,1,85,0|0,0:0|2:0,0:0:0:0:
396,344,52964,2,0,L|496:344,1,85,8|0,0:0|0:0,0:0:0:0:
480,300,53218,2,0,L|423:300,2,42.5,0|8|0,2:0|0:0|0:0,0:0:0:0:
396,256,53472,2,0,L|496:256,1,85,0|8,0:0|0:0,0:0:0:0:
480,212,53727,2,0,L|380:212,1,85,0|0,0:0|0:0,0:0:0:0:
360,192,53981,2,0,P|319:150|334:91,1,85,8|8,0:0|1:0,0:0:0:0:
355,61,54320,6,0,P|325:92|318:136,1,85,2|0,0:0|0:0,0:0:0:0:
456,180,54659,2,0,P|440:143|389:118,1,85,2|0,0:0|0:0,0:0:0:0:
317,131,54998,2,0,P|294:166|293:208,1,85,2|0,0:0|0:0,0:0:0:0:
430,255,55337,2,0,P|414:218|363:193,1,85,2|0,0:0|0:0,0:0:0:0:
293,208,55676,2,0,L|274:290,1,85
412,336,56015,2,0,P|396:299|345:274,1,85,0|0,0:0|0:0,0:0:0:0:
274,290,56354,5,8,0:0:0:0:
250,302,56438,1,0,0:0:0:0:
222,314,56523,2,0,L|122:306,1,85,2|8,0:0|0:0,0:0:0:0:
303,327,56862,1,2,0:0:0:0:
140,309,57032,6,0,P|104:257|176:153,1,170,4|0,0:0|0:0,0:0:0:0:
248,128,57540,1,0,0:0:0:0:
256,144,57625,1,0,0:0:0:0:
264,160,57710,2,0,L|368:160,1,85,8|0,0:0|0:0,0:0:0:0:
141,165,58218,1,2,0:0:0:0:
189,239,58388,6,0,B|237:251|237:251|377:251,1,170
440,220,58896,1,2,0:0:0:0:
495,326,59066,1,8,0:0:0:0:
461,343,59150,1,0,0:2:0:0:
422,343,59235,1,0,0:2:0:0:
388,326,59319,1,0,0:0:0:0:
244,267,59574,1,2,0:2:0:0:
243,294,59659,1,2,0:2:0:0:
228,316,59744,6,0,P|180:324|80:252,1,170,2|2,0:0|0:0,0:0:0:0:
89,164,60252,1,0,0:0:0:0:
128,160,60337,1,0,0:0:0:0:
168,168,60421,2,0,P|200:220|192:272,1,85,8|0,0:0|0:0,0:0:0:0:
272,88,60930,1,0,0:0:0:0:
324,156,61099,5,0,0:0:0:0:
392,104,61269,2,0,L|476:116,1,85,0|2,0:0|0:0,0:0:0:0:
324,156,61608,1,2,0:0:0:0:
239,143,61777,1,8,0:0:0:0:
228,184,61862,1,0,0:0:0:0:
216,224,61947,1,0,0:0:0:0:
152,160,62116,1,0,0:0:0:0:
192,304,62286,1,0,0:0:0:0:
300,220,62455,6,0,L|204:224,1,85,0|0,0:0|0:0,0:0:0:0:
372,312,62794,1,8,0:0:0:0:
368,164,62964,2,0,L|464:168,1,85,0|0,0:0|0:0,0:0:0:0:
300,220,63303,1,8,0:0:0:0:
300,112,63473,1,0,0:0:0:0:
228,160,63642,1,0,0:0:0:0:
300,112,63811,5,0,0:0:0:0:
257,111,63895,1,0,0:0:0:0:
215,110,63980,1,0,0:0:0:0:
172,109,64065,1,0,0:0:0:0:
130,108,64149,1,8,0:0:0:0:
68,184,64320,1,0,0:0:0:0:
110,184,64404,1,0,0:0:0:0:
152,185,64489,1,0,0:0:0:0:
195,186,64574,1,0,0:0:0:0:
237,187,64658,1,8,0:0:0:0:
304,271,64828,1,0,0:0:0:0:
383,194,64998,1,0,0:0:0:0:
421,197,65083,1,0,0:0:0:0:
456,200,65167,6,0,B|488:272|488:272|504:312|456:352,1,159.375006079674,0|0,0:0|0:0,0:0:0:0:
448,352,65676,1,0,0:0:0:0:
356,353,65845,5,4,0:0:0:0:
168,264,66015,1,2,0:0:0:0:
128,276,66099,1,0,0:0:0:0:
120,316,66184,1,2,0:0:0:0:
80,328,66268,1,0,0:0:0:0:
40,308,66354,1,2,0:0:0:0:
0,320,66438,1,0,0:0:0:0:
12,280,66523,6,0,P|24:224|24:184,1,85,2|0,0:0|0:0,0:0:0:0:
100,140,66777,1,0,2:0:0:0:
100,140,66862,2,0,P|82:85|62:50,1,85,0|0,0:0|0:0,0:0:0:0:
24,196,67201,1,8,0:0:0:0:
52,220,67286,1,0,0:0:0:0:
88,228,67371,1,2,0:0:0:0:
196,212,67540,1,8,0:0:0:0:
227,194,67625,1,0,0:0:0:0:
246,162,67710,1,0,0:0:0:0:
304,84,67879,6,0,B|164:88|164:88|200:112,1,170,4|0,0:0|0:0,0:0:0:0:
227,194,68388,1,0,0:0:0:0:
249,232,68472,1,0,0:0:0:0:
249,276,68557,1,8,0:0:0:0:
180,344,68727,2,0,L|72:336,1,85,0|0,0:0|0:0,0:0:0:0:
249,276,69066,1,0,0:0:0:0:
385,228,69235,6,0,P|373:309|300:344,1,170,0|0,0:0|0:0,0:0:0:0:
249,276,69744,1,0,0:0:0:0:
303,167,69913,6,0,B|370:169|370:169|414:222|414:222|341:235,1,165.749992412568
249,276,70252,6,0,B|133:276|133:276|97:246|101:172,1,191.250007295609,0|0,0:0|0:0,0:0:0:0:
28,256,70591,6,0,B|8:376|8:376|60:396,1,135.99999584961,0|0,0:0|0:0,0:0:0:0:
98,380,70930,2,0,B|218:360|218:360|238:412,1,135.99999584961,2|0,0:0|0:0,0:0:0:0:
284,304,71269,2,0,L|436:324,1,135.99999584961,2|0,0:0|0:0,0:0:0:0:
488,276,71608,1,2,0:0:0:0:
417,68,71834,1,0,0:0:0:0:
361,124,71947,6,0,P|429:132|453:232,1,135.99999584961,2|0,0:0|0:0,0:0:0:0:
409,236,72286,2,0,L|225:224,1,135.99999584961,2|0,0:0|0:0,0:0:0:0:
197,256,72625,2,0,B|129:272|129:272|66:245,1,135.99999584961,2|0,0:0|0:0,0:0:0:0:
8,299,72964,2,0,P|2:332|12:364,2,67.9999979248048
68,245,73303,1,0,0:0:0:0:
175,358,73642,1,8,0:0:0:0:
123,169,73868,1,0,0:0:0:0:
123,169,73981,1,2,0:0:0:0:
99,326,74207,1,0,0:0:0:0:
99,326,74320,1,8,0:0:0:0:
205,140,74546,1,0,0:0:0:0:
205,140,74659,6,0,L|321:144,1,113.333333333333,4|0,0:0|0:0,0:0:0:0:
397,116,74998,2,0,P|405:68|373:24,1,56.6666666666667,0|0,0:0|0:0,0:0:0:0:
336,9,75224,1,0,0:0:0:0:
260,52,75337,2,0,L|220:48,6,28.3333333333333,0|0|0|0|0|0|0,0:0|0:0|0:0|0:0|0:0|0:0|0:0,0:0:0:0:
132,100,75789,1,0,1:0:0:0:
44,56,75902,1,0,1:0:0:0:
52,144,76015,6,0,L|48:280,3,127.5,0|0|0|0,0:0|0:0|0:0|0:0,0:0:0:0:
68,296,76862,2,0,P|108:308|156:288,1,85,0|0,0:0|0:0,0:0:0:0:
208,248,77201,1,0,0:0:0:0:
280,220,77371,2,0,P|352:224|404:292,2,127.5,0|0|0,0:0|0:0|0:0,0:0:0:0:
315,297,78049,1,0,0:0:0:0:
328,322,78133,2,0,P|368:343|440:329,1,85,0|0,0:0|0:0,0:0:0:0:
433,328,78387,1,0,0:0:0:0:
391,259,78557,1,0,0:0:0:0:
388,72,78727,6,0,P|348:136|364:216,3,127.5,0|0|0|0,0:0|0:0|0:0|0:0,0:0:0:0:
256,76,79744,1,0,0:0:0:0:
216,140,79913,1,0,0:0:0:0:
216,140,79998,1,0,0:0:0:0:
216,140,80083,6,0,L|84:124,2,127.5,0|0|0,0:0|0:0|0:0,0:0:0:0:
264,196,80760,2,0,P|276:240|272:268,3,42.5,0|0|0|0,0:0|0:0|0:0|0:0,0:0:0:0:
256,268,81099,2,0,P|244:312|248:340,3,42.5,0|0|0|0,0:0|0:0|0:0|0:0,0:0:0:0:
256,352,81438,6,0,L|116:360,2,127.5,0|0|0,0:0|0:0|0:0,0:0:0:0:
396,290,82286,1,0,0:0:0:0:
334,237,82455,1,0,0:0:0:0:
328,324,82625,1,0,0:0:0:0:
328,324,82710,1,0,0:0:0:0:
328,324,82794,6,0,L|468:332,1,127.5,0|0,0:0|0:0,0:0:0:0:
484,308,83133,1,0,0:0:0:0:
448,228,83303,2,0,L|308:220,2,127.5,0|0|0,0:0|0:0|0:0,0:0:0:0:
408,140,83981,1,0,0:0:0:0:
408,140,84066,1,0,0:0:0:0:
408,140,84150,5,0,0:0:0:0:
280,56,84405,1,0,0:0:0:0:
244,204,84659,1,0,0:0:0:0:
124,68,84913,1,0,0:0:0:0:
104,84,84998,2,0,P|104:144|112:176,1,85,0|0,0:0|0:0,0:0:0:0:
144,256,85337,1,0,0:0:0:0:
200,196,85506,6,0,B|244:172|244:172|356:168,1,127.5,0|0,0:0|0:0,0:0:0:0:
476,264,86015,1,0,0:0:0:0:
436,288,86099,2,0,P|388:276|352:220,1,85,0|0,0:0|0:0,0:0:0:0:
328,72,86523,2,0,B|212:64,1,85,0|0,0:0|0:0,0:0:0:0:
148,112,86862,6,0,B|104:116|104:116|53:120|16:80,2,127.5,2|0|2,0:0|0:0|0:0,0:0:0:0:
228,144,87540,1,0,0:0:0:0:
228,144,87625,2,0,B|272:140|272:140|322:135|360:176,1,127.5,2|2,0:0|0:0,0:0:0:0:
308,240,88049,1,0,0:0:0:0:
348,316,88218,6,0,B|252:324|252:324|216:308,1,127.5,2|0,0:0|0:0,0:0:0:0:
392,240,88727,1,2,0:0:0:0:
404,252,88811,1,0,0:0:0:0:
412,268,88896,1,0,0:0:0:0:
416,284,88981,1,2,0:0:0:0:
339,324,89150,1,2,0:0:0:0:
348,316,89234,1,2,0:0:0:0:
288,376,89405,1,2,0:0:0:0:
232,292,89574,6,0,P|180:296|120:352,1,127.5,2|0,0:0|0:0,0:0:0:0:
44,244,89998,1,0,0:0:0:0:
44,244,90083,2,0,P|21:291|39:370,1,127.5,2|0,0:0|0:0,0:0:0:0:
133,220,90591,1,2,0:0:0:0:
128,348,90760,1,0,0:0:0:0:
128,348,90845,1,0,0:0:0:0:
156,360,90930,6,0,B|224:352|224:352|300:364,1,127.5,2|2,0:0|0:0,0:0:0:0:
368,264,91438,2,0,L|384:368,1,85,2|0,0:0|0:0,0:0:0:0:
456,292,91777,1,0,0:0:0:0:
376,192,91947,1,2,0:0:0:0:
448,88,92116,1,0,0:0:0:0:
283,55,92286,6,0,L|368:52,1,85,2|0,0:0|0:0,0:0:0:0:
448,88,92625,2,0,L|451:172,1,85,8|0,0:0|0:0,0:0:0:0:
312,140,92964,2,0,L|227:136,1,85,2|0,0:0|0:0,0:0:0:0:
147,173,93303,2,0,L|143:257,1,85,8|0,0:0|0:0,0:0:0:0:
272,228,93642,6,0,L|356:224,1,85,2|0,0:0|0:0,0:0:0:0:
437,261,93981,2,0,L|440:345,1,85,8|0,0:0|0:0,0:0:0:0:
332,316,94320,1,2,0:0:0:0:
228,336,94489,1,0,0:0:0:0:
160,256,94659,1,8,0:0:0:0:
56,276,94828,1,0,0:0:0:0:
84,184,94998,5,0,0:0:0:0:
91,164,95082,1,0,0:0:0:0:
95,143,95167,1,0,0:0:0:0:
96,122,95252,1,0,0:0:0:0:
92,101,95336,1,0,0:0:0:0:
84,81,95421,1,0,0:0:0:0:
73,63,95506,1,0,0:0:0:0:
59,48,95591,1,0,0:0:0:0:
42,35,95676,6,0,P|45:61|56:76,1,42.5,2|2,0:2|0:2,0:0:0:0:
40,160,95845,2,0,P|55:181|72:188,1,42.5,2|2,0:2|0:2,0:0:0:0:
148,252,96015,2,0,P|174:255|190:248,1,42.5,2|2,0:2|0:2,0:0:0:0:
312,244,96184,2,0,P|328:223|330:205,1,42.5,2|2,0:2|0:2,0:0:0:0:
340,112,96354,5,0,0:0:0:0:
260,160,96523,1,0,0:0:0:0:
408,176,96693,1,0,0:0:0:0:
340,112,96862,1,0,0:0:0:0:
424,68,97032,1,0,0:0:0:0:
340,112,97201,1,0,0:0:0:0:
488,128,97371,6,0,P|504:216|464:312,1,178.499994552612
456,320,97710,6,0,B|396:316|396:316|340:324,1,93.5000028533936,6|0,0:0|0:0,0:0:0:0:
272,338,97964,1,0,0:0:0:0:
252,340,98049,2,0,B|192:344|192:344|136:336,1,93.5000028533936,8|0,0:0|0:0,0:0:0:0:
362,320,98388,1,2,0:0:0:0:
296,264,98557,1,0,0:0:0:0:
271,243,98641,1,0,0:0:0:0:
243,229,98726,1,8,0:0:0:0:
212,223,98811,1,0,0:0:0:0:
180,226,98895,1,0,0:0:0:0:
150,237,98980,1,0,0:0:0:0:
124,248,99066,6,0,B|63:231|47:183|47:183|3:255|47:299|47:299|43:359,1,272,2|8,0:0|0:0,0:0:0:0:
136,160,99574,1,0,0:0:0:0:
120,120,99659,1,0,0:0:0:0:
104,80,99744,2,0,L|84:23,1,46.7500014266968,0|0,0:0|2:0,0:0:0:0:
215,167,99913,2,0,L|200:123,1,46.7500014266968,0|0,0:0|2:0,0:0:0:0:
176,28,100083,6,0,B|340:32,1,136,8|0,0:0|0:0,0:0:0:0:
376,80,100337,1,0,2:0:0:0:
380,100,100421,2,0,P|344:172|384:252,1,140.25000428009,2|0,0:0|0:0,0:0:0:0:
372,248,100760,2,0,L|480:256,1,93.5000028533936,8|0,0:0|2:0,0:0:0:0:
380,100,101099,1,2,0:0:0:0:
372,248,101269,1,0,0:0:0:0:
305,116,101438,1,10,0:0:0:0:
372,248,101608,1,2,0:0:0:0:
248,168,101777,6,0,L|112:176,1,127.500004863739,2|0,0:0|0:0,0:0:0:0:
139,192,102032,1,0,0:0:0:0:
156,209,102116,1,10,0:0:0:0:
224,92,102286,1,0,0:0:0:0:
224,244,102455,2,0,L|360:252,1,127.500004863739,2|2,0:0|0:0,0:0:0:0:
333,268,102710,1,0,0:0:0:0:
316,285,102794,1,10,0:0:0:0:
248,168,102964,1,0,0:0:0:0:
221,317,103133,6,0,B|180:354|180:354|112:338|112:338|81:252,1,187.000005706787,2|8,0:0|0:0,0:0:0:0:
87,108,103642,1,0,1:0:0:0:
124,136,103727,1,0,0:0:0:0:
150,174,103811,2,0,P|157:242|75:318,1,136,6|0,0:0|0:0,0:0:0:0:
19,316,104150,1,8,0:0:0:0:
25,343,104235,1,0,0:0:0:0:
30,370,104320,1,0,0:0:0:0:
60,228,104489,5,2,0:0:0:0:
121,296,104659,1,0,0:0:0:0:
256,260,104828,2,0,L|240:369,1,101.999996887207,10|0,0:0|0:0,0:0:0:0:
452,292,105167,1,2,0:0:0:0:
364,321,105337,1,2,0:0:0:0:
348,174,105506,2,0,B|392:128|465:132|488:160|488:196|436:212,1,178.499994552612,10|0,0:0|0:0,0:0:0:0:
392,234,105845,6,0,B|311:234|311:234|283:213,1,93.5000028533936,2|0,0:0|0:0,0:0:0:0:
265,162,106099,1,0,0:0:0:0:
265,162,106184,2,0,L|253:89,1,68,8|0,0:0|2:0,0:0:0:0:
144,68,106354,2,0,L|132:-5,1,68,2|0,0:0|2:0,0:0:0:0:
53,83,106523,2,0,P|43:135|69:203,1,93.5000028533936,2|0,0:0|0:0,0:0:0:0:
66,197,106777,1,0,0:0:0:0:
66,197,106862,2,0,P|76:249|50:317,1,93.5000028533936,8|0,0:0|0:0,0:0:0:0:
22,367,107116,1,0,0:0:0:0:
22,367,107201,6,0,L|111:361,1,55.2499974708558,0|0,0:0|2:0,0:0:0:0:
163,351,107371,2,0,L|218:354,1,55.2499974708558,0|0,0:0|2:0,0:0:0:0:
309,376,107540,2,0,L|398:370,1,55.2499974708558,8|0,0:0|2:0,0:0:0:0:
450,360,107710,2,0,L|505:363,1,55.2499974708558,0|0,0:0|2:0,0:0:0:0:
392,296,107879,1,0,0:0:0:0:
392,296,107964,2,0,P|384:246|399:197,1,101.999996887207,2|0,0:0|0:0,0:0:0:0:
388,120,108218,2,0,P|351:87|304:76,1,97.7500018644333,10|0,0:0|0:0,0:0:0:0:
223,114,108472,1,2,0:0:0:0:
223,114,108557,6,0,B|170:98|124:124|124:124|64:155|5:122,1,204,6|0,0:0|0:0,0:0:0:0:
40,104,108896,2,0,L|90:125,1,50.9999984436036,8|0,0:0|2:0,0:0:0:0:
183,188,109066,2,0,L|233:209,1,50.9999984436036,0|0,0:0|2:0,0:0:0:0:
332,230,109235,2,0,B|419:221|419:221|465:244,1,118.999996368408,2|0,0:0|0:0,0:0:0:0:
479,313,109489,1,0,0:0:0:0:
479,313,109574,2,0,L|357:307,1,118.999996368408,8|0,0:0|0:0,0:0:0:0:
447,234,109913,5,2,0:0:0:0:
445,132,110082,1,0,0:0:0:0:
332,230,110252,1,8,0:0:0:0:
445,132,110421,1,2,0:0:0:0:
443,80,110506,1,0,0:0:0:0:
442,30,110591,2,0,L|368:27,1,46.7500014266968,2|0,0:0|0:0,0:0:0:0:
329,127,110760,1,2,0:0:0:0:
447,234,110930,1,10,0:0:0:0:
329,127,111099,1,2,0:0:0:0:
218,219,111269,6,0,B|134:210|134:210|58:257|58:257|58:204|58:204|20:140,1,272,0|8,0:0|0:0,0:0:0:0:
16,37,111777,1,0,0:0:0:0:
13,51,111862,1,0,0:0:0:0:
10,67,111947,2,0,B|61:79|97:57|97:57|142:24|229:38|191:134,1,204,2|0,0:0|0:0,0:0:0:0:
201,92,112286,2,0,L|317:110,1,110.499994941712,0|0,0:0|0:0,0:0:0:0:
445,130,112625,5,2,0:0:0:0:
388,192,112794,1,0,0:0:0:0:
280,181,112964,1,8,0:0:0:0:
248,104,113133,1,0,0:0:0:0:
294,42,113303,2,0,B|424:25,1,97.7500018644333,2|2,0:0|0:0,0:0:0:0:
425,43,113557,1,0,0:0:0:0:
390,54,113642,2,0,B|293:41,1,97.7500018644333,8|0,0:0|0:0,0:0:0:0:
147,22,113981,6,0,P|114:74|131:137,1,93.5000028533936,2|0,0:0|0:0,0:0:0:0:
20,123,114235,1,2,0:0:0:0:
20,123,114320,2,0,P|48:177|120:197,1,101.999996887207,0|2,0:0|0:0,0:0:0:0:
211,257,114659,6,0,B|256:266|256:266|192:289|192:289|101:283,1,204,6|0,0:0|0:0,0:0:0:0:
50,350,114998,2,0,L|0:346,1,50.9999984436036,8|0,0:0|2:0,0:0:0:0:
82,195,115167,2,0,L|146:199,1,50.9999984436036,0|0,0:0|2:0,0:0:0:0:
266,358,115337,6,0,L|393:369,1,110.499994941712,2|0,0:0|0:0,0:0:0:0:
436,316,115591,1,0,0:0:0:0:
444,308,115676,1,10,0:0:0:0:
336,270,115845,1,2,0:0:0:0:
447,182,116015,1,2,0:0:0:0:
460,125,116099,1,0,0:0:0:0:
435,72,116184,1,0,0:0:0:0:
343,182,116354,1,10,0:0:0:0:
356,125,116438,1,0,0:0:0:0:
331,72,116523,1,0,0:0:0:0:
223,169,116693,5,4,0:0:0:0:
261,242,117032,5,0,0:0:0:0:
132,257,117201,1,0,0:0:0:0:
94,184,117371,1,0,0:0:0:0:
223,169,117540,1,0,0:0:0:0:
190,89,117710,1,2,0:0:0:0:
61,104,117879,1,2,0:0:0:0:
23,31,118049,1,2,0:2:0:0:
152,16,118218,1,2,0:2:0:0:
274,35,118388,5,0,0:2:0:0:
302,48,118472,1,0,0:2:0:0:
322,78,118557,1,2,0:2:0:0:
333,111,118641,1,2,0:2:0:0:
333,152,118727,1,2,0:2:0:0:
322,189,118811,1,2,0:2:0:0:
288,219,118896,1,2,0:2:0:0:
249,239,118980,1,2,0:2:0:0:
200,240,119066,1,2,0:1:0:0:
148,216,119150,1,2,0:1:0:0:
76,216,119235,1,2,0:1:0:0:
40,279,119319,1,2,0:1:0:0:
70,345,119405,5,2,0:1:0:0:
256,192,119489,12,0,120676,0:0:0:0:
