osu file format v14

[General]
AudioFilename: S!ck.mp3
AudioLeadIn: 1500
PreviewTime: 54163
Countdown: 0
SampleSet: Normal
StackLeniency: 0.2
Mode: 0
LetterboxInBreaks: 0
WidescreenStoryboard: 0

[Editor]
Bookmarks: 8120,12527,23374,34222,45069,55917,72188,81451,88459,99307,108570,112977
DistanceSpacing: 1
BeatDivisor: 4
GridSize: 32
TimelineZoom: 1.6

[Metadata]
Title:S!ck
TitleUnicode:S!ck
Artist:Eagle
ArtistUnicode:Eagle
Creator:6th
Version:Advanced
Source:beatmania IIDX 20 tricoro
Tags:kors k
BeatmapID:1163482
BeatmapSetID:549438

[Difficulty]
HPDrainRate:5
CircleSize:4
OverallDifficulty:6.5
ApproachRate:8.5
SliderMultiplier:1.5
SliderTickRate:1

[Events]
//Background and Video events
0,0,"bg.png",0,0
//Break Periods
2,76215,80688
//Storyboard Layer 0 (Background)
//Storyboard Layer 1 (Fail)
//Storyboard Layer 2 (Pass)
//Storyboard Layer 3 (Foreground)
//Storyboard Sound Samples

[TimingPoints]
83,338.983050847458,4,2,0,55,1,0
83,-133.333333333333,4,2,0,55,0,0
8218,-100,4,1,0,55,0,0
9574,-90.9090909090909,4,1,0,55,0,0
10888,-66.6666666666667,4,1,0,55,0,0
10930,-100,4,1,0,55,0,0
32286,-133.333333333333,4,1,1,55,0,0
32625,-100,4,1,1,55,0,0
33981,-76.9230769230769,4,1,1,55,0,0
36015,-100,4,1,1,55,0,0
38727,-83.3333333333333,4,1,1,55,0,0
39066,-100,4,1,1,55,0,0
39405,-76.9230769230769,4,1,1,55,0,0
40760,-100,4,1,1,55,0,0
42116,-76.9230769230769,4,1,1,55,0,0
42794,-100,4,1,1,55,0,0
43472,-76.9230769230769,4,1,1,55,0,0
43811,-100,4,1,1,55,0,0
46184,-76.9230769230769,4,1,1,55,0,0
47540,-100,4,1,1,55,0,0
49574,-76.9230769230769,4,1,1,55,0,0
49913,-100,4,1,1,55,0,0
50252,-76.9230769230769,4,1,1,55,0,0
51608,-100,4,1,1,55,0,0
65167,-133.333333333333,4,1,1,55,0,0
65845,-100,4,1,1,55,0,0
69913,-83.3333333333333,4,1,1,55,0,0
70591,-90.9090909090909,4,1,1,55,0,0
74659,-100,4,2,0,55,0,0
92286,-100,4,1,0,55,0,0
97371,-133.333333333333,4,1,0,55,0,0
97710,-83.3333333333333,4,1,1,55,0,1
99066,-71.4285714285714,4,1,1,55,0,1
100421,-90.9090909090909,4,1,1,55,0,1
101099,-83.3333333333333,4,1,1,55,0,1
103133,-90.9090909090909,4,1,1,55,0,1
103811,-66.6666666666667,4,1,1,55,0,1
104150,-90.9090909090909,4,1,1,55,0,1
104489,-71.4285714285714,4,1,1,55,0,1
105845,-90.9090909090909,4,1,1,55,0,1
106184,-76.9230769230769,4,1,1,55,0,1
106523,-90.9090909090909,4,1,1,55,0,1
107201,-76.9230769230769,4,1,1,55,0,1
108557,-66.6666666666667,4,1,1,55,0,1
108896,-83.3333333333333,4,1,1,55,0,1
109913,-90.9090909090909,4,1,1,55,0,1
111269,-66.6666666666667,4,1,1,55,0,1
111608,-83.3333333333333,4,1,1,55,0,1
111947,-66.6666666666667,4,1,1,55,0,1
112286,-83.3333333333333,4,1,1,55,0,1
114659,-66.6666666666667,4,1,1,55,0,1
114998,-83.3333333333333,4,1,1,55,0,1
115337,-76.9230769230769,4,1,1,55,0,1
117032,-100,4,1,1,55,0,0
118388,-133.333333333333,4,1,1,55,0,0
118557,-117.647058823529,4,1,1,55,0,0
118727,-105.263157894737,4,1,1,55,0,0
118896,-95.2380952380952,4,1,1,55,0,0
119066,-86.9565217391304,4,1,1,55,0,0
119235,-80,4,1,1,55,0,0
119405,-133.333333333333,4,1,1,55,0,0
120676,-133.333333333333,4,1,0,5,0,0

[Colours]
Combo1 : 141,254,218
Combo2 : 255,172,89
Combo3 : 255,128,255
Combo4 : 148,148,203

[HitObjects]
148,155,83,5,4,1:0:0:0:
363,155,760,1,2,0:2:0:0:
148,155,1438,1,2,0:2:0:0:
309,155,1947,1,2,0:2:0:0:
363,155,2115,1,2,0:2:0:0:
363,228,2794,5,2,0:2:0:0:
148,228,3471,1,2,0:2:0:0:
363,228,4149,1,2,0:2:0:0:
202,228,4658,1,2,0:2:0:0:
148,228,4828,1,2,0:2:0:0:
309,228,5167,1,2,0:2:0:0:
363,228,5337,1,2,0:2:0:0:
255,200,5506,5,2,0:2:0:0:
255,64,6184,1,2,0:2:0:0:
256,200,6523,1,0,0:0:0:0:
256,272,6693,1,0,0:0:0:0:
256,344,6862,2,0,L|372:352,1,112.500004291535,2|0,0:2|0:0,0:0:0:0:
256,272,7371,1,2,0:2:0:0:
256,344,7540,2,0,L|140:352,1,112.500004291535,8|0,1:0|0:0,0:0:0:0:
63,241,8049,1,0,0:0:0:0:
0,302,8218,6,0,P|-24:250|96:159,1,225,0|0,0:0|0:0,0:0:0:0:
164,100,8896,2,0,L|152:256,1,150,8|0,0:0|0:0,0:0:0:0:
228,216,9405,1,0,0:0:0:0:
300,188,9574,6,0,L|400:192,1,82.5000025177003,0|0,0:0|0:0,0:0:0:0:
442,278,9913,1,0,0:0:0:0:
412,276,9998,2,0,L|329:272,1,82.5000025177003,0|0,0:0|0:0,0:0:0:0:
304,272,10252,1,0,0:0:0:0:
224,312,10421,1,0,0:0:0:0:
200,300,10506,1,0,0:0:0:0:
176,288,10591,2,0,P|164:332|184:380,1,82.5000025177003,0|0,0:0|0:0,0:0:0:0:
236,248,10930,6,0,B|154:234|154:234|112:244,1,112.5,2|0,0:0|0:0,0:0:0:0:
240,332,11438,1,0,0:0:0:0:
319,169,11693,2,0,B|325:198|325:198|312:280,1,112.5,0|2,0:0|0:0,0:0:0:0:
256,128,12116,1,0,0:0:0:0:
200,280,12286,6,0,B|186:198|186:198|192:169,2,112.5,2|0|0,0:2|0:0|0:0,0:0:0:0:
124,300,12964,2,0,L|113:242,1,37.5,0|0,0:0|0:0,0:0:0:0:
112,176,13218,2,0,L|128:132,1,37.5,0|2,0:0|0:0,0:0:0:0:
39,282,13472,1,0,0:0:0:0:
32,180,13642,6,0,P|20:252|52:292,1,112.5,2|0,0:0|0:0,0:0:0:0:
192,169,14150,2,0,P|215:119|199:66,1,112.5,0|0,0:0|0:0,0:0:0:0:
112,176,14659,1,2,0:0:0:0:
228,264,14828,1,0,0:0:0:0:
252,268,14913,1,0,0:0:0:0:
276,264,14998,6,0,P|320:228|328:160,2,112.5,2|0|0,0:0|0:0|0:0,0:0:0:0:
253,148,15676,2,0,P|247:168|247:186,3,37.5
329,97,16015,2,0,P|347:97|365:103,3,37.5
412,184,16354,6,0,P|424:240|392:296,1,112.5,6|0,0:0|0:0,0:0:0:0:
496,168,16862,1,2,0:0:0:0:
345,230,17116,2,0,P|288:242|232:209,1,112.5,0|2,0:0|0:0,0:0:0:0:
290,111,17540,1,0,0:0:0:0:
294,137,17625,1,0,0:0:0:0:
298,160,17710,6,0,L|342:48,1,112.5,2|0,0:0|0:0,0:0:0:0:
348,36,18049,1,0,0:0:0:0:
244,68,18218,2,0,L|125:50,1,112.5,2|0,0:0|0:0,0:0:0:0:
40,139,18727,2,0,P|44:120|52:104,3,37.5,2|0|2|0,0:0|0:0|0:0|0:0,0:0:0:0:
64,172,19066,6,0,L|56:284,2,112.5,2|0|0,0:0|0:0|0:0,0:0:0:0:
147,309,19828,1,0,0:0:0:0:
148,288,19913,2,0,L|153:187,1,75
160,60,20252,1,0,0:0:0:0:
224,120,20421,6,0,P|276:132|340:116,2,112.5,0|0|0,0:0|0:0|0:0,0:0:0:0:
168,176,21099,2,0,P|212:200|252:204,1,75,0|0,0:0|0:0,0:0:0:0:
320,204,21438,2,0,P|356:195|388:175,1,75,0|0,0:0|0:0,0:0:0:0:
452,128,21777,6,0,B|432:168|432:168|436:272,1,112.5,0|0,0:0|0:0,0:0:0:0:
368,96,22286,1,0,0:0:0:0:
434,235,22540,1,0,0:0:0:0:
268,188,22794,2,0,L|356:192,1,75,0|0,0:0|0:0,0:0:0:0:
272,272,23133,6,0,P|216:284|152:260,2,112.5,0|0|0,0:0|0:0|0:0,0:0:0:0:
348,227,23811,2,0,L|342:191,1,37.5,0|0,0:0|0:0,0:0:0:0:
272,128,24066,2,0,L|265:164,1,37.5,0|0,2:0|0:0,0:0:0:0:
356,100,24320,1,0,0:0:0:0:
292,44,24489,6,0,B|248:40|248:40|224:48|224:48|160:40,1,112.5,0|0,0:0|0:0,0:0:0:0:
76,120,24998,2,0,B|120:116|120:116|144:124|144:124|208:116,2,112.5,0|0|0,0:0|0:0|0:0,0:0:0:0:
100,196,25676,1,0,0:0:0:0:
112,212,25760,1,0,0:0:0:0:
124,228,25845,6,0,B|208:216|208:216|264:228,2,112.5,0|0|0,0:0|0:0|0:0,0:0:0:0:
200,296,26523,2,0,L|112:312,1,75,0|0,0:0|0:0,0:0:0:0:
312,296,26862,2,0,L|400:312,1,75,0|0,0:0|0:0,0:0:0:0:
476,224,27201,5,2,0:0:0:0:
464,300,27371,1,0,0:0:0:0:
397,232,27540,1,8,0:0:0:0:
396,156,27710,1,0,0:0:0:0:
316,216,27879,1,2,0:0:0:0:
330,291,28049,1,0,0:0:0:0:
244,250,28218,1,8,0:0:0:0:
217,179,28388,1,0,0:0:0:0:
176,330,28557,5,2,0:0:0:0:
100,318,28727,1,0,0:0:0:0:
168,251,28896,1,8,0:0:0:0:
244,250,29066,1,0,0:0:0:0:
184,170,29235,1,2,0:0:0:0:
109,184,29405,1,0,0:0:0:0:
150,98,29574,1,8,0:0:0:0:
221,71,29744,1,0,0:0:0:0:
304,156,29913,6,0,P|285:153|267:148,3,37.5,2|0|0|0,0:0|0:0|0:0|0:0,0:0:0:0:
231,152,30252,2,0,P|226:170|223:188,3,37.5,8|0|0|0,0:0|0:0|0:0|0:0,0:0:0:0:
216,224,30591,2,0,P|197:226|179:231,3,37.5,2|2|2|2,0:0|0:2|0:2|0:2,0:0:0:0:
143,228,30930,2,0,P|138:209|135:191,3,37.5,10|2|2|2,0:1|0:2|0:2|0:2,0:0:0:0:
128,156,31269,6,0,L|48:148,1,75,0|0,0:0|0:0,0:0:0:0:
177,95,31608,2,0,P|205:135|201:179,1,75,0|0,0:0|0:0,0:0:0:0:
52,216,31947,2,0,P|24:176|28:132,1,75,0|0,0:0|0:0,0:0:0:0:
92,68,32286,6,0,B|108:92|108:92|104:160,1,84.3750032186509,0|0,1:0|2:0,0:0:0:0:
104,164,32625,6,0,P|144:224|232:200,1,150,4|0,0:0|0:0,0:0:0:0:
264,160,33133,1,0,2:0:0:0:
344,284,33303,2,0,L|244:276,2,75,8|0|0,0:0|0:0|0:0,0:0:0:0:
416,240,33811,1,0,0:0:0:0:
312,368,33981,6,0,B|256:360|256:360|213:366|213:366|120:328,1,194.999991073609,2|0,0:0|0:0,0:0:0:0:
23,244,34489,2,0,L|27:192,2,48.7499977684022,0|0|8,0:0|0:0|0:0,0:0:0:0:
104,168,34828,2,0,L|156:164,2,48.7499977684022,0|0|2,0:0|0:0|0:0,0:0:0:0:
40,104,35167,1,0,0:0:0:0:
122,49,35337,6,0,B|160:72|224:48|224:48|214:98|250:132,1,194.999991073609,2|0,0:0|0:0,0:0:0:0:
311,74,35845,1,0,0:0:0:0:
327,93,35930,1,0,0:0:0:0:
335,114,36015,2,0,P|391:122|419:110,1,75,8|0,0:0|0:0,0:0:0:0:
247,130,36354,2,0,P|211:120|174:127,1,75,0|0,0:0|0:0,0:0:0:0:
304,184,36693,6,0,B|320:228|304:261|304:261|292:288|316:360,1,150,2|0,0:0|0:0,0:0:0:0:
228,225,37201,1,0,0:0:0:0:
156,272,37371,1,10,0:0:0:0:
136,268,37455,1,0,0:0:0:0:
116,264,37540,1,0,0:0:0:0:
96,260,37625,2,0,P|68:216|88:144,1,112.5,0|0,0:0|0:0,0:0:0:0:
92,148,37964,1,0,2:0:0:0:
108,140,38049,6,0,B|216:152|216:152|220:172|220:172|336:184,1,225,2|0,0:0|0:0,0:0:0:0:
340,184,38642,1,0,0:0:0:0:
363,224,38727,2,0,P|414:200|391:76,1,179.999994506836,8|0,0:0|0:0,0:0:0:0:
316,99,39235,1,0,0:0:0:0:
447,272,39405,5,2,0:0:0:0:
376,308,39574,2,0,L|380:356,2,48.7499977684022,0|0|0,0:0|0:0|0:0,0:0:0:0:
304,272,39913,1,0,0:0:0:0:
224,304,40082,2,0,L|228:256,2,48.7499977684022,10|0|0,0:0|0:0|0:0,0:0:0:0:
163,188,40421,2,0,L|167:140,2,48.7499977684022,2|0|0,0:0|0:0|0:0,0:0:0:0:
88,328,40760,6,0,B|64:284|64:284|72:200,1,112.5,0|0,0:0|2:0,0:0:0:0:
80,196,41099,1,0,0:0:0:0:
152,272,41269,1,0,0:0:0:0:
144,144,41438,2,0,B|201:108|248:116|264:144|260:176,1,150,8|0,0:0|0:0,0:0:0:0:
304,244,41947,1,0,0:0:0:0:
320,260,42032,1,0,0:0:0:0:
336,272,42116,5,0,0:0:0:0:
428,244,42286,1,0,0:0:0:0:
388,156,42455,1,0,0:0:0:0:
296,184,42625,1,0,0:0:0:0:
428,244,42794,1,8,0:0:0:0:
428,244,42879,1,0,0:0:0:0:
388,156,43049,1,0,0:0:0:0:
388,156,43134,1,0,0:0:0:0:
344,76,43303,1,0,0:0:0:0:
344,76,43388,1,0,0:0:0:0:
344,76,43472,6,0,B|272:64|272:64|152:80,1,194.999991073609,2|0,0:0|0:0,0:0:0:0:
60,96,43981,1,0,0:0:0:0:
144,168,44150,2,0,L|252:176,1,75,8|0,0:0|0:0,0:0:0:0:
252,188,44405,1,0,0:0:0:0:
288,180,44489,2,0,L|396:188,1,75,0|0,0:0|0:0,0:0:0:0:
452,152,44828,6,0,B|484:264|484:264|473:281|454:283|454:283|424:268|448:216,1,225,2|0,0:0|0:0,0:0:0:0:
504,148,45506,1,8,0:0:0:0:
504,128,45591,1,0,0:0:0:0:
504,108,45676,1,0,0:0:0:0:
432,80,45845,1,0,0:0:0:0:
432,60,45930,1,0,0:0:0:0:
432,40,46015,1,0,0:0:0:0:
352,64,46184,6,0,B|280:72|280:72|240:56|240:56|152:72,1,194.999991073609,0|0,0:0|0:0,0:0:0:0:
172,168,46693,1,0,0:0:0:0:
172,168,46777,1,0,0:0:0:0:
172,168,46862,2,0,B|250:153|250:153|290:169|290:169|362:161,1,194.999991073609,8|0,0:0|0:0,0:0:0:0:
352,64,47371,1,0,0:0:0:0:
161,70,47540,6,0,P|112:104|96:144,1,75,2|0,0:0|0:0,0:0:0:0:
32,160,47879,2,0,P|36:220|62:253,1,75,0|0,0:0|0:0,0:0:0:0:
104,312,48218,1,8,0:0:0:0:
104,312,48303,2,0,L|212:324,1,75,0|8,0:0|0:0,0:0:0:0:
192,308,48557,2,0,P|196:348|183:382,1,75,0|0,0:0|0:0,0:0:0:0:
276,332,48896,6,0,B|320:328|320:328|404:340,1,112.5,0|0,0:0|0:0,0:0:0:0:
288,256,49405,1,0,0:0:0:0:
292,240,49489,1,0,0:0:0:0:
316,224,49574,2,0,L|416:236,1,97.4999955368044,8|0,0:0|0:0,0:0:0:0:
480,152,49913,1,0,0:0:0:0:
380,136,50083,1,0,0:0:0:0:
412,235,50252,5,0,0:0:0:0:
480,152,50421,2,0,L|496:100,2,48.7499977684022,0|0|0,0:0|0:0|0:0,0:0:0:0:
380,136,50760,1,0,0:0:0:0:
277,117,50930,2,0,L|293:65,2,48.7499977684022,8|0|0,0:0|0:0|0:0,0:0:0:0:
494,105,51269,2,0,L|479:58,2,48.7499977684022,0|0|0,0:0|0:0|0:0,0:0:0:0:
392,32,51608,5,0,0:0:0:0:
356,104,51947,6,0,L|368:212,1,75,8|0,0:0|2:0,0:0:0:0:
367,196,52201,1,0,0:0:0:0:
256,168,52455,2,0,L|256:248,1,75,8|0,0:0|2:0,0:0:0:0:
256,260,52710,1,0,0:0:0:0:
156,104,52964,2,0,L|144:212,1,75,8|0,0:0|0:0,0:0:0:0:
146,199,53218,1,0,2:0:0:0:
144,220,53303,5,8,0:0:0:0:
256,92,53472,1,0,0:0:0:0:
368,223,53642,1,8,0:0:0:0:
384,237,53727,2,0,P|419:246|456:239,1,75,0|0,0:0|0:0,0:0:0:0:
474,225,53981,5,8,0:0:0:0:
417,81,54150,1,8,1:0:0:0:
360,156,54320,6,0,P|366:213|284:280,1,150,2|2,0:0|0:0,0:0:0:0:
256,220,54828,1,0,0:0:0:0:
206,276,54998,2,0,P|151:228|152:156,1,150,2|2,0:0|0:0,0:0:0:0:
256,44,55676,6,0,L|256:208,1,150
256,268,56184,1,0,0:0:0:0:
212,332,56354,2,0,L|168:344,1,37.5,8|0,0:0|0:0,0:0:0:0:
140,352,56523,1,2,0:0:0:0:
300,332,56693,1,8,0:0:0:0:
372,352,56862,1,2,0:0:0:0:
432,248,57032,6,0,P|456:288|452:344,1,75,4|0,0:0|0:0,0:0:0:0:
458,315,57286,1,0,0:0:0:0:
488,292,57371,2,0,P|501:257|498:220,1,75
420,176,57710,2,0,B|328:176|328:176|296:188,2,112.5,8|2|2,0:0|0:0|0:0,0:0:0:0:
256,124,58388,6,0,L|256:280,1,150
203,183,58896,1,2,0:0:0:0:
87,184,59065,1,8,0:0:0:0:
60,196,59150,1,2,0:2:0:0:
33,210,59235,1,2,0:2:0:0:
6,222,59320,1,2,0:2:0:0:
120,360,59574,1,2,0:2:0:0:
120,360,59659,1,2,0:2:0:0:
120,360,59744,6,0,P|156:332|252:360,1,150,2|2,0:0|0:0,0:0:0:0:
320,320,60252,1,0,0:0:0:0:
324,300,60337,1,0,0:0:0:0:
328,280,60421,1,8,0:0:0:0:
400,348,60591,2,0,P|428:280|392:204,1,150,0|0,0:0|0:0,0:0:0:0:
328,280,61099,5,0,0:0:0:0:
400,348,61269,1,0,0:0:0:0:
480,288,61438,1,2,0:0:0:0:
400,212,61608,1,2,0:0:0:0:
480,152,61777,2,0,L|488:104,2,37.5,8|0|0,0:0|0:0|0:0,0:0:0:0:
408,60,62116,1,0,0:0:0:0:
328,96,62286,1,0,0:0:0:0:
196,20,62455,6,0,B|300:12|300:12|252:40,1,150,0|8,0:0|0:0,0:0:0:0:
180,96,62964,2,0,P|128:88|116:0,1,150,0|8,0:0|0:0,0:0:0:0:
28,32,63472,2,0,L|36:120,1,75,0|0,0:0|0:0,0:0:0:0:
88,168,63811,5,0,0:0:0:0:
88,188,63896,1,0,0:0:0:0:
88,208,63981,2,0,L|96:260,2,37.5,0|0|0,0:0|0:0|0:0,0:0:0:0:
164,288,64320,1,0,0:0:0:0:
184,288,64405,1,0,0:0:0:0:
204,288,64490,2,0,L|256:280,2,37.5,0|0|0,0:0|0:0|0:0,0:0:0:0:
292,216,64828,2,0,P|336:216|380:248,1,75,0|0,0:0|0:0,0:0:0:0:
376,244,65083,1,0,0:0:0:0:
384,256,65167,6,0,B|400:296|400:296|420:280|456:220|416:160,1,168.750006437302,0|0,0:0|0:0,0:0:0:0:
440,328,65845,1,4,0:0:0:0:
384,256,66015,2,0,P|340:248|304:264,1,75,2|2,0:0|0:0,0:0:0:0:
256,308,66354,2,0,P|212:316|176:300,1,75,2|2,0:0|0:0,0:0:0:0:
132,248,66693,5,0,0:0:0:0:
136,228,66777,1,0,2:0:0:0:
140,208,66862,1,0,0:0:0:0:
184,305,67032,1,0,0:0:0:0:
84,264,67201,2,0,L|92:216,2,37.5,8|0|2,0:0|0:0|0:0,0:0:0:0:
192,192,67540,2,0,L|185:228,2,37.5,8|0|0,0:0|0:0|0:0,0:0:0:0:
112,124,67879,6,0,B|196:108|196:108|280:136,1,150,4|0,0:0|0:0,0:0:0:0:
280,56,68388,1,0,0:0:0:0:
344,104,68557,2,0,P|364:144|364:180,1,75,8|0,0:0|0:0,0:0:0:0:
278,198,68896,2,0,P|258:158|258:122,1,75,0|0,0:0|0:0,0:0:0:0:
365,173,69235,6,0,B|388:221|388:221|368:241|368:241|385:260|385:260|372:380,1,225,0|0,0:0|0:0,0:0:0:0:
296,352,69913,2,0,L|152:352,1,134.999995880127,0|0,0:0|2:0,0:0:0:0:
124,328,70252,2,0,P|96:292|136:200,1,134.999995880127,0|0,0:0|2:0,0:0:0:0:
184,156,70591,6,0,L|172:265,1,110.000003356934,0|0,0:0|0:0,0:0:0:0:
172,265,70930,1,2,0:0:0:0:
272,164,71156,1,0,0:0:0:0:
272,164,71269,2,0,L|260:273,1,110.000003356934
260,273,71608,1,2,0:0:0:0:
360,172,71834,1,0,0:0:0:0:
360,172,71947,6,0,L|469:184,1,110.000003356934,2|0,0:0|0:0,0:0:0:0:
469,184,72286,1,2,0:0:0:0:
375,91,72512,1,2,0:0:0:0:
374,91,72626,2,0,L|484:103,1,110.000003356934,2|0,0:0|0:0,0:0:0:0:
484,103,72964,1,0,0:0:0:0:
216,240,73190,1,0,0:0:0:0:
216,240,73303,6,0,L|106:251,1,110.000003356934,2|0,0:0|0:0,0:0:0:0:
107,252,73642,1,8,0:0:0:0:
296,240,73868,1,0,0:0:0:0:
296,240,73981,2,0,L|405:251,1,110.000003356934,2|0,0:0|0:0,0:0:0:0:
405,251,74320,1,8,0:0:0:0:
256,176,74546,1,0,0:0:0:0:
256,176,74659,6,0,P|284:120|256:52,1,100,4|0,0:0|0:0,0:0:0:0:
256,56,74998,2,0,L|192:52,2,50,0|0|0,0:0|0:0|0:0,0:0:0:0:
332,44,75337,2,0,L|392:44,1,50,0|0,0:0|0:0,0:0:0:0:
396,48,75563,2,0,L|456:48,1,50,0|0,0:0|0:0,0:0:0:0:
496,112,75789,1,0,1:0:0:0:
496,112,75902,1,0,1:0:0:0:
496,112,76015,5,0,0:0:0:0:
200,264,81438,6,0,P|128:264|92:220,2,112.5,0|0|0,0:0|0:0|0:0,0:0:0:0:
312,120,82286,2,0,P|384:120|408:140,2,75,0|0|0,0:0|0:0|0:0,0:0:0:0:
264,176,82794,6,0,L|404:200,1,112.5,0|0,0:0|0:0,0:0:0:0:
400,200,83133,1,0,0:0:0:0:
384,272,83303,2,0,L|244:248,1,112.5,0|0,0:0|0:0,0:0:0:0:
248,248,83642,1,0,0:0:0:0:
176,264,83811,2,0,L|120:252,3,37.5,0|0|0|0,0:0|0:0|0:0|0:0,0:0:0:0:
200,188,84150,5,0,0:0:0:0:
273,252,84405,1,0,0:0:0:0:
124,252,84659,1,0,0:0:0:0:
204,172,84914,1,0,0:0:0:0:
224,160,84998,2,0,P|276:172|304:208,2,75,0|0|0,0:0|0:0|0:0,0:0:0:0:
232,236,85506,5,0,0:0:0:0:
296,100,85760,1,0,0:0:0:0:
396,216,86015,1,0,0:0:0:0:
396,216,86099,1,0,0:0:0:0:
328,244,86269,2,0,B|328:336|328:336|348:384,1,112.5,0|0,0:0|0:0,0:0:0:0:
280,308,86693,1,0,0:0:0:0:
99,332,86862,6,0,L|212:336,2,112.5,2|0|2,0:0|0:0|0:0,0:0:0:0:
188,260,87625,1,2,0:0:0:0:
56,180,87879,1,2,0:0:0:0:
130,182,88048,1,0,0:0:0:0:
56,180,88218,6,0,P|52:128|80:48,1,112.5,2|0,0:0|0:0,0:0:0:0:
216,24,88727,2,0,L|272:28,1,37.5,2|0,0:0|0:0,0:0:0:0:
260,28,88896,2,0,L|321:35,1,37.5,0|2,0:0|0:0,0:0:0:0:
404,72,89150,2,0,L|400:128,1,37.5,2|2,0:0|0:0,0:0:0:0:
368,176,89405,1,2,0:0:0:0:
292,148,89574,6,0,B|248:144|248:144|160:168,1,112.5,2|0,0:0|0:0,0:0:0:0:
92,96,90083,2,0,L|92:232,2,112.5,0|2|2,0:0|0:0|0:0,0:0:0:0:
180,81,90760,1,0,0:0:0:0:
182,121,90845,1,0,0:0:0:0:
182,161,90930,6,0,L|184:248,1,75,2|0,0:0|0:0,0:0:0:0:
240,292,91269,2,0,L|241:378,1,75,0|2,0:0|0:0,0:0:0:0:
320,312,91608,1,0,0:0:0:0:
452,320,91777,1,0,0:0:0:0:
440,240,91947,1,2,0:0:0:0:
347,245,92116,1,0,0:0:0:0:
371,107,92286,6,0,P|386:142|388:179,1,75,2|0,0:0|0:0,0:0:0:0:
347,245,92625,2,0,P|344:282|330:316,1,75,8|0,0:0|0:0,0:0:0:0:
182,316,92964,2,0,P|168:282|165:245,1,75,2|0,0:0|0:0,0:0:0:0:
123,178,93303,2,0,P|126:141|141:107,1,75,8|0,0:0|0:0,0:0:0:0:
304,160,93642,6,0,L|300:256,1,75,2|0,0:0|0:0,0:0:0:0:
128,328,93981,2,0,L|124:253,1,75,8|0,0:0|0:0,0:0:0:0:
387,253,94320,2,0,L|384:328,1,75,2|0,0:0|0:0,0:0:0:0:
211,234,94659,2,0,L|208:160,1,75,8|0,0:0|0:0,0:0:0:0:
204,80,94998,6,0,L|164:40,3,37.5,0|0|0|0,0:0|0:0|0:0|0:0,0:0:0:0:
308,80,95337,2,0,L|348:40,3,37.5,0|0|0|0,0:0|0:0|0:0|0:0,0:0:0:0:
312,160,95676,2,0,L|338:186,3,37.5,2|2|2|2,0:2|0:2|0:2|0:2,0:0:0:0:
208,160,96015,2,0,L|181:186,3,37.5,2|2|2|2,0:2|0:2|0:2|0:2,0:0:0:0:
256,228,96354,6,0,P|268:280|248:312,1,75,0|0,0:0|0:0,0:0:0:0:
152,360,96693,2,0,P|142:324|156:289,1,75,0|0,0:0|0:0,0:0:0:0:
260,298,97032,2,0,P|272:350|252:382,1,75,0|0,0:0|0:0,0:0:0:0:
152,360,97371,1,0,0:0:0:0:
165,239,97540,1,0,0:0:0:0:
176,116,97710,6,0,B|241:91|241:91|307:91|307:91|267:122,1,179.999994506836,6|8,0:0|0:0,0:0:0:0:
274,12,98218,1,0,0:0:0:0:
361,32,98388,2,0,L|462:32,1,89.9999972534181,2|0,0:0|0:0,0:0:0:0:
469,51,98642,1,0,0:0:0:0:
484,73,98727,1,8,0:0:0:0:
361,32,98896,1,0,0:0:0:0:
271,118,99066,6,0,B|117:119|117:119|199:91,1,209.999993591309,2|8,0:0|0:0,0:0:0:0:
237,38,99574,2,0,L|185:30,3,52.4999983978272,0|0|0|0,0:0|0:0|0:0|2:0,0:0:0:0:
153,27,99913,1,0,0:0:0:0:
40,128,100083,2,0,L|45:23,1,104.999996795654,8|0,0:0|0:0,0:0:0:0:
119,119,100421,6,0,P|138:198|104:272,1,165.000005035401,2|8,0:0|0:0,0:0:0:0:
28,303,100930,1,0,2:0:0:0:
90,360,101099,2,0,B|147:356|147:356|190:372,1,89.9999972534181,2|0,0:0|0:0,0:0:0:0:
228,302,101438,2,0,B|285:298|285:298|315:309,1,89.9999972534181,10|2,0:0|0:0,0:0:0:0:
435,278,101777,6,0,P|388:300|305:211,1,179.999994506836,2|10,0:0|0:0,0:0:0:0:
380,224,102286,1,0,0:0:0:0:
474,320,102455,2,0,B|484:124,1,179.999994506836,2|10,0:0|0:0,0:0:0:0:
483,140,102964,1,0,0:0:0:0:
387,103,103133,6,0,B|332:111|332:111|277:96|277:96|191:109,1,165.000005035401,2|8,0:0|0:0,0:0:0:0:
147,125,103642,1,0,2:0:0:0:
35,89,103811,2,0,B|60:133|60:133|64:203,1,112.500004291535,6|0,0:0|0:0,0:0:0:0:
74,359,104150,1,8,0:0:0:0:
0,301,104320,1,0,0:0:0:0:
141,254,104489,5,2,0:0:0:0:
71,278,104659,1,0,0:0:0:0:
84,300,104744,1,0,0:0:0:0:
105,315,104828,2,0,B|148:326|148:326|217:325,1,104.999996795654,10|0,0:0|0:0,0:0:0:0:
221,216,105167,1,2,0:0:0:0:
320,216,105337,1,2,0:0:0:0:
341,323,105506,2,0,B|401:323|401:323|450:324|465:297|481:260,1,157.499995193482,10|0,0:0|0:0,0:0:0:0:
414,214,105845,6,0,P|390:260|405:313,1,82.5000025177003,2|0,0:0|0:0,0:0:0:0:
494,194,106184,1,8,0:0:0:0:
453,33,106354,1,2,0:0:0:0:
379,108,106523,2,0,L|472:108,1,82.5000025177003,2|0,0:0|0:0,0:0:0:0:
377,34,106777,1,0,0:0:0:0:
377,34,106862,2,0,L|284:34,1,82.5000025177003,8|0,0:0|0:0,0:0:0:0:
217,35,107201,5,0,0:0:0:0:
168,158,107371,2,0,L|139:104,1,48.7499977684022,0|0,0:0|2:0,0:0:0:0:
88,38,107540,1,8,0:0:0:0:
265,158,107710,1,0,0:0:0:0:
63,158,107879,1,0,0:0:0:0:
38,158,107964,2,0,P|18:203|34:262,1,97.4999955368044,2|0,0:0|0:0,0:0:0:0:
36,271,108218,2,0,L|144:279,1,97.4999955368044,10|0,0:0|0:0,0:0:0:0:
156,269,108472,1,2,0:0:0:0:
182,259,108557,6,0,P|218:322|324:304,1,168.750006437302,6|0,0:0|0:0,0:0:0:0:
321,303,108896,1,8,0:0:0:0:
401,357,109066,1,0,0:0:0:0:
484,222,109235,2,0,P|496:276|484:318,1,89.9999972534181,2|0,0:0|0:0,0:0:0:0:
321,303,109574,2,0,P|313:259|325:216,1,89.9999972534181,8|0,0:0|0:0,0:0:0:0:
406,266,109913,5,2,0:0:0:0:
321,303,110083,1,0,0:0:0:0:
488,308,110252,1,8,0:0:0:0:
406,266,110422,1,2,0:0:0:0:
410,150,110591,1,2,0:0:0:0:
321,303,110760,2,0,L|271:271,1,41.2500012588501,2|0,0:0|0:0,0:0:0:0:
219,240,110930,2,0,P|206:288|226:333,1,82.5000025177003,10|2,0:0|0:0,0:0:0:0:
153,362,111269,6,0,B|217:319|217:319|70:337,1,225.000008583069,0|8,0:0|0:0,0:0:0:0:
135,239,111777,1,0,0:0:0:0:
286,280,111947,2,0,B|433:298|433:298|369:254,1,225.000008583069,2|0,0:0|0:0,0:0:0:0:
353,374,112455,1,0,0:0:0:0:
369,254,112625,6,0,P|369:202|338:163,1,89.9999972534181,2|0,0:0|0:0,0:0:0:0:
267,130,112964,1,8,0:0:0:0:
186,174,113133,1,0,0:0:0:0:
112,124,113303,2,0,L|2:116,1,89.9999972534181,2|2,0:0|0:0,0:0:0:0:
7,134,113557,1,0,0:0:0:0:
0,156,113642,2,0,P|11:216|53:245,1,89.9999972534181,8|0,0:0|0:0,0:0:0:0:
114,276,113981,6,0,L|226:277,1,89.9999972534181,2|0,0:0|0:0,0:0:0:0:
222,263,114235,2,0,P|272:287|288:354,1,89.9999972534181,2|0,0:0|0:0,0:0:0:0:
287,338,114489,1,2,0:0:0:0:
360,217,114659,2,0,B|374:341|374:341|403:285,1,168.750006437302,6|0,0:0|0:0,0:0:0:0:
415,294,114998,6,0,L|513:308,1,89.9999972534181,8|0,0:0|0:0,0:0:0:0:
360,217,115337,1,0,0:0:0:0:
434,158,115506,1,0,0:0:0:0:
438,182,115591,1,0,0:0:0:0:
442,206,115676,1,10,0:0:0:0:
342,131,115845,1,2,0:0:0:0:
410,77,116015,2,0,P|464:67|518:77,1,97.4999955368044,2|0,0:0|0:0,0:0:0:0:
342,131,116354,2,0,P|293:136|246:126,1,97.4999955368044,10|0,0:0|0:0,0:0:0:0:
167,84,116693,5,4,0:0:0:0:
101,148,117032,6,0,L|105:229,1,75,0|0,0:0|0:0,0:0:0:0:
147,293,117371,2,0,P|164:343|153:378,1,75,0|0,0:0|0:0,0:0:0:0:
80,340,117710,2,0,L|-16:354,1,75,2|2,0:0|0:0,0:0:0:0:
147,293,118049,5,2,0:2:0:0:
207,358,118218,2,0,L|250:370,1,37.5
265,292,118388,2,0,L|278:262,1,28.1250010728836,2|2,0:2|0:2,0:0:0:0:
325,357,118557,2,0,L|362:369,1,31.8750006079674,2|2,0:2|0:2,0:0:0:0:
357,278,118727,1,2,0:2:0:0:
369,272,118811,1,2,0:2:0:0:
382,266,118896,1,2,0:2:0:0:
396,260,118981,1,2,0:2:0:0:
413,254,119066,5,2,0:1:0:0:
428,249,119150,1,2,0:1:0:0:
445,242,119235,1,2,0:1:0:0:
464,206,119320,1,2,0:1:0:0:
446,140,119405,5,2,0:1:0:0:
256,192,119489,12,0,120676,0:0:0:0:
