osu file format v14

[General]
AudioFilename: Reflux.mp3
AudioLeadIn: 0
PreviewTime: 693
Countdown: 0
SampleSet: Soft
StackLeniency: 0.3
Mode: 0
LetterboxInBreaks: 1
WidescreenStoryboard: 1

[Editor]
Bookmarks: 13593,13893,26693,33093,39493,45893,52293,65093,77893,90693,97093,103493,109893,116293
DistanceSpacing: 0.37
BeatDivisor: 4
GridSize: 4
TimelineZoom: 2.5

[Metadata]
Title:Reflux
TitleUnicode:Reflux
Artist:Eagle
ArtistUnicode:Eagle
Creator:rrtyui
Version:tyui
Source:beatmania IIDX 22 PENDUAL
Tags:TRANCESTEP kors k 斎藤広祐
BeatmapID:846613
BeatmapSetID:387957

[Difficulty]
HPDrainRate:5
CircleSize:4
OverallDifficulty:8
ApproachRate:9.7
SliderMultiplier:3.4
SliderTickRate:1

[Events]
//Background and Video events
0,0,"BG.jpg",0,0
//Break Periods
//Storyboard Layer 0 (Background)
//Storyboard Layer 1 (Fail)
//Storyboard Layer 2 (Pass)
//Storyboard Layer 3 (Foreground)
Sprite,Foreground,TopLeft,"SB\datail\alp_m1.png",370,240 S,0,0,,119493,0.1 F,0,14093,14293,0,1 MY,1,14093,14293,455,445 M,1,17968,18168,370,445,374,452 F,0,17968,18168,1,0
Sprite,Foreground,TopLeft,"SB\datail\alp_a0.png",380,240 S,0,0,,119493,0.1 F,0,14226,14426,0,1 MY,1,14226,14426,455,445 M,1,18101,18301,380,445,384,451 F,0,18101,18301,1,0
Sprite,Foreground,TopLeft,"SB\datail\alp_p0.png",390,240 S,0,0,,119493,0.1 F,0,14359,14559,0,1 MY,1,14359,14559,455,445 M,1,18234,18434,390,445,394,451 F,0,18234,18434,1,0
Sprite,Foreground,TopLeft,"SB\datail\alp_p0.png",400,240 S,0,0,,119493,0.1 F,0,14492,14692,0,1 MY,1,14492,14692,455,445 M,1,18367,18567,400,445,404,450 F,0,18367,18567,1,0
Sprite,Foreground,TopLeft,"SB\datail\alp_e0.png",410,240 S,0,0,,119493,0.1 F,0,14625,14825,0,1 MY,1,14625,14825,455,445 M,1,18500,18700,410,445,412,452 F,0,18500,18700,1,0
Sprite,Foreground,TopLeft,"SB\datail\alp_d0.png",420,240 S,0,0,,119493,0.1 F,0,14758,14958,0,1 MY,1,14758,14958,455,445 M,1,18633,18833,420,445,422,451 F,0,18633,18833,1,0
Sprite,Foreground,TopLeft,"SB\datail\alp_b0.png",440,240 S,0,0,,119493,0.1 F,0,14891,15091,0,1 MY,1,14891,15091,455,445 M,1,18766,18966,440,445,443,452 F,0,18766,18966,1,0
Sprite,Foreground,TopLeft,"SB\datail\alp_y0.png",450,240 S,0,0,,119493,0.1 F,0,15024,15224,0,1 MY,1,15024,15224,455,445 M,1,18899,19099,450,445,454,453 F,0,18899,19099,1,0
Sprite,Foreground,TopLeft,"SB\datail\alp_r0.png",470,240 S,0,0,,119493,0.1 F,0,15157,15357,0,1 MY,1,15157,15357,455,445 M,1,19032,19232,470,445,474,451 F,0,19032,19232,1,0
Sprite,Foreground,TopLeft,"SB\datail\alp_r0.png",480,240 S,0,0,,119493,0.1 F,0,15290,15490,0,1 MY,1,15290,15490,455,445 M,1,19165,19365,480,445,483,452 F,0,19165,19365,1,0
Sprite,Foreground,TopLeft,"SB\datail\alp_t0.png",490,240 S,0,0,,119493,0.1 F,0,15423,15623,0,1 MY,1,15423,15623,455,445 M,1,19298,19498,490,445,494,452 F,0,19298,19498,1,0
Sprite,Foreground,TopLeft,"SB\datail\alp_y0.png",500,240 S,0,0,,119493,0.1 F,0,15556,15756,0,1 MY,1,15556,15756,455,445 M,1,19431,19631,500,445,502,450 F,0,19431,19631,1,0
Sprite,Foreground,TopLeft,"SB\datail\alp_u0.png",510,240 S,0,0,,119493,0.1 F,0,15689,15889,0,1 MY,1,15689,15889,455,445 M,1,19564,19764,510,445,514,452 F,0,19564,19764,1,0
Sprite,Foreground,TopLeft,"SB\datail\alp_i0.png",520,240 S,0,0,,119493,0.1 F,0,15822,16022,0,1 MY,1,15822,16022,455,445 M,1,19697,19897,520,445,522,454 F,0,19697,19897,1,0
Sprite,Foreground,TopLeft,"SB\datail\alp_s1.png",370,240 S,0,0,,119493,0.1 F,0,19897,20097,0,1 MY,1,19897,20097,455,445 M,1,23772,23972,370,445,372,453 F,0,23772,23972,1,0
Sprite,Foreground,TopLeft,"SB\datail\alp_t0.png",380,240 S,0,0,,119493,0.1 F,0,20030,20230,0,1 MY,1,20030,20230,455,445 M,1,23905,24105,380,445,384,451 F,0,23905,24105,1,0
Sprite,Foreground,TopLeft,"SB\datail\alp_o0.png",390,240 S,0,0,,119493,0.1 F,0,20163,20363,0,1 MY,1,20163,20363,455,445 M,1,24038,24238,390,445,394,452 F,0,24038,24238,1,0
Sprite,Foreground,TopLeft,"SB\datail\alp_r0.png",400,240 S,0,0,,119493,0.1 F,0,20296,20496,0,1 MY,1,20296,20496,455,445 M,1,24171,24371,400,445,404,454 F,0,24171,24371,1,0
Sprite,Foreground,TopLeft,"SB\datail\alp_y0.png",410,240 S,0,0,,119493,0.1 F,0,20429,20629,0,1 MY,1,20429,20629,455,445 M,1,24304,24504,410,445,413,453 F,0,24304,24504,1,0
Sprite,Foreground,TopLeft,"SB\datail\alp_b0.png",420,240 S,0,0,,119493,0.1 F,0,20562,20762,0,1 MY,1,20562,20762,455,445 M,1,24437,24637,420,445,423,450 F,0,24437,24637,1,0
Sprite,Foreground,TopLeft,"SB\datail\alp_o0.png",430,240 S,0,0,,119493,0.1 F,0,20695,20895,0,1 MY,1,20695,20895,455,445 M,1,24570,24770,430,445,434,454 F,0,24570,24770,1,0
Sprite,Foreground,TopLeft,"SB\datail\alp_a0.png",440,240 S,0,0,,119493,0.1 F,0,20828,21028,0,1 MY,1,20828,21028,455,445 M,1,24703,24903,440,445,442,454 F,0,24703,24903,1,0
Sprite,Foreground,TopLeft,"SB\datail\alp_r0.png",450,240 S,0,0,,119493,0.1 F,0,20961,21161,0,1 MY,1,20961,21161,455,445 M,1,24836,25036,450,445,452,453 F,0,24836,25036,1,0
Sprite,Foreground,TopLeft,"SB\datail\alp_d0.png",460,240 S,0,0,,119493,0.1 F,0,21094,21294,0,1 MY,1,21094,21294,455,445 M,1,24969,25169,460,445,464,450 F,0,24969,25169,1,0
Sprite,Foreground,TopLeft,"SB\datail\alp_m0.png",480,240 S,0,0,,119493,0.1 F,0,21227,21427,0,1 MY,1,21227,21427,455,445 M,1,25102,25302,480,445,483,451 F,0,25102,25302,1,0
Sprite,Foreground,TopLeft,"SB\datail\alp_a0.png",490,240 S,0,0,,119493,0.1 F,0,21360,21560,0,1 MY,1,21360,21560,455,445 M,1,25235,25435,490,445,492,451 F,0,25235,25435,1,0
Sprite,Foreground,TopLeft,"SB\datail\alp_d0.png",500,240 S,0,0,,119493,0.1 F,0,21493,21693,0,1 MY,1,21493,21693,455,445 M,1,25368,25568,500,445,503,450 F,0,25368,25568,1,0
Sprite,Foreground,TopLeft,"SB\datail\alp_e0.png",510,240 S,0,0,,119493,0.1 F,0,21626,21826,0,1 MY,1,21626,21826,455,445 M,1,25501,25701,510,445,512,451 F,0,25501,25701,1,0
Sprite,Foreground,TopLeft,"SB\datail\alp_b0.png",530,240 S,0,0,,119493,0.1 F,0,21759,21959,0,1 MY,1,21759,21959,455,445 M,1,25634,25834,530,445,533,453 F,0,25634,25834,1,0
Sprite,Foreground,TopLeft,"SB\datail\alp_y0.png",540,240 S,0,0,,119493,0.1 F,0,21892,22092,0,1 MY,1,21892,22092,455,445 M,1,25767,25967,540,445,544,450 F,0,25767,25967,1,0
Sprite,Foreground,TopLeft,"SB\datail\alp_r0.png",560,240 S,0,0,,119493,0.1 F,0,22025,22225,0,1 MY,1,22025,22225,455,445 M,1,25900,26100,560,445,562,454 F,0,25900,26100,1,0
Sprite,Foreground,TopLeft,"SB\datail\alp_r0.png",570,240 S,0,0,,119493,0.1 F,0,22158,22358,0,1 MY,1,22158,22358,455,445 M,1,26033,26233,570,445,572,452 F,0,26033,26233,1,0
Sprite,Foreground,TopLeft,"SB\datail\alp_t0.png",580,240 S,0,0,,119493,0.1 F,0,22291,22491,0,1 MY,1,22291,22491,455,445 M,1,26166,26366,580,445,583,454 F,0,26166,26366,1,0
Sprite,Foreground,TopLeft,"SB\datail\alp_y0.png",590,240 S,0,0,,119493,0.1 F,0,22424,22624,0,1 MY,1,22424,22624,455,445 M,1,26299,26499,590,445,593,451 F,0,26299,26499,1,0
Sprite,Foreground,TopLeft,"SB\datail\alp_u0.png",600,240 S,0,0,,119493,0.1 F,0,22557,22757,0,1 MY,1,22557,22757,455,445 M,1,26432,26632,600,445,603,453 F,0,26432,26632,1,0
Sprite,Foreground,TopLeft,"SB\datail\alp_i0.png",610,240 S,0,0,,119493,0.1 F,0,22690,22890,0,1 MY,1,22690,22890,455,445 M,1,26565,26765,610,445,612,450 F,0,26565,26765,1,0
Sprite,Foreground,TopLeft,"SB\datail\alp_s1.png",370,240 S,0,0,,119493,0.1 F,0,26765,26965,0,1 MY,1,26765,26965,455,445 M,1,30640,30840,370,445,374,451 F,0,30640,30840,1,0
Sprite,Foreground,TopLeft,"SB\datail\alp_o0.png",380,240 S,0,0,,119493,0.1 F,0,26898,27098,0,1 MY,1,26898,27098,455,445 M,1,30773,30973,380,445,384,453 F,0,30773,30973,1,0
Sprite,Foreground,TopLeft,"SB\datail\alp_n0.png",390,240 S,0,0,,119493,0.1 F,0,27031,27231,0,1 MY,1,27031,27231,455,445 M,1,30906,31106,390,445,392,451 F,0,30906,31106,1,0
Sprite,Foreground,TopLeft,"SB\datail\alp_g0.png",400,240 S,0,0,,119493,0.1 F,0,27164,27364,0,1 MY,1,27164,27364,455,445 M,1,31039,31239,400,445,402,454 F,0,31039,31239,1,0
Sprite,Foreground,TopLeft,"SB\datail\alp_c0.png",420,240 S,0,0,,119493,0.1 F,0,27297,27497,0,1 MY,1,27297,27497,455,445 M,1,31172,31372,420,445,424,450 F,0,31172,31372,1,0
Sprite,Foreground,TopLeft,"SB\datail\alp_o0.png",430,240 S,0,0,,119493,0.1 F,0,27430,27630,0,1 MY,1,27430,27630,455,445 M,1,31305,31505,430,445,433,454 F,0,31305,31505,1,0
Sprite,Foreground,TopLeft,"SB\datail\alp_m0.png",440,240 S,0,0,,119493,0.1 F,0,27563,27763,0,1 MY,1,27563,27763,455,445 M,1,31438,31638,440,445,443,453 F,0,31438,31638,1,0
Sprite,Foreground,TopLeft,"SB\datail\alp_p0.png",450,240 S,0,0,,119493,0.1 F,0,27696,27896,0,1 MY,1,27696,27896,455,445 M,1,31571,31771,450,445,454,454 F,0,31571,31771,1,0
Sprite,Foreground,TopLeft,"SB\datail\alp_o0.png",460,240 S,0,0,,119493,0.1 F,0,27829,28029,0,1 MY,1,27829,28029,455,445 M,1,31704,31904,460,445,462,452 F,0,31704,31904,1,0
Sprite,Foreground,TopLeft,"SB\datail\alp_s0.png",470,240 S,0,0,,119493,0.1 F,0,27962,28162,0,1 MY,1,27962,28162,455,445 M,1,31837,32037,470,445,473,453 F,0,31837,32037,1,0
Sprite,Foreground,TopLeft,"SB\datail\alp_e0.png",480,240 S,0,0,,119493,0.1 F,0,28095,28295,0,1 MY,1,28095,28295,455,445 M,1,31970,32170,480,445,482,452 F,0,31970,32170,1,0
Sprite,Foreground,TopLeft,"SB\datail\alp_d0.png",490,240 S,0,0,,119493,0.1 F,0,28228,28428,0,1 MY,1,28228,28428,455,445 M,1,32103,32303,490,445,494,454 F,0,32103,32303,1,0
Sprite,Foreground,TopLeft,"SB\datail\alp_b0.png",510,240 S,0,0,,119493,0.1 F,0,28361,28561,0,1 MY,1,28361,28561,455,445 M,1,32236,32436,510,445,514,454 F,0,32236,32436,1,0
Sprite,Foreground,TopLeft,"SB\datail\alp_y0.png",520,240 S,0,0,,119493,0.1 F,0,28494,28694,0,1 MY,1,28494,28694,455,445 M,1,32369,32569,520,445,523,450 F,0,32369,32569,1,0
Sprite,Foreground,TopLeft,"SB\datail\alp_e1.png",540,240 S,0,0,,119493,0.1 F,0,28627,28827,0,1 MY,1,28627,28827,455,445 M,1,32502,32702,540,445,543,452 F,0,32502,32702,1,0
Sprite,Foreground,TopLeft,"SB\datail\alp_a0.png",550,240 S,0,0,,119493,0.1 F,0,28760,28960,0,1 MY,1,28760,28960,455,445 M,1,32635,32835,550,445,553,453 F,0,32635,32835,1,0
Sprite,Foreground,TopLeft,"SB\datail\alp_g0.png",560,240 S,0,0,,119493,0.1 F,0,28893,29093,0,1 MY,1,28893,29093,455,445 M,1,32768,32968,560,445,564,450 F,0,32768,32968,1,0
Sprite,Foreground,TopLeft,"SB\datail\alp_l0.png",570,240 S,0,0,,119493,0.1 F,0,29026,29226,0,1 MY,1,29026,29226,455,445 M,1,32901,33101,570,445,573,450 F,0,32901,33101,1,0
Sprite,Foreground,TopLeft,"SB\datail\alp_e0.png",580,240 S,0,0,,119493,0.1 F,0,29159,29359,0,1 MY,1,29159,29359,455,445 M,1,33034,33234,580,445,583,451 F,0,33034,33234,1,0
Sprite,Foreground,TopLeft,"SB\datail\alp_a0.png",600,240 S,0,0,,119493,0.1 F,0,29292,29492,0,1 MY,1,29292,29492,455,445 M,1,33167,33367,600,445,602,450 F,0,33167,33367,1,0
Sprite,Foreground,TopLeft,"SB\datail\alp_k0.png",610,240 S,0,0,,119493,0.1 F,0,29425,29625,0,1 MY,1,29425,29625,455,445 M,1,33300,33500,610,445,614,453 F,0,33300,33500,1,0
Sprite,Foreground,TopLeft,"SB\datail\alp_a0.png",620,240 S,0,0,,119493,0.1 F,0,29558,29758,0,1 MY,1,29558,29758,455,445 M,1,33433,33633,620,445,623,451 F,0,33433,33633,1,0
Sprite,Foreground,TopLeft,"SB\datail\alp_k0.png",640,240 S,0,0,,119493,0.1 F,0,29691,29891,0,1 MY,1,29691,29891,455,445 M,1,33566,33766,640,445,643,450 F,0,33566,33766,1,0
Sprite,Foreground,TopLeft,"SB\datail\alp_o0.png",650,240 S,0,0,,119493,0.1 F,0,29824,30024,0,1 MY,1,29824,30024,455,445 M,1,33699,33899,650,445,652,453 F,0,33699,33899,1,0
Sprite,Foreground,TopLeft,"SB\datail\alp_r0.png",660,240 S,0,0,,119493,0.1 F,0,29957,30157,0,1 MY,1,29957,30157,455,445 M,1,33832,34032,660,445,662,453 F,0,33832,34032,1,0
Sprite,Foreground,TopLeft,"SB\datail\alp_s0.png",670,240 S,0,0,,119493,0.1 F,0,30090,30290,0,1 MY,1,30090,30290,455,445 M,1,33965,34165,670,445,674,454 F,0,33965,34165,1,0
Sprite,Foreground,TopLeft,"SB\datail\alp_k0.png",690,240 S,0,0,,119493,0.1 F,0,30223,30423,0,1 MY,1,30223,30423,455,445 M,1,34098,34298,690,445,692,452 F,0,34098,34298,1,0
Sprite,Foreground,TopLeft,"SB\datail\alp_b1.png",370,240 S,0,0,,119493,0.1 F,0,34298,34498,0,1 MY,1,34298,34498,455,445 M,1,38173,38373,370,445,372,450 F,0,38173,38373,1,0
Sprite,Foreground,TopLeft,"SB\datail\alp_a0.png",380,240 S,0,0,,119493,0.1 F,0,34431,34631,0,1 MY,1,34431,34631,455,445 M,1,38306,38506,380,445,383,454 F,0,38306,38506,1,0
Sprite,Foreground,TopLeft,"SB\datail\alp_c0.png",390,240 S,0,0,,119493,0.1 F,0,34564,34764,0,1 MY,1,34564,34764,455,445 M,1,38439,38639,390,445,394,451 F,0,38439,38639,1,0
Sprite,Foreground,TopLeft,"SB\datail\alp_k0.png",400,240 S,0,0,,119493,0.1 F,0,34697,34897,0,1 MY,1,34697,34897,455,445 M,1,38572,38772,400,445,404,454 F,0,38572,38772,1,0
Sprite,Foreground,TopLeft,"SB\datail\alp_g0.png",410,240 S,0,0,,119493,0.1 F,0,34830,35030,0,1 MY,1,34830,35030,455,445 M,1,38705,38905,410,445,413,450 F,0,38705,38905,1,0
Sprite,Foreground,TopLeft,"SB\datail\alp_r0.png",420,240 S,0,0,,119493,0.1 F,0,34963,35163,0,1 MY,1,34963,35163,455,445 M,1,38838,39038,420,445,423,454 F,0,38838,39038,1,0
Sprite,Foreground,TopLeft,"SB\datail\alp_o0.png",430,240 S,0,0,,119493,0.1 F,0,35096,35296,0,1 MY,1,35096,35296,455,445 M,1,38971,39171,430,445,434,452 F,0,38971,39171,1,0
Sprite,Foreground,TopLeft,"SB\datail\alp_u0.png",440,240 S,0,0,,119493,0.1 F,0,35229,35429,0,1 MY,1,35229,35429,455,445 M,1,39104,39304,440,445,442,453 F,0,39104,39304,1,0
Sprite,Foreground,TopLeft,"SB\datail\alp_n0.png",450,240 S,0,0,,119493,0.1 F,0,35362,35562,0,1 MY,1,35362,35562,455,445 M,1,39237,39437,450,445,453,454 F,0,39237,39437,1,0
Sprite,Foreground,TopLeft,"SB\datail\alp_d0.png",460,240 S,0,0,,119493,0.1 F,0,35495,35695,0,1 MY,1,35495,35695,455,445 M,1,39370,39570,460,445,463,452 F,0,39370,39570,1,0
Sprite,Foreground,TopLeft,"SB\datail\alp_d0.png",480,240 S,0,0,,119493,0.1 F,0,35628,35828,0,1 MY,1,35628,35828,455,445 M,1,39503,39703,480,445,482,451 F,0,39503,39703,1,0
Sprite,Foreground,TopLeft,"SB\datail\alp_r0.png",490,240 S,0,0,,119493,0.1 F,0,35761,35961,0,1 MY,1,35761,35961,455,445 M,1,39636,39836,490,445,492,453 F,0,39636,39836,1,0
Sprite,Foreground,TopLeft,"SB\datail\alp_a0.png",500,240 S,0,0,,119493,0.1 F,0,35894,36094,0,1 MY,1,35894,36094,455,445 M,1,39769,39969,500,445,503,454 F,0,39769,39969,1,0
Sprite,Foreground,TopLeft,"SB\datail\alp_w0.png",510,240 S,0,0,,119493,0.1 F,0,36027,36227,0,1 MY,1,36027,36227,455,445 M,1,39902,40102,510,445,514,453 F,0,39902,40102,1,0
Sprite,Foreground,TopLeft,"SB\datail\alp_n0.png",520,240 S,0,0,,119493,0.1 F,0,36160,36360,0,1 MY,1,36160,36360,455,445 M,1,40035,40235,520,445,522,453 F,0,40035,40235,1,0
Sprite,Foreground,TopLeft,"SB\datail\alp_b0.png",540,240 S,0,0,,119493,0.1 F,0,36293,36493,0,1 MY,1,36293,36493,455,445 M,1,40168,40368,540,445,543,453 F,0,40168,40368,1,0
Sprite,Foreground,TopLeft,"SB\datail\alp_y0.png",550,240 S,0,0,,119493,0.1 F,0,36426,36626,0,1 MY,1,36426,36626,455,445 M,1,40301,40501,550,445,553,451 F,0,40301,40501,1,0
Sprite,Foreground,TopLeft,"SB\datail\alp_r0.png",570,240 S,0,0,,119493,0.1 F,0,36559,36759,0,1 MY,1,36559,36759,455,445 M,1,40434,40634,570,445,572,451 F,0,40434,40634,1,0
Sprite,Foreground,TopLeft,"SB\datail\alp_e0.png",580,240 S,0,0,,119493,0.1 F,0,36692,36892,0,1 MY,1,36692,36892,455,445 M,1,40567,40767,580,445,583,452 F,0,40567,40767,1,0
Sprite,Foreground,TopLeft,"SB\datail\alp_k0.png",590,240 S,0,0,,119493,0.1 F,0,36825,37025,0,1 MY,1,36825,37025,455,445 M,1,40700,40900,590,445,593,454 F,0,40700,40900,1,0
Sprite,Foreground,TopLeft,"SB\datail\alp_u0.png",600,240 S,0,0,,119493,0.1 F,0,36958,37158,0,1 MY,1,36958,37158,455,445 M,1,40833,41033,600,445,602,454 F,0,40833,41033,1,0
Sprite,Foreground,TopLeft,"SB\datail\alp_m1.png",370,240 S,0,0,,119493,0.1 F,0,41033,41233,0,1 MY,1,41033,41233,455,445 M,1,44908,45108,370,445,372,450 F,0,44908,45108,1,0
Sprite,Foreground,TopLeft,"SB\datail\alp_a0.png",380,240 S,0,0,,119493,0.1 F,0,41166,41366,0,1 MY,1,41166,41366,455,445 M,1,45041,45241,380,445,384,452 F,0,45041,45241,1,0
Sprite,Foreground,TopLeft,"SB\datail\alp_p0.png",390,240 S,0,0,,119493,0.1 F,0,41299,41499,0,1 MY,1,41299,41499,455,445 M,1,45174,45374,390,445,392,453 F,0,45174,45374,1,0
Sprite,Foreground,TopLeft,"SB\datail\alp_p0.png",400,240 S,0,0,,119493,0.1 F,0,41432,41632,0,1 MY,1,41432,41632,455,445 M,1,45307,45507,400,445,403,451 F,0,45307,45507,1,0
Sprite,Foreground,TopLeft,"SB\datail\alp_e0.png",410,240 S,0,0,,119493,0.1 F,0,41565,41765,0,1 MY,1,41565,41765,455,445 M,1,45440,45640,410,445,412,450 F,0,45440,45640,1,0
Sprite,Foreground,TopLeft,"SB\datail\alp_d0.png",420,240 S,0,0,,119493,0.1 F,0,41698,41898,0,1 MY,1,41698,41898,455,445 M,1,45573,45773,420,445,423,452 F,0,45573,45773,1,0
Sprite,Foreground,TopLeft,"SB\datail\alp_b0.png",440,240 S,0,0,,119493,0.1 F,0,41831,42031,0,1 MY,1,41831,42031,455,445 M,1,45706,45906,440,445,443,453 F,0,45706,45906,1,0
Sprite,Foreground,TopLeft,"SB\datail\alp_y0.png",450,240 S,0,0,,119493,0.1 F,0,41964,42164,0,1 MY,1,41964,42164,455,445 M,1,45839,46039,450,445,452,454 F,0,45839,46039,1,0
Sprite,Foreground,TopLeft,"SB\datail\alp_r0.png",470,240 S,0,0,,119493,0.1 F,0,42097,42297,0,1 MY,1,42097,42297,455,445 M,1,45972,46172,470,445,473,454 F,0,45972,46172,1,0
Sprite,Foreground,TopLeft,"SB\datail\alp_r0.png",480,240 S,0,0,,119493,0.1 F,0,42230,42430,0,1 MY,1,42230,42430,455,445 M,1,46105,46305,480,445,483,451 F,0,46105,46305,1,0
Sprite,Foreground,TopLeft,"SB\datail\alp_t0.png",490,240 S,0,0,,119493,0.1 F,0,42363,42563,0,1 MY,1,42363,42563,455,445 M,1,46238,46438,490,445,494,454 F,0,46238,46438,1,0
Sprite,Foreground,TopLeft,"SB\datail\alp_y0.png",500,240 S,0,0,,119493,0.1 F,0,42496,42696,0,1 MY,1,42496,42696,455,445 M,1,46371,46571,500,445,503,454 F,0,46371,46571,1,0
Sprite,Foreground,TopLeft,"SB\datail\alp_u0.png",510,240 S,0,0,,119493,0.1 F,0,42629,42829,0,1 MY,1,42629,42829,455,445 M,1,46504,46704,510,445,512,453 F,0,46504,46704,1,0
Sprite,Foreground,TopLeft,"SB\datail\alp_i0.png",520,240 S,0,0,,119493,0.1 F,0,42762,42962,0,1 MY,1,42762,42962,455,445 M,1,46637,46837,520,445,523,454 F,0,46637,46837,1,0
Sprite,Foreground,TopLeft,"SB\datail\alp_s1.png",370,240 S,0,0,,119493,0.1 F,0,46837,47037,0,1 MY,1,46837,47037,455,445 M,1,50712,50912,370,445,372,454 F,0,50712,50912,1,0
Sprite,Foreground,TopLeft,"SB\datail\alp_t0.png",380,240 S,0,0,,119493,0.1 F,0,46970,47170,0,1 MY,1,46970,47170,455,445 M,1,50845,51045,380,445,383,452 F,0,50845,51045,1,0
Sprite,Foreground,TopLeft,"SB\datail\alp_o0.png",390,240 S,0,0,,119493,0.1 F,0,47103,47303,0,1 MY,1,47103,47303,455,445 M,1,50978,51178,390,445,393,450 F,0,50978,51178,1,0
Sprite,Foreground,TopLeft,"SB\datail\alp_r0.png",400,240 S,0,0,,119493,0.1 F,0,47236,47436,0,1 MY,1,47236,47436,455,445 M,1,51111,51311,400,445,402,454 F,0,51111,51311,1,0
Sprite,Foreground,TopLeft,"SB\datail\alp_y0.png",410,240 S,0,0,,119493,0.1 F,0,47369,47569,0,1 MY,1,47369,47569,455,445 M,1,51244,51444,410,445,414,454 F,0,51244,51444,1,0
Sprite,Foreground,TopLeft,"SB\datail\alp_b0.png",420,240 S,0,0,,119493,0.1 F,0,47502,47702,0,1 MY,1,47502,47702,455,445 M,1,51377,51577,420,445,424,451 F,0,51377,51577,1,0
Sprite,Foreground,TopLeft,"SB\datail\alp_o0.png",430,240 S,0,0,,119493,0.1 F,0,47635,47835,0,1 MY,1,47635,47835,455,445 M,1,51510,51710,430,445,432,454 F,0,51510,51710,1,0
Sprite,Foreground,TopLeft,"SB\datail\alp_a0.png",440,240 S,0,0,,119493,0.1 F,0,47768,47968,0,1 MY,1,47768,47968,455,445 M,1,51643,51843,440,445,443,453 F,0,51643,51843,1,0
Sprite,Foreground,TopLeft,"SB\datail\alp_r0.png",450,240 S,0,0,,119493,0.1 F,0,47901,48101,0,1 MY,1,47901,48101,455,445 M,1,51776,51976,450,445,452,450 F,0,51776,51976,1,0
Sprite,Foreground,TopLeft,"SB\datail\alp_d0.png",460,240 S,0,0,,119493,0.1 F,0,48034,48234,0,1 MY,1,48034,48234,455,445 M,1,51909,52109,460,445,464,451 F,0,51909,52109,1,0
Sprite,Foreground,TopLeft,"SB\datail\alp_m0.png",480,240 S,0,0,,119493,0.1 F,0,48167,48367,0,1 MY,1,48167,48367,455,445 M,1,52042,52242,480,445,482,453 F,0,52042,52242,1,0
Sprite,Foreground,TopLeft,"SB\datail\alp_a0.png",490,240 S,0,0,,119493,0.1 F,0,48300,48500,0,1 MY,1,48300,48500,455,445 M,1,52175,52375,490,445,492,452 F,0,52175,52375,1,0
Sprite,Foreground,TopLeft,"SB\datail\alp_d0.png",500,240 S,0,0,,119493,0.1 F,0,48433,48633,0,1 MY,1,48433,48633,455,445 M,1,52308,52508,500,445,503,453 F,0,52308,52508,1,0
Sprite,Foreground,TopLeft,"SB\datail\alp_e0.png",510,240 S,0,0,,119493,0.1 F,0,48566,48766,0,1 MY,1,48566,48766,455,445 M,1,52441,52641,510,445,512,451 F,0,52441,52641,1,0
Sprite,Foreground,TopLeft,"SB\datail\alp_b0.png",530,240 S,0,0,,119493,0.1 F,0,48699,48899,0,1 MY,1,48699,48899,455,445 M,1,52574,52774,530,445,534,454 F,0,52574,52774,1,0
Sprite,Foreground,TopLeft,"SB\datail\alp_y0.png",540,240 S,0,0,,119493,0.1 F,0,48832,49032,0,1 MY,1,48832,49032,455,445 M,1,52707,52907,540,445,543,452 F,0,52707,52907,1,0
Sprite,Foreground,TopLeft,"SB\datail\alp_r0.png",560,240 S,0,0,,119493,0.1 F,0,48965,49165,0,1 MY,1,48965,49165,455,445 M,1,52840,53040,560,445,562,453 F,0,52840,53040,1,0
Sprite,Foreground,TopLeft,"SB\datail\alp_r0.png",570,240 S,0,0,,119493,0.1 F,0,49098,49298,0,1 MY,1,49098,49298,455,445 M,1,52973,53173,570,445,572,451 F,0,52973,53173,1,0
Sprite,Foreground,TopLeft,"SB\datail\alp_t0.png",580,240 S,0,0,,119493,0.1 F,0,49231,49431,0,1 MY,1,49231,49431,455,445 M,1,53106,53306,580,445,583,450 F,0,53106,53306,1,0
Sprite,Foreground,TopLeft,"SB\datail\alp_y0.png",590,240 S,0,0,,119493,0.1 F,0,49364,49564,0,1 MY,1,49364,49564,455,445 M,1,53239,53439,590,445,594,451 F,0,53239,53439,1,0
Sprite,Foreground,TopLeft,"SB\datail\alp_u0.png",600,240 S,0,0,,119493,0.1 F,0,49497,49697,0,1 MY,1,49497,49697,455,445 M,1,53372,53572,600,445,603,450 F,0,53372,53572,1,0
Sprite,Foreground,TopLeft,"SB\datail\alp_i0.png",610,240 S,0,0,,119493,0.1 F,0,49630,49830,0,1 MY,1,49630,49830,455,445 M,1,53505,53705,610,445,614,452 F,0,53505,53705,1,0
Sprite,Foreground,TopLeft,"SB\datail\alp_s1.png",370,240 S,0,0,,119493,0.1 F,0,53705,53905,0,1 MY,1,53705,53905,455,445 M,1,57580,57780,370,445,372,450 F,0,57580,57780,1,0
Sprite,Foreground,TopLeft,"SB\datail\alp_o0.png",380,240 S,0,0,,119493,0.1 F,0,53838,54038,0,1 MY,1,53838,54038,455,445 M,1,57713,57913,380,445,382,454 F,0,57713,57913,1,0
Sprite,Foreground,TopLeft,"SB\datail\alp_n0.png",390,240 S,0,0,,119493,0.1 F,0,53971,54171,0,1 MY,1,53971,54171,455,445 M,1,57846,58046,390,445,393,454 F,0,57846,58046,1,0
Sprite,Foreground,TopLeft,"SB\datail\alp_g0.png",400,240 S,0,0,,119493,0.1 F,0,54104,54304,0,1 MY,1,54104,54304,455,445 M,1,57979,58179,400,445,404,450 F,0,57979,58179,1,0
Sprite,Foreground,TopLeft,"SB\datail\alp_c0.png",420,240 S,0,0,,119493,0.1 F,0,54237,54437,0,1 MY,1,54237,54437,455,445 M,1,58112,58312,420,445,424,450 F,0,58112,58312,1,0
Sprite,Foreground,TopLeft,"SB\datail\alp_o0.png",430,240 S,0,0,,119493,0.1 F,0,54370,54570,0,1 MY,1,54370,54570,455,445 M,1,58245,58445,430,445,433,451 F,0,58245,58445,1,0
Sprite,Foreground,TopLeft,"SB\datail\alp_m0.png",440,240 S,0,0,,119493,0.1 F,0,54503,54703,0,1 MY,1,54503,54703,455,445 M,1,58378,58578,440,445,444,454 F,0,58378,58578,1,0
Sprite,Foreground,TopLeft,"SB\datail\alp_p0.png",450,240 S,0,0,,119493,0.1 F,0,54636,54836,0,1 MY,1,54636,54836,455,445 M,1,58511,58711,450,445,454,453 F,0,58511,58711,1,0
Sprite,Foreground,TopLeft,"SB\datail\alp_o0.png",460,240 S,0,0,,119493,0.1 F,0,54769,54969,0,1 MY,1,54769,54969,455,445 M,1,58644,58844,460,445,462,450 F,0,58644,58844,1,0
Sprite,Foreground,TopLeft,"SB\datail\alp_s0.png",470,240 S,0,0,,119493,0.1 F,0,54902,55102,0,1 MY,1,54902,55102,455,445 M,1,58777,58977,470,445,472,450 F,0,58777,58977,1,0
Sprite,Foreground,TopLeft,"SB\datail\alp_e0.png",480,240 S,0,0,,119493,0.1 F,0,55035,55235,0,1 MY,1,55035,55235,455,445 M,1,58910,59110,480,445,483,451 F,0,58910,59110,1,0
Sprite,Foreground,TopLeft,"SB\datail\alp_d0.png",490,240 S,0,0,,119493,0.1 F,0,55168,55368,0,1 MY,1,55168,55368,455,445 M,1,59043,59243,490,445,492,452 F,0,59043,59243,1,0
Sprite,Foreground,TopLeft,"SB\datail\alp_b0.png",510,240 S,0,0,,119493,0.1 F,0,55301,55501,0,1 MY,1,55301,55501,455,445 M,1,59176,59376,510,445,513,451 F,0,59176,59376,1,0
Sprite,Foreground,TopLeft,"SB\datail\alp_y0.png",520,240 S,0,0,,119493,0.1 F,0,55434,55634,0,1 MY,1,55434,55634,455,445 M,1,59309,59509,520,445,522,454 F,0,59309,59509,1,0
Sprite,Foreground,TopLeft,"SB\datail\alp_e1.png",540,240 S,0,0,,119493,0.1 F,0,55567,55767,0,1 MY,1,55567,55767,455,445 M,1,59442,59642,540,445,542,452 F,0,59442,59642,1,0
Sprite,Foreground,TopLeft,"SB\datail\alp_a0.png",550,240 S,0,0,,119493,0.1 F,0,55700,55900,0,1 MY,1,55700,55900,455,445 M,1,59575,59775,550,445,554,451 F,0,59575,59775,1,0
Sprite,Foreground,TopLeft,"SB\datail\alp_g0.png",560,240 S,0,0,,119493,0.1 F,0,55833,56033,0,1 MY,1,55833,56033,455,445 M,1,59708,59908,560,445,564,452 F,0,59708,59908,1,0
Sprite,Foreground,TopLeft,"SB\datail\alp_l0.png",570,240 S,0,0,,119493,0.1 F,0,55966,56166,0,1 MY,1,55966,56166,455,445 M,1,59841,60041,570,445,573,452 F,0,59841,60041,1,0
Sprite,Foreground,TopLeft,"SB\datail\alp_e0.png",580,240 S,0,0,,119493,0.1 F,0,56099,56299,0,1 MY,1,56099,56299,455,445 M,1,59974,60174,580,445,583,450 F,0,59974,60174,1,0
Sprite,Foreground,TopLeft,"SB\datail\alp_a0.png",600,240 S,0,0,,119493,0.1 F,0,56232,56432,0,1 MY,1,56232,56432,455,445 M,1,60107,60307,600,445,604,454 F,0,60107,60307,1,0
Sprite,Foreground,TopLeft,"SB\datail\alp_k0.png",610,240 S,0,0,,119493,0.1 F,0,56365,56565,0,1 MY,1,56365,56565,455,445 M,1,60240,60440,610,445,612,451 F,0,60240,60440,1,0
Sprite,Foreground,TopLeft,"SB\datail\alp_a0.png",620,240 S,0,0,,119493,0.1 F,0,56498,56698,0,1 MY,1,56498,56698,455,445 M,1,60373,60573,620,445,624,450 F,0,60373,60573,1,0
Sprite,Foreground,TopLeft,"SB\datail\alp_k0.png",640,240 S,0,0,,119493,0.1 F,0,56631,56831,0,1 MY,1,56631,56831,455,445 M,1,60506,60706,640,445,642,454 F,0,60506,60706,1,0
Sprite,Foreground,TopLeft,"SB\datail\alp_o0.png",650,240 S,0,0,,119493,0.1 F,0,56764,56964,0,1 MY,1,56764,56964,455,445 M,1,60639,60839,650,445,653,454 F,0,60639,60839,1,0
Sprite,Foreground,TopLeft,"SB\datail\alp_r0.png",660,240 S,0,0,,119493,0.1 F,0,56897,57097,0,1 MY,1,56897,57097,455,445 M,1,60772,60972,660,445,662,451 F,0,60772,60972,1,0
Sprite,Foreground,TopLeft,"SB\datail\alp_s0.png",670,240 S,0,0,,119493,0.1 F,0,57030,57230,0,1 MY,1,57030,57230,455,445 M,1,60905,61105,670,445,672,452 F,0,60905,61105,1,0
Sprite,Foreground,TopLeft,"SB\datail\alp_k0.png",690,240 S,0,0,,119493,0.1 F,0,57163,57363,0,1 MY,1,57163,57363,455,445 M,1,61038,61238,690,445,694,453 F,0,61038,61238,1,0
Sprite,Foreground,TopLeft,"SB\datail\alp_b1.png",370,240 S,0,0,,119493,0.1 F,0,61238,61438,0,1 MY,1,61238,61438,455,445 M,1,65113,65313,370,445,372,454 F,0,65113,65313,1,0
Sprite,Foreground,TopLeft,"SB\datail\alp_a0.png",380,240 S,0,0,,119493,0.1 F,0,61371,61571,0,1 MY,1,61371,61571,455,445 M,1,65246,65446,380,445,382,453 F,0,65246,65446,1,0
Sprite,Foreground,TopLeft,"SB\datail\alp_c0.png",390,240 S,0,0,,119493,0.1 F,0,61504,61704,0,1 MY,1,61504,61704,455,445 M,1,65379,65579,390,445,393,450 F,0,65379,65579,1,0
Sprite,Foreground,TopLeft,"SB\datail\alp_k0.png",400,240 S,0,0,,119493,0.1 F,0,61637,61837,0,1 MY,1,61637,61837,455,445 M,1,65512,65712,400,445,404,454 F,0,65512,65712,1,0
Sprite,Foreground,TopLeft,"SB\datail\alp_g0.png",410,240 S,0,0,,119493,0.1 F,0,61770,61970,0,1 MY,1,61770,61970,455,445 M,1,65645,65845,410,445,412,451 F,0,65645,65845,1,0
Sprite,Foreground,TopLeft,"SB\datail\alp_r0.png",420,240 S,0,0,,119493,0.1 F,0,61903,62103,0,1 MY,1,61903,62103,455,445 M,1,65778,65978,420,445,422,451 F,0,65778,65978,1,0
Sprite,Foreground,TopLeft,"SB\datail\alp_o0.png",430,240 S,0,0,,119493,0.1 F,0,62036,62236,0,1 MY,1,62036,62236,455,445 M,1,65911,66111,430,445,433,451 F,0,65911,66111,1,0
Sprite,Foreground,TopLeft,"SB\datail\alp_u0.png",440,240 S,0,0,,119493,0.1 F,0,62169,62369,0,1 MY,1,62169,62369,455,445 M,1,66044,66244,440,445,443,452 F,0,66044,66244,1,0
Sprite,Foreground,TopLeft,"SB\datail\alp_n0.png",450,240 S,0,0,,119493,0.1 F,0,62302,62502,0,1 MY,1,62302,62502,455,445 M,1,66177,66377,450,445,452,450 F,0,66177,66377,1,0
Sprite,Foreground,TopLeft,"SB\datail\alp_d0.png",460,240 S,0,0,,119493,0.1 F,0,62435,62635,0,1 MY,1,62435,62635,455,445 M,1,66310,66510,460,445,462,452 F,0,66310,66510,1,0
Sprite,Foreground,TopLeft,"SB\datail\alp_d0.png",480,240 S,0,0,,119493,0.1 F,0,62568,62768,0,1 MY,1,62568,62768,455,445 M,1,66443,66643,480,445,482,451 F,0,66443,66643,1,0
Sprite,Foreground,TopLeft,"SB\datail\alp_r0.png",490,240 S,0,0,,119493,0.1 F,0,62701,62901,0,1 MY,1,62701,62901,455,445 M,1,66576,66776,490,445,493,454 F,0,66576,66776,1,0
Sprite,Foreground,TopLeft,"SB\datail\alp_a0.png",500,240 S,0,0,,119493,0.1 F,0,62834,63034,0,1 MY,1,62834,63034,455,445 M,1,66709,66909,500,445,503,453 F,0,66709,66909,1,0
Sprite,Foreground,TopLeft,"SB\datail\alp_w0.png",510,240 S,0,0,,119493,0.1 F,0,62967,63167,0,1 MY,1,62967,63167,455,445 M,1,66842,67042,510,445,514,451 F,0,66842,67042,1,0
Sprite,Foreground,TopLeft,"SB\datail\alp_n0.png",520,240 S,0,0,,119493,0.1 F,0,63100,63300,0,1 MY,1,63100,63300,455,445 M,1,66975,67175,520,445,524,454 F,0,66975,67175,1,0
Sprite,Foreground,TopLeft,"SB\datail\alp_b0.png",540,240 S,0,0,,119493,0.1 F,0,63233,63433,0,1 MY,1,63233,63433,455,445 M,1,67108,67308,540,445,542,451 F,0,67108,67308,1,0
Sprite,Foreground,TopLeft,"SB\datail\alp_y0.png",550,240 S,0,0,,119493,0.1 F,0,63366,63566,0,1 MY,1,63366,63566,455,445 M,1,67241,67441,550,445,553,450 F,0,67241,67441,1,0
Sprite,Foreground,TopLeft,"SB\datail\alp_r0.png",570,240 S,0,0,,119493,0.1 F,0,63499,63699,0,1 MY,1,63499,63699,455,445 M,1,67374,67574,570,445,573,452 F,0,67374,67574,1,0
Sprite,Foreground,TopLeft,"SB\datail\alp_e0.png",580,240 S,0,0,,119493,0.1 F,0,63632,63832,0,1 MY,1,63632,63832,455,445 M,1,67507,67707,580,445,582,454 F,0,67507,67707,1,0
Sprite,Foreground,TopLeft,"SB\datail\alp_k0.png",590,240 S,0,0,,119493,0.1 F,0,63765,63965,0,1 MY,1,63765,63965,455,445 M,1,67640,67840,590,445,594,453 F,0,67640,67840,1,0
Sprite,Foreground,TopLeft,"SB\datail\alp_u0.png",600,240 S,0,0,,119493,0.1 F,0,63898,64098,0,1 MY,1,63898,64098,455,445 M,1,67773,67973,600,445,604,450 F,0,67773,67973,1,0
Sprite,Foreground,TopLeft,"SB\datail\alp_m1.png",370,240 S,0,0,,119493,0.1 F,0,67973,68173,0,1 MY,1,67973,68173,455,445 M,1,71848,72048,370,445,372,452 F,0,71848,72048,1,0
Sprite,Foreground,TopLeft,"SB\datail\alp_a0.png",380,240 S,0,0,,119493,0.1 F,0,68106,68306,0,1 MY,1,68106,68306,455,445 M,1,71981,72181,380,445,384,453 F,0,71981,72181,1,0
Sprite,Foreground,TopLeft,"SB\datail\alp_p0.png",390,240 S,0,0,,119493,0.1 F,0,68239,68439,0,1 MY,1,68239,68439,455,445 M,1,72114,72314,390,445,393,450 F,0,72114,72314,1,0
Sprite,Foreground,TopLeft,"SB\datail\alp_p0.png",400,240 S,0,0,,119493,0.1 F,0,68372,68572,0,1 MY,1,68372,68572,455,445 M,1,72247,72447,400,445,403,453 F,0,72247,72447,1,0
Sprite,Foreground,TopLeft,"SB\datail\alp_e0.png",410,240 S,0,0,,119493,0.1 F,0,68505,68705,0,1 MY,1,68505,68705,455,445 M,1,72380,72580,410,445,412,450 F,0,72380,72580,1,0
Sprite,Foreground,TopLeft,"SB\datail\alp_d0.png",420,240 S,0,0,,119493,0.1 F,0,68638,68838,0,1 MY,1,68638,68838,455,445 M,1,72513,72713,420,445,422,451 F,0,72513,72713,1,0
Sprite,Foreground,TopLeft,"SB\datail\alp_b0.png",440,240 S,0,0,,119493,0.1 F,0,68771,68971,0,1 MY,1,68771,68971,455,445 M,1,72646,72846,440,445,444,454 F,0,72646,72846,1,0
Sprite,Foreground,TopLeft,"SB\datail\alp_y0.png",450,240 S,0,0,,119493,0.1 F,0,68904,69104,0,1 MY,1,68904,69104,455,445 M,1,72779,72979,450,445,452,450 F,0,72779,72979,1,0
Sprite,Foreground,TopLeft,"SB\datail\alp_r0.png",470,240 S,0,0,,119493,0.1 F,0,69037,69237,0,1 MY,1,69037,69237,455,445 M,1,72912,73112,470,445,472,453 F,0,72912,73112,1,0
Sprite,Foreground,TopLeft,"SB\datail\alp_r0.png",480,240 S,0,0,,119493,0.1 F,0,69170,69370,0,1 MY,1,69170,69370,455,445 M,1,73045,73245,480,445,482,453 F,0,73045,73245,1,0
Sprite,Foreground,TopLeft,"SB\datail\alp_t0.png",490,240 S,0,0,,119493,0.1 F,0,69303,69503,0,1 MY,1,69303,69503,455,445 M,1,73178,73378,490,445,492,450 F,0,73178,73378,1,0
Sprite,Foreground,TopLeft,"SB\datail\alp_y0.png",500,240 S,0,0,,119493,0.1 F,0,69436,69636,0,1 MY,1,69436,69636,455,445 M,1,73311,73511,500,445,504,454 F,0,73311,73511,1,0
Sprite,Foreground,TopLeft,"SB\datail\alp_u0.png",510,240 S,0,0,,119493,0.1 F,0,69569,69769,0,1 MY,1,69569,69769,455,445 M,1,73444,73644,510,445,514,451 F,0,73444,73644,1,0
Sprite,Foreground,TopLeft,"SB\datail\alp_i0.png",520,240 S,0,0,,119493,0.1 F,0,69702,69902,0,1 MY,1,69702,69902,455,445 M,1,73577,73777,520,445,524,454 F,0,73577,73777,1,0
Sprite,Foreground,TopLeft,"SB\datail\alp_s1.png",370,240 S,0,0,,119493,0.1 F,0,73777,73977,0,1 MY,1,73777,73977,455,445 M,1,77652,77852,370,445,372,451 F,0,77652,77852,1,0
Sprite,Foreground,TopLeft,"SB\datail\alp_t0.png",380,240 S,0,0,,119493,0.1 F,0,73910,74110,0,1 MY,1,73910,74110,455,445 M,1,77785,77985,380,445,382,452 F,0,77785,77985,1,0
Sprite,Foreground,TopLeft,"SB\datail\alp_o0.png",390,240 S,0,0,,119493,0.1 F,0,74043,74243,0,1 MY,1,74043,74243,455,445 M,1,77918,78118,390,445,393,454 F,0,77918,78118,1,0
Sprite,Foreground,TopLeft,"SB\datail\alp_r0.png",400,240 S,0,0,,119493,0.1 F,0,74176,74376,0,1 MY,1,74176,74376,455,445 M,1,78051,78251,400,445,404,450 F,0,78051,78251,1,0
Sprite,Foreground,TopLeft,"SB\datail\alp_y0.png",410,240 S,0,0,,119493,0.1 F,0,74309,74509,0,1 MY,1,74309,74509,455,445 M,1,78184,78384,410,445,412,453 F,0,78184,78384,1,0
Sprite,Foreground,TopLeft,"SB\datail\alp_b0.png",420,240 S,0,0,,119493,0.1 F,0,74442,74642,0,1 MY,1,74442,74642,455,445 M,1,78317,78517,420,445,422,453 F,0,78317,78517,1,0
Sprite,Foreground,TopLeft,"SB\datail\alp_o0.png",430,240 S,0,0,,119493,0.1 F,0,74575,74775,0,1 MY,1,74575,74775,455,445 M,1,78450,78650,430,445,434,450 F,0,78450,78650,1,0
Sprite,Foreground,TopLeft,"SB\datail\alp_a0.png",440,240 S,0,0,,119493,0.1 F,0,74708,74908,0,1 MY,1,74708,74908,455,445 M,1,78583,78783,440,445,444,450 F,0,78583,78783,1,0
Sprite,Foreground,TopLeft,"SB\datail\alp_r0.png",450,240 S,0,0,,119493,0.1 F,0,74841,75041,0,1 MY,1,74841,75041,455,445 M,1,78716,78916,450,445,452,450 F,0,78716,78916,1,0
Sprite,Foreground,TopLeft,"SB\datail\alp_d0.png",460,240 S,0,0,,119493,0.1 F,0,74974,75174,0,1 MY,1,74974,75174,455,445 M,1,78849,79049,460,445,463,452 F,0,78849,79049,1,0
Sprite,Foreground,TopLeft,"SB\datail\alp_m0.png",480,240 S,0,0,,119493,0.1 F,0,75107,75307,0,1 MY,1,75107,75307,455,445 M,1,78982,79182,480,445,482,450 F,0,78982,79182,1,0
Sprite,Foreground,TopLeft,"SB\datail\alp_a0.png",490,240 S,0,0,,119493,0.1 F,0,75240,75440,0,1 MY,1,75240,75440,455,445 M,1,79115,79315,490,445,493,450 F,0,79115,79315,1,0
Sprite,Foreground,TopLeft,"SB\datail\alp_d0.png",500,240 S,0,0,,119493,0.1 F,0,75373,75573,0,1 MY,1,75373,75573,455,445 M,1,79248,79448,500,445,503,451 F,0,79248,79448,1,0
Sprite,Foreground,TopLeft,"SB\datail\alp_e0.png",510,240 S,0,0,,119493,0.1 F,0,75506,75706,0,1 MY,1,75506,75706,455,445 M,1,79381,79581,510,445,512,450 F,0,79381,79581,1,0
Sprite,Foreground,TopLeft,"SB\datail\alp_b0.png",530,240 S,0,0,,119493,0.1 F,0,75639,75839,0,1 MY,1,75639,75839,455,445 M,1,79514,79714,530,445,533,454 F,0,79514,79714,1,0
Sprite,Foreground,TopLeft,"SB\datail\alp_y0.png",540,240 S,0,0,,119493,0.1 F,0,75772,75972,0,1 MY,1,75772,75972,455,445 M,1,79647,79847,540,445,544,450 F,0,79647,79847,1,0
Sprite,Foreground,TopLeft,"SB\datail\alp_r0.png",560,240 S,0,0,,119493,0.1 F,0,75905,76105,0,1 MY,1,75905,76105,455,445 M,1,79780,79980,560,445,562,452 F,0,79780,79980,1,0
Sprite,Foreground,TopLeft,"SB\datail\alp_r0.png",570,240 S,0,0,,119493,0.1 F,0,76038,76238,0,1 MY,1,76038,76238,455,445 M,1,79913,80113,570,445,573,454 F,0,79913,80113,1,0
Sprite,Foreground,TopLeft,"SB\datail\alp_t0.png",580,240 S,0,0,,119493,0.1 F,0,76171,76371,0,1 MY,1,76171,76371,455,445 M,1,80046,80246,580,445,584,454 F,0,80046,80246,1,0
Sprite,Foreground,TopLeft,"SB\datail\alp_y0.png",590,240 S,0,0,,119493,0.1 F,0,76304,76504,0,1 MY,1,76304,76504,455,445 M,1,80179,80379,590,445,594,453 F,0,80179,80379,1,0
Sprite,Foreground,TopLeft,"SB\datail\alp_u0.png",600,240 S,0,0,,119493,0.1 F,0,76437,76637,0,1 MY,1,76437,76637,455,445 M,1,80312,80512,600,445,604,451 F,0,80312,80512,1,0
Sprite,Foreground,TopLeft,"SB\datail\alp_i0.png",610,240 S,0,0,,119493,0.1 F,0,76570,76770,0,1 MY,1,76570,76770,455,445 M,1,80445,80645,610,445,612,453 F,0,80445,80645,1,0
Sprite,Foreground,TopLeft,"SB\datail\alp_s1.png",370,240 S,0,0,,119493,0.1 F,0,80645,80845,0,1 MY,1,80645,80845,455,445 M,1,84520,84720,370,445,372,453 F,0,84520,84720,1,0
Sprite,Foreground,TopLeft,"SB\datail\alp_o0.png",380,240 S,0,0,,119493,0.1 F,0,80778,80978,0,1 MY,1,80778,80978,455,445 M,1,84653,84853,380,445,384,450 F,0,84653,84853,1,0
Sprite,Foreground,TopLeft,"SB\datail\alp_n0.png",390,240 S,0,0,,119493,0.1 F,0,80911,81111,0,1 MY,1,80911,81111,455,445 M,1,84786,84986,390,445,393,453 F,0,84786,84986,1,0
Sprite,Foreground,TopLeft,"SB\datail\alp_g0.png",400,240 S,0,0,,119493,0.1 F,0,81044,81244,0,1 MY,1,81044,81244,455,445 M,1,84919,85119,400,445,404,454 F,0,84919,85119,1,0
Sprite,Foreground,TopLeft,"SB\datail\alp_c0.png",420,240 S,0,0,,119493,0.1 F,0,81177,81377,0,1 MY,1,81177,81377,455,445 M,1,85052,85252,420,445,424,452 F,0,85052,85252,1,0
Sprite,Foreground,TopLeft,"SB\datail\alp_o0.png",430,240 S,0,0,,119493,0.1 F,0,81310,81510,0,1 MY,1,81310,81510,455,445 M,1,85185,85385,430,445,433,450 F,0,85185,85385,1,0
Sprite,Foreground,TopLeft,"SB\datail\alp_m0.png",440,240 S,0,0,,119493,0.1 F,0,81443,81643,0,1 MY,1,81443,81643,455,445 M,1,85318,85518,440,445,443,450 F,0,85318,85518,1,0
Sprite,Foreground,TopLeft,"SB\datail\alp_p0.png",450,240 S,0,0,,119493,0.1 F,0,81576,81776,0,1 MY,1,81576,81776,455,445 M,1,85451,85651,450,445,454,450 F,0,85451,85651,1,0
Sprite,Foreground,TopLeft,"SB\datail\alp_o0.png",460,240 S,0,0,,119493,0.1 F,0,81709,81909,0,1 MY,1,81709,81909,455,445 M,1,85584,85784,460,445,464,454 F,0,85584,85784,1,0
Sprite,Foreground,TopLeft,"SB\datail\alp_s0.png",470,240 S,0,0,,119493,0.1 F,0,81842,82042,0,1 MY,1,81842,82042,455,445 M,1,85717,85917,470,445,473,451 F,0,85717,85917,1,0
Sprite,Foreground,TopLeft,"SB\datail\alp_e0.png",480,240 S,0,0,,119493,0.1 F,0,81975,82175,0,1 MY,1,81975,82175,455,445 M,1,85850,86050,480,445,484,450 F,0,85850,86050,1,0
Sprite,Foreground,TopLeft,"SB\datail\alp_d0.png",490,240 S,0,0,,119493,0.1 F,0,82108,82308,0,1 MY,1,82108,82308,455,445 M,1,85983,86183,490,445,493,450 F,0,85983,86183,1,0
Sprite,Foreground,TopLeft,"SB\datail\alp_b0.png",510,240 S,0,0,,119493,0.1 F,0,82241,82441,0,1 MY,1,82241,82441,455,445 M,1,86116,86316,510,445,513,454 F,0,86116,86316,1,0
Sprite,Foreground,TopLeft,"SB\datail\alp_y0.png",520,240 S,0,0,,119493,0.1 F,0,82374,82574,0,1 MY,1,82374,82574,455,445 M,1,86249,86449,520,445,522,450 F,0,86249,86449,1,0
Sprite,Foreground,TopLeft,"SB\datail\alp_e1.png",540,240 S,0,0,,119493,0.1 F,0,82507,82707,0,1 MY,1,82507,82707,455,445 M,1,86382,86582,540,445,542,453 F,0,86382,86582,1,0
Sprite,Foreground,TopLeft,"SB\datail\alp_a0.png",550,240 S,0,0,,119493,0.1 F,0,82640,82840,0,1 MY,1,82640,82840,455,445 M,1,86515,86715,550,445,553,454 F,0,86515,86715,1,0
Sprite,Foreground,TopLeft,"SB\datail\alp_g0.png",560,240 S,0,0,,119493,0.1 F,0,82773,82973,0,1 MY,1,82773,82973,455,445 M,1,86648,86848,560,445,562,450 F,0,86648,86848,1,0
Sprite,Foreground,TopLeft,"SB\datail\alp_l0.png",570,240 S,0,0,,119493,0.1 F,0,82906,83106,0,1 MY,1,82906,83106,455,445 M,1,86781,86981,570,445,574,453 F,0,86781,86981,1,0
Sprite,Foreground,TopLeft,"SB\datail\alp_e0.png",580,240 S,0,0,,119493,0.1 F,0,83039,83239,0,1 MY,1,83039,83239,455,445 M,1,86914,87114,580,445,583,454 F,0,86914,87114,1,0
Sprite,Foreground,TopLeft,"SB\datail\alp_a0.png",600,240 S,0,0,,119493,0.1 F,0,83172,83372,0,1 MY,1,83172,83372,455,445 M,1,87047,87247,600,445,604,454 F,0,87047,87247,1,0
Sprite,Foreground,TopLeft,"SB\datail\alp_k0.png",610,240 S,0,0,,119493,0.1 F,0,83305,83505,0,1 MY,1,83305,83505,455,445 M,1,87180,87380,610,445,614,454 F,0,87180,87380,1,0
Sprite,Foreground,TopLeft,"SB\datail\alp_a0.png",620,240 S,0,0,,119493,0.1 F,0,83438,83638,0,1 MY,1,83438,83638,455,445 M,1,87313,87513,620,445,623,453 F,0,87313,87513,1,0
Sprite,Foreground,TopLeft,"SB\datail\alp_k0.png",640,240 S,0,0,,119493,0.1 F,0,83571,83771,0,1 MY,1,83571,83771,455,445 M,1,87446,87646,640,445,642,452 F,0,87446,87646,1,0
Sprite,Foreground,TopLeft,"SB\datail\alp_o0.png",650,240 S,0,0,,119493,0.1 F,0,83704,83904,0,1 MY,1,83704,83904,455,445 M,1,87579,87779,650,445,653,453 F,0,87579,87779,1,0
Sprite,Foreground,TopLeft,"SB\datail\alp_r0.png",660,240 S,0,0,,119493,0.1 F,0,83837,84037,0,1 MY,1,83837,84037,455,445 M,1,87712,87912,660,445,664,453 F,0,87712,87912,1,0
Sprite,Foreground,TopLeft,"SB\datail\alp_s0.png",670,240 S,0,0,,119493,0.1 F,0,83970,84170,0,1 MY,1,83970,84170,455,445 M,1,87845,88045,670,445,674,454 F,0,87845,88045,1,0
Sprite,Foreground,TopLeft,"SB\datail\alp_k0.png",690,240 S,0,0,,119493,0.1 F,0,84103,84303,0,1 MY,1,84103,84303,455,445 M,1,87978,88178,690,445,694,453 F,0,87978,88178,1,0
Sprite,Foreground,TopLeft,"SB\datail\alp_b1.png",370,240 S,0,0,,119493,0.1 F,0,88178,88378,0,1 MY,1,88178,88378,455,445 M,1,92053,92253,370,445,374,450 F,0,92053,92253,1,0
Sprite,Foreground,TopLeft,"SB\datail\alp_a0.png",380,240 S,0,0,,119493,0.1 F,0,88311,88511,0,1 MY,1,88311,88511,455,445 M,1,92186,92386,380,445,382,453 F,0,92186,92386,1,0
Sprite,Foreground,TopLeft,"SB\datail\alp_c0.png",390,240 S,0,0,,119493,0.1 F,0,88444,88644,0,1 MY,1,88444,88644,455,445 M,1,92319,92519,390,445,393,452 F,0,92319,92519,1,0
Sprite,Foreground,TopLeft,"SB\datail\alp_k0.png",400,240 S,0,0,,119493,0.1 F,0,88577,88777,0,1 MY,1,88577,88777,455,445 M,1,92452,92652,400,445,403,453 F,0,92452,92652,1,0
Sprite,Foreground,TopLeft,"SB\datail\alp_g0.png",410,240 S,0,0,,119493,0.1 F,0,88710,88910,0,1 MY,1,88710,88910,455,445 M,1,92585,92785,410,445,414,450 F,0,92585,92785,1,0
Sprite,Foreground,TopLeft,"SB\datail\alp_r0.png",420,240 S,0,0,,119493,0.1 F,0,88843,89043,0,1 MY,1,88843,89043,455,445 M,1,92718,92918,420,445,424,452 F,0,92718,92918,1,0
Sprite,Foreground,TopLeft,"SB\datail\alp_o0.png",430,240 S,0,0,,119493,0.1 F,0,88976,89176,0,1 MY,1,88976,89176,455,445 M,1,92851,93051,430,445,434,452 F,0,92851,93051,1,0
Sprite,Foreground,TopLeft,"SB\datail\alp_u0.png",440,240 S,0,0,,119493,0.1 F,0,89109,89309,0,1 MY,1,89109,89309,455,445 M,1,92984,93184,440,445,442,451 F,0,92984,93184,1,0
Sprite,Foreground,TopLeft,"SB\datail\alp_n0.png",450,240 S,0,0,,119493,0.1 F,0,89242,89442,0,1 MY,1,89242,89442,455,445 M,1,93117,93317,450,445,453,454 F,0,93117,93317,1,0
Sprite,Foreground,TopLeft,"SB\datail\alp_d0.png",460,240 S,0,0,,119493,0.1 F,0,89375,89575,0,1 MY,1,89375,89575,455,445 M,1,93250,93450,460,445,462,452 F,0,93250,93450,1,0
Sprite,Foreground,TopLeft,"SB\datail\alp_d0.png",480,240 S,0,0,,119493,0.1 F,0,89508,89708,0,1 MY,1,89508,89708,455,445 M,1,93383,93583,480,445,482,454 F,0,93383,93583,1,0
Sprite,Foreground,TopLeft,"SB\datail\alp_r0.png",490,240 S,0,0,,119493,0.1 F,0,89641,89841,0,1 MY,1,89641,89841,455,445 M,1,93516,93716,490,445,494,453 F,0,93516,93716,1,0
Sprite,Foreground,TopLeft,"SB\datail\alp_a0.png",500,240 S,0,0,,119493,0.1 F,0,89774,89974,0,1 MY,1,89774,89974,455,445 M,1,93649,93849,500,445,502,454 F,0,93649,93849,1,0
Sprite,Foreground,TopLeft,"SB\datail\alp_w0.png",510,240 S,0,0,,119493,0.1 F,0,89907,90107,0,1 MY,1,89907,90107,455,445 M,1,93782,93982,510,445,513,452 F,0,93782,93982,1,0
Sprite,Foreground,TopLeft,"SB\datail\alp_n0.png",520,240 S,0,0,,119493,0.1 F,0,90040,90240,0,1 MY,1,90040,90240,455,445 M,1,93915,94115,520,445,522,451 F,0,93915,94115,1,0
Sprite,Foreground,TopLeft,"SB\datail\alp_b0.png",540,240 S,0,0,,119493,0.1 F,0,90173,90373,0,1 MY,1,90173,90373,455,445 M,1,94048,94248,540,445,544,453 F,0,94048,94248,1,0
Sprite,Foreground,TopLeft,"SB\datail\alp_y0.png",550,240 S,0,0,,119493,0.1 F,0,90306,90506,0,1 MY,1,90306,90506,455,445 M,1,94181,94381,550,445,552,451 F,0,94181,94381,1,0
Sprite,Foreground,TopLeft,"SB\datail\alp_r0.png",570,240 S,0,0,,119493,0.1 F,0,90439,90639,0,1 MY,1,90439,90639,455,445 M,1,94314,94514,570,445,572,453 F,0,94314,94514,1,0
Sprite,Foreground,TopLeft,"SB\datail\alp_e0.png",580,240 S,0,0,,119493,0.1 F,0,90572,90772,0,1 MY,1,90572,90772,455,445 M,1,94447,94647,580,445,583,454 F,0,94447,94647,1,0
Sprite,Foreground,TopLeft,"SB\datail\alp_k0.png",590,240 S,0,0,,119493,0.1 F,0,90705,90905,0,1 MY,1,90705,90905,455,445 M,1,94580,94780,590,445,593,451 F,0,94580,94780,1,0
Sprite,Foreground,TopLeft,"SB\datail\alp_u0.png",600,240 S,0,0,,119493,0.1 F,0,90838,91038,0,1 MY,1,90838,91038,455,445 M,1,94713,94913,600,445,603,451 F,0,94713,94913,1,0
Sprite,Foreground,TopLeft,"SB\datail\alp_m1.png",370,240 S,0,0,,119493,0.1 F,0,94913,95113,0,1 MY,1,94913,95113,455,445 M,1,98788,98988,370,445,372,451 F,0,98788,98988,1,0
Sprite,Foreground,TopLeft,"SB\datail\alp_a0.png",380,240 S,0,0,,119493,0.1 F,0,95046,95246,0,1 MY,1,95046,95246,455,445 M,1,98921,99121,380,445,382,452 F,0,98921,99121,1,0
Sprite,Foreground,TopLeft,"SB\datail\alp_p0.png",390,240 S,0,0,,119493,0.1 F,0,95179,95379,0,1 MY,1,95179,95379,455,445 M,1,99054,99254,390,445,393,454 F,0,99054,99254,1,0
Sprite,Foreground,TopLeft,"SB\datail\alp_p0.png",400,240 S,0,0,,119493,0.1 F,0,95312,95512,0,1 MY,1,95312,95512,455,445 M,1,99187,99387,400,445,403,453 F,0,99187,99387,1,0
Sprite,Foreground,TopLeft,"SB\datail\alp_e0.png",410,240 S,0,0,,119493,0.1 F,0,95445,95645,0,1 MY,1,95445,95645,455,445 M,1,99320,99520,410,445,412,450 F,0,99320,99520,1,0
Sprite,Foreground,TopLeft,"SB\datail\alp_d0.png",420,240 S,0,0,,119493,0.1 F,0,95578,95778,0,1 MY,1,95578,95778,455,445 M,1,99453,99653,420,445,424,452 F,0,99453,99653,1,0
Sprite,Foreground,TopLeft,"SB\datail\alp_b0.png",440,240 S,0,0,,119493,0.1 F,0,95711,95911,0,1 MY,1,95711,95911,455,445 M,1,99586,99786,440,445,443,453 F,0,99586,99786,1,0
Sprite,Foreground,TopLeft,"SB\datail\alp_y0.png",450,240 S,0,0,,119493,0.1 F,0,95844,96044,0,1 MY,1,95844,96044,455,445 M,1,99719,99919,450,445,453,452 F,0,99719,99919,1,0
Sprite,Foreground,TopLeft,"SB\datail\alp_r0.png",470,240 S,0,0,,119493,0.1 F,0,95977,96177,0,1 MY,1,95977,96177,455,445 M,1,99852,100052,470,445,473,453 F,0,99852,100052,1,0
Sprite,Foreground,TopLeft,"SB\datail\alp_r0.png",480,240 S,0,0,,119493,0.1 F,0,96110,96310,0,1 MY,1,96110,96310,455,445 M,1,99985,100185,480,445,484,454 F,0,99985,100185,1,0
Sprite,Foreground,TopLeft,"SB\datail\alp_t0.png",490,240 S,0,0,,119493,0.1 F,0,96243,96443,0,1 MY,1,96243,96443,455,445 M,1,100118,100318,490,445,493,452 F,0,100118,100318,1,0
Sprite,Foreground,TopLeft,"SB\datail\alp_y0.png",500,240 S,0,0,,119493,0.1 F,0,96376,96576,0,1 MY,1,96376,96576,455,445 M,1,100251,100451,500,445,502,450 F,0,100251,100451,1,0
Sprite,Foreground,TopLeft,"SB\datail\alp_u0.png",510,240 S,0,0,,119493,0.1 F,0,96509,96709,0,1 MY,1,96509,96709,455,445 M,1,100384,100584,510,445,513,452 F,0,100384,100584,1,0
Sprite,Foreground,TopLeft,"SB\datail\alp_i0.png",520,240 S,0,0,,119493,0.1 F,0,96642,96842,0,1 MY,1,96642,96842,455,445 M,1,100517,100717,520,445,522,453 F,0,100517,100717,1,0
Sprite,Foreground,TopLeft,"SB\datail\alp_s1.png",370,240 S,0,0,,119493,0.1 F,0,100717,100917,0,1 MY,1,100717,100917,455,445 M,1,104592,104792,370,445,374,453 F,0,104592,104792,1,0
Sprite,Foreground,TopLeft,"SB\datail\alp_t0.png",380,240 S,0,0,,119493,0.1 F,0,100850,101050,0,1 MY,1,100850,101050,455,445 M,1,104725,104925,380,445,383,454 F,0,104725,104925,1,0
Sprite,Foreground,TopLeft,"SB\datail\alp_o0.png",390,240 S,0,0,,119493,0.1 F,0,100983,101183,0,1 MY,1,100983,101183,455,445 M,1,104858,105058,390,445,392,450 F,0,104858,105058,1,0
Sprite,Foreground,TopLeft,"SB\datail\alp_r0.png",400,240 S,0,0,,119493,0.1 F,0,101116,101316,0,1 MY,1,101116,101316,455,445 M,1,104991,105191,400,445,404,451 F,0,104991,105191,1,0
Sprite,Foreground,TopLeft,"SB\datail\alp_y0.png",410,240 S,0,0,,119493,0.1 F,0,101249,101449,0,1 MY,1,101249,101449,455,445 M,1,105124,105324,410,445,413,453 F,0,105124,105324,1,0
Sprite,Foreground,TopLeft,"SB\datail\alp_b0.png",420,240 S,0,0,,119493,0.1 F,0,101382,101582,0,1 MY,1,101382,101582,455,445 M,1,105257,105457,420,445,422,453 F,0,105257,105457,1,0
Sprite,Foreground,TopLeft,"SB\datail\alp_o0.png",430,240 S,0,0,,119493,0.1 F,0,101515,101715,0,1 MY,1,101515,101715,455,445 M,1,105390,105590,430,445,432,453 F,0,105390,105590,1,0
Sprite,Foreground,TopLeft,"SB\datail\alp_a0.png",440,240 S,0,0,,119493,0.1 F,0,101648,101848,0,1 MY,1,101648,101848,455,445 M,1,105523,105723,440,445,442,453 F,0,105523,105723,1,0
Sprite,Foreground,TopLeft,"SB\datail\alp_r0.png",450,240 S,0,0,,119493,0.1 F,0,101781,101981,0,1 MY,1,101781,101981,455,445 M,1,105656,105856,450,445,454,453 F,0,105656,105856,1,0
Sprite,Foreground,TopLeft,"SB\datail\alp_d0.png",460,240 S,0,0,,119493,0.1 F,0,101914,102114,0,1 MY,1,101914,102114,455,445 M,1,105789,105989,460,445,464,452 F,0,105789,105989,1,0
Sprite,Foreground,TopLeft,"SB\datail\alp_m0.png",480,240 S,0,0,,119493,0.1 F,0,102047,102247,0,1 MY,1,102047,102247,455,445 M,1,105922,106122,480,445,482,454 F,0,105922,106122,1,0
Sprite,Foreground,TopLeft,"SB\datail\alp_a0.png",490,240 S,0,0,,119493,0.1 F,0,102180,102380,0,1 MY,1,102180,102380,455,445 M,1,106055,106255,490,445,493,453 F,0,106055,106255,1,0
Sprite,Foreground,TopLeft,"SB\datail\alp_d0.png",500,240 S,0,0,,119493,0.1 F,0,102313,102513,0,1 MY,1,102313,102513,455,445 M,1,106188,106388,500,445,502,452 F,0,106188,106388,1,0
Sprite,Foreground,TopLeft,"SB\datail\alp_e0.png",510,240 S,0,0,,119493,0.1 F,0,102446,102646,0,1 MY,1,102446,102646,455,445 M,1,106321,106521,510,445,514,453 F,0,106321,106521,1,0
Sprite,Foreground,TopLeft,"SB\datail\alp_b0.png",530,240 S,0,0,,119493,0.1 F,0,102579,102779,0,1 MY,1,102579,102779,455,445 M,1,106454,106654,530,445,532,454 F,0,106454,106654,1,0
Sprite,Foreground,TopLeft,"SB\datail\alp_y0.png",540,240 S,0,0,,119493,0.1 F,0,102712,102912,0,1 MY,1,102712,102912,455,445 M,1,106587,106787,540,445,544,450 F,0,106587,106787,1,0
Sprite,Foreground,TopLeft,"SB\datail\alp_r0.png",560,240 S,0,0,,119493,0.1 F,0,102845,103045,0,1 MY,1,102845,103045,455,445 M,1,106720,106920,560,445,563,454 F,0,106720,106920,1,0
Sprite,Foreground,TopLeft,"SB\datail\alp_r0.png",570,240 S,0,0,,119493,0.1 F,0,102978,103178,0,1 MY,1,102978,103178,455,445 M,1,106853,107053,570,445,574,452 F,0,106853,107053,1,0
Sprite,Foreground,TopLeft,"SB\datail\alp_t0.png",580,240 S,0,0,,119493,0.1 F,0,103111,103311,0,1 MY,1,103111,103311,455,445 M,1,106986,107186,580,445,583,454 F,0,106986,107186,1,0
Sprite,Foreground,TopLeft,"SB\datail\alp_y0.png",590,240 S,0,0,,119493,0.1 F,0,103244,103444,0,1 MY,1,103244,103444,455,445 M,1,107119,107319,590,445,593,451 F,0,107119,107319,1,0
Sprite,Foreground,TopLeft,"SB\datail\alp_u0.png",600,240 S,0,0,,119493,0.1 F,0,103377,103577,0,1 MY,1,103377,103577,455,445 M,1,107252,107452,600,445,604,450 F,0,107252,107452,1,0
Sprite,Foreground,TopLeft,"SB\datail\alp_i0.png",610,240 S,0,0,,119493,0.1 F,0,103510,103710,0,1 MY,1,103510,103710,455,445 M,1,107385,107585,610,445,614,453 F,0,107385,107585,1,0
Sprite,Foreground,TopLeft,"SB\datail\alp_s1.png",370,240 S,0,0,,119493,0.1 F,0,107585,107785,0,1 MY,1,107585,107785,455,445 M,1,111460,111660,370,445,373,451 F,0,111460,111660,1,0
Sprite,Foreground,TopLeft,"SB\datail\alp_o0.png",380,240 S,0,0,,119493,0.1 F,0,107718,107918,0,1 MY,1,107718,107918,455,445 M,1,111593,111793,380,445,384,454 F,0,111593,111793,1,0
Sprite,Foreground,TopLeft,"SB\datail\alp_n0.png",390,240 S,0,0,,119493,0.1 F,0,107851,108051,0,1 MY,1,107851,108051,455,445 M,1,111726,111926,390,445,392,452 F,0,111726,111926,1,0
Sprite,Foreground,TopLeft,"SB\datail\alp_g0.png",400,240 S,0,0,,119493,0.1 F,0,107984,108184,0,1 MY,1,107984,108184,455,445 M,1,111859,112059,400,445,402,454 F,0,111859,112059,1,0
Sprite,Foreground,TopLeft,"SB\datail\alp_c0.png",420,240 S,0,0,,119493,0.1 F,0,108117,108317,0,1 MY,1,108117,108317,455,445 M,1,111992,112192,420,445,423,453 F,0,111992,112192,1,0
Sprite,Foreground,TopLeft,"SB\datail\alp_o0.png",430,240 S,0,0,,119493,0.1 F,0,108250,108450,0,1 MY,1,108250,108450,455,445 M,1,112125,112325,430,445,433,454 F,0,112125,112325,1,0
Sprite,Foreground,TopLeft,"SB\datail\alp_m0.png",440,240 S,0,0,,119493,0.1 F,0,108383,108583,0,1 MY,1,108383,108583,455,445 M,1,112258,112458,440,445,443,454 F,0,112258,112458,1,0
Sprite,Foreground,TopLeft,"SB\datail\alp_p0.png",450,240 S,0,0,,119493,0.1 F,0,108516,108716,0,1 MY,1,108516,108716,455,445 M,1,112391,112591,450,445,454,453 F,0,112391,112591,1,0
Sprite,Foreground,TopLeft,"SB\datail\alp_o0.png",460,240 S,0,0,,119493,0.1 F,0,108649,108849,0,1 MY,1,108649,108849,455,445 M,1,112524,112724,460,445,463,450 F,0,112524,112724,1,0
Sprite,Foreground,TopLeft,"SB\datail\alp_s0.png",470,240 S,0,0,,119493,0.1 F,0,108782,108982,0,1 MY,1,108782,108982,455,445 M,1,112657,112857,470,445,473,453 F,0,112657,112857,1,0
Sprite,Foreground,TopLeft,"SB\datail\alp_e0.png",480,240 S,0,0,,119493,0.1 F,0,108915,109115,0,1 MY,1,108915,109115,455,445 M,1,112790,112990,480,445,484,450 F,0,112790,112990,1,0
Sprite,Foreground,TopLeft,"SB\datail\alp_d0.png",490,240 S,0,0,,119493,0.1 F,0,109048,109248,0,1 MY,1,109048,109248,455,445 M,1,112923,113123,490,445,492,451 F,0,112923,113123,1,0
Sprite,Foreground,TopLeft,"SB\datail\alp_b0.png",510,240 S,0,0,,119493,0.1 F,0,109181,109381,0,1 MY,1,109181,109381,455,445 M,1,113056,113256,510,445,514,453 F,0,113056,113256,1,0
Sprite,Foreground,TopLeft,"SB\datail\alp_y0.png",520,240 S,0,0,,119493,0.1 F,0,109314,109514,0,1 MY,1,109314,109514,455,445 M,1,113189,113389,520,445,522,450 F,0,113189,113389,1,0
Sprite,Foreground,TopLeft,"SB\datail\alp_e1.png",540,240 S,0,0,,119493,0.1 F,0,109447,109647,0,1 MY,1,109447,109647,455,445 M,1,113322,113522,540,445,542,453 F,0,113322,113522,1,0
Sprite,Foreground,TopLeft,"SB\datail\alp_a0.png",550,240 S,0,0,,119493,0.1 F,0,109580,109780,0,1 MY,1,109580,109780,455,445 M,1,113455,113655,550,445,553,450 F,0,113455,113655,1,0
Sprite,Foreground,TopLeft,"SB\datail\alp_g0.png",560,240 S,0,0,,119493,0.1 F,0,109713,109913,0,1 MY,1,109713,109913,455,445 M,1,113588,113788,560,445,564,453 F,0,113588,113788,1,0
Sprite,Foreground,TopLeft,"SB\datail\alp_l0.png",570,240 S,0,0,,119493,0.1 F,0,109846,110046,0,1 MY,1,109846,110046,455,445 M,1,113721,113921,570,445,572,450 F,0,113721,113921,1,0
Sprite,Foreground,TopLeft,"SB\datail\alp_e0.png",580,240 S,0,0,,119493,0.1 F,0,109979,110179,0,1 MY,1,109979,110179,455,445 M,1,113854,114054,580,445,583,453 F,0,113854,114054,1,0
Sprite,Foreground,TopLeft,"SB\datail\alp_a0.png",600,240 S,0,0,,119493,0.1 F,0,110112,110312,0,1 MY,1,110112,110312,455,445 M,1,113987,114187,600,445,603,452 F,0,113987,114187,1,0
Sprite,Foreground,TopLeft,"SB\datail\alp_k0.png",610,240 S,0,0,,119493,0.1 F,0,110245,110445,0,1 MY,1,110245,110445,455,445 M,1,114120,114320,610,445,614,450 F,0,114120,114320,1,0
Sprite,Foreground,TopLeft,"SB\datail\alp_a0.png",620,240 S,0,0,,119493,0.1 F,0,110378,110578,0,1 MY,1,110378,110578,455,445 M,1,114253,114453,620,445,623,454 F,0,114253,114453,1,0
Sprite,Foreground,TopLeft,"SB\datail\alp_k0.png",640,240 S,0,0,,119493,0.1 F,0,110511,110711,0,1 MY,1,110511,110711,455,445 M,1,114386,114586,640,445,643,454 F,0,114386,114586,1,0
Sprite,Foreground,TopLeft,"SB\datail\alp_o0.png",650,240 S,0,0,,119493,0.1 F,0,110644,110844,0,1 MY,1,110644,110844,455,445 M,1,114519,114719,650,445,652,453 F,0,114519,114719,1,0
Sprite,Foreground,TopLeft,"SB\datail\alp_r0.png",660,240 S,0,0,,119493,0.1 F,0,110777,110977,0,1 MY,1,110777,110977,455,445 M,1,114652,114852,660,445,662,453 F,0,114652,114852,1,0
Sprite,Foreground,TopLeft,"SB\datail\alp_s0.png",670,240 S,0,0,,119493,0.1 F,0,110910,111110,0,1 MY,1,110910,111110,455,445 M,1,114785,114985,670,445,674,453 F,0,114785,114985,1,0
Sprite,Foreground,TopLeft,"SB\datail\alp_k0.png",690,240 S,0,0,,119493,0.1 F,0,111043,111243,0,1 MY,1,111043,111243,455,445 M,1,114918,115118,690,445,694,451 F,0,114918,115118,1,0
//Storyboard Sound Samples

[TimingPoints]
1093,400,4,1,0,80,1,0
14293,-66.6666666666667,4,1,0,80,0,0
15293,-76.9230769230769,4,1,0,80,0,0
15493,-66.6666666666667,4,1,0,80,0,0
16893,-76.9230769230769,4,1,0,80,0,0
17093,-66.6666666666667,4,1,0,80,0,0
18493,-76.9230769230769,4,1,0,80,0,0
18693,-66.6666666666667,4,1,0,80,0,0
20093,-76.9230769230769,4,1,0,80,0,0
25093,-76.9230769230769,4,1,0,40,0,0
26293,-200,4,1,0,80,0,0
26693,-50,4,1,0,80,0,0
27493,-57.1428571428571,4,1,0,80,0,0
28293,-66.6666666666667,4,1,0,80,0,0
29093,-66.6666666666667,4,1,0,100,0,0
29193,-66.6666666666667,4,1,0,80,0,0
29393,-66.6666666666667,4,1,0,100,0,0
29493,-66.6666666666667,4,1,0,80,0,0
29693,-66.6666666666667,4,1,0,100,0,0
29793,-66.6666666666667,4,1,0,80,0,0
29893,-50,4,1,0,80,0,0
30693,-100,4,1,0,80,0,0
32293,-66.6666666666667,4,1,0,80,0,0
33093,-200,4,1,0,80,0,0
33393,-50,4,1,0,80,0,0
33693,-50,4,1,0,80,0,0
33893,-66.6666666666667,4,1,0,80,0,0
34493,-133.333333333333,4,1,0,80,0,0
35493,-66.6666666666667,4,1,0,80,0,0
36293,-133.333333333333,4,1,0,80,0,0
37093,-66.6666666666667,4,1,0,80,0,0
37693,-100,4,1,0,80,0,0
37893,-80,4,1,0,80,0,0
38493,-200,4,1,0,80,0,0
38993,-133.333333333333,4,1,0,80,0,0
39093,-200,4,1,0,80,0,0
39493,-50,4,1,0,80,0,0
40293,-57.1428571428571,4,1,0,80,0,0
41093,-66.6666666666667,4,1,0,80,0,0
41893,-66.6666666666667,4,1,0,100,0,0
41993,-66.6666666666667,4,1,0,80,0,0
42193,-66.6666666666667,4,1,0,100,0,0
42293,-66.6666666666667,4,1,0,80,0,0
42493,-66.6666666666667,4,1,0,100,0,0
42593,-66.6666666666667,4,1,0,80,0,0
42693,-133.333333333333,4,1,0,80,0,0
43093,-50,4,1,0,80,0,0
43493,-100,4,1,0,80,0,0
45093,-66.6666666666667,4,1,0,80,0,0
45893,-33.3333333333333,4,1,0,80,0,0
46493,-200,4,1,0,80,0,0
46693,-33.3333333333333,4,1,0,80,0,0
47293,-200,4,1,0,80,0,0
47493,-33.3333333333333,4,1,0,80,0,0
48093,-200,4,1,0,80,0,0
48293,-133.333333333333,4,1,0,80,0,0
49093,-66.6666666666667,4,1,0,80,0,0
49493,-50,4,1,0,80,0,0
49693,-100,4,1,0,80,0,0
49893,-66.6666666666667,4,1,0,80,0,0
50093,-200,4,1,0,80,0,0
50493,-100,4,1,0,80,0,0
50693,-66.6666666666667,4,1,0,80,0,0
51093,-50,4,1,0,80,0,0
52293,-200,4,1,0,80,0,0
53093,-200,4,1,0,80,0,0
53193,-200,4,1,0,60,0,0
53893,-200,4,1,0,80,0,0
53993,-200,4,1,0,60,0,0
54693,-200,4,1,0,80,0,0
54793,-200,4,1,0,60,0,0
54993,-200,4,1,0,80,0,0
55193,-200,4,1,0,60,0,0
55293,-200,4,1,0,80,0,0
55393,-200,4,1,0,60,0,0
55493,-200,4,1,0,80,0,0
55593,-200,4,1,0,60,0,0
56293,-200,4,1,0,80,0,0
56393,-200,4,1,0,60,0,0
56693,-200,4,1,0,80,0,0
56793,-200,4,1,0,60,0,0
57093,-200,4,1,0,80,0,0
57193,-200,4,1,0,60,0,0
57893,-200,4,1,0,80,0,0
57993,-200,4,1,0,60,0,0
58193,-200,4,1,0,80,0,0
58393,-200,4,1,0,60,0,0
58493,-200,4,1,0,80,0,0
58593,-200,4,1,0,60,0,0
58893,-133.333333333333,4,1,0,80,0,0
58993,-133.333333333333,4,1,0,60,0,0
59093,-100,4,1,0,80,0,0
59193,-100,4,1,0,60,0,0
59493,-200,4,1,0,80,0,0
59593,-200,4,1,0,60,0,0
60293,-200,4,1,0,80,0,0
60393,-200,4,1,0,60,0,0
61093,-200,4,1,0,80,0,0
61193,-200,4,1,0,60,0,0
61393,-200,4,1,0,80,0,0
61593,-200,4,1,0,60,0,0
61693,-200,4,1,0,80,0,0
61793,-200,4,1,0,60,0,0
61893,-200,4,1,0,80,0,0
61993,-200,4,1,0,60,0,0
62693,-200,4,1,0,80,0,0
62793,-200,4,1,0,60,0,0
63093,-200,4,1,0,80,0,0
63193,-200,4,1,0,60,0,0
63893,-50,4,1,0,80,0,0
64093,-50,4,1,0,60,0,0
64293,-50,4,1,0,80,0,0
64393,-50,4,1,0,60,0,0
64493,-50,4,1,0,80,0,0
64693,-50,4,1,0,60,0,0
64893,-50,4,1,0,80,0,0
64993,-50,4,1,0,60,0,0
65093,-100,4,1,0,80,0,0
65193,-100,4,1,0,50,0,0
65493,-100,4,1,0,40,0,0
66693,-66.6666666666667,4,1,0,60,0,0
66793,-66.6666666666667,4,1,0,35,0,0
67493,-80,4,1,0,60,0,0
67593,-66.6666666666667,4,1,0,35,0,0
68293,-200,4,1,0,60,0,0
68393,-66.6666666666667,4,1,0,30,0,0
71493,-200,4,1,0,60,0,0
71593,-66.6666666666667,4,1,0,30,0,0
73093,-200,4,1,0,60,0,0
73193,-66.6666666666667,4,1,0,25,0,0
73893,-200,4,1,0,60,0,0
73993,-66.6666666666667,4,1,0,25,0,0
74293,-200,4,1,0,60,0,0
74393,-66.6666666666667,4,1,0,25,0,0
74693,-200,4,1,0,60,0,0
74793,-66.6666666666667,4,1,0,20,0,0
75493,-66.6666666666667,4,1,0,18,0,0
76093,-66.6666666666667,4,1,0,15,0,0
77093,-66.6666666666667,4,1,0,10,0,0
77693,-66.6666666666667,4,1,0,8,0,0
77893,-133.333333333333,4,1,0,80,0,0
78493,-100,4,1,0,80,0,0
80093,-83.3333333333333,4,1,0,80,0,0
81093,-76.9230769230769,4,1,0,80,0,0
86593,-200,4,1,0,80,0,0
89093,-200,4,1,0,40,0,0
90293,-200,4,1,0,80,0,0
90693,-50,4,1,0,80,0,0
91493,-166.666666666667,4,1,0,80,0,0
92793,-166.666666666667,4,1,0,60,0,0
92893,-50,4,1,0,80,0,0
94693,-100,4,1,0,80,0,0
96293,-66.6666666666667,4,1,0,80,0,0
97093,-57.1428571428571,4,1,0,80,0,0
97693,-66.6666666666667,4,1,0,80,0,0
97893,-66.6666666666667,4,1,0,80,0,0
98793,-83.3333333333333,4,1,0,80,0,0
99293,-66.6666666666667,4,1,0,80,0,0
99693,-133.333333333333,4,1,0,80,0,0
99893,-66.6666666666667,4,1,0,100,0,0
99993,-66.6666666666667,4,1,0,80,0,0
100093,-66.6666666666667,4,1,0,100,0,0
100193,-66.6666666666667,4,1,0,80,0,0
100693,-200,4,1,0,80,0,0
101293,-66.6666666666667,4,1,0,80,0,0
102493,-200,4,1,0,80,0,0
102893,-66.6666666666667,4,1,0,80,0,0
103293,-50,4,1,0,80,0,0
104293,-100,4,1,0,80,0,0
105093,-80,4,1,0,80,0,0
105893,-44.4444444444444,4,1,0,80,0,0
106693,-50,4,1,0,80,0,0
107493,-100,4,1,0,80,0,0
109293,-66.6666666666667,4,1,0,80,0,0
109693,-100,4,1,0,80,0,0
109893,-33.3333333333333,4,1,0,80,0,0
110493,-200,4,1,0,80,0,0
110693,-33.3333333333333,4,1,0,80,0,0
111293,-200,4,1,0,80,0,0
111493,-33.3333333333333,4,1,0,80,0,0
112093,-200,4,1,0,80,0,0
112293,-133.333333333333,4,1,0,80,0,0
113093,-66.6666666666667,4,1,0,80,0,0
113493,-50,4,1,0,80,0,0
113693,-100,4,1,0,80,0,0
113893,-66.6666666666667,4,1,0,80,0,0
114093,-200,4,1,0,80,0,0
114493,-100,4,1,0,80,0,0
114693,-57.1428571428571,4,1,0,80,0,0
115093,-50,4,1,0,80,0,0
116293,-200,4,2,0,60,0,0
116393,-200,4,2,0,5,0,0

[HitObjects]
88,52,13893,6,0,B|64:120|112:172|112:172|168:128|156:60,1,254.999992847443,4|0,0:0|0:0,0:0:0:0:
156,61,14293,1,8,0:0:0:0:
24,192,14493,1,0,0:0:0:0:
236,204,14693,5,0,0:0:0:0:
196,212,14793,2,0,P|228:152|240:88,1,127.50000128746,0|0,0:0|2:0,0:0:0:0:
44,220,14993,1,0,0:0:0:0:
24,192,15093,2,0,P|20:264|36:320,1,127.50000128746,8|0,0:0|0:0,0:0:0:0:
88,52,15293,2,0,P|116:120|116:164,1,110.49999184227,2|0,0:0|2:0,0:0:0:0:
238,313,15493,6,0,P|352:344|488:224,1,255.000002574921,4|0,0:0|0:0,0:0:0:0:
353,265,15793,2,0,P|291:279|238:313,1,127.50000128746,0|8,0:0|0:0,0:0:0:0:
432,20,16093,6,0,P|444:164|528:240,1,255.000002574921
324,58,16393,2,0,P|252:176|84:208,1,255.000002574921
80,176,16693,6,0,P|108:252|112:308,1,127.50000128746,8|0,0:0|0:0,0:0:0:0:
24,112,16893,2,0,P|36:52|56:0,1,110.49999184227,2|0,0:0|2:0,0:0:0:0:
324,58,17093,6,0,P|348:152|468:256,1,255.000002574921,4|0,0:0|0:0,0:0:0:0:
512,244,17393,2,0,P|464:288|408:316,1,127.50000128746,0|8,0:0|0:0,0:0:0:0:
142,156,17693,6,0,P|272:152|410:212,1,255.000002574921
354,270,17993,2,0,P|224:312|104:300,1,255.000002574921
44,248,18293,2,0,P|120:248|168:228,1,127.50000128746,8|0,0:0|0:0,0:0:0:0:
116,24,18493,2,0,P|70:14|3:15,1,110.49999184227,2|0,0:0|2:0,0:0:0:0:
392,72,18693,6,0,P|264:104|148:72,1,255.000002574921
116,24,18993,2,0,P|132:72|132:148,1,127.50000128746,0|8,0:0|0:0,0:0:0:0:
392,72,19293,6,0,P|380:176|444:312,1,255.000002574921
500,312,19593,2,0,P|428:346|256:336,1,255.000002574921
230,260,19893,2,0,P|249:192|245:136,1,127.50000128746,8|0,0:0|0:0,0:0:0:0:
75,279,20093,2,0,P|73:333|91:388,1,110.49999184227,2|0,0:0|2:0,0:0:0:0:
28,208,20293,5,4,0:0:0:0:
481,164,20493,1,0,0:0:0:0:
420,28,20693,5,8,0:0:0:0:
72,312,20893,1,0,0:0:0:0:
24,104,21093,5,0,0:0:0:0:
460,140,21293,1,0,0:0:0:0:
80,184,21493,5,8,0:0:0:0:
396,208,21693,2,0,P|416:256|420:328,1,110.49999184227,2|0,0:0|0:0,0:0:0:0:
494,240,21893,5,4,0:0:0:0:
72,292,22093,1,0,0:0:0:0:
144,24,22293,5,8,0:0:0:0:
433,36,22493,1,0,0:0:0:0:
200,92,22693,5,0,0:0:0:0:
240,364,22893,1,0,0:0:0:0:
18,180,23093,5,8,0:0:0:0:
452,291,23293,2,0,P|464:233|468:175,1,110.49999184227,2|0,0:0|0:0,0:0:0:0:
508,360,23493,5,0,0:0:0:0:
476,368,23593,1,0,0:0:0:0:
444,372,23693,1,0,0:0:0:0:
412,372,23793,1,0,0:0:0:0:
300,264,23893,5,8,0:0:0:0:
268,256,23993,1,0,0:0:0:0:
236,252,24093,1,0,0:0:0:0:
204,252,24193,1,0,0:0:0:0:
80,351,24293,5,0,0:0:0:0:
60,315,24393,1,0,0:0:0:0:
52,275,24493,1,0,0:0:0:0:
55,231,24593,1,0,0:0:0:0:
215,123,24693,5,8,0:0:0:0:
228,164,24793,1,0,0:0:0:0:
224,212,24893,1,0,0:0:0:0:
204,252,24993,1,0,0:0:0:0:
55,336,25093,5,6,0:0:0:0:
123,300,25293,1,2,0:0:0:0:
195,332,25493,1,2,0:0:0:0:
263,296,25693,1,2,0:0:0:0:
337,329,25893,1,2,0:0:0:0:
406,291,26093,1,2,0:0:0:0:
479,324,26293,6,0,L|472:368,1,42.4999988079071,2|0,2:0|2:0,0:0:0:0:
427,140,26493,2,0,L|420:184,1,42.4999988079071,2|0,2:0|2:0,0:0:0:0:
132,197,26693,6,6,B|256:253|400:209|400:209|364:181|320:165,1,339.999990463257,6|0,0:0|2:0,0:0:0:0:
92,120,26993,1,0,0:0:0:0:
160,72,27093,2,2,B|224:128|224:272|128:328|128:328|96:324|76:296,1,339.999990463257,2|0,0:0|0:0,0:0:0:0:
24,172,27393,1,0,0:0:0:0:
16,160,27493,6,0,P|188:168|416:24,2,446.249991738796,4|0|0,2:0|0:0|0:0,0:0:0:0:
300,160,28193,1,0,0:0:0:0:
492,68,28293,6,0,P|472:124|460:196,1,127.50000128746,0|0,0:0|2:0,0:0:0:0:
424,368,28493,2,0,P|413:305|392:245,1,127.50000128746,0|0,0:0|2:0,0:0:0:0:
245,56,28693,6,0,P|180:56|112:80,1,127.50000128746
163,348,28893,2,0,P|92:344|36:324,1,127.50000128746
43,109,29093,6,0,P|184:96|328:156,1,255.000002574921
356,79,29393,2,0,P|408:187|420:323,1,255.000002574921
488,363,29693,2,0,P|424:344|364:340,1,127.50000128746
106,241,29893,6,0,B|208:172|332:199|332:199|324:256|252:272,1,339.999990463257,2|0,0:0|0:0,0:0:0:0:
38,188,30193,1,0,0:0:0:0:
13,106,30293,2,0,B|5:62|29:38|29:38|64:64|96:64|96:64|128:128|200:152|264:96,1,339.999990463257,2|0,0:0|0:0,0:0:0:0:
192,28,30593,1,0,0:0:0:0:
192,28,30693,6,0,P|153:37|104:40,1,84.9999976158143
431,67,30893,2,0,P|389:60|351:43,1,84.9999976158143
119,119,31093,6,0,P|79:115|35:95,1,84.9999976158143
492,125,31293,2,0,P|456:141|396:149,1,84.9999976158143
92,198,31493,6,0,P|52:212|8:214,1,84.9999976158143
411,230,31693,2,0,P|448:246|492:250,1,84.9999976158143
32,310,31893,6,0,P|68:300|112:276,1,84.9999976158143
469,340,32093,2,0,P|429:332|389:308,1,84.9999976158143
168,211,32293,6,0,P|152:260|150:335,1,127.50000128746
201,16,32493,2,0,P|217:64|218:139,1,127.50000128746
377,202,32693,2,0,P|328:218|253:219,1,127.50000128746
11,119,32893,2,0,P|75:117|136:136,1,127.50000128746
108,206,33093,6,0,P|56:204|16:192,1,84.9999976158143,2|0,0:0|0:0,0:0:0:0:
158,270,33393,2,0,B|288:300|422:237|422:237|448:260|444:300,1,339.999990463257,2|0,0:0|0:0,0:0:0:0:
511,342,33693,2,0,B|472:336|444:299|444:299|408:320|360:312,1,169.999995231629,4|0,1:0|2:0,0:0:0:0:
144,184,33893,6,0,P|296:192|400:156,1,255.000002574921
158,270,34193,2,0,P|88:134|5:62,1,255.000002574921,0|0,0:0|2:0,0:0:0:0:
228,216,34493,6,0,P|191:267|176:329,1,127.50000128746
314,226,34793,2,0,P|328:292|360:344,1,127.50000128746
390,178,35093,2,0,P|428:208|512:228,1,127.50000128746,0|0,0:0|2:0,0:0:0:0:
500,236,35359,1,0,0:0:0:0:
497,244,35426,1,0,0:0:0:0:
494,252,35493,2,0,P|432:236|368:240,1,127.50000128746
210,223,35693,1,0,0:0:0:0:
484,328,35793,6,0,P|420:331|359:315,1,127.50000128746
210,223,35993,2,0,P|148:207|84:211,1,127.50000128746
369,239,36193,1,0,0:0:0:0:
200,299,36293,6,0,P|161:248|140:188,1,127.50000128746,2|0,0:0|0:0,0:0:0:0:
124,192,36559,1,0,0:0:0:0:
104,200,36626,1,0,0:0:0:0:
85,210,36693,2,0,P|109:151|114:87,1,127.50000128746,2|0,0:0|0:0,0:0:0:0:
100,64,36959,1,0,0:0:0:0:
76,52,37026,1,0,0:0:0:0:
47,51,37093,6,2,P|228:104|400:30,1,382.500003862381,0|0,0:0|0:0,0:0:0:0:
412,8,37493,1,0,0:0:0:0:
492,47,37693,2,0,P|488:70|480:91,3,42.4999988079071
512,244,37893,6,0,P|392:196|116:276,1,424.999988079071,2|0,0:0|0:0,0:0:0:0:
445,326,38493,2,2,P|460:324|492:332,1,42.4999988079071,2|0,1:0|2:0,0:0:0:0:
152,24,38693,5,0,0:0:0:0:
152,24,38793,1,2,0:0:0:0:
445,326,38993,2,2,P|459:332|475:334,1,31.8750003218651,2|0,1:0|2:0,0:0:0:0:
152,24,39093,6,0,P|148:44|156:76,1,42.4999988079071
232,44,39293,1,2,1:0:0:0:
48,148,39493,6,2,L|388:120,1,339.999990463257,4|0,2:0|0:0,0:0:0:0:
232,44,39793,1,0,1:0:0:0:
151,65,39893,2,0,B|112:152|126:280|172:336|172:336|192:312|196:284,1,339.999990463257,2|0,0:0|0:0,0:0:0:0:
475,268,40193,1,0,0:0:0:0:
480,280,40293,6,0,P|284:192|52:212,2,446.249991738796
224,148,40993,1,0,0:0:0:0:
100,96,41093,6,0,P|116:156|112:224,1,127.50000128746,0|0,0:0|2:0,0:0:0:0:
55,362,41293,2,0,P|39:302|43:234,1,127.50000128746,0|0,0:0|2:0,0:0:0:0:
200,16,41493,6,0,P|268:16|328:32,1,127.50000128746
260,336,41693,2,0,P|336:336|392:320,1,127.50000128746
480,280,41893,6,0,P|380:248|228:252,1,255.000002574921
184,328,42193,2,0,B|124:348|64:340|64:340|24:284|36:208,1,255.000002574921
68,132,42493,2,0,P|72:192|60:260,1,127.50000128746
32,48,42693,6,0,P|88:48|160:68,1,127.50000128746,0|2,0:0|0:0,0:0:0:0:
220,116,42959,1,0,0:0:0:0:
220,116,43026,1,0,0:0:0:0:
220,116,43093,2,2,B|328:132|412:76|412:76|380:148|388:224,1,339.999990463257,0|0,0:0|0:0,0:0:0:0:
456,256,43393,1,0,0:0:0:0:
476,284,43493,6,0,P|432:288|388:304,1,84.9999976158143,4|0,0:0|0:0,0:0:0:0:
52,212,43693,2,0,P|96:224|136:223,1,84.9999976158143
480,204,43893,6,0,P|436:192|392:192,1,84.9999976158143
36,128,44093,2,0,P|76:124|120:108,1,84.9999976158143
492,120,44293,6,0,P|456:112|412:88,1,84.9999976158143
24,288,44493,2,0,P|68:280|104:264,1,84.9999976158143
476,284,44693,6,0,P|436:300|388:304,1,84.9999976158143,4|0,0:0|0:0,0:0:0:0:
28,188,44893,2,0,P|68:192|112:184,1,84.9999976158143
373,20,45093,6,0,P|373:83|355:144,1,127.50000128746
316,336,45293,2,0,P|300:287|299:212,1,127.50000128746
141,150,45493,2,0,P|189:134|264:133,1,127.50000128746
506,258,45693,2,0,P|440:256|380:236,1,127.50000128746
215,52,45893,6,2,B|72:68|72:68|88:180|88:180|64:296|64:296|200:284,1,510.000005149842,4|0,1:0|2:0,0:0:0:0:
166,141,46193,2,2,B|295:125|295:125|355:156|355:156|483:144|483:144|459:227|459:227|347:239,1,510.000005149842,2|0,0:0|2:0,0:0:0:0:
278,209,46493,2,0,B|281:256,1,42.4999988079071
125,316,46693,6,2,B|89:312|89:312|62:324|62:324|65:184|65:184|193:196|193:196|205:376,1,510.000005149842,4|0,0:0|2:0,0:0:0:0:
290,368,46993,2,2,B|270:120|270:120|110:100|110:100|162:68|162:68|214:72,1,510.000005149842,2|0,0:0|2:0,0:0:0:0:
351,125,47293,2,0,B|355:171,1,42.4999988079071
476,236,47493,6,2,B|408:228|408:228|324:264|324:264|112:240|112:240|160:288|160:288|236:296,1,510.000005149842,4|0,0:0|2:0,0:0:0:0:
424,308,47793,2,2,B|472:313|472:313|486:160|486:160|397:151|397:151|313:185|313:185|249:177|249:177|222:115,1,510.000005149842,2|0,0:0|2:0,0:0:0:0:
301,108,48093,2,0,B|343:91,1,42.4999988079071
52,180,48293,6,2,B|64:76|64:76|78:55|78:55|39:36|39:36|120:28,2,191.250001931191,0|0|0,0:0|0:0|0:0,0:0:0:0:
112,240,48993,1,0,0:0:0:0:
31,263,49093,6,0,B|71:260|71:260|112:240|112:240|168:336|168:336|196:284,1,255.000002574921,4|0,2:0|0:0,0:0:0:0:
272,240,49393,1,0,0:0:0:0:
272,240,49493,2,0,P|336:248|272:276,1,169.999995231629,2|0,0:0|0:0,0:0:0:0:
396,336,49693,2,0,P|408:360|424:372,2,42.4999988079071
256,148,49893,2,0,P|321:140|380:164,1,127.50000128746
436,248,50093,6,0,P|470:248|444:232,1,84.9999976158143,2|0,0:0|0:0,0:0:0:0:
72,188,50493,2,0,L|28:180,3,42.4999988079071
24,12,50693,6,0,L|60:272,1,254.999992847443,4|0,2:0|0:0,0:0:0:0:
28,344,50993,1,0,0:0:0:0:
16,336,51093,6,0,P|88:228|98:357,1,339.999990463257,2|0,0:0|0:0,0:0:0:0:
58,264,51359,1,0,0:0:0:0:
64,272,51426,1,0,0:0:0:0:
64,284,51493,6,0,P|74:154|146:262,1,339.999990463257,2|0,0:0|0:0,0:0:0:0:
278,187,51793,2,0,P|288:316|360:208,1,339.999990463257,2|0,0:0|0:0,0:0:0:0:
464,273,52093,2,0,P|496:221|496:293,1,169.999995231629,2|0,0:0|2:0,0:0:0:0:
464,352,52293,6,0,L|420:356,7,42.4999988079071,0|0|0|0|0|0|0|0,2:0|2:0|2:0|2:0|2:0|2:0|2:0|2:0,0:0:0:0:
356,304,53093,5,0,0:0:0:0:
352,280,53193,1,0,0:0:0:0:
348,256,53293,1,0,0:0:0:0:
272,288,53393,1,0,0:0:0:0:
196,320,53493,5,0,0:0:0:0:
192,296,53593,1,0,0:0:0:0:
116,264,53693,1,0,0:0:0:0:
112,240,53793,1,0,0:0:0:0:
36,208,53893,6,0,L|40:164,1,42.4999988079071
48,88,54093,1,0,0:0:0:0:
36,208,54193,6,0,L|40:164,1,42.4999988079071
48,88,54393,1,0,0:0:0:0:
36,208,54493,6,0,L|40:164,1,42.4999988079071
48,88,54693,1,0,0:0:0:0:
120,44,54793,5,0,0:0:0:0:
172,108,54893,1,0,0:0:0:0:
180,188,54993,1,0,0:0:0:0:
136,256,55093,5,0,0:0:0:0:
108,252,55193,1,0,0:0:0:0:
220,332,55293,1,0,0:0:0:0:
192,328,55393,1,0,0:0:0:0:
312,276,55493,5,0,0:0:0:0:
312,276,55593,1,0,0:0:0:0:
312,276,55693,1,0,0:0:0:0:
376,220,55793,5,0,0:0:0:0:
400,268,55893,1,0,0:0:0:0:
388,320,55993,1,0,0:0:0:0:
236,232,56093,5,0,0:0:0:0:
224,284,56193,1,0,0:0:0:0:
248,332,56293,1,0,0:0:0:0:
310,258,56393,5,0,0:0:0:0:
312,276,56493,1,0,0:0:0:0:
314,294,56593,1,0,0:0:0:0:
396,328,56693,5,0,0:0:0:0:
400,300,56793,1,0,0:0:0:0:
480,268,56893,1,0,0:0:0:0:
476,240,56993,1,0,0:0:0:0:
416,168,57093,5,0,0:0:0:0:
416,168,57193,1,0,0:0:0:0:
416,168,57293,1,0,0:0:0:0:
332,116,57393,5,0,0:0:0:0:
292,112,57493,1,0,0:0:0:0:
252,124,57593,1,0,0:0:0:0:
184,200,57693,5,0,0:0:0:0:
144,204,57793,1,0,0:0:0:0:
104,192,57893,1,0,0:0:0:0:
84,112,57993,1,0,0:0:0:0:
104,192,58093,1,0,0:0:0:0:
96,272,58193,1,0,0:0:0:0:
36,332,58293,5,0,0:0:0:0:
144,308,58393,1,0,0:0:0:0:
244,356,58493,1,0,0:0:0:0:
352,332,58593,1,0,0:0:0:0:
452,372,58693,6,0,L|496:368,1,42.4999988079071
412,192,58893,2,0,L|484:185,1,63.7500006437302
380,16,59093,2,0,L|467:8,3,84.9999976158143
396,32,59493,1,0,0:0:0:0:
328,80,59593,5,0,0:0:0:0:
288,56,59693,1,0,0:0:0:0:
244,56,59793,1,0,0:0:0:0:
168,92,59893,5,0,0:0:0:0:
164,128,59993,1,0,0:0:0:0:
80,120,60093,1,0,0:0:0:0:
84,156,60193,1,0,0:0:0:0:
148,216,60293,6,0,L|192:212,1,42.4999988079071
276,204,60493,1,0,0:0:0:0:
148,216,60593,6,0,L|192:212,1,42.4999988079071
276,204,60793,1,0,0:0:0:0:
148,216,60893,6,0,L|192:212,1,42.4999988079071
276,204,61093,1,0,0:0:0:0:
236,280,61193,5,0,0:0:0:0:
320,276,61293,1,0,0:0:0:0:
388,224,61393,1,0,0:0:0:0:
464,264,61493,5,0,0:0:0:0:
460,292,61593,1,0,0:0:0:0:
500,156,61693,1,0,0:0:0:0:
504,184,61793,1,0,0:0:0:0:
424,64,61893,5,0,0:0:0:0:
424,64,61993,1,0,0:0:0:0:
424,64,62093,1,0,0:0:0:0:
360,124,62193,5,0,0:0:0:0:
340,96,62293,1,0,0:0:0:0:
340,60,62393,1,0,0:0:0:0:
272,8,62493,5,0,0:0:0:0:
260,56,62593,1,0,0:0:0:0:
220,88,62693,1,0,0:0:0:0:
136,104,62793,5,0,0:0:0:0:
160,152,62893,1,0,0:0:0:0:
208,176,62993,1,0,0:0:0:0:
292,156,63093,5,0,0:0:0:0:
298,188,63193,1,0,0:0:0:0:
240,252,63293,1,0,0:0:0:0:
234,284,63393,1,0,0:0:0:0:
296,348,63493,6,0,L|384:340,1,84.9999976158143,2|0,0:0|0:0,0:0:0:0:
452,300,63759,1,0,0:0:0:0:
472,304,63826,1,0,0:0:0:0:
488,308,63893,2,2,L|148:340,1,339.999990463257,0|0,0:0|0:0,0:0:0:0:
80,288,64193,1,0,0:0:0:0:
88,280,64293,5,0,0:0:0:0:
56,272,64393,1,0,0:0:0:0:
80,248,64493,1,0,0:0:0:0:
44,240,64593,1,0,0:0:0:0:
56,152,64693,5,0,0:0:0:0:
24,144,64793,1,0,0:0:0:0:
48,120,64893,1,0,0:0:0:0:
12,112,64993,1,0,0:0:0:0:
32,28,65093,5,2,2:0:0:0:
42,24,65193,1,0,0:0:0:0:
53,21,65293,1,0,0:0:0:0:
64,18,65393,1,0,0:0:0:0:
75,17,65493,1,0,0:0:0:0:
87,17,65593,1,0,0:0:0:0:
98,18,65693,1,0,0:0:0:0:
109,19,65793,1,0,0:0:0:0:
120,22,65893,1,0,0:0:0:0:
131,25,65993,1,0,0:0:0:0:
142,29,66093,1,0,0:0:0:0:
152,34,66193,1,0,0:0:0:0:
161,40,66293,1,0,0:0:0:0:
170,47,66393,1,0,0:0:0:0:
179,55,66493,1,0,0:0:0:0:
187,63,66593,1,0,0:0:0:0:
272,56,66693,5,2,2:0:0:0:
269,72,66793,1,0,0:0:0:0:
263,88,66893,1,0,0:0:0:0:
255,103,66993,1,0,0:0:0:0:
246,117,67093,1,0,0:0:0:0:
234,129,67193,1,0,0:0:0:0:
220,140,67293,1,0,0:0:0:0:
205,148,67393,1,0,0:0:0:0:
352,144,67493,5,2,2:0:0:0:
348,127,67593,1,0,0:0:0:0:
347,110,67693,1,0,0:0:0:0:
349,93,67793,1,0,0:0:0:0:
353,77,67893,1,0,0:0:0:0:
359,61,67993,1,0,0:0:0:0:
368,46,68093,1,0,0:0:0:0:
379,33,68193,1,0,0:0:0:0:
452,80,68293,5,2,2:0:0:0:
447,98,68393,1,0,0:0:0:0:
448,118,68493,1,0,0:0:0:0:
454,136,68593,1,0,0:0:0:0:
465,152,68693,1,0,0:0:0:0:
480,164,68793,1,0,0:0:0:0:
498,171,68893,1,0,0:0:0:0:
480,178,68993,1,0,0:0:0:0:
465,190,69093,1,0,0:0:0:0:
454,206,69193,1,0,0:0:0:0:
448,224,69293,1,0,0:0:0:0:
447,244,69393,1,0,0:0:0:0:
452,263,69493,1,0,0:0:0:0:
466,284,69593,1,0,0:0:0:0:
452,305,69693,1,0,0:0:0:0:
427,297,69793,1,0,0:0:0:0:
427,271,69893,1,0,0:0:0:0:
411,256,69993,1,0,0:0:0:0:
393,244,70093,1,0,0:0:0:0:
374,234,70193,1,0,0:0:0:0:
355,227,70293,1,0,0:0:0:0:
334,222,70393,1,0,0:0:0:0:
313,219,70493,1,0,0:0:0:0:
292,219,70593,1,0,0:0:0:0:
271,223,70693,1,0,0:0:0:0:
263,243,70793,1,0,0:0:0:0:
253,262,70893,1,0,0:0:0:0:
240,279,70993,1,0,0:0:0:0:
225,294,71093,1,0,0:0:0:0:
209,307,71193,1,0,0:0:0:0:
191,319,71293,1,0,0:0:0:0:
172,328,71393,1,0,0:0:0:0:
96,306,71493,5,2,2:0:0:0:
91,297,71593,1,0,0:0:0:0:
86,288,71693,1,0,0:0:0:0:
82,279,71793,1,0,0:0:0:0:
79,270,71893,1,0,0:0:0:0:
76,260,71993,1,0,0:0:0:0:
73,251,72093,1,0,0:0:0:0:
71,241,72193,1,0,0:0:0:0:
70,231,72293,1,0,0:0:0:0:
69,221,72393,1,0,0:0:0:0:
69,211,72493,1,0,0:0:0:0:
70,201,72593,1,0,0:0:0:0:
71,191,72693,1,0,0:0:0:0:
72,182,72793,1,0,0:0:0:0:
74,172,72893,1,0,0:0:0:0:
77,162,72993,1,0,0:0:0:0:
156,196,73093,5,2,2:0:0:0:
178,195,73193,1,0,0:0:0:0:
201,192,73293,1,0,0:0:0:0:
222,185,73393,1,0,0:0:0:0:
243,175,73493,1,0,0:0:0:0:
262,163,73593,1,0,0:0:0:0:
279,148,73693,1,0,0:0:0:0:
294,130,73793,1,0,0:0:0:0:
235,68,73893,5,2,2:0:0:0:
234,49,73993,1,0,0:0:0:0:
233,30,74093,1,0,0:0:0:0:
231,11,74193,1,0,0:0:0:0:
305,1,74293,5,2,2:0:0:0:
311,18,74393,1,0,0:0:0:0:
316,35,74493,1,0,0:0:0:0:
323,52,74593,1,0,0:0:0:0:
392,104,74693,5,2,2:0:0:0:
436,100,74793,1,0,0:0:0:0:
480,96,74893,1,0,0:0:0:0:
464,128,74993,1,0,0:0:0:0:
431,125,75093,1,0,0:0:0:0:
398,122,75193,1,0,0:0:0:0:
408,148,75293,1,0,0:0:0:0:
433,145,75393,1,0,0:0:0:0:
458,143,75493,1,0,0:0:0:0:
450,166,75593,1,0,0:0:0:0:
431,164,75693,1,0,0:0:0:0:
412,162,75793,1,0,0:0:0:0:
419,179,75893,1,0,0:0:0:0:
433,178,75993,1,0,0:0:0:0:
447,176,76093,1,0,0:0:0:0:
440,188,76193,1,0,0:0:0:0:
435,201,76293,5,0,0:0:0:0:
416,216,76393,1,0,0:0:0:0:
436,236,76493,1,0,0:0:0:0:
417,251,76593,1,0,0:0:0:0:
437,271,76693,1,0,0:0:0:0:
418,286,76793,1,0,0:0:0:0:
438,306,76893,1,0,0:0:0:0:
419,321,76993,1,0,0:0:0:0:
439,341,77093,5,0,0:0:0:0:
419,321,77193,1,0,0:0:0:0:
384,300,77293,1,0,0:0:0:0:
336,280,77393,1,0,0:0:0:0:
280,268,77493,1,0,0:0:0:0:
218,268,77593,1,0,0:0:0:0:
150,253,77693,1,2,2:0:0:0:
88,208,77793,1,2,2:0:0:0:
65,136,77893,6,0,P|52:197|56:263,1,127.50000128746,4|0,0:0|0:0,0:0:0:0:
102,332,78193,2,0,P|124:309|136:276,1,63.7500006437302
128,76,78493,6,0,P|244:88|360:72,1,169.999995231629
368,48,78793,2,0,P|312:108|256:208,1,169.999995231629
324,240,79093,1,0,0:0:0:0:
65,136,79293,1,0,0:0:0:0:
384,180,79493,6,0,P|416:244|440:344,1,169.999995231629,2|0,2:0|0:0,0:0:0:0:
504,284,79793,2,0,P|472:264|420:256,1,84.9999976158143
216,356,80093,6,0,P|124:364|16:328,1,203.999988052369,0|2,0:0|2:0,0:0:0:0:
28,250,80393,2,0,P|120:254|228:214,1,203.999988052369
216,136,80693,1,0,0:0:0:0:
92,364,80893,1,0,0:0:0:0:
168,60,81093,6,0,P|268:24|384:32,1,220.999983684541
452,80,81393,2,0,P|428:128|412:188,1,110.49999184227
96,20,81693,6,0,P|172:124|192:240,1,220.999983684541
276,192,81993,2,0,P|184:256|112:344,1,220.999983684541
48,300,82293,1,0,0:0:0:0:
20,40,82493,1,0,0:0:0:0:
191,212,82693,6,0,P|296:212|407:180,1,220.999983684541
486,276,82993,2,0,P|426:280|370:264,1,110.49999184227
240,36,83293,6,0,P|276:136|260:280,1,220.999983684541
200,296,83593,2,0,P|92:296|-24:316,1,220.999983684541
4,232,83893,1,0,0:0:0:0:
270,249,84093,1,0,0:0:0:0:
500,372,84293,6,0,L|376:360,1,110.49999184227,2|0,2:0|2:0,0:0:0:0:
260,160,84493,1,0,0:0:0:0:
260,160,84593,1,0,0:0:0:0:
328,100,84693,6,0,P|344:172|304:240,1,110.49999184227,0|0,0:0|2:0,0:0:0:0:
188,214,84893,2,0,P|172:142|212:74,1,110.49999184227,0|0,0:0|2:0,0:0:0:0:
436,28,85093,2,0,L|420:160,1,110.49999184227,0|0,0:0|2:0,0:0:0:0:
468,284,85293,1,0,0:0:0:0:
468,284,85393,1,0,0:0:0:0:
484,272,85493,2,0,L|265:241,1,220.999983684541
20,364,85893,6,0,P|156:304|224:312,1,220.999983684541,2|0,2:0|0:0,0:0:0:0:
288,380,86193,1,0,0:0:0:0:
376,356,86293,2,0,L|412:136,1,220.999983684541
344,60,86593,2,0,L|340:32,1,21.2499994039536,0|0,0:0|2:0,0:0:0:0:
320,28,86693,5,2,2:0:0:0:
96,76,86893,5,0,0:0:0:0:
180,88,86993,1,0,0:0:0:0:
264,100,87093,1,0,0:0:0:0:
28,128,87293,1,2,2:0:0:0:
320,28,87493,5,0,0:0:0:0:
368,60,87593,1,0,0:0:0:0:
424,68,87693,1,0,0:0:0:0:
472,44,87793,1,0,0:0:0:0:
356,112,87893,5,0,0:0:0:0:
392,152,87993,1,0,0:0:0:0:
404,204,88093,1,0,0:0:0:0:
392,256,88193,1,0,0:0:0:0:
308,328,88293,5,0,0:0:0:0:
260,302,88393,1,0,0:0:0:0:
204,292,88493,1,0,0:0:0:0:
148,300,88593,1,0,0:0:0:0:
52,352,88693,5,0,0:0:0:0:
108,360,88793,1,0,0:0:0:0:
164,350,88893,1,0,0:0:0:0:
212,324,88993,1,0,0:0:0:0:
104,140,89093,5,6,0:0:0:0:
178,110,89293,1,2,0:0:0:0:
232,168,89493,1,2,0:0:0:0:
310,172,89693,1,2,0:0:0:0:
332,244,89893,1,2,0:0:0:0:
404,280,90093,1,2,0:0:0:0:
380,356,90293,6,0,L|336:349,1,42.4999988079071,2|0,2:0|2:0,0:0:0:0:
344,68,90493,2,0,L|300:61,1,42.4999988079071,2|0,2:0|2:0,0:0:0:0:
64,208,90693,6,0,P|264:184|392:228,1,339.999990463257,6|0,0:0|0:0,0:0:0:0:
468,228,90993,1,0,0:0:0:0:
427,295,91093,2,0,P|414:157|325:262,1,339.999990463257,2|0,0:0|0:0,0:0:0:0:
479,352,91493,6,2,P|428:84|252:284,1,662.999961170198,2|2,0:0|1:0,0:0:0:0:
188,52,92893,6,0,B|112:104|112:104|356:148,1,339.999990463257,2|0,0:0|0:0,0:0:0:0:
316,224,93193,1,0,0:0:0:0:
316,224,93243,1,0,0:0:0:0:
316,224,93293,2,0,L|144:196,1,169.999995231629
48,196,93493,6,0,P|44:156|16:116,1,84.9999976158143,0|0,0:0|2:0,0:0:0:0:
24,272,93593,2,0,P|40:232|28:160,1,84.9999976158143,0|0,0:0|2:0,0:0:0:0:
84,332,93693,2,0,P|124:348|172:344,3,84.9999976158143,2|0|0|0,0:0|0:0|0:0|0:0,0:0:0:0:
236,296,93893,5,4,2:0:0:0:
492,352,94093,2,2,P|368:248|332:80,2,339.999990463257,2|0|2,0:0|0:0|0:0,0:0:0:0:
420,80,94593,1,0,0:0:0:0:
416,96,94693,6,0,P|368:92|332:80,1,84.9999976158143
104,112,94893,2,0,P|148:104|183:86,1,84.9999976158143
424,176,95093,6,0,P|384:184|336:180,1,84.9999976158143
102,195,95293,2,0,P|140:198|188:190,1,84.9999976158143
456,252,95493,6,0,P|416:272|372:280,1,84.9999976158143
77,274,95693,2,0,P|117:290|161:294,1,84.9999976158143
512,308,95893,6,0,P|484:340|448:364,1,84.9999976158143
36,346,96093,2,0,P|64:368|112:388,1,84.9999976158143
276,380,96293,6,0,P|280:308|268:252,1,127.50000128746
252,56,96493,2,0,P|231:102|224:177,1,127.50000128746
432,176,96693,2,0,P|368:168|305:182,1,127.50000128746
58,239,96893,2,0,P|118:259|192:252,1,127.50000128746
432,176,97093,6,0,B|400:84|400:84|358:192|358:192|386:280,1,297.499994492531,6|0,0:0|0:0,0:0:0:0:
512,148,97393,2,0,B|537:227|537:227|495:336|495:336|463:244,1,297.499994492531,6|0,0:0|0:0,0:0:0:0:
308,312,97693,2,0,L|180:296,1,127.50000128746
72,336,97893,5,0,0:0:0:0:
72,336,97993,2,0,P|41:268|44:192,1,127.50000128746
196,36,98193,2,0,P|198:109|168:176,1,127.50000128746
28,88,98393,6,0,P|104:84|176:112,1,127.50000128746
292,364,98593,2,0,P|304:292|288:224,1,127.50000128746
476,276,98793,6,0,L|352:288,1,101.999994026184
340,40,98993,2,0,L|212:52,1,101.999994026184
192,224,99193,1,0,0:0:0:0:
192,224,99293,2,0,P|136:196|88:272,1,170.000001716614
12,292,99493,6,0,B|80:272|160:288|96:340|192:356|256:332,1,255.000002574921
308,272,99759,1,0,0:0:0:0:
308,272,99826,1,0,0:0:0:0:
308,272,99893,2,8,B|292:180|292:180|259:169,1,127.50000128746,0|0,0:0|0:0,0:0:0:0:
436,28,100093,2,8,B|452:120|452:120|484:130,1,127.50000128746,0|0,0:0|0:0,0:0:0:0:
400,320,100293,6,0,L|356:56,1,255.000002574921,2|0,0:0|0:0,0:0:0:0:
358,68,100593,1,0,0:0:0:0:
156,148,100693,5,0,0:0:0:0:
133,148,100759,1,0,0:0:0:0:
111,142,100826,1,0,0:0:0:0:
183,112,100893,1,0,0:0:0:0:
167,128,100960,1,0,0:0:0:0:
156,148,101026,1,0,0:0:0:0:
186,224,101093,2,0,L|200:260,2,28.3333325386048
18,240,101293,6,0,B|94:236|94:236|118:228|118:228|186:224,1,170.000001716614,2|0,0:0|2:0,0:0:0:0:
364,266,101493,2,0,B|296:262|296:262|272:254|272:254|196:250,1,170.000001716614,2|0,0:0|2:0,0:0:0:0:
156,148,101693,1,0,0:0:0:0:
424,200,101826,1,0,0:0:0:0:
424,200,101893,6,0,B|452:244|448:300|424:344|424:344|372:320|364:264,1,255.000002574921,2|0,0:0|0:0,0:0:0:0:
360,244,102193,1,0,0:0:0:0:
244,332,102293,5,0,0:0:0:0:
236,331,102359,1,0,0:0:0:0:
228,330,102426,1,0,0:0:0:0:
220,329,102493,2,0,L|176:324,1,42.4999988079071,2|2,0:0|0:0,0:0:0:0:
348,312,102693,5,0,0:0:0:0:
292,316,102759,1,0,0:0:0:0:
236,320,102826,1,0,0:0:0:0:
124,332,102893,6,0,P|115:261|197:241,1,170.000001716614,2|0,0:0|2:0,0:0:0:0:
124,332,103093,2,0,P|164:273|101:218,1,170.000001716614,2|0,0:0|2:0,0:0:0:0:
16,144,103293,6,2,B|124:140|124:140|168:152|168:152|254:149,1,226.666660308838,8|0,0:0|2:0,0:0:0:0:
416,64,103493,6,0,B|388:156|404:252|476:308|476:308|492:272|480:232,1,339.999990463257,2|0,0:0|0:0,0:0:0:0:
324,120,103793,1,0,0:0:0:0:
324,120,103893,2,0,B|236:87|136:84|54:119|54:119|76:136|112:148,1,339.999990463257,2|0,0:0|0:0,0:0:0:0:
298,209,104193,1,0,0:0:0:0:
297,208,104293,6,0,P|340:207|379:191,1,84.9999976158143
268,48,104493,1,0,0:0:0:0:
268,48,104593,2,0,P|232:36|180:36,1,84.9999976158143
152,332,104793,2,0,P|116:344|64:344,1,84.9999976158143
324,120,104993,1,0,0:0:0:0:
298,209,105093,6,0,L|310:337,1,106.249997019768
48,64,105293,2,0,L|60:192,1,106.249997019768
379,191,105493,2,0,L|391:319,1,106.249997019768
36,100,105693,2,0,L|48:228,1,106.249997019768
324,120,105893,5,0,0:0:0:0:
324,120,105993,2,0,P|252:148|257:65,1,191.250001931191
230,378,106193,2,0,P|241:301|311:347,1,191.250001931191
57,169,106393,2,0,P|117:217|42:254,1,191.250001931191
202,226,106593,1,0,0:0:0:0:
202,226,106693,6,0,B|335:185|468:208|468:208|435:225|400:232,1,339.999990463257,2|0,0:0|0:0,0:0:0:0:
324,116,106993,1,0,0:0:0:0:
324,116,107093,6,0,B|191:75|58:98|58:98|91:115|126:122,1,339.999990463257,2|0,0:0|0:0,0:0:0:0:
399,84,107393,1,0,0:0:0:0:
399,84,107493,6,0,P|360:112|324:116,1,84.9999976158143
128,48,107693,2,0,P|156:80|196:100,1,84.9999976158143
434,187,107893,6,0,P|396:200|352:200,1,84.9999976158143
76,132,108093,2,0,P|112:156|152:164,1,84.9999976158143
448,280,108293,6,0,P|404:284|360:276,1,84.9999976158143
48,228,108493,2,0,P|92:240|132:240,1,84.9999976158143
428,368,108693,6,0,P|388:368|344:352,1,84.9999976158143
60,324,108893,2,0,P|96:328|152:316,1,84.9999976158143
336,96,109093,5,4,2:0:0:0:
434,187,109193,1,0,0:0:0:0:
434,187,109243,1,0,0:0:0:0:
434,187,109293,2,0,B|296:144|344:244|188:200,1,255.000002574921
144,128,109593,1,0,0:0:0:0:
104,204,109693,2,0,L|116:284,2,56.6666650772095
80,56,109893,6,0,B|160:48|160:48|192:64|192:64|296:52|296:52|256:128|256:128|264:196|264:196|320:152|320:152|384:160,1,510.000005149842,4|0,0:0|0:0,0:0:0:0:
344,236,110193,2,2,B|104:204|104:204|116:280|116:280|320:308,1,510.000005149842,2|0,0:0|0:0,0:0:0:0:
384,306,110493,2,0,L|392:350,1,42.4999988079071
456,72,110693,6,2,B|412:84|412:84|300:72|300:72|236:120|236:120|108:104|108:104|140:68|140:68|244:80,1,510.000005149842,4|0,0:0|0:0,0:0:0:0:
322,154,110993,2,2,B|338:202|338:202|326:254|326:254|346:306|346:306|334:362|334:362|422:354|422:354|446:334|446:334|442:262|442:262|422:242|422:242|342:250|342:250,1,510.000005149842,2|0,0:0|0:0,0:0:0:0:
257,207,111293,2,0,L|213:211,1,42.4999988079071
124,348,111493,6,0,B|112:248|112:248|72:220|72:220|64:148|64:148|104:104|104:104|160:96|160:96|192:112|192:112|336:96,1,510.000005149842,4|0,0:0|0:0,0:0:0:0:
388,46,111793,2,2,B|448:40|448:40|477:59|477:59|483:106|483:106|460:134|460:134|390:144|390:144|360:171|360:171|176:192|176:192|144:176,1,510.000005149842,2|0,0:0|0:0,0:0:0:0:
208,32,112093,2,0,B|280:24,1,42.5
28,48,112293,6,2,B|44:72|72:48|76:92|76:92|76:128|64:120|36:152|36:152|8:156|12:132|24:128|36:140,2,191.250001931191,0|0|0,0:0|0:0|0:0,0:0:0:0:
104,192,112993,1,0,0:0:0:0:
32,231,113093,6,0,B|70:224|70:224|105:192|105:192|216:215|216:215|160:235,1,255.000002574921,4|0,2:0|0:0,0:0:0:0:
280,164,113393,1,0,0:0:0:0:
280,163,113493,2,2,P|347:173|295:218,1,169.999995231629,2|0,0:0|0:0,0:0:0:0:
412,268,113693,2,0,P|384:276|372:288,2,42.4999988079071
488,304,113893,1,0,0:0:0:0:
380,31,114093,6,2,B|378:52|366:71|366:71|358:49|361:27,1,84.9999976158143,0|0,0:0|0:0,0:0:0:0:
104,196,114493,6,0,L|100:154,3,42.4999988079071
24,184,114693,6,2,L|320:160,1,297.499994492531,4|2,2:0|0:0,0:0:0:0:
404,184,114993,1,0,0:0:0:0:
395,200,115093,6,2,P|415:72|320:160,1,339.999990463257,0|0,0:0|0:0,0:0:0:0:
512,52,115359,1,0,0:0:0:0:
512,52,115426,1,0,0:0:0:0:
512,52,115493,6,2,P|454:168|428:41,1,339.999990463257,2|0,0:0|0:0,0:0:0:0:
320,161,115793,2,2,P|216:80|248:206,1,339.999990463257,2|0,0:0|0:0,0:0:0:0:
144,248,116093,2,2,P|154:312|107:267,1,169.999995231629,2|0,0:0|2:0,0:0:0:0:
32,232,116293,6,0,B|68:141|24:53|24:53|72:141|336:209|444:13|444:13|312:220|364:336|468:336|520:292|520:212|488:180|424:172|404:216,1,1189.9999666214,4|2,2:0|0:0,0:0:0:0:
