osu file format v14

[General]
AudioFilename: Icarus (Extended).mp3
AudioLeadIn: 0
PreviewTime: 212258
Countdown: 0
SampleSet: Normal
StackLeniency: 0.7
Mode: 0
LetterboxInBreaks: 1
WidescreenStoryboard: 1
SamplesMatchPlaybackRate: 1

[Editor]
DistanceSpacing: 1
BeatDivisor: 8
GridSize: 4
TimelineZoom: 1.3

[Metadata]
Title:Icarus (Extended)
TitleUnicode:Icarus (Extended)
Artist:Eagle
ArtistUnicode:Eagle
Creator:Faust
Version:FOXTROT SIERRA
Source:beatmania IIDX
Tags:beatmaniaIIDX 15th DJ TROOPERS kors k S2TB Records
BeatmapID:999827
BeatmapSetID:400069

[Difficulty]
HPDrainRate:7.2
CircleSize:4.1
OverallDifficulty:8.2
ApproachRate:9.3
SliderMultiplier:1.6
SliderTickRate:1

[Events]
//Background and Video events
0,0,"BG.jpg",0,0
//Break Periods
2,134698,139515
//Storyboard Layer 0 (Background)
//Storyboard Layer 1 (Fail)
//Storyboard Layer 2 (Pass)
//Storyboard Layer 3 (Foreground)
//Storyboard Sound Samples

[TimingPoints]
1567,681.818181818182,4,1,1,80,1,0
1567,-83.3333333333333,4,1,1,80,0,0
2248,-100,4,1,1,80,0,0
3271,-83.3333333333333,4,1,1,80,0,0
3782,-100,4,1,1,80,0,0
5657,-83.3333333333333,4,1,1,80,0,0
6339,-100,4,1,1,80,0,0
8385,-83.3333333333333,4,1,1,80,0,0
9067,-100,4,1,1,80,0,0
11112,-83.3333333333333,4,1,1,80,0,0
11794,-100,4,1,1,80,0,0
13157,-100,4,1,1,80,0,0
14180,-100,4,1,1,80,0,0
14692,-83.3333333333333,4,1,1,80,0,0
15203,-100,4,1,1,80,0,0
15885,-83.3333333333333,4,1,1,80,0,0
16567,-100,4,1,1,80,0,0
17419,-83.3333333333333,4,1,1,80,0,0
17930,-100,4,1,1,80,0,0
23044,-83.3333333333333,4,1,1,80,0,0
23385,-83.3333333333333,4,1,1,80,0,0
45203,340.909090909091,4,1,1,80,1,0
45245,-100,4,2,1,5,0,0
49805,-133.333333333333,4,3,1,5,0,0
50316,-117.647058823529,4,3,1,5,0,0
50657,-133.333333333333,4,3,1,5,0,0
51509,-100,4,3,1,7,0,0
52021,-153.846153846153,4,3,1,9,0,0
53043,-100,4,3,1,5,0,0
53384,-133.333333333333,4,3,1,7,0,0
53896,-133.333333333333,4,3,1,5,0,0
56112,-133.333333333333,4,1,1,80,0,0
61566,-133.333333333333,4,1,1,60,0,0
62930,-133.333333333333,4,1,1,65,0,0
64293,-133.333333333333,4,1,1,70,0,0
65657,-153.846153846153,4,1,1,80,0,0
66083,-153.846153846153,4,1,1,80,0,0
66680,-117.647058823529,4,1,1,80,0,0
67021,-100,4,1,1,80,0,0
67532,-117.647058823529,4,1,1,80,0,0
73413,-100,4,1,1,80,0,0
73754,-117.647058823529,4,1,1,80,0,0
77930,-105.263157894737,4,1,1,80,0,0
88498,-133.333333333334,4,1,1,80,0,0
88583,-133.333333333334,4,1,1,5,0,0
88839,-100,4,1,1,80,0,0
129663,-133.333333333333,4,1,1,80,0,0
130259,-117.647058823529,4,1,1,80,0,0
131367,-133.333333333333,4,1,1,80,0,0
131708,-100,4,1,1,20,0,0
132475,476.190476190476,4,1,1,80,1,0
132534,-100,4,2,1,5,0,0
134498,696.459663377829,4,1,1,80,1,0
140069,476.190476190476,4,1,1,80,1,0
141021,495.867768595041,4,1,1,80,1,0
141516,476.190476190476,4,1,1,80,1,0
141575,-100,4,1,1,5,0,0
141992,476.190476190476,4,1,1,80,1,0
141992,-133.333333333333,4,1,1,80,0,0
148658,-83.3333333333333,4,1,1,80,0,0
149611,-100,4,1,1,80,0,0
164849,468.75,4,1,1,80,1,0
165786,461.538461538462,4,1,1,80,1,0
166709,454.545454545455,4,1,1,80,1,0
167618,447.761194029851,4,1,1,80,1,0
168513,428.571428571429,4,1,1,80,1,0
169370,422.535211267606,4,1,1,80,1,0
169370,-83.3333333333333,4,1,1,80,0,0
169792,-76.9230769230769,4,1,1,80,0,0
170109,-100,4,1,1,80,0,0
170215,419.58041958042,4,1,1,80,1,0
171054,416.666666666667,4,1,1,80,1,0
171470,410.958904109589,4,1,1,80,1,0
171880,397.350993377483,4,1,1,80,1,0
173469,384.615384615385,4,1,1,80,1,0
175007,370.37037037037,4,1,1,80,1,0
176488,361.44578313253,4,1,1,80,1,0
177210,357.142857142857,4,1,1,80,1,0
177924,344.827586206897,4,1,1,80,1,0
179303,331.491712707182,4,1,1,80,1,0
179965,327.868852459016,4,1,1,80,1,0
180620,320.855614973262,4,1,1,80,1,0
181903,303.030303030303,4,1,1,80,1,0
183115,294.117647058824,4,1,1,80,1,0
184291,281.69014084507,4,1,1,80,1,0
185417,273.972602739726,4,1,1,80,1,0
186512,265.486725663717,4,1,1,80,1,0
187573,491.803278688525,4,1,1,80,1,0
188556,441.176470588235,4,1,1,80,1,0
188997,-90.9090909090909,4,1,1,80,0,0
189438,428.571428571429,4,1,1,80,1,0
189438,-76.9230769230769,4,1,1,80,0,0
189866,400,4,1,1,80,1,0
190266,370.37037037037,4,1,1,80,1,0
190266,-76.9230769230769,4,1,1,80,0,0
190636,361.44578313253,4,1,1,80,1,0
190636,-71.4285714285714,4,1,1,80,0,0
190997,346.820809248555,4,1,1,80,1,0
191343,337.078651685393,4,1,1,80,1,0
191680,319.148936170213,4,1,1,80,1,0
191999,300,4,1,1,80,1,0
192299,285.714285714286,4,1,1,80,1,0
192584,279.06976744186,4,1,1,80,1,0
192863,260.869565217391,4,1,1,80,1,0
193384,258.620689655172,4,1,1,80,1,0
193642,240,4,1,1,80,1,0
193882,226.415094339623,4,1,1,80,1,0
194108,216.606498194946,4,1,1,80,1,0
194324,211.267605633803,4,1,1,80,1,0
195169,257.510729613734,4,2,1,5,1,0
201349,340.909090909091,4,1,1,80,1,0
210894,-100,4,2,1,40,0,0
212258,-133.333333333333,4,1,1,80,0,1
212513,-133.333333333333,4,1,1,80,0,0
220439,-100,4,1,1,80,0,0
223167,-90.9090909090909,4,1,1,80,0,0
229985,-100,4,1,1,80,0,0
230496,-90.9090909090909,4,1,1,80,0,0
231349,-83.3333333333333,4,1,1,80,0,0
233224,-83.3333333333333,4,3,1,70,0,0
233735,-83.3333333333333,4,1,1,80,0,0
234076,-83.3333333333333,4,1,1,80,0,1
234246,-83.3333333333333,4,1,1,80,0,0
268167,-90.9090909090909,4,1,1,80,0,0
268422,-83.3333333333333,4,1,1,80,0,0
269189,-76.9230769230769,4,1,1,80,0,0
269445,-83.3333333333333,4,1,1,80,0,0
277712,-83.3333333333333,4,1,1,80,0,1
321349,-83.3333333333333,4,1,1,80,0,0

[Colours]
Combo1 : 206,28,103
Combo2 : 169,245,10
Combo3 : 241,92,29
Combo4 : 79,208,159

[HitObjects]
420,72,1567,6,0,P|420:140|448:216,1,143.999995605469,6|0,0:0|0:0,0:0:0:0:
452,224,2248,2,0,L|436:308,1,80,8|0,0:0|0:0,0:0:0:0:
360,328,2760,1,0,0:0:0:0:
360,328,2845,1,0,0:0:0:0:
360,328,2930,1,2,0:0:0:0:
360,328,3271,2,0,P|308:332|260:324,1,95.9999970703126
136,284,3782,2,0,P|176:276|220:276,1,80
448,256,4294,6,0,P|404:260|360:252,1,80,2|0,0:0|0:0,0:0:0:0:
260,216,4805,1,0,0:0:0:0:
260,216,4890,1,0,0:0:0:0:
260,216,4976,1,0,0:0:0:0:
260,216,5146,2,0,P|272:176|276:120,1,80
288,104,5657,2,0,P|332:96|384:96,1,95.9999970703126,2|0,0:0|0:0,0:0:0:0:
472,180,6339,1,0,0:0:0:0:
472,180,6510,2,0,P|432:184|384:180,1,80
332,144,7021,5,2,0:0:0:0:
308,220,7362,1,0,0:0:0:0:
284,296,7532,1,0,0:0:0:0:
284,296,7618,1,0,0:0:0:0:
284,296,7703,1,0,0:0:0:0:
284,296,7873,2,0,P|296:336|296:376,1,80
220,348,8385,2,0,B|168:352|168:352|120:344,1,95.9999970703126,2|0,0:0|0:0,0:0:0:0:
40,236,9067,1,0,0:0:0:0:
40,236,9237,2,0,L|60:152,1,80
128,136,9748,6,0,P|168:144|216:140,1,80,2|0,0:0|0:0,0:0:0:0:
360,136,10260,1,0,0:0:0:0:
360,136,10345,1,0,0:0:0:0:
360,136,10430,2,0,P|328:132|308:132,2,40
212,240,10942,1,0,0:0:0:0:
212,240,11027,1,0,0:0:0:0:
212,240,11112,2,0,B|216:288|216:288|228:344,1,95.9999970703126,2|0,0:0|0:0,0:0:0:0:
304,352,11794,2,0,P|336:352|360:348,1,40
416,320,12135,1,0,0:0:0:0:
392,112,12305,1,0,0:0:0:0:
472,152,12476,6,0,L|436:228,1,80,2|0,0:0|0:0,0:0:0:0:
360,244,12987,1,0,0:0:0:0:
360,244,13072,1,0,0:0:0:0:
360,244,13157,2,0,L|272:252,1,80
140,240,13669,1,0,0:0:0:0:
140,240,13839,2,0,L|144:192,1,40
300,108,14180,2,0,P|256:108|216:120,1,80
296,244,14692,2,0,P|344:244|392:232,1,95.9999970703126
480,116,15203,6,0,L|468:36,1,80,2|0,0:0|0:0,0:0:0:0:
396,44,15714,1,0,0:0:0:0:
396,44,15799,1,0,0:0:0:0:
396,44,15885,6,0,L|412:140,1,95.9999970703126
484,264,16396,1,0,0:0:0:0:
484,264,16481,1,0,0:0:0:0:
484,264,16567,1,2,0:0:0:0:
484,264,16907,2,0,P|440:260|400:248,1,80
368,236,17419,2,0,L|268:244,1,95.9999970703126
44,188,17930,2,0,L|132:180,1,80,2|0,0:0|0:0,0:0:0:0:
336,64,18442,1,0,0:0:0:0:
336,64,18612,2,0,P|296:64|252:72,1,80
152,128,19123,1,0,0:0:0:0:
152,128,19209,1,0,0:0:0:0:
152,128,19294,6,0,L|160:176,1,40
324,176,19635,2,0,L|336:268,1,80
276,312,20146,1,0,0:0:0:0:
276,312,20317,1,0,0:0:0:0:
200,368,20487,1,0,0:0:0:0:
184,276,20657,5,2,0:0:0:0:
368,232,20828,2,0,L|396:236,2,20
172,192,21169,1,0,0:0:0:0:
72,280,21339,1,0,0:0:0:0:
200,320,21510,1,8,0:0:0:0:
172,192,21680,1,2,0:0:0:0:
368,232,21851,5,0,0:0:0:0:
364,208,21936,1,0,0:0:0:0:
360,184,22021,1,0,0:0:0:0:
172,192,22362,1,2,0:0:0:0:
340,120,22703,1,8,0:0:0:0:
212,40,22873,1,0,0:0:0:0:
232,52,22959,1,0,0:0:0:0:
252,64,23044,2,0,L|292:60,1,23.9999992675781
348,52,23214,2,0,L|380:48,1,23.9999992675781
416,108,23385,6,0,B|408:176|408:176|428:256,1,143.999995605469,6|0,0:0|0:0,0:0:0:0:
256,348,24067,2,0,L|264:248,1,95.9999970703126,8|0,0:0|0:0,0:0:0:0:
208,192,24578,1,0,0:0:0:0:
208,192,24663,1,0,0:0:0:0:
208,192,24748,1,2,0:0:0:0:
44,36,24919,1,0,0:0:0:0:
44,36,25004,1,0,0:0:0:0:
44,36,25089,2,0,L|36:140,1,95.9999970703126,0|8,0:0|0:0,0:0:0:0:
76,192,25601,2,0,L|68:300,1,95.9999970703126
216,344,26112,6,0,P|260:348|316:336,2,95.9999970703126,2|0|8,0:0|0:0|0:0,0:0:0:0:
376,328,26964,2,0,P|420:328|476:352,1,95.9999970703126
456,148,27476,2,0,L|448:248,1,95.9999970703126,2|0,0:0|0:0,0:0:0:0:
360,264,27987,1,0,0:0:0:0:
288,208,28157,2,0,P|236:208|184:216,1,95.9999970703126,8|0,0:0|0:0,0:0:0:0:
44,336,28669,5,0,0:0:0:0:
44,336,28754,1,0,0:0:0:0:
44,336,28839,2,0,L|36:236,1,95.9999970703126,2|0,0:0|0:0,0:0:0:0:
180,148,29351,1,0,0:0:0:0:
180,148,29436,1,0,0:0:0:0:
180,148,29521,1,8,0:0:0:0:
180,148,29692,2,0,L|172:260,1,95.9999970703126
236,296,30203,2,0,P|284:300|336:292,1,95.9999970703126,2|0,0:0|0:0,0:0:0:0:
408,188,30714,1,0,0:0:0:0:
408,188,30799,1,0,0:0:0:0:
408,188,30885,1,8,0:0:0:0:
508,300,31055,2,0,P|500:248|504:192,1,95.9999970703126
464,144,31567,6,0,L|472:48,1,95.9999970703126,2|0,0:0|0:0,0:0:0:0:
388,24,32078,1,2,0:0:0:0:
312,72,32248,2,0,P|288:76|256:76,2,47.9999985351563,8|0|0,0:0|0:0|0:0,0:0:0:0:
388,24,32760,2,0,L|396:56,1,23.9999992675781
452,88,32930,2,0,L|440:192,1,95.9999970703126
364,232,33442,1,0,0:0:0:0:
364,232,33527,1,0,0:0:0:0:
364,232,33612,2,0,P|356:276|360:328,1,95.9999970703126,8|0,0:0|0:0,0:0:0:0:
476,348,34123,5,0,0:0:0:0:
476,348,34209,1,0,0:0:0:0:
476,348,34294,1,2,0:0:0:0:
512,232,34464,1,0,0:0:0:0:
358,319,34635,2,0,P|356:275|364:224,1,95.9999970703126,0|8,0:0|0:0,0:0:0:0:
440,188,35146,2,0,L|432:88,1,95.9999970703126
212,36,35657,5,2,0:0:0:0:
304,52,35828,2,0,L|272:44,1,23.9999992675781
212,36,35998,2,0,L|220:132,1,95.9999970703126,0|8,0:0|0:0,0:0:0:0:
160,192,36510,2,0,P|112:200|56:192,1,95.9999970703126
36,112,37021,5,2,0:0:0:0:
8,200,37192,2,0,L|12:164,1,23.9999992675781
36,112,37362,2,0,P|80:104|136:108,1,95.9999970703126,0|8,0:0|0:0,0:0:0:0:
292,152,37873,2,0,P|336:160|392:152,1,95.9999970703126
212,36,38385,6,0,L|220:136,1,95.9999970703126,2|0,0:0|0:0,0:0:0:0:
304,240,38896,1,0,0:0:0:0:
304,240,38981,1,0,0:0:0:0:
304,240,39067,2,0,L|288:340,1,95.9999970703126,8|0,0:0|0:0,0:0:0:0:
48,252,39578,2,0,L|44:296,1,23.9999992675781
40,344,39748,6,0,P|84:348|140:336,1,95.9999970703126,2|0,0:0|0:0,0:0:0:0:
188,276,40260,1,0,0:0:0:0:
188,276,40430,2,0,L|196:228,2,47.9999985351563,8|0|0,0:0|0:0|0:0,0:0:0:0:
120,192,40942,1,0,0:0:0:0:
120,192,41112,6,0,P|116:144|124:96,1,95.9999970703126,2|0,0:0|0:0,0:0:0:0:
308,48,41623,1,0,0:0:0:0:
308,48,41709,1,0,0:0:0:0:
308,48,41794,2,0,L|296:108,2,47.9999985351563,8|0|0,0:0|0:0|0:0,0:0:0:0:
400,16,42305,1,0,0:0:0:0:
400,16,42476,6,0,P|408:64|404:112,1,95.9999970703126,2|0,0:0|0:0,0:0:0:0:
300,340,42987,2,0,P|296:292|304:244,1,95.9999970703126,2|0,0:0|0:0,0:0:0:0:
392,208,43498,1,2,0:0:0:0:
160,304,43669,1,0,0:0:0:0:
156,280,43754,1,0,0:0:0:0:
152,256,43839,1,8,0:0:0:0:
392,208,44180,1,2,0:0:0:0:
136,168,44521,1,8,0:0:0:0:
136,168,44862,1,8,0:0:0:0:
376,96,45203,5,6,0:0:0:0:
256,192,45245,12,0,47930,0:0:0:0:
128,64,49805,6,0,P|124:124|88:192,1,120.000004577637
68,216,50316,2,0,L|144:208,1,68.0000012969971
208,236,50657,2,0,B|296:280|368:240|368:240|388:168,1,240.000009155274
448,88,51509,2,0,B|468:156|468:156|444:244,1,160
420,316,52021,6,0,B|352:344|284:324|284:324|256:256,1,207.999990478516
288,144,52873,1,0,0:0:0:0:
432,233,53043,2,0,B|444:192|444:192|436:144,1,80
304,36,53384,6,0,P|296:96|308:168,1,120.000004577637
328,172,53896,2,0,P|264:164|204:168,1,120.000004577637
72,28,54407,2,0,P|80:64|92:96,1,60.0000022888184
60,104,54748,6,0,P|116:116|184:108,1,120.000004577637
424,144,55259,2,0,P|372:148|304:136,1,120.000004577637
204,232,55771,2,0,P|212:256|212:300,1,60.0000022888184
88,340,56112,6,0,P|80:304|80:268,1,60.0000022888184,4|0,1:0|0:0,0:0:0:0:
84,208,56453,1,0,0:0:0:0:
248,64,56793,1,0,0:0:0:0:
284,272,57134,1,0,0:0:0:0:
160,176,57475,1,0,0:0:0:0:
224,140,57816,1,0,0:0:0:0:
224,212,58157,1,0,0:0:0:0:
160,176,58498,1,0,0:0:0:0:
264,272,58668,1,0,0:0:0:0:
264,272,58839,5,0,0:0:0:0:
292,108,59180,1,0,0:0:0:0:
132,164,59521,1,0,0:0:0:0:
292,108,59862,1,0,0:0:0:0:
264,272,60203,1,0,0:0:0:0:
244,276,60543,1,0,0:0:0:0:
200,332,60714,2,0,P|168:336|124:336,1,60.0000022888184
32,280,61055,1,0,0:0:0:0:
32,280,61225,2,0,P|28:248|32:208,1,60.0000022888184
72,148,61566,6,0,P|120:148|164:156,1,90.0000034332277
208,216,61907,1,0,0:0:0:0:
336,312,62078,2,0,P|384:320|432:312,1,90.0000034332277
484,264,62418,1,0,0:0:0:0:
512,96,62589,2,0,P|508:64|492:20,1,60.0000022888184
424,20,62845,1,0,0:0:0:0:
416,28,62930,6,0,P|408:76|412:128,1,90.0000034332277
424,244,63441,2,0,P|428:292|420:336,1,90.0000034332277
352,348,63782,1,0,0:0:0:0:
352,348,63953,2,0,P|320:360|288:360,1,60.0000022888184
216,352,64293,6,0,P|204:304|204:248,1,90.0000034332277,2|0,0:0|0:0,0:0:0:0:
252,204,64634,1,0,0:0:0:0:
412,280,64805,2,0,P|416:236|412:184,1,90.0000034332277,2|0,0:0|0:0,0:0:0:0:
344,156,65146,1,0,0:0:0:0:
256,124,65316,1,2,0:0:0:0:
320,48,65487,2,0,L|300:80,1,30.0000011444092,8|8,0:0|0:0,0:0:0:0:
256,124,65657,6,0,P|212:124|176:128,1,77.9999964294435,8|0,0:0|0:0,0:0:0:0:
108,152,65998,1,0,0:0:0:0:
164,280,66168,1,2,0:0:0:0:
192,32,66339,2,0,P|236:28|284:32,1,77.9999964294435,8|0,0:0|0:0,0:0:0:0:
324,192,66680,2,0,P|318:162|320:124,1,68.0000012969971,8|0,0:0|0:0,0:0:0:0:
472,36,67021,6,0,P|480:84|472:156,1,120,2|0,0:0|0:0,0:0:0:0:
364,220,67532,1,0,0:0:0:0:
220,244,67788,1,0,0:0:0:0:
220,244,67873,1,0,0:0:0:0:
264,108,68043,1,0,0:0:0:0:
288,200,68214,1,0,0:0:0:0:
196,176,68384,5,2,0:0:0:0:
48,68,68640,1,0,0:0:0:0:
28,248,68896,1,0,0:0:0:0:
196,176,69151,1,0,0:0:0:0:
196,176,69237,1,0,0:0:0:0:
148,264,69407,1,0,0:0:0:0:
284,220,69578,1,0,0:0:0:0:
332,312,69748,6,0,P|376:320|440:312,2,102.000001945496,2|0|0,0:0|0:0|0:0,0:0:0:0:
192,340,70515,1,0,0:0:0:0:
192,340,70600,1,0,0:0:0:0:
312,220,70771,1,0,0:0:0:0:
248,148,70941,1,0,0:0:0:0:
248,148,71026,1,0,0:0:0:0:
248,148,71112,2,0,P|200:144|140:152,1,102.000001945496,2|0,0:0|0:0,0:0:0:0:
44,236,71538,1,0,0:0:0:0:
44,236,71623,2,0,P|44:280|60:344,1,102.000001945496
188,344,72049,1,0,0:0:0:0:
192,340,72134,6,0,L|232:336,1,34.0000006484985
292,316,72305,2,0,L|324:332,1,34.0000006484985
392,356,72475,2,0,P|408:308|408:248,1,102.000001945496,2|0,0:0|0:0,0:0:0:0:
296,32,72987,2,0,P|292:80|304:136,1,102.000001945496
340,196,73328,1,0,0:0:0:0:
340,196,73498,6,0,L|248:208,1,80
72,228,73839,2,0,P|80:280|72:340,1,102.000001945496,2|0,0:0|0:0,0:0:0:0:
4,352,74180,1,0,0:0:0:0:
4,352,74350,2,0,P|0:308|4:280,1,68.0000012969971,0|2,0:0|0:0,0:0:0:0:
72,228,74606,2,0,P|72:192|64:160,1,68.0000012969971
20,104,74862,5,0,0:0:0:0:
64,316,75032,1,0,0:0:0:0:
232,232,75203,2,0,B|280:240|280:240|336:236,1,102.000001945496,2|0,0:0|0:0,0:0:0:0:
408,36,75629,1,0,0:0:0:0:
408,36,75714,2,0,B|360:28|360:28|304:32,1,102.000001945496
256,84,76055,1,0,0:0:0:0:
136,232,76225,5,0,0:0:0:0:
0,120,76396,1,0,0:0:0:0:
252,196,76566,2,0,P|252:240|256:272,1,68.0000012969971,2|0,0:0|0:0,0:0:0:0:
308,316,76822,2,0,P|340:320|388:316,1,68.0000012969971
464,144,77078,2,0,P|468:112|464:68,1,68.0000012969971,0|2,0:0|0:0,0:0:0:0:
404,24,77333,2,0,P|368:20|328:24,1,68.0000012969971
284,84,77589,1,0,0:0:0:0:
284,84,77759,1,0,0:0:0:0:
296,236,77930,6,0,P|356:248|424:240,1,113.999996955872,2|0,0:0|0:0,0:0:0:0:
480,232,78271,2,0,L|472:320,1,75.9999979705811,2|0,0:0|0:0,0:0:0:0:
296,348,78612,2,0,L|208:356,1,75.9999979705811,2|0,0:0|0:0,0:0:0:0:
128,260,78953,2,0,L|136:168,1,75.9999979705811,2|0,0:0|0:0,0:0:0:0:
376,152,79293,6,0,P|380:92|368:36,1,113.999996955872,2|0,0:0|0:0,0:0:0:0:
296,28,79634,2,0,L|204:20,1,75.9999979705811,2|0,0:0|0:0,0:0:0:0:
24,156,79975,1,2,0:0:0:0:
24,156,80060,1,0,0:0:0:0:
24,156,80146,2,0,L|32:244,1,75.9999979705811,0|2,0:0|0:0,0:0:0:0:
208,336,80487,5,0,0:0:0:0:
120,308,80657,2,0,P|120:268|128:228,1,75.9999979705811,2|0,0:0|0:0,0:0:0:0:
184,188,80913,2,0,L|264:200,1,75.9999979705811
472,236,81168,2,0,P|472:276|456:324,1,75.9999979705811,0|2,0:0|0:0,0:0:0:0:
392,328,81424,2,0,L|304:344,1,75.9999979705811
256,300,81680,2,0,L|264:256,2,37.9999989852906,2|0|0,0:0|0:0|0:0,0:0:0:0:
328,364,82021,6,0,L|402:351,1,75.9999979705811,2|0,0:0|0:0,0:0:0:0:
484,232,82276,2,0,P|488:192|484:140,1,75.9999979705811
300,36,82532,2,0,P|292:76|292:120,1,75.9999979705811,0|2,0:0|0:0,0:0:0:0:
216,240,82788,2,0,L|124:228,1,75.9999979705811
76,272,83043,2,0,L|72:316,1,37.9999989852906,2|0,0:0|0:0,0:0:0:0:
136,360,83214,2,0,L|184:352,1,37.9999989852906
252,340,83384,5,2,0:0:0:0:
416,348,83555,1,2,0:0:0:0:
256,272,83725,1,2,0:0:0:0:
412,276,83896,1,2,0:0:0:0:
264,204,84066,1,2,0:0:0:0:
408,204,84237,1,2,0:0:0:0:
256,272,84407,5,2,0:0:0:0:
416,348,84578,1,2,0:0:0:0:
96,284,84748,1,2,0:0:0:0:
264,204,84918,1,2,0:0:0:0:
80,212,85089,1,2,0:0:0:0:
272,136,85259,1,2,0:0:0:0:
64,140,85430,1,2,0:0:0:0:
264,204,85600,1,2,0:0:0:0:
96,284,85771,1,2,0:0:0:0:
296,344,85941,1,2,0:0:0:0:
472,320,86112,5,2,0:0:0:0:
480,284,86197,1,2,0:0:0:0:
476,248,86282,1,2,0:0:0:0:
460,216,86367,1,2,0:0:0:0:
396,192,86453,2,2,L|388:144,3,37.9999989852906
212,192,86793,2,2,L|200:232,3,37.9999989852906
132,228,87134,1,2,0:0:0:0:
120,192,87220,1,2,0:0:0:0:
120,152,87305,1,2,0:0:0:0:
128,116,87390,1,2,0:0:0:0:
172,60,87475,5,2,0:0:0:0:
352,192,87646,1,2,0:0:0:0:
504,32,87816,1,2,0:0:0:0:
344,184,87987,6,0,L|356:128,2,37.9999989852906,8|0|0,0:0|0:0|0:0,0:0:0:0:
328,252,88242,1,0,0:0:0:0:
332,268,88328,1,0,0:0:0:0:
336,284,88413,1,0,0:0:0:0:
340,300,88498,2,0,L|400:308,1,60.0000022888184,8|0,0:0|0:0,0:0:0:0:
288,348,88839,6,0,P|236:352|164:348,1,120,2|0,0:0|0:0,0:0:0:0:
108,296,89180,2,0,P|104:248|92:204,1,80,8|0,0:0|0:0,0:0:0:0:
212,48,89521,2,0,P|204:88|204:128,1,80
248,192,89776,1,0,0:0:0:0:
248,192,89862,2,0,L|328:184,1,80,8|0,0:0|0:0,0:0:0:0:
484,152,90203,6,0,B|496:92|496:92|468:32,1,120,2|0,0:0|0:0,0:0:0:0:
392,36,90543,2,0,L|312:40,1,80,8|2,0:0|0:0,0:0:0:0:
164,104,90884,1,0,0:0:0:0:
324,156,91055,2,0,L|368:172,1,40
152,172,91225,2,0,L|68:180,1,80,2|8,0:0|0:0,0:0:0:0:
296,336,91566,6,0,L|380:344,1,80,2|0,0:0|0:0,0:0:0:0:
212,296,91822,1,0,0:0:0:0:
212,296,91907,1,8,0:0:0:0:
356,228,92078,2,0,L|444:236,1,80
216,148,92333,2,0,L|204:60,1,80
120,236,92589,1,0,0:0:0:0:
120,236,92674,2,0,L|128:288,2,40,0|2|0,0:0|0:0|0:0,0:0:0:0:
44,44,92930,6,0,P|36:84|40:124,1,80,2|0,0:0|0:0,0:0:0:0:
372,154,93185,2,0,P|375:115|368:76,1,80,8|0,0:0|0:0,0:0:0:0:
60,148,93441,6,0,P|57:109|65:70,1,80,2|0,0:0|0:0,0:0:0:0:
344,108,93697,2,0,P|352:147|349:187,1,80,8|0,0:0|0:0,0:0:0:0:
212,236,93953,2,0,L|208:192,1,40,2|0,0:0|0:0,0:0:0:0:
300,260,94123,2,0,L|304:308,1,40,8|0,0:0|0:0,0:0:0:0:
220,344,94293,6,0,P|176:352|120:352,1,80,2|0,0:0|0:0,0:0:0:0:
40,240,94549,2,0,P|84:236|128:244,1,80
300,256,94805,2,0,P|336:272|388:276,1,80
468,148,95060,2,0,P|428:124|388:116,1,80,2|0,0:0|0:0,0:0:0:0:
119,241,95316,2,0,L|107:141,1,80,8|2,0:0|0:0,0:0:0:0:
212,44,95572,1,0,0:0:0:0:
212,44,95657,6,0,L|200:128,1,80
300,340,95913,2,0,L|312:256,1,80,8|0,0:0|0:0,0:0:0:0:
344,40,96168,1,2,0:0:0:0:
172,288,96339,1,2,0:0:0:0:
172,288,96424,1,0,0:0:0:0:
392,92,96595,1,0,0:0:0:0:
392,92,96680,1,8,0:0:0:0:
120,232,96850,1,8,0:0:0:0:
436,144,97021,6,0,P|440:184|436:224,1,80,2|0,0:0|0:0,0:0:0:0:
120,232,97276,2,0,P|168:232|200:224,1,80
344,40,97532,2,0,P|300:40|260:44,1,80
40,232,97788,2,0,P|36:192|40:148,1,80
216,40,98043,1,8,0:0:0:0:
216,40,98214,1,0,0:0:0:0:
300,240,98384,6,0,L|316:324,1,80
192,352,98640,1,0,0:0:0:0:
112,192,98810,1,0,0:0:0:0:
112,192,98896,1,2,0:0:0:0:
324,248,99066,2,0,L|340:332,1,80,2|10,0:0|0:0,0:0:0:0:
52,232,99407,1,8,0:0:0:0:
48,256,99492,1,0,0:0:0:0:
44,280,99578,1,8,0:0:0:0:
40,304,99663,1,0,0:0:0:0:
36,328,99748,6,0,L|144:316,1,80,2|0,0:0|0:0,0:0:0:0:
296,232,100004,2,0,L|376:244,1,80
444,192,100259,2,0,P|448:152|436:104,1,80
216,40,100515,1,0,0:0:0:0:
216,40,100600,1,2,0:0:0:0:
380,144,100771,1,8,0:0:0:0:
136,192,100941,1,0,0:0:0:0:
136,192,101026,1,0,0:0:0:0:
136,192,101112,6,0,P|128:232|132:280,1,80,2|0,0:0|0:0,0:0:0:0:
424,324,101367,2,0,L|320:336,1,80
220,316,101623,2,0,P|208:276|204:216,1,80,2|0,0:0|0:0,0:0:0:0:
464,112,101879,2,0,L|472:156,1,40,0|8,0:0|0:0,0:0:0:0:
424,324,102134,2,0,L|320:336,1,80,2|8,0:0|0:0,0:0:0:0:
136,192,102475,6,0,P|96:196|52:192,1,80,2|0,0:0|0:0,0:0:0:0:
12,132,102731,2,0,L|28:44,1,80
296,144,102987,2,0,P|336:152|376:152,1,80
432,100,103242,2,0,L|424:40,2,40,0|2|0,0:0|0:0|0:0,0:0:0:0:
208,48,103498,6,0,P|252:48|288:56,1,80,8|2,0:0|0:0,0:0:0:0:
464,172,103754,1,0,0:0:0:0:
464,172,103839,2,0,P|464:212|456:252,1,80,2|0,0:0|0:0,0:0:0:0:
296,296,104095,2,0,L|200:288,1,80
216,260,104350,6,0,L|295:266,1,80,2|0,0:0|0:0,0:0:0:0:
120,344,104606,2,0,L|24:336,1,80
40,152,104862,2,0,L|36:192,1,40,2|0,0:0|0:0,0:0:0:0:
104,232,105032,2,0,L|148:208,1,40,2|0,0:0|0:0,0:0:0:0:
296,148,105203,6,0,P|296:188|304:228,1,80,2|0,0:0|0:0,0:0:0:0:
476,272,105458,2,0,P|476:312|464:360,1,80
280,232,105714,2,0,P|272:192|272:152,1,80
208,44,105970,2,0,L|116:56,1,80
36,192,106225,1,8,0:0:0:0:
144,328,106396,1,2,0:0:0:0:
168,144,106566,6,0,L|252:152,1,80,2|0,0:0|0:0,0:0:0:0:
372,360,106822,2,0,L|280:348,1,80
320,148,107078,2,0,L|400:136,1,80,2|0,0:0|0:0,0:0:0:0:
124,256,107333,2,0,L|36:268,1,80
36,192,107589,1,2,0:0:0:0:
36,192,107759,1,8,0:0:0:0:
216,232,107930,6,0,P|212:272|216:312,1,80,6|0,0:0|0:0,0:0:0:0:
300,344,108185,2,0,L|383:354,1,80
488,152,108441,2,0,P|492:192|488:232,1,80,2|0,0:0|0:0,0:0:0:0:
404,264,108697,2,0,L|320:274,1,80,8|0,0:0|0:0,0:0:0:0:
104,184,108953,2,0,L|187:194,1,80,2|8,0:0|0:0,0:0:0:0:
312,152,109208,5,0,0:0:0:0:
312,152,109293,1,2,0:0:0:0:
108,112,109464,1,0,0:0:0:0:
108,112,109549,1,8,0:0:0:0:
272,296,109720,1,0,0:0:0:0:
272,296,109805,1,8,0:0:0:0:
96,36,109975,1,10,0:0:0:0:
16,192,110146,1,2,0:0:0:0:
212,176,110316,2,0,P|216:216|212:256,1,80,2|0,0:0|0:0,0:0:0:0:
174,266,110572,1,0,0:0:0:0:
174,266,110657,6,0,P|172:206|184:148,1,120,2|0,0:0|0:0,0:0:0:0:
152,80,110998,1,8,0:0:0:0:
380,232,111168,1,0,0:0:0:0:
216,24,111339,2,0,P|228:64|232:112,1,80
36,236,111680,2,0,P|36:192|44:156,1,80,8|0,0:0|0:0,0:0:0:0:
292,228,111935,5,0,0:0:0:0:
292,228,112021,2,0,P|256:240|212:244,1,80,2|0,0:0|0:0,0:0:0:0:
324,152,112276,2,0,L|328:64,1,80
356,64,112532,6,0,L|352:143,1,80,2|0,0:0|0:0,0:0:0:0:
148,128,112788,2,0,P|144:168|156:216,1,80
364,272,113043,2,0,P|364:320|348:364,1,80,2|8,0:0|0:0,0:0:0:0:
160,324,113384,5,0,0:0:0:0:
412,192,113555,1,2,0:0:0:0:
412,192,113640,1,0,0:0:0:0:
92,80,113810,1,0,0:0:0:0:
92,80,113896,2,0,L|96:164,1,80,2|0,0:0|0:0,0:0:0:0:
136,232,114151,2,0,L|224:244,1,80
460,84,114407,6,0,L|408:92,1,40,8|0,0:0|0:0,0:0:0:0:
356,52,114578,2,0,L|308:60,1,40,2|0,0:0|0:0,0:0:0:0:
264,116,114748,2,0,L|180:128,1,80,2|0,0:0|0:0,0:0:0:0:
248,264,115004,2,0,L|332:276,1,80,8|0,0:0|0:0,0:0:0:0:
48,316,115259,2,0,P|44:276|56:216,1,80,2|0,0:0|0:0,0:0:0:0:
256,296,115515,2,0,L|340:308,1,80,8|0,0:0|0:0,0:0:0:0:
476,236,115771,2,0,L|480:188,1,40,2|0,0:0|0:0,0:0:0:0:
424,144,115941,2,0,L|372:152,1,40,2|0,0:0|0:0,0:0:0:0:
212,144,116112,6,0,P|208:104|216:64,1,80,2|0,0:0|0:0,0:0:0:0:
424,144,116367,2,0,P|416:184|396:224,1,80
116,236,116623,2,0,P|120:280|136:324,1,80
356,116,116879,2,0,P|316:112|276:116,1,80,0|2,0:0|0:0,0:0:0:0:
256,268,117134,1,8,0:0:0:0:
168,56,117305,1,2,0:0:0:0:
372,192,117475,6,0,P|376:256|364:320,1,120,2|0,0:0|0:0,0:0:0:0:
308,72,117816,1,8,0:0:0:0:
308,72,117987,2,0,P|304:112|308:156,1,80,2|0,0:0|0:0,0:0:0:0:
196,288,118242,2,0,P|204:256|208:228,1,40,0|8,0:0|0:0,0:0:0:0:
200,32,118498,2,0,P|204:76|196:120,1,80,2|8,0:0|0:0,0:0:0:0:
48,312,118839,6,0,P|40:256|48:188,1,120,2|0,0:0|0:0,0:0:0:0:
120,156,119180,1,8,0:0:0:0:
204,292,119350,2,0,P|260:300|324:292,1,120
360,216,119691,1,2,0:0:0:0:
200,32,119862,1,8,0:0:0:0:
420,192,120032,1,2,0:0:0:0:
124,256,120203,5,2,0:0:0:0:
296,32,120458,1,2,0:0:0:0:
504,228,120714,1,2,0:0:0:0:
188,224,120884,5,8,0:0:0:0:
296,32,121055,2,0,L|304:80,1,40,2|0,0:0|0:0,0:0:0:0:
384,144,121225,2,0,L|376:96,1,40
312,232,121396,2,0,L|320:180,1,40,2|0,0:0|0:0,0:0:0:0:
368,304,121566,6,0,B|308:312|308:312|232:296,1,120,2|0,0:0|0:0,0:0:0:0:
40,240,121907,2,0,L|52:324,1,80,8|0,0:0|0:0,0:0:0:0:
312,232,122248,2,0,L|216:236,1,80,0|2,0:0|0:0,0:0:0:0:
20,144,122504,1,0,0:0:0:0:
20,144,122589,2,0,L|44:60,1,80,8|0,0:0|0:0,0:0:0:0:
308,36,122930,6,0,B|316:96|316:96|292:164,1,120,2|0,0:0|0:0,0:0:0:0:
100,188,123271,2,8,L|180:196,1,80,8|2,0:0|0:0,0:0:0:0:
440,240,123612,2,0,L|384:248,1,40
112,272,123867,1,0,0:0:0:0:
388,322,124038,2,0,L|428:316,2,40,0|8|0,0:0|0:0|0:0,0:0:0:0:
128,348,124293,6,0,P|168:352|212:348,1,80,2|0,0:0|0:0,0:0:0:0:
264,304,124549,2,0,L|256:224,1,80
432,32,124805,2,0,P|388:24|352:24,1,80
300,76,125060,2,0,L|304:124,2,40,0|2|0,0:0|0:0|0:0,0:0:0:0:
312,192,125316,2,0,P|352:196|396:184,1,80,8|0,0:0|0:0,0:0:0:0:
216,40,125572,1,2,0:0:0:0:
216,40,125657,6,0,P|224:88|220:120,1,80,2|0,0:0|0:0,0:0:0:0:
40,236,125913,2,0,P|32:196|36:152,1,80
236,56,126168,2,0,P|244:104|240:136,1,80,2|0,0:0|0:0,0:0:0:0:
300,340,126424,2,0,P|296:296|304:256,1,80
204,216,126680,2,0,L|196:176,1,40,2|0,0:0|0:0,0:0:0:0:
312,136,126850,2,0,L|320:96,1,40,2|0,0:0|0:0,0:0:0:0:
164,36,127021,6,0,P|160:76|168:120,1,80,2|0,0:0|0:0,0:0:0:0:
364,192,127276,2,0,P|364:240|352:272,1,80
140,340,127532,2,0,P|132:300|132:252,1,80
384,120,127788,2,0,P|380:96|372:64,2,40,0|2|0,0:0|0:0|0:0,0:0:0:0:
164,36,128043,2,0,L|252:28,1,80,8|2,0:0|0:0,0:0:0:0:
296,236,128384,6,0,L|192:248,1,80,2|0,0:0|0:0,0:0:0:0:
44,272,128640,1,0,0:0:0:0:
44,272,128725,1,8,0:0:0:0:
288,216,128896,6,0,L|184:228,1,80,2|0,0:0|0:0,0:0:0:0:
40,152,129151,2,0,L|56:64,1,80
212,44,129407,1,2,0:0:0:0:
372,188,129578,1,2,0:0:0:0:
196,320,129748,2,0,P|200:260|180:200,1,120.000004577637,2|0,0:0|0:0,0:0:0:0:
144,76,130259,2,0,P|136:112|140:156,2,68.0000012969971
52,188,130771,6,0,P|40:116|48:36,1,136.000002593994
296,100,131282,1,0,0:0:0:0:
372,160,131453,2,0,P|376:200|372:228,1,60.0000022888184
172,256,131793,6,0,L|180:296,1,40
312,288,131964,2,0,L|284:328,1,40
160,144,132134,2,0,L|164:188,1,40
344,220,132305,2,0,L|364:132,1,80,0|6,0:0|0:0,0:0:0:0:
256,192,132534,12,2,134498,0:0:0:0:
160,312,140069,6,0,L|168:224,1,80
400,132,140545,1,0,0:0:0:0:
328,124,141021,1,0,0:0:0:0:
256,116,141516,2,0,L|248:200,1,80
320,236,141992,6,0,P|328:272|328:308,1,60.0000022888184,4|0,0:0|0:0,0:0:0:0:
208,348,142468,2,0,P|172:356|132:352,1,60.0000022888184
88,312,142825,1,0,0:0:0:0:
160,216,143063,1,0,0:0:0:0:
160,216,143182,2,0,L|156:148,1,60.0000022888184
36,136,143658,1,0,0:0:0:0:
36,136,143896,6,0,L|44:68,1,60.0000022888184
224,32,144253,2,0,L|216:104,1,60.0000022888184
260,160,144611,2,0,L|268:196,1,30.0000011444092
472,224,144849,2,0,L|480:160,1,60.0000022888184
360,84,145206,2,0,P|328:84|296:92,1,60.0000022888184
316,208,145563,2,0,P|352:208|384:196,2,60.0000022888184
256,156,146158,1,0,0:0:0:0:
256,156,146277,6,0,L|252:96,1,60.0000022888184
40,148,146634,1,0,0:0:0:0:
40,148,146872,2,0,L|44:216,1,60.0000022888184
100,268,147230,2,0,L|92:332,1,60.0000022888184
288,300,147706,6,0,L|220:296,1,60.0000022888184
336,192,148182,2,0,L|348:160,1,30.0000011444092
348,88,148420,2,0,L|344:52,1,30.0000011444092
72,96,148658,6,0,L|80:160,1,47.9999985351563,8|0,0:0|0:0,0:0:0:0:
140,200,148896,2,8,L|136:224,2,23.9999992675781
212,152,149134,2,0,L|276:144,1,47.9999985351563,8|0,0:0|0:0,0:0:0:0:
448,168,149372,2,8,L|440:140,2,23.9999992675781
432,252,149611,6,0,P|372:264|308:260,1,120,10|0,0:0|0:0,0:0:0:0:
200,224,150087,1,8,0:0:0:0:
320,316,150325,2,0,P|308:256|316:196,1,120,2|0,0:0|0:0,0:0:0:0:
380,128,150801,1,2,0:0:0:0:
380,128,151039,2,0,L|368:48,1,80,8|0,0:0|0:0,0:0:0:0:
288,28,151396,5,2,0:0:0:0:
288,28,151515,2,0,P|244:24|208:24,1,80,2|0,0:0|0:0,0:0:0:0:
40,152,151992,2,0,P|36:108|44:68,1,80,8|2,0:0|0:0,0:0:0:0:
200,124,152349,1,2,0:0:0:0:
200,124,152468,2,0,L|104:116,1,80
328,192,152825,2,0,L|416:184,1,80
456,116,153182,1,2,0:0:0:0:
456,116,153301,1,2,0:0:0:0:
468,248,153420,6,0,P|472:292|464:344,1,80,2|0,0:0|0:0,0:0:0:0:
216,328,153896,2,0,P|255:328|295:336,1,80,8|0,0:0|0:0,0:0:0:0:
364,284,154253,1,2,0:0:0:0:
456,108,154492,2,0,P|432:112|404:116,1,40
336,124,154730,2,0,P|316:120|280:112,1,40,2|8,0:0|0:0,0:0:0:0:
96,176,155087,2,0,P|96:204|100:232,1,40,2|0,0:0|0:0,0:0:0:0:
216,332,155325,6,0,L|304:316,1,80,2|0,0:0|0:0,0:0:0:0:
172,232,155801,1,8,0:0:0:0:
200,236,155920,1,0,0:0:0:0:
228,240,156039,1,2,0:0:0:0:
256,244,156158,1,0,0:0:0:0:
284,248,156277,2,0,L|292:296,1,40,2|0,0:0|0:0,0:0:0:0:
452,252,156515,2,0,L|444:208,1,40,2|0,0:0|0:0,0:0:0:0:
425,100,156753,2,0,L|432:140,1,40,2|0,0:0|0:0,0:0:0:0:
376,192,156992,2,0,L|364:236,1,40,2|0,0:0|0:0,0:0:0:0:
324,136,157230,6,0,L|308:48,1,80,2|0,0:0|0:0,0:0:0:0:
309,57,157706,2,0,P|268:68|224:68,1,80,8|0,0:0|0:0,0:0:0:0:
164,32,158063,1,2,0:0:0:0:
24,136,158301,1,0,0:0:0:0:
24,136,158420,1,2,0:0:0:0:
164,232,158658,6,0,L|168:280,1,40,8|0,0:0|0:0,0:0:0:0:
12,348,158896,2,0,L|20:300,1,40,2|2,0:0|0:0,0:0:0:0:
164,232,159134,2,0,L|172:316,1,80,2|0,0:0|0:0,0:0:0:0:
304,344,159492,2,0,L|364:288,1,80,2|0,0:0|0:0,0:0:0:0:
372,216,159849,2,0,L|380:168,1,40,2|0,0:0|0:0,0:0:0:0:
348,152,160087,2,0,L|336:240,1,80
260,264,160444,2,0,P|216:268|164:260,1,80
40,232,160801,2,0,L|48:312,2,80,0|2|0,0:0|0:0|0:0,0:0:0:0:
96,180,161515,6,0,P|88:148|88:100,1,80,8|2,0:0|0:0,0:0:0:0:
152,56,161872,2,0,L|244:60,2,80
72,104,162468,2,0,P|72:144|81:183,1,80,8|2,0:0|0:0,0:0:0:0:
212,236,162825,1,6,0:0:0:0:
212,236,162944,2,0,P|272:228|336:232,1,120,0|2,0:0|0:0,0:0:0:0:
392,284,163420,1,8,0:0:0:0:
488,104,163658,1,2,0:0:0:0:
392,284,163896,1,2,0:0:0:0:
240,140,164253,1,2,0:0:0:0:
480,212,164611,1,6,0:0:0:0:
480,212,164849,6,0,P|484:172|476:120,1,80,4|0,0:0|0:0,0:0:0:0:
276,40,165317,2,0,P|272:76|276:124,1,80,8|2,0:0|0:0,0:0:0:0:
320,184,165669,1,0,0:0:0:0:
272,300,165901,1,0,0:0:0:0:
272,300,166016,1,0,0:0:0:0:
464,260,166247,2,0,L|460:312,1,40,8|0,0:0|0:0,0:0:0:0:
400,340,166478,2,0,L|356:348,1,40
272,304,166709,6,0,P|272:264|260:208,1,80,2|0,0:0|0:0,0:0:0:0:
216,160,167049,2,0,L|224:64,1,80
24,36,167390,2,0,L|16:84,1,40,2|0,0:0|0:0,0:0:0:0:
0,148,167618,2,0,P|-4:188|8:236,1,80
208,336,167953,2,0,P|212:292|200:248,1,80
164,236,168289,1,2,0:0:0:0:
168,232,168513,6,0,L|256:240,1,80,2|0,0:0|0:0,0:0:0:0:
324,284,168941,2,0,P|372:288|420:280,1,80,8|2,0:0|0:0,0:0:0:0:
444,208,169263,1,0,0:0:0:0:
436,352,169475,2,0,P|397:362|336:360,1,95.9999970703126
256,292,169792,2,0,L|248:180,1,103.999995239258,8|0,0:0|0:0,0:0:0:0:
40,44,170215,6,0,P|80:40|124:48,1,80,2|0,0:0|0:0,0:0:0:0:
220,136,170634,2,0,P|248:132|276:124,1,40,8|0,0:0|0:0,0:0:0:0:
328,84,170844,2,0,P|332:104|348:132,1,40,2|4,0:0|0:0,0:0:0:0:
396,176,171054,1,8,0:0:0:0:
392,204,171158,1,8,0:0:0:0:
388,232,171262,1,8,0:0:0:0:
384,260,171366,1,8,0:0:0:0:
372,328,171470,5,4,0:0:0:0:
336,336,171572,1,2,0:0:0:0:
304,336,171675,1,2,0:0:0:0:
272,328,171778,1,2,0:0:0:0:
216,284,171880,6,0,L|128:292,1,80,2|0,0:0|0:0,0:0:0:0:
296,224,172178,1,0,0:0:0:0:
296,224,172277,2,0,L|384:232,1,80,8|0,0:0|0:0,0:0:0:0:
200,152,172575,1,2,0:0:0:0:
432,188,172774,1,0,0:0:0:0:
432,188,172873,1,2,0:0:0:0:
152,232,173072,1,8,0:0:0:0:
112,244,173171,1,0,0:0:0:0:
72,256,173270,1,0,0:0:0:0:
32,268,173370,1,0,0:0:0:0:
24,192,173469,6,0,P|32:152|24:96,1,80,2|0,0:0|0:0,0:0:0:0:
8,80,173757,2,0,L|88:92,1,80
248,216,174045,2,0,L|288:196,1,40
340,152,174238,2,0,L|428:164,1,80
212,40,174526,2,0,L|120:52,1,80,2|0,0:0|0:0,0:0:0:0:
352,72,174815,1,2,0:0:0:0:
296,232,175007,6,0,P|292:272|296:320,1,80,2|0,0:0|0:0,0:0:0:0:
488,352,175284,1,0,0:0:0:0:
488,352,175377,2,0,P|492:312|488:272,1,80,8|2,0:0|0:0,0:0:0:0:
448,208,175655,2,0,L|456:120,2,80
296,232,176118,2,0,P|252:232|208:220,1,80,8|0,0:0|0:0,0:0:0:0:
52,116,176395,1,2,0:0:0:0:
52,116,176488,6,0,P|44:164|52:240,1,120,2|0,0:0|0:0,0:0:0:0:
24,308,176849,1,8,0:0:0:0:
216,340,177030,2,0,P|220:292|212:248,1,80,2|0,0:0|0:0,0:0:0:0:
264,200,177299,1,2,0:0:0:0:
120,96,177477,1,0,0:0:0:0:
120,96,177567,2,0,P|124:52|144:4,1,80,2|0,0:0|0:0,0:0:0:0:
368,56,177924,6,0,P|380:116|368:184,1,120,2|0,0:0|0:0,0:0:0:0:
300,220,178268,2,8,L|308:304,1,80
488,236,178613,2,0,P|484:192|496:144,1,80,2|0,0:0|0:0,0:0:0:0:
256,48,178958,2,0,L|264:128,1,80,8|0,0:0|0:0,0:0:0:0:
24,232,179303,6,0,L|32:136,1,80,2|0,0:0|0:0,0:0:0:0:
300,220,179634,2,0,L|296:308,1,80,8|2,0:0|0:0,0:0:0:0:
184,340,179883,1,0,0:0:0:0:
184,340,179965,2,0,P|136:340|104:332,1,80,0|2,0:0|0:0,0:0:0:0:
64,356,180210,2,0,L|56:272,1,80,0|2,0:0|0:0,0:0:0:0:
48,192,180456,1,0,0:0:0:0:
240,152,180620,6,0,L|228:232,1,80,2|0,0:0|0:0,0:0:0:0:
48,192,180940,2,0,P|92:196|132:192,1,80,8|0,0:0|0:0,0:0:0:0:
300,104,181261,2,0,P|340:96|384:96,1,80,2|0,0:0|0:0,0:0:0:0:
484,228,181582,2,0,P|484:268|472:308,1,80,8|0,0:0|0:0,0:0:0:0:
292,348,181903,6,0,P|256:352|208:344,1,80,2|0,0:0|0:0,0:0:0:0:
64,184,182206,2,0,P|68:224|84:268,1,80,8|0,0:0|0:0,0:0:0:0:
312,276,182509,2,0,P|352:272|392:256,1,80,0|2,0:0|0:0,0:0:0:0:
464,40,182812,2,0,P|476:80|476:120,1,80,8|2,0:0|0:0,0:0:0:0:
288,196,183115,6,0,P|248:204|208:204,1,80,2|0,0:0|0:0,0:0:0:0:
160,140,183409,1,2,0:0:0:0:
476,12,183703,1,2,0:0:0:0:
432,356,183997,1,0,0:0:0:0:
104,44,184291,5,2,0:0:0:0:
148,336,184572,1,0,0:0:0:0:
436,68,184854,1,2,0:0:0:0:
388,304,185136,1,0,0:0:0:0:
312,40,185417,6,0,P|308:96|324:168,1,120,2|0,0:0|0:0,0:0:0:0:
436,344,185690,2,0,P|444:288|436:220,1,120
296,236,185964,2,0,P|248:248|172:244,1,120,2|0,0:0|0:0,0:0:0:0:
160,272,186238,2,0,L|148:136,1,120
320,68,186512,6,0,P|328:120|320:192,1,120,2|0,0:0|0:0,0:0:0:0:
352,200,186777,2,0,L|224:216,1,120,2|0,0:0|0:0,0:0:0:0:
40,148,187042,2,0,P|96:156|176:136,1,120,2|0,0:0|0:0,0:0:0:0:
176,172,187308,2,0,L|184:52,1,120,2|0,0:0|0:0,0:0:0:0:
320,68,187573,6,0,L|328:104,5,26.6666666666667,6|0|0|0|0|0,0:0|0:0|0:0|0:0|0:0|0:0,0:0:0:0:
424,152,188064,2,0,L|416:196,2,26.6666666666667,2|0|0,0:0|0:0|0:0,0:0:0:0:
340,232,188310,2,0,L|344:268,2,26.6666666666667,2|0|0,0:0|0:0|0:0,0:0:0:0:
404,304,188556,2,0,L|396:344,5,26.6666666666667,2|0|0|0|0|0,0:0|0:0|0:0|0:0|0:0|0:0,0:0:0:0:
328,352,188997,2,0,P|288:356|240:348,1,88.000002685547,2|0,0:0|0:0,0:0:0:0:
120,92,189438,2,0,P|120:144|108:200,1,103.999995239258,2|0,0:0|0:0,0:0:0:0:
44,328,189866,6,0,L|92:320,5,26.6666666666667,2|0|0|0|0|0,0:0|0:0|0:0|0:0|0:0|0:0,0:0:0:0:
132,272,190266,2,0,P|184:284|252:280,1,103.999995239258,2|0,0:0|0:0,0:0:0:0:
400,128,190636,2,0,P|344:120|288:132,1,111.999996582031,2|0,0:0|0:0,0:0:0:0:
208,192,190997,1,2,0:0:0:0:
192,68,191170,1,2,0:0:0:0:
312,8,191343,1,2,0:0:0:0:
416,96,191511,1,2,0:0:0:0:
292,212,191680,1,2,0:0:0:0:
432,296,191839,1,2,0:0:0:0:
504,192,191999,6,0,L|512:140,2,53.3333333333333,2|0|0,0:0|0:0|0:0,0:0:0:0:
432,296,192299,2,0,L|396:344,2,53.3333333333333,2|0|0,0:0|0:0|0:0,0:0:0:0:
264,256,192584,2,0,L|272:312,2,53.3333333333333,2|0|0,0:0|0:0|0:0,0:0:0:0:
184,268,192863,2,0,L|192:328,2,53.3333333333333,2|0|0,0:0|0:0|0:0,0:0:0:0:
40,148,193123,6,0,L|48:96,2,53.3333333333333,2|0|0,0:0|0:0|0:0,0:0:0:0:
120,172,193384,2,0,L|128:116,2,53.3333333333333,2|0|0,0:0|0:0|0:0,0:0:0:0:
256,216,193642,6,0,L|200:240,2,53.3333333333333,2|0|0,0:0|0:0|0:0,0:0:0:0:
352,232,193882,2,0,L|400:272,2,53.3333333333333,2|0|0,0:0|0:0|0:0,0:0:0:0:
320,144,194108,2,0,L|328:88,2,53.3333333333333,2|0|0,0:0|0:0|0:0,0:0:0:0:
192,168,194324,6,0,L|180:116,11,53.3333333333333,2|0|0|2|0|0|2|0|0|2|0|0,0:0|0:0|0:0|0:0|0:0|0:0|0:0|0:0|0:0|0:0|0:0|0:0,0:0:0:0:
256,192,195169,12,4,201349,0:0:0:0:
256,192,201391,12,10,210553,0:0:0:0:
404,92,210894,5,0,0:0:0:0:
364,212,211064,1,0,0:0:0:0:
300,76,211235,1,0,0:0:0:0:
264,228,211405,1,0,0:0:0:0:
192,60,211576,1,0,0:0:0:0:
160,244,211746,1,0,0:0:0:0:
300,76,211917,1,0,0:0:0:0:
364,212,212087,1,0,0:0:0:0:
424,248,212258,6,0,P|428:288|424:324,1,60.0000022888184,6|0,0:0|0:0,0:0:0:0:
364,344,212513,2,0,L|296:352,1,60.0000022888184
256,296,212769,2,0,L|188:304,2,60.0000022888184
280,220,213195,1,0,0:0:0:0:
280,220,213280,2,0,L|216:228,1,60.0000022888184
152,192,213536,1,0,0:0:0:0:
156,272,213706,6,0,P|160:312|156:352,1,60.0000022888184
84,352,213962,2,0,L|8:344,1,60.0000022888184
0,224,214218,1,0,0:0:0:0:
0,224,214388,2,0,L|8:184,2,30.0000011444092
72,160,214644,2,0,L|60:96,1,60.0000022888184
48,28,214900,1,0,0:0:0:0:
208,40,215070,6,0,L|216:100,1,60.0000022888184
296,128,215326,2,0,P|324:132|376:128,1,60.0000022888184
476,40,215581,1,0,0:0:0:0:
476,40,215752,2,0,L|464:72,2,30.0000011444092
364,32,216008,6,0,L|376:72,1,30.0000011444092
392,136,216178,2,0,L|376:168,1,30.0000011444092
300,152,216349,2,0,L|268:156,1,30.0000011444092
220,216,216519,1,0,0:0:0:0:
224,244,216604,1,0,0:0:0:0:
228,272,216689,1,0,0:0:0:0:
232,300,216775,1,0,0:0:0:0:
236,328,216860,1,0,0:0:0:0:
312,312,216945,2,0,P|320:272|316:220,1,90.0000034332277
200,176,217371,2,0,P|192:128|204:72,1,90.0000034332277
308,64,217712,6,0,L|376:68,1,60.0000022888184
424,128,217968,1,0,0:0:0:0:
424,128,218224,2,0,L|432:192,1,60.0000022888184
380,256,218479,2,0,L|320:248,1,60.0000022888184
236,232,218735,1,0,0:0:0:0:
152,328,218905,1,0,0:0:0:0:
152,328,219076,6,0,L|228:336,1,60.0000022888184
304,356,219331,2,0,L|376:364,1,60.0000022888184
432,312,219587,2,0,L|436:240,1,60.0000022888184
376,192,219843,2,0,L|380:120,1,60.0000022888184
444,80,220099,1,0,0:0:0:0:
416,72,220184,1,0,0:0:0:0:
388,64,220269,1,0,0:0:0:0:
360,56,220354,1,0,0:0:0:0:
288,88,220439,6,0,P|296:132|292:176,1,80,2|0,0:0|0:0,0:0:0:0:
244,220,220695,1,2,0:0:0:0:
244,220,220951,2,0,P|200:228|144:220,1,80,2|0,0:0|0:0,0:0:0:0:
52,248,221206,2,0,P|56:204|52:160,1,80,2|0,0:0|0:0,0:0:0:0:
44,48,221462,2,0,P|84:40|128:40,1,80,2|0,0:0|0:0,0:0:0:0:
288,88,221718,1,0,0:0:0:0:
288,88,221803,6,0,L|304:188,1,80,2|0,0:0|0:0,0:0:0:0:
352,220,222059,2,0,P|360:264|356:312,1,80,2|0,0:0|0:0,0:0:0:0:
296,340,222314,1,2,0:0:0:0:
432,240,222485,2,0,L|472:236,2,40,2|0|0,0:0|0:0|0:0,0:0:0:0:
296,340,222741,1,0,0:0:0:0:
296,340,222826,2,0,P|256:344|200:336,1,80,2|0,0:0|0:0,0:0:0:0:
200,308,223167,6,0,P|264:300|332:308,1,132.00000402832,6|0,0:0|0:0,0:0:0:0:
368,332,223508,2,0,L|356:240,1,88.000002685547
388,124,223849,1,0,0:0:0:0:
388,124,223934,1,0,0:0:0:0:
388,124,224019,1,0,0:0:0:0:
376,252,224189,2,0,L|387:339,1,88.000002685547
476,352,224445,1,0,0:0:0:0:
476,352,224530,6,0,P|488:312|488:260,1,88.000002685547
460,200,224786,2,0,L|468:112,1,88.000002685547
300,144,225042,2,0,P|256:152|212:152,1,88.000002685547
160,208,225297,1,0,0:0:0:0:
160,208,225383,2,0,L|164:252,1,44.0000013427735
72,192,225553,2,0,L|84:288,1,88.000002685547
296,348,225894,6,0,P|304:304|288:236,1,88.000002685547
240,204,226150,2,0,L|248:112,1,88.000002685547
316,72,226405,2,0,P|360:80|412:76,1,88.000002685547
444,148,226661,1,0,0:0:0:0:
444,148,226746,2,0,L|436:192,1,44.0000013427735
300,268,226917,2,0,P|256:276|204:272,1,88.000002685547
156,212,227258,6,0,L|148:120,1,88.000002685547
40,40,227513,2,0,P|80:36|128:40,1,88.000002685547
192,80,227769,1,0,0:0:0:0:
272,212,227939,2,0,L|264:168,1,44.0000013427735
348,200,228110,2,0,L|336:152,1,44.0000013427735
372,28,228280,2,0,L|368:80,1,44.0000013427735
448,48,228451,2,0,L|440:100,1,44.0000013427735
424,192,228621,6,0,P|436:236|440:288,1,88.000002685547
392,344,228877,2,0,L|304:336,1,88.000002685547
204,296,229133,2,0,L|116:304,1,88.000002685547
112,340,229388,2,0,L|200:332,1,88.000002685547
312,292,229644,1,0,0:0:0:0:
192,148,229814,1,0,0:0:0:0:
48,272,229985,6,0,P|40:232|40:184,1,80
192,148,230241,2,0,P|216:184|228:224,1,80
468,236,230496,2,0,P|424:248|372:244,1,88.000002685547
300,144,230752,2,0,P|316:104|344:64,1,88.000002685547
424,88,231008,1,0,0:0:0:0:
340,340,231178,6,0,L|280:348,1,44.0000013427735
208,316,231349,2,0,L|196:220,1,95.9999970703126
280,192,231604,2,0,P|324:200|384:192,1,95.9999970703126
200,36,231860,2,0,L|212:132,1,95.9999970703126
284,192,232116,2,0,L|280:244,2,47.9999985351563
408,152,232371,2,0,L|420:48,1,95.9999970703126
344,28,232712,5,2,0:0:0:0:
152,112,232883,1,0,0:0:0:0:
428,288,233053,1,0,0:0:0:0:
164,316,233224,1,8,0:0:0:0:
156,272,233309,1,2,0:0:0:0:
148,228,233394,1,2,0:0:0:0:
140,184,233479,1,2,0:0:0:0:
132,140,233564,1,2,0:0:0:0:
124,96,233650,1,4,0:0:0:0:
172,80,233735,1,8,0:0:0:0:
172,80,234076,6,0,P|192:144|184:224,1,143.999995605469,6|0,0:0|0:0,0:0:0:0:
148,244,234417,2,0,L|248:232,1,95.9999970703126,8|0,0:0|0:0,0:0:0:0:
472,148,234758,2,0,L|372:128,1,95.9999970703126,0|2,0:0|0:0,0:0:0:0:
272,296,235099,1,8,0:0:0:0:
472,272,235269,1,0,0:0:0:0:
472,272,235354,1,0,0:0:0:0:
472,272,235439,6,0,P|456:192|468:128,1,143.999995605469,2|0,0:0|0:0,0:0:0:0:
304,44,235780,2,0,L|320:148,1,95.9999970703126,8|2,0:0|0:0,0:0:0:0:
416,328,236121,1,0,0:0:0:0:
416,328,236206,2,0,L|464:340,1,47.9999985351563
296,192,236462,2,0,L|200:200,1,95.9999970703126,2|0,0:0|0:0,0:0:0:0:
44,340,236803,6,0,P|48:296|32:224,1,95.9999970703126,2|2,0:0|0:0,0:0:0:0:
192,52,237144,1,8,0:0:0:0:
192,52,237229,1,0,0:0:0:0:
192,52,237314,2,0,P|184:104|196:152,1,95.9999970703126
240,208,237570,2,0,L|232:268,1,47.9999985351563
328,356,237741,2,0,L|324:304,1,47.9999985351563,0|8,0:0|0:0,0:0:0:0:
392,192,237911,2,0,L|408:248,2,47.9999985351563
460,48,238167,6,0,P|396:68|320:56,1,143.999995605469,8|0,0:0|0:0,0:0:0:0:
308,20,238508,2,0,L|300:116,2,95.9999970703126,8|2|8,0:0|0:0|0:0,0:0:0:0:
228,152,238934,2,0,P|180:160|116:152,1,95.9999970703126
80,96,239189,2,0,L|72:44,1,47.9999985351563,2|0,0:0|0:0,0:0:0:0:
216,32,239360,2,0,L|212:88,1,47.9999985351563
212,236,239530,6,0,P|264:240|320:228,1,95.9999970703126,2|0,0:0|0:0,0:0:0:0:
360,88,239786,2,0,P|408:100|456:104,1,95.9999970703126,8|0,0:0|0:0,0:0:0:0:
472,68,240042,2,0,P|468:132|484:216,1,143.999995605469
472,280,240383,1,2,0:0:0:0:
212,236,240553,2,0,L|320:240,1,95.9999970703126,8|0,0:0|0:0,0:0:0:0:
188,328,240809,1,2,0:0:0:0:
188,328,240894,6,0,P|140:336|92:328,1,95.9999970703126,2|0,0:0|0:0,0:0:0:0:
40,148,241150,2,0,L|28:248,1,95.9999970703126,8|0,0:0|0:0,0:0:0:0:
4,272,241405,2,0,P|52:264|108:268,1,95.9999970703126,2|0,0:0|0:0,0:0:0:0:
296,236,241661,2,0,P|296:188|280:132,1,95.9999970703126
208,104,241917,1,2,0:0:0:0:
256,296,242087,1,8,0:0:0:0:
340,44,242258,6,0,P|288:52|232:44,1,95.9999970703126,2|0,0:0|0:0,0:0:0:0:
40,148,242513,2,0,L|56:248,1,95.9999970703126
84,260,242769,2,0,L|68:165,1,95.9999970703126
128,116,243025,2,0,P|168:112|224:116,1,95.9999970703126,0|2,0:0|0:0,0:0:0:0:
280,176,243280,2,0,L|272:228,1,47.9999985351563,8|0,0:0|0:0,0:0:0:0:
256,296,243451,2,0,L|248:348,1,47.9999985351563,0|2,0:0|0:0,0:0:0:0:
216,352,243621,6,0,L|232:240,1,95.9999970703126,2|0,0:0|0:0,0:0:0:0:
368,192,243877,1,2,0:0:0:0:
368,192,243962,2,0,L|388:240,2,47.9999985351563,8|0|0,0:0|0:0|0:0,0:0:0:0:
204,48,244303,2,0,P|252:48|304:56,1,95.9999970703126,2|0,0:0|0:0,0:0:0:0:
472,232,244644,1,8,0:0:0:0:
468,200,244729,1,0,0:0:0:0:
464,168,244814,1,8,0:0:0:0:
460,136,244900,1,0,0:0:0:0:
456,104,244985,6,0,P|384:100|312:116,1,143.999995605469,2|0,0:0|0:0,0:0:0:0:
196,272,245326,2,0,P|252:276|304:268,2,95.9999970703126,8|0|0,0:0|0:0|0:0,0:0:0:0:
296,120,245837,1,2,0:0:0:0:
132,324,246008,2,0,L|116:228,1,95.9999970703126,8|0,0:0|0:0,0:0:0:0:
216,40,246263,1,0,0:0:0:0:
216,40,246349,6,0,L|196:136,1,95.9999970703126,2|0,0:0|0:0,0:0:0:0:
40,188,246604,2,0,P|36:244|52:292,1,95.9999970703126
28,308,246860,2,0,L|124:296,1,95.9999970703126
300,244,247116,2,0,L|252:232,2,47.9999985351563,0|8|0,0:0|0:0|0:0,0:0:0:0:
104,152,247371,2,0,P|152:160|204:156,1,95.9999970703126,2|8,0:0|0:0,0:0:0:0:
396,40,247712,6,0,P|344:32|296:32,1,95.9999970703126,2|0,0:0|0:0,0:0:0:0:
216,148,247968,1,0,0:0:0:0:
216,148,248053,2,0,L|204:44,1,95.9999970703126,8|0,0:0|0:0,0:0:0:0:
424,188,248394,2,0,L|412:288,1,95.9999970703126,0|2,0:0|0:0,0:0:0:0:
296,120,248735,2,0,L|304:180,1,47.9999985351563
336,332,248905,2,0,L|344:280,1,47.9999985351563,2|0,0:0|0:0,0:0:0:0:
280,236,249076,6,0,L|264:336,1,95.9999970703126,2|0,0:0|0:0,0:0:0:0:
48,192,249331,2,0,L|64:288,1,95.9999970703126,8|0,0:0|0:0,0:0:0:0:
248,168,249587,2,0,L|232:64,1,95.9999970703126,2|0,0:0|0:0,0:0:0:0:
148,56,249843,2,0,L|92:64,2,47.9999985351563,0|8|0,0:0|0:0|0:0,0:0:0:0:
304,48,250099,2,0,L|352:64,1,47.9999985351563,2|0,0:0|0:0,0:0:0:0:
464,152,250269,2,0,L|412:176,1,47.9999985351563
208,240,250439,6,0,P|204:296|216:344,1,95.9999970703126,2|0,0:0|0:0,0:0:0:0:
376,352,250695,2,0,P|380:304|368:252,1,95.9999970703126
320,196,250951,2,0,L|328:100,1,95.9999970703126
392,56,251206,1,2,0:0:0:0:
392,56,251292,1,2,0:0:0:0:
152,136,251462,1,8,0:0:0:0:
240,344,251633,2,0,L|176:336,1,47.9999985351563
120,300,251803,6,0,P|128:252|124:200,1,95.9999970703126,2|0,0:0|0:0,0:0:0:0:
10,180,252059,2,0,P|8:104|32:20,2,143.999995605469,0|2|0,0:0|0:0|0:0,0:0:0:0:
72,240,252655,1,8,0:0:0:0:
296,152,252826,2,0,L|192:168,1,95.9999970703126,2|0,0:0|0:0,0:0:0:0:
72,240,253167,6,0,P|84:192|76:136,1,95.9999970703126,8|0,0:0|0:0,0:0:0:0:
120,84,253422,2,0,L|228:88,1,95.9999970703126
392,232,253678,2,0,L|288:240,1,95.9999970703126,2|0,0:0|0:0,0:0:0:0:
236,296,253934,1,0,0:0:0:0:
212,312,254019,1,8,0:0:0:0:
188,328,254104,1,0,0:0:0:0:
164,344,254189,2,0,L|56:352,1,95.9999970703126,2|0,0:0|0:0,0:0:0:0:
72,144,254530,5,2,0:0:0:0:
292,280,254786,1,0,0:0:0:0:
452,60,255042,1,2,0:0:0:0:
452,60,255212,1,8,0:0:0:0:
216,124,255383,2,0,L|288:132,1,47.9999985351563,2|0,0:0|0:0,0:0:0:0:
404,192,255553,1,8,0:0:0:0:
408,224,255638,1,0,0:0:0:0:
412,256,255724,1,8,0:0:0:0:
416,288,255809,1,0,0:0:0:0:
360,340,255894,6,0,P|292:352|212:344,1,143.999995605469,2|0,0:0|0:0,0:0:0:0:
192,356,256235,2,0,L|180:256,1,95.9999970703126,8|0,0:0|0:0,0:0:0:0:
336,152,256576,2,0,L|328:252,1,95.9999970703126,0|2,0:0|0:0,0:0:0:0:
172,192,256917,1,8,0:0:0:0:
384,96,257087,1,0,0:0:0:0:
384,96,257172,1,0,0:0:0:0:
384,96,257258,6,0,P|332:100|284:88,1,95.9999970703126,2|0,0:0|0:0,0:0:0:0:
272,68,257513,2,0,L|280:164,1,95.9999970703126
256,236,257769,2,0,L|268:336,1,95.9999970703126,2|0,0:0|0:0,0:0:0:0:
384,344,258025,2,0,L|404:296,2,47.9999985351563,0|8|0,0:0|0:0|0:0,0:0:0:0:
244,328,258280,6,0,L|232:232,1,95.9999970703126,2|0,0:0|0:0,0:0:0:0:
84,264,258621,2,0,P|76:216|84:156,1,95.9999970703126,2|0,0:0|0:0,0:0:0:0:
64,144,258877,2,0,L|160:136,1,95.9999970703126,8|0,0:0|0:0,0:0:0:0:
428,192,259133,2,0,P|432:144|416:88,1,95.9999970703126,2|0,0:0|0:0,0:0:0:0:
440,76,259388,2,0,L|336:80,1,95.9999970703126
300,184,259644,2,0,P|256:192|204:188,1,95.9999970703126,8|0,0:0|0:0,0:0:0:0:
144,128,259900,1,2,0:0:0:0:
144,128,259985,6,0,P|160:188|152:280,1,143.999995605469,2|0,0:0|0:0,0:0:0:0:
88,304,260326,1,8,0:0:0:0:
304,252,260496,2,0,L|292:356,1,95.9999970703126,2|0,0:0|0:0,0:0:0:0:
160,336,260752,2,0,L|208:328,1,47.9999985351563,0|8,0:0|0:0,0:0:0:0:
304,252,260922,2,0,L|248:240,1,47.9999985351563,0|2,0:0|0:0,0:0:0:0:
212,136,261093,2,0,L|264:116,2,47.9999985351563,0|8|0,0:0|0:0|0:0,0:0:0:0:
156,192,261349,6,0,P|156:240|144:288,1,95.9999970703126,2|0,0:0|0:0,0:0:0:0:
12,348,261604,1,0,0:0:0:0:
12,348,261689,1,8,0:0:0:0:
160,336,261860,2,0,P|224:344|304:328,1,143.999995605469,2|0,0:0|0:0,0:0:0:0:
488,260,262201,2,0,L|496:200,1,47.9999985351563,0|2,0:0|0:0,0:0:0:0:
464,144,262371,2,0,P|416:136|368:140,1,95.9999970703126,8|0,0:0|0:0,0:0:0:0:
296,232,262627,1,2,0:0:0:0:
296,232,262712,6,0,L|284:136,1,95.9999970703126,2|0,0:0|0:0,0:0:0:0:
48,40,262968,2,0,L|64:144,1,95.9999970703126
16,200,263224,2,0,P|12:248|24:304,1,95.9999970703126,2|0,0:0|0:0,0:0:0:0:
96,328,263479,1,0,0:0:0:0:
124,320,263564,1,8,0:0:0:0:
152,312,263650,1,0,0:0:0:0:
180,304,263735,2,0,L|288:312,1,95.9999970703126,2|0,0:0|0:0,0:0:0:0:
472,148,264076,6,0,L|368:156,1,95.9999970703126,2|0,0:0|0:0,0:0:0:0:
328,224,264331,2,0,P|300:228|256:224,1,47.9999985351563,0|8,0:0|0:0,0:0:0:0:
480,72,264587,2,0,L|380:80,1,95.9999970703126
212,144,264843,2,0,P|208:112|200:80,2,47.9999985351563,0|2|0,0:0|0:0|0:0,0:0:0:0:
48,144,265099,2,0,L|96:152,1,47.9999985351563,8|0,0:0|0:0,0:0:0:0:
64,224,265269,2,0,L|120:236,1,47.9999985351563
188,260,265439,5,2,0:0:0:0:
236,272,265525,1,0,0:0:0:0:
284,264,265610,1,0,0:0:0:0:
324,236,265695,1,0,0:0:0:0:
348,192,265780,1,8,0:0:0:0:
348,144,265866,1,0,0:0:0:0:
324,100,265951,1,0,0:0:0:0:
284,72,266036,1,0,0:0:0:0:
236,60,266121,2,0,L|172:52,2,47.9999985351563,2|0|0,0:0|0:0|0:0,0:0:0:0:
208,216,266462,1,8,0:0:0:0:
456,268,266633,1,0,0:0:0:0:
308,356,266803,6,0,L|208:368,1,95.9999970703126,4|0,0:0|0:0,0:0:0:0:
40,344,267059,2,0,P|28:296|36:244,1,95.9999970703126
96,196,267314,2,0,L|104:140,1,47.9999985351563
40,40,267485,1,0,0:0:0:0:
40,40,267570,1,0,0:0:0:0:
40,40,267655,1,2,0:0:0:0:
204,132,267826,2,0,L|188:232,1,95.9999970703126,8|0,0:0|0:0,0:0:0:0:
336,260,268081,1,0,0:0:0:0:
336,260,268167,6,0,P|380:260|436:248,1,88.000002685547,2|0,0:0|0:0,0:0:0:0:
464,116,268422,2,0,P|416:108|364:108,1,95.9999970703126
332,280,268678,6,0,P|384:284|440:276,1,95.9999970703126,2|0,0:0|0:0,0:0:0:0:
464,116,268934,2,0,L|440:60,2,47.9999985351563,0|8|0,0:0|0:0|0:0,0:0:0:0:
436,312,269189,2,0,P|388:324|332:324,1,103.999995239258,2|8,0:0|0:0,0:0:0:0:
108,232,269530,6,0,P|156:240|216:232,1,95.9999970703126,2|0,0:0|0:0,0:0:0:0:
48,296,269786,1,0,0:0:0:0:
48,296,269871,2,0,L|56:348,1,47.9999985351563,8|0,0:0|0:0,0:0:0:0:
208,344,270042,2,0,L|308:332,1,95.9999970703126
472,232,270297,2,0,L|448:176,2,47.9999985351563,0|2|0,0:0|0:0|0:0,0:0:0:0:
472,24,270553,2,0,P|480:76|472:128,1,95.9999970703126,8|2,0:0|0:0,0:0:0:0:
208,232,270894,6,0,L|308:244,1,95.9999970703126,2|0,0:0|0:0,0:0:0:0:
208,140,271150,2,0,L|312:152,1,95.9999970703126
436,172,271405,1,2,0:0:0:0:
120,188,271576,2,0,L|64:192,1,47.9999985351563
100,264,271746,2,0,L|40:268,1,47.9999985351563,8|0,0:0|0:0,0:0:0:0:
216,312,271917,2,0,L|276:320,1,47.9999985351563,2|0,0:0|0:0,0:0:0:0:
480,264,272087,2,0,L|432:272,1,47.9999985351563,2|0,0:0|0:0,0:0:0:0:
296,236,272258,6,0,P|304:172|288:88,1,143.999995605469,2|0,0:0|0:0,0:0:0:0:
204,48,272599,2,0,P|196:100|200:148,1,95.9999970703126,8|0,0:0|0:0,0:0:0:0:
304,320,272939,2,0,P|356:324|404:316,1,95.9999970703126,0|2,0:0|0:0,0:0:0:0:
464,60,273280,2,0,P|464:108|476:156,1,95.9999970703126,8|0,0:0|0:0,0:0:0:0:
296,152,273536,1,0,0:0:0:0:
296,152,273621,6,0,L|316:252,1,95.9999970703126,2|0,0:0|0:0,0:0:0:0:
464,60,273962,1,8,0:0:0:0:
212,88,274133,1,2,0:0:0:0:
212,88,274303,2,2,L|112:72,1,95.9999970703126
304,248,274644,2,0,L|404:232,1,95.9999970703126,8|2,0:0|0:0,0:0:0:0:
40,192,274985,6,2,P|112:208|192:192,1,143.999995605469,6|2,0:0|0:0,0:0:0:0:
240,148,275326,1,8,0:0:0:0:
72,284,275496,2,0,P|120:288|168:280,1,95.9999970703126,2|0,0:0|0:0,0:0:0:0:
196,312,275752,2,0,L|208:216,1,95.9999970703126
312,152,276008,2,2,L|300:56,1,95.9999970703126
208,36,276263,1,0,0:0:0:0:
208,36,276349,6,0,P|160:36|112:44,1,95.9999970703126,8|0,0:0|0:0,0:0:0:0:
36,240,276604,2,2,P|36:192|48:144,1,95.9999970703126
244,128,276860,2,2,P|212:132|180:140,1,47.9999985351563,10|2,0:0|0:0,0:0:0:0:
132,180,277030,1,8,0:0:0:0:
120,216,277116,1,0,0:0:0:0:
120,256,277201,1,0,0:0:0:0:
132,292,277286,1,0,0:0:0:0:
160,316,277371,1,8,0:0:0:0:
196,328,277456,1,0,0:0:0:0:
236,328,277542,1,0,0:0:0:0:
272,320,277627,1,0,0:0:0:0:
348,300,277712,6,0,P|396:304|456:296,1,95.9999970703126,6|0,0:0|0:0,0:0:0:0:
476,228,278053,2,0,L|464:124,1,95.9999970703126,8|0,0:0|0:0,0:0:0:0:
456,124,278309,1,0,0:0:0:0:
448,116,278394,1,0,0:0:0:0:
320,200,278564,1,2,0:0:0:0:
348,312,278735,2,0,P|296:316|248:308,1,95.9999970703126,8|0,0:0|0:0,0:0:0:0:
240,312,278991,1,0,0:0:0:0:
228,316,279076,5,2,0:0:0:0:
176,172,279246,1,0,0:0:0:0:
336,100,279417,1,8,0:0:0:0:
188,60,279587,2,0,L|196:12,2,47.9999985351563
176,172,279928,2,0,P|128:180|80:176,1,95.9999970703126,2|8,0:0|0:0,0:0:0:0:
72,168,280184,1,0,0:0:0:0:
64,160,280269,1,0,0:0:0:0:
44,340,280439,6,0,P|36:292|40:244,1,95.9999970703126,2|0,0:0|0:0,0:0:0:0:
212,240,280780,2,0,P|260:256|308:256,1,95.9999970703126,8|0,0:0|0:0,0:0:0:0:
320,248,281036,1,0,0:0:0:0:
332,240,281121,1,0,0:0:0:0:
464,144,281292,2,0,L|476:240,1,95.9999970703126,2|8,0:0|0:0,0:0:0:0:
300,340,281633,5,2,0:0:0:0:
456,248,281803,2,0,L|444:152,1,95.9999970703126,2|0,0:0|0:0,0:0:0:0:
304,52,282144,1,8,0:0:0:0:
232,176,282314,2,0,L|236:224,2,47.9999985351563,2|0|0,0:0|0:0|0:0,0:0:0:0:
304,52,282655,2,0,P|296:104|300:148,1,95.9999970703126,2|8,0:0|0:0,0:0:0:0:
308,160,282911,1,0,0:0:0:0:
316,172,282996,1,0,0:0:0:0:
344,328,283167,6,0,P|272:344|200:336,1,143.999995605469,2|0,0:0|0:0,0:0:0:0:
160,272,283508,1,8,0:0:0:0:
100,144,283678,1,0,0:0:0:0:
36,272,283849,2,0,L|32:320,2,47.9999985351563,0|0|2,0:0|0:0|0:0,0:0:0:0:
204,144,284189,2,0,L|300:156,1,95.9999970703126,8|0,0:0|0:0,0:0:0:0:
364,116,284445,1,0,0:0:0:0:
364,116,284530,6,0,P|416:124|460:120,1,95.9999970703126,2|0,0:0|0:0,0:0:0:0:
256,44,284871,2,0,L|276:144,1,95.9999970703126,8|0,0:0|0:0,0:0:0:0:
272,152,285127,1,0,0:0:0:0:
268,164,285212,1,0,0:0:0:0:
208,292,285383,1,2,0:0:0:0:
412,232,285553,2,0,L|428:328,1,95.9999970703126,10|0,0:0|0:0,0:0:0:0:
424,340,285809,1,0,0:0:0:0:
420,352,285894,5,2,0:0:0:0:
208,292,286064,1,0,0:0:0:0:
336,240,286235,1,8,0:0:0:0:
176,144,286405,2,0,L|124:140,2,47.9999985351563
208,292,286746,2,0,P|156:296|100:280,1,95.9999970703126,2|8,0:0|0:0,0:0:0:0:
336,240,287087,5,2,0:0:0:0:
104,260,287258,2,0,P|150:270|198:265,1,95.9999970703126,2|0,0:0|0:0,0:0:0:0:
292,156,287599,1,8,0:0:0:0:
36,192,287769,1,2,0:0:0:0:
52,96,287939,2,0,P|104:92|148:100,2,95.9999970703126,2|8|2,0:0|0:0|0:0,0:0:0:0:
204,144,288366,1,0,0:0:0:0:
236,148,288451,1,8,0:0:0:0:
268,144,288536,1,0,0:0:0:0:
300,132,288621,6,0,P|292:184|296:232,1,95.9999970703126,2|0,0:0|0:0,0:0:0:0:
468,240,288962,2,0,P|476:292|468:352,1,95.9999970703126,8|0,0:0|0:0,0:0:0:0:
400,356,289218,2,0,L|352:348,3,47.9999985351563,0|0|0|2,0:0|0:0|0:0|0:0,0:0:0:0:
212,292,289644,2,0,P|264:292|312:276,1,95.9999970703126,8|0,0:0|0:0,0:0:0:0:
416,192,289900,1,0,0:0:0:0:
416,192,289985,6,0,P|420:144|408:92,1,95.9999970703126,2|0,0:0|0:0,0:0:0:0:
284,48,290326,1,8,0:0:0:0:
208,148,290496,1,0,0:0:0:0:
180,152,290581,1,0,0:0:0:0:
152,156,290667,1,0,0:0:0:0:
124,160,290752,1,0,0:0:0:0:
96,164,290837,1,2,0:0:0:0:
40,40,291008,2,0,P|88:32|140:32,1,95.9999970703126,8|0,0:0|0:0,0:0:0:0:
284,48,291263,1,0,0:0:0:0:
284,48,291349,6,0,P|288:96|280:148,1,95.9999970703126,2|0,0:0|0:0,0:0:0:0:
260,216,291604,1,0,0:0:0:0:
260,216,291689,2,0,L|164:228,1,95.9999970703126,8|0,0:0|0:0,0:0:0:0:
48,336,291945,2,0,L|96:340,1,47.9999985351563
176,348,292116,1,0,0:0:0:0:
176,348,292201,1,2,0:0:0:0:
348,296,292371,1,8,0:0:0:0:
160,192,292542,5,2,0:0:0:0:
348,296,292712,2,0,P|340:248|344:188,1,95.9999970703126,2|0,0:0|0:0,0:0:0:0:
480,144,293053,1,8,0:0:0:0:
480,312,293224,1,2,0:0:0:0:
380,192,293394,1,0,0:0:0:0:
256,268,293564,1,2,0:0:0:0:
480,312,293735,2,0,P|480:264|464:216,1,95.9999970703126,8|0,0:0|0:0,0:0:0:0:
296,40,294076,6,0,P|288:104|296:192,1,143.999995605469,2|0,0:0|0:0,0:0:0:0:
324,216,294417,2,0,L|228:204,1,95.9999970703126,8|0,0:0|0:0,0:0:0:0:
168,144,294672,1,0,0:0:0:0:
168,144,294758,2,0,L|176:96,2,47.9999985351563,0|0|2,0:0|0:0|0:0,0:0:0:0:
44,344,295099,2,0,P|48:292|40:228,1,95.9999970703126,8|0,0:0|0:0,0:0:0:0:
4,184,295354,1,0,0:0:0:0:
4,184,295439,6,0,L|16:88,1,95.9999970703126,2|0,0:0|0:0,0:0:0:0:
208,56,295780,2,0,L|304:68,1,95.9999970703126,8|0,0:0|0:0,0:0:0:0:
352,136,296036,1,0,0:0:0:0:
380,132,296121,1,0,0:0:0:0:
408,128,296206,1,0,0:0:0:0:
436,124,296292,1,2,0:0:0:0:
296,232,296462,2,0,P|344:236|392:228,1,95.9999970703126,8|0,0:0|0:0,0:0:0:0:
476,316,296718,1,0,0:0:0:0:
476,316,296803,6,0,L|496:220,1,95.9999970703126,2|0,0:0|0:0,0:0:0:0:
436,124,297144,1,8,0:0:0:0:
408,128,297229,1,0,0:0:0:0:
380,132,297314,1,0,0:0:0:0:
352,136,297400,1,0,0:0:0:0:
324,140,297485,2,0,L|224:132,1,95.9999970703126,0|2,0:0|0:0,0:0:0:0:
40,236,297826,1,8,0:0:0:0:
268,296,297996,1,2,0:0:0:0:
100,192,298167,6,0,P|92:140|96:96,1,95.9999970703126,2|0,0:0|0:0,0:0:0:0:
296,44,298508,1,8,0:0:0:0:
256,228,298678,1,2,0:0:0:0:
116,108,298849,6,0,P|112:155|120:202,1,95.9999970703126,2|0,0:0|0:0,0:0:0:0:
256,228,299189,1,0,0:0:0:0:
244,256,299275,1,0,0:0:0:0:
232,284,299360,1,8,0:0:0:0:
220,312,299445,1,0,0:0:0:0:
156,344,299530,6,0,L|56:336,1,95.9999970703126,6|0,0:0|0:0,0:0:0:0:
24,96,299871,2,0,P|12:152|28:240,1,143.999995605469,8|0,0:0|0:0,0:0:0:0:
12,260,300212,2,0,L|108:244,1,95.9999970703126,0|2,0:0|0:0,0:0:0:0:
212,148,300553,2,0,P|224:200|224:248,1,95.9999970703126,8|0,0:0|0:0,0:0:0:0:
292,280,300809,1,0,0:0:0:0:
292,280,300894,6,0,P|344:292|396:288,1,95.9999970703126,2|0,0:0|0:0,0:0:0:0:
456,60,301235,2,0,P|460:112|476:160,1,95.9999970703126,8|0,0:0|0:0,0:0:0:0:
468,168,301491,1,0,0:0:0:0:
464,184,301576,1,0,0:0:0:0:
296,152,301746,2,0,L|392:144,1,95.9999970703126,2|8,0:0|0:0,0:0:0:0:
292,280,302087,1,0,0:0:0:0:
256,88,302258,6,0,L|204:80,2,47.9999985351563,2|0|0,0:0|0:0|0:0,0:0:0:0:
216,232,302599,2,0,P|168:240|120:236,1,95.9999970703126,8|0,0:0|0:0,0:0:0:0:
112,224,302854,1,0,0:0:0:0:
104,212,302939,1,0,0:0:0:0:
52,40,303110,2,0,L|44:136,1,95.9999970703126,2|0,0:0|0:0,0:0:0:0:
32,280,303451,1,8,0:0:0:0:
216,232,303621,6,0,L|204:132,1,95.9999970703126,2|0,0:0|0:0,0:0:0:0:
212,124,303877,1,0,0:0:0:0:
220,112,303962,1,8,0:0:0:0:
308,300,304133,2,0,P|256:308|212:304,2,95.9999970703126,2|0|8,0:0|0:0|0:0,0:0:0:0:
396,184,304644,1,2,0:0:0:0:
376,348,304814,1,8,0:0:0:0:
396,184,304985,6,0,L|376:80,1,95.9999970703126,2|0,0:0|0:0,0:0:0:0:
384,76,305241,1,0,0:0:0:0:
392,64,305326,1,8,0:0:0:0:
352,256,305496,2,0,P|399:261|446:253,1,95.9999970703126
508,112,305837,1,2,0:0:0:0:
300,192,306008,2,0,L|192:200,1,95.9999970703126,8|0,0:0|0:0,0:0:0:0:
148,148,306263,1,0,0:0:0:0:
148,148,306349,6,0,P|156:96|144:48,1,95.9999970703126,2|0,0:0|0:0,0:0:0:0:
8,24,306689,2,0,P|-4:100|8:176,1,143.999995605469,8|0,0:0|0:0,0:0:0:0:
64,208,307030,1,0,0:0:0:0:
248,152,307201,1,2,0:0:0:0:
120,256,307371,2,0,P|124:300|112:360,1,95.9999970703126,8|0,0:0|0:0,0:0:0:0:
80,364,307627,1,0,0:0:0:0:
80,364,307712,6,0,P|152:372|228:364,1,143.999995605469,2|0,0:0|0:0,0:0:0:0:
388,344,308053,2,0,P|340:332|292:332,1,95.9999970703126,8|0,0:0|0:0,0:0:0:0:
196,248,308394,2,0,L|180:152,1,95.9999970703126,0|2,0:0|0:0,0:0:0:0:
320,212,308735,1,8,0:0:0:0:
464,88,308905,1,2,0:0:0:0:
316,200,309076,5,2,0:0:0:0:
152,48,309331,1,2,0:0:0:0:
152,48,309417,1,8,0:0:0:0:
40,236,309587,1,2,0:0:0:0:
256,156,309758,1,2,0:0:0:0:
152,48,309928,1,8,0:0:0:0:
316,200,310099,1,8,0:0:0:0:
284,208,310184,1,0,0:0:0:0:
252,216,310269,1,8,0:0:0:0:
220,224,310354,1,0,0:0:0:0:
152,212,310439,6,0,P|144:164|152:108,1,95.9999970703126,2|0,0:0|0:0,0:0:0:0:
300,40,310780,2,0,P|312:112|296:192,1,143.999995605469,8|0,0:0|0:0,0:0:0:0:
316,252,311121,2,0,L|340:352,1,95.9999970703126,0|2,0:0|0:0,0:0:0:0:
172,340,311462,2,0,L|194:246,1,95.9999970703126,8|0,0:0|0:0,0:0:0:0:
216,172,311718,1,0,0:0:0:0:
216,172,311803,6,0,P|264:184|312:180,1,95.9999970703126,2|0,0:0|0:0,0:0:0:0:
464,144,312144,2,0,L|452:48,1,95.9999970703126,8|0,0:0|0:0,0:0:0:0:
440,40,312400,1,0,0:0:0:0:
428,32,312485,1,0,0:0:0:0:
384,176,312655,1,2,0:0:0:0:
336,44,312826,2,0,P|288:56|232:56,1,95.9999970703126,8|0,0:0|0:0,0:0:0:0:
216,36,313081,1,0,0:0:0:0:
216,36,313167,6,0,L|232:132,1,95.9999970703126,2|0,0:0|0:0,0:0:0:0:
52,188,313508,2,0,L|32:284,1,95.9999970703126,8|0,0:0|0:0,0:0:0:0:
88,328,313763,1,0,0:0:0:0:
88,328,313849,2,0,L|144:324,2,47.9999985351563,0|0|2,0:0|0:0|0:0,0:0:0:0:
188,232,314189,1,8,0:0:0:0:
304,340,314360,5,2,0:0:0:0:
304,340,314445,1,0,0:0:0:0:
304,340,314530,2,0,P|312:268|292:196,1,143.999995605469,2|0,0:0|0:0,0:0:0:0:
224,176,314871,1,8,0:0:0:0:
164,316,315042,1,2,0:0:0:0:
224,176,315212,2,0,P|216:128|220:80,1,95.9999970703126,0|8,0:0|0:0,0:0:0:0:
460,144,315553,2,0,P|408:148|360:140,1,95.9999970703126,2|8,0:0|0:0,0:0:0:0:
304,192,315809,1,0,0:0:0:0:
304,192,315894,6,0,P|308:240|300:292,1,95.9999970703126,2|0,0:0|0:0,0:0:0:0:
164,316,316235,2,0,P|144:220|160:128,1,191.999994140625,8|0,0:0|0:0,0:0:0:0:
372,232,316746,1,2,0:0:0:0:
460,144,316917,2,0,P|464:96|440:32,1,95.9999970703126,8|0,0:0|0:0,0:0:0:0:
208,136,317172,1,0,0:0:0:0:
208,136,317258,6,0,P|256:136|308:128,1,95.9999970703126,2|0,0:0|0:0,0:0:0:0:
460,144,317599,2,0,P|456:200|464:248,1,95.9999970703126,8|0,0:0|0:0,0:0:0:0:
456,256,317854,1,0,0:0:0:0:
452,272,317939,1,0,0:0:0:0:
292,344,318110,2,0,L|184:352,1,95.9999970703126,2|8,0:0|0:0,0:0:0:0:
116,200,318451,1,0,0:0:0:0:
116,200,318536,1,0,0:0:0:0:
116,200,318621,6,0,L|216:216,1,95.9999970703126,2|0,0:0|0:0,0:0:0:0:
388,240,318962,2,0,P|400:168|384:96,1,143.999995605469,8|0,0:0|0:0,0:0:0:0:
356,84,319303,2,0,L|456:100,1,95.9999970703126,0|2,0:0|0:0,0:0:0:0:
256,140,319644,2,0,L|152:156,1,95.9999970703126,8|2,0:0|0:0,0:0:0:0:
32,248,319985,6,0,P|28:296|40:352,1,95.9999970703126,2|0,0:0|0:0,0:0:0:0:
256,292,320241,1,2,0:0:0:0:
264,276,320326,2,0,P|216:276|164:268,1,95.9999970703126,0|2,0:0|0:0,0:0:0:0:
44,112,320667,1,2,0:0:0:0:
296,24,320837,1,8,0:0:0:0:
484,232,321008,5,8,0:0:0:0:
436,240,321093,1,0,0:0:0:0:
388,248,321178,1,8,0:0:0:0:
340,256,321263,1,0,0:0:0:0:
292,264,321349,1,6,0:0:0:0:
