osu file format v14

[General]
AudioFilename: audio.mp3
AudioLeadIn: 0
PreviewTime: 34356
Countdown: 0
SampleSet: Normal
StackLeniency: 0.7
Mode: 1
LetterboxInBreaks: 0
WidescreenStoryboard: 1

[Editor]
DistanceSpacing: 1
BeatDivisor: 4
GridSize: 32
TimelineZoom: 2.1

[Metadata]
Title:ICARUS
TitleUnicode:ICARUS
Artist:Eagle
ArtistUnicode:Eagle
Creator:Xiah7s
Version:Futsuu
Source:beatmania IIDX 15 DJ TROOPERS
Tags:15th bemani konami NU-SKOOL BREAKBEATS HARDCORE kors k instrumental video game TKS
BeatmapID:3579754
BeatmapSetID:1719592

[Difficulty]
HPDrainRate:7
CircleSize:5
OverallDifficulty:4.5
ApproachRate:5
SliderMultiplier:1.4
SliderTickRate:1

[Events]
//Background and Video events
0,0,"EAGLE.jpg",0,50
//Break Periods
2,58363,64582
//Storyboard Layer 0 (Background)
//Storyboard Layer 1 (Fail)
//Storyboard Layer 2 (Pass)
//Storyboard Layer 3 (Foreground)
//Storyboard Layer 4 (Overlay)
//Storyboard Sound Samples

[TimingPoints]
1714,340.909090909091,4,1,1,70,1,0
56259,476.190476190476,4,1,1,70,1,0
56259,-71.4285714285714,4,1,1,70,0,0
65782,-100,4,1,1,70,0,0
73401,458.015267175572,4,1,1,70,1,0
77065,441.176470588235,4,1,1,70,1,0
80594,425.531914893617,4,1,1,70,1,0
82296,410.958904109589,4,1,1,70,1,0
83939,397.350993377483,4,1,1,70,1,0
85528,384.615384615385,4,1,1,70,1,0
87066,372.670807453417,4,1,1,70,1,0
88556,361.44578313253,4,1,1,70,1,0
90001,350.877192982456,4,1,1,70,1,0
91404,342.857142857143,4,1,1,70,1,0
92775,331.491712707183,4,1,1,70,1,0
93437,322.580645161291,4,1,1,70,1,8
94082,314.136125654451,4,1,1,70,1,0
94710,306.122448979593,4,1,1,70,1,8
95322,298.507462686568,4,1,1,70,1,0
96516,284.360189573461,4,1,1,70,1,0
97653,271.493212669684,4,1,1,70,1,0
98738,259.74025974026,4,1,1,70,1,0
99776,248.96265560166,4,1,1,70,1,0
100771,239.043824701195,4,1,1,70,1,0
101727,340.90909090909,4,1,1,70,1,0
101727,-66.6666666666667,4,1,1,70,0,0
102749,-100,4,1,1,70,0,0
104454,-100,4,1,1,70,0,1
123545,-100,4,1,1,70,0,0

[HitObjects]
256,192,1714,5,0,0:0:0:0:
256,192,2566,1,0,0:0:0:0:
256,192,2907,1,0,0:0:0:0:
256,192,4441,1,0,0:0:0:0:
256,192,5123,1,0,0:0:0:0:
256,192,5293,1,0,0:0:0:0:
256,192,5634,1,0,0:0:0:0:
256,192,6486,1,0,0:0:0:0:
256,192,7168,1,0,0:0:0:0:
256,192,7509,1,0,0:0:0:0:
256,192,7850,1,0,0:0:0:0:
256,192,8020,1,8,0:0:0:0:
256,192,8191,1,0,0:0:0:0:
256,192,8532,1,0,0:0:0:0:
256,192,8873,1,0,0:0:0:0:
256,192,9214,1,0,0:0:0:0:
256,192,9895,1,4,0:0:0:0:
256,192,10407,1,4,0:0:0:0:
256,192,10918,1,4,0:0:0:0:
192,160,11259,2,0,L|128:160,12,35
256,192,12623,1,0,0:0:0:0:
256,192,13986,1,0,0:0:0:0:
256,192,15350,1,0,0:0:0:0:
256,192,16714,1,0,0:0:0:0:
256,192,18077,1,0,0:0:0:0:
256,192,18759,1,0,0:0:0:0:
256,192,19441,1,0,0:0:0:0:
256,192,20123,1,0,0:0:0:0:
256,192,20804,1,0,0:0:0:0:
256,192,21486,1,0,0:0:0:0:
256,192,22168,1,0,0:0:0:0:
256,192,22850,1,0,0:0:0:0:
256,192,23191,1,8,0:0:0:0:
256,192,23532,1,0,0:0:0:0:
256,192,24214,1,0,0:0:0:0:
256,192,24554,1,8,0:0:0:0:
256,192,24895,1,0,0:0:0:0:
256,192,25577,1,0,0:0:0:0:
256,192,25918,1,8,0:0:0:0:
256,192,26089,1,8,0:0:0:0:
256,192,26259,1,0,0:0:0:0:
256,192,26941,1,0,0:0:0:0:
256,192,27282,1,8,0:0:0:0:
256,192,27623,1,0,0:0:0:0:
256,192,28304,1,0,0:0:0:0:
256,192,28475,1,0,0:0:0:0:
256,192,28645,1,8,0:0:0:0:
256,192,28816,1,8,0:0:0:0:
256,192,28986,1,8,0:0:0:0:
256,192,29668,1,0,0:0:0:0:
256,192,30009,1,8,0:0:0:0:
256,192,30350,1,0,0:0:0:0:
256,192,30520,1,0,0:0:0:0:
256,192,30691,1,0,0:0:0:0:
256,192,31032,1,0,0:0:0:0:
256,192,31373,1,8,0:0:0:0:
256,192,31714,1,0,0:0:0:0:
256,192,31884,1,0,0:0:0:0:
256,192,32054,1,0,0:0:0:0:
256,192,32225,1,0,0:0:0:0:
256,192,32395,1,0,0:0:0:0:
256,192,32736,1,8,0:0:0:0:
256,192,33077,1,4,0:0:0:0:
256,192,33589,1,4,0:0:0:0:
256,192,34441,1,4,0:0:0:0:
256,192,34782,1,8,0:0:0:0:
256,192,35293,1,0,0:0:0:0:
256,192,35464,1,8,0:0:0:0:
256,192,35804,1,0,0:0:0:0:
256,192,36145,1,8,0:0:0:0:
256,192,36486,1,0,0:0:0:0:
256,192,36657,1,0,0:0:0:0:
256,192,36827,1,8,0:0:0:0:
256,192,36998,1,8,0:0:0:0:
256,192,37168,1,0,0:0:0:0:
256,192,37509,1,8,0:0:0:0:
256,192,38020,1,0,0:0:0:0:
256,192,38191,1,8,0:0:0:0:
256,192,38532,1,0,0:0:0:0:
256,192,38873,1,0,0:0:0:0:
256,192,39043,1,8,0:0:0:0:
256,192,39214,1,0,0:0:0:0:
256,192,39895,1,4,0:0:0:0:
256,192,40236,1,8,0:0:0:0:
256,192,40748,1,0,0:0:0:0:
256,192,40918,1,8,0:0:0:0:
256,192,41259,1,0,0:0:0:0:
256,192,41600,1,8,0:0:0:0:
256,192,41941,1,0,0:0:0:0:
256,192,42111,1,0,0:0:0:0:
256,192,42282,1,8,0:0:0:0:
256,192,42452,1,8,0:0:0:0:
256,192,42623,1,0,0:0:0:0:
256,192,42964,1,8,0:0:0:0:
256,192,43475,1,0,0:0:0:0:
256,192,43645,1,8,0:0:0:0:
256,192,43986,1,4,0:0:0:0:
256,192,44668,1,4,0:0:0:0:
256,192,45350,1,4,0:0:0:0:
256,192,45691,1,8,0:0:0:0:
256,192,46202,1,0,0:0:0:0:
256,192,46373,1,8,0:0:0:0:
256,192,46714,1,0,0:0:0:0:
256,192,47054,1,8,0:0:0:0:
256,192,47395,1,0,0:0:0:0:
256,192,47566,1,0,0:0:0:0:
256,192,47736,1,8,0:0:0:0:
256,192,47907,1,8,0:0:0:0:
256,192,48077,1,0,0:0:0:0:
256,192,48418,1,8,0:0:0:0:
256,192,48929,1,0,0:0:0:0:
256,192,49100,1,8,0:0:0:0:
256,192,49441,1,0,0:0:0:0:
256,192,49782,1,0,0:0:0:0:
256,192,49952,1,8,0:0:0:0:
256,192,50123,1,0,0:0:0:0:
256,192,50804,1,0,0:0:0:0:
256,192,51145,1,8,0:0:0:0:
256,192,51657,1,0,0:0:0:0:
256,192,51827,1,8,0:0:0:0:
256,192,52168,1,0,0:0:0:0:
256,192,52509,1,8,0:0:0:0:
256,192,52850,1,0,0:0:0:0:
256,192,53020,1,0,0:0:0:0:
256,192,53191,1,8,0:0:0:0:
256,192,53361,5,8,0:0:0:0:
256,192,53532,1,0,0:0:0:0:
256,192,53873,1,0,0:0:0:0:
256,192,54043,1,8,0:0:0:0:
256,192,54214,1,0,0:0:0:0:
256,192,54554,1,8,0:0:0:0:
256,192,54895,1,0,0:0:0:0:
256,192,55236,1,8,0:0:0:0:
256,192,55577,1,8,0:0:0:0:
256,192,55748,1,8,0:0:0:0:
256,192,55918,1,0,0:0:0:0:
256,192,56259,12,0,57925,0:0:0:0:
256,192,58163,5,0,0:0:0:0:
256,192,65782,5,4,0:0:0:0:
256,192,67211,1,0,0:0:0:0:
320,224,67449,1,8,0:0:0:0:
256,192,67687,1,0,0:0:0:0:
256,192,68163,1,0,0:0:0:0:
256,192,68639,1,8,0:0:0:0:
256,192,68878,1,8,0:0:0:0:
256,192,69354,1,8,0:0:0:0:
256,192,69592,1,0,0:0:0:0:
256,192,70068,1,8,0:0:0:0:
256,192,70306,1,0,0:0:0:0:
256,192,70782,1,0,0:0:0:0:
256,192,71020,1,8,0:0:0:0:
256,192,71497,1,0,0:0:0:0:
256,192,71735,1,0,0:0:0:0:
256,192,71973,1,8,0:0:0:0:
256,192,72211,1,8,0:0:0:0:
256,192,72449,1,0,0:0:0:0:
256,192,73163,1,0,0:0:0:0:
256,192,73401,1,12,0:0:0:0:
256,192,74088,1,8,0:0:0:0:
256,192,74546,1,8,0:0:0:0:
256,192,75004,1,0,0:0:0:0:
256,192,75233,1,8,0:0:0:0:
256,192,75920,1,8,0:0:0:0:
256,192,76378,1,8,0:0:0:0:
256,192,76607,1,8,0:0:0:0:
256,192,77065,1,8,0:0:0:0:
256,192,77726,1,8,0:0:0:0:
256,192,78167,1,8,0:0:0:0:
256,192,78609,1,0,0:0:0:0:
256,192,78829,1,8,0:0:0:0:
256,192,79491,1,8,0:0:0:0:
256,192,79932,1,8,0:0:0:0:
256,192,80153,1,8,0:0:0:0:
256,192,80594,1,8,0:0:0:0:
256,192,81232,1,8,0:0:0:0:
256,192,81657,1,8,0:0:0:0:
256,192,82083,1,0,0:0:0:0:
256,192,82296,1,8,0:0:0:0:
256,192,82912,1,8,0:0:0:0:
256,192,83323,1,8,0:0:0:0:
256,192,83734,1,0,0:0:0:0:
256,192,83939,1,8,0:0:0:0:
256,192,84535,1,8,0:0:0:0:
256,192,84932,1,8,0:0:0:0:
256,192,85528,1,8,0:0:0:0:
256,192,85720,1,8,0:0:0:0:
256,192,86104,1,8,0:0:0:0:
256,192,86297,1,8,0:0:0:0:
256,192,86489,1,8,0:0:0:0:
256,192,86874,1,8,0:0:0:0:
256,192,87066,1,8,0:0:0:0:
256,192,87811,1,8,0:0:0:0:
256,192,88556,1,8,0:0:0:0:
256,192,89278,1,8,0:0:0:0:
256,192,90001,1,8,0:0:0:0:
256,192,90702,1,8,0:0:0:0:
256,192,91053,1,8,0:0:0:0:
256,192,91404,1,8,0:0:0:0:
256,192,92089,1,8,0:0:0:0:
256,192,92432,1,8,0:0:0:0:
256,192,92775,1,8,0:0:0:0:
256,192,93106,1,8,0:0:0:0:
256,192,93437,1,8,0:0:0:0:
256,192,93759,1,8,0:0:0:0:
256,192,94082,1,8,0:0:0:0:
256,192,94396,1,8,0:0:0:0:
256,192,94710,1,8,0:0:0:0:
256,192,95016,1,8,0:0:0:0:
256,192,95169,1,8,0:0:0:0:
256,192,95322,1,8,0:0:0:0:
256,192,95620,1,8,0:0:0:0:
256,192,95919,1,8,0:0:0:0:
256,192,96217,1,8,0:0:0:0:
256,192,96366,1,8,0:0:0:0:
256,192,96516,1,8,0:0:0:0:
256,192,96800,1,8,0:0:0:0:
256,192,96942,1,8,0:0:0:0:
256,192,97084,1,8,0:0:0:0:
256,192,97369,1,8,0:0:0:0:
256,192,97653,1,0,0:0:0:0:
256,192,98195,1,0,0:0:0:0:
256,192,98738,1,0,0:0:0:0:
256,192,98997,1,0,0:0:0:0:
256,192,99257,1,0,0:0:0:0:
256,192,99776,1,0,0:0:0:0:
288,192,100024,1,0,0:0:0:0:
256,192,100273,1,0,0:0:0:0:
256,192,100522,1,0,0:0:0:0:
256,160,100771,1,0,0:0:0:0:
256,192,100890,1,0,0:0:0:0:
256,192,101010,1,0,0:0:0:0:
256,192,101129,1,0,0:0:0:0:
256,192,101249,1,8,0:0:0:0:
256,192,101368,1,8,0:0:0:0:
256,192,101488,1,0,0:0:0:0:
256,192,101727,12,0,102749,0:0:0:0:
256,192,103090,5,0,0:0:0:0:
256,192,103261,1,0,0:0:0:0:
256,192,103431,1,0,0:0:0:0:
256,192,103602,1,0,0:0:0:0:
256,192,103772,1,0,0:0:0:0:
256,192,104113,1,8,0:0:0:0:
256,192,104454,1,4,0:0:0:0:
256,192,104795,1,8,0:0:0:0:
256,192,105306,1,0,0:0:0:0:
256,192,105476,1,8,0:0:0:0:
256,192,105817,1,0,0:0:0:0:
256,192,106158,1,8,0:0:0:0:
256,192,106499,1,0,0:0:0:0:
256,192,106670,1,0,0:0:0:0:
256,192,106840,1,8,0:0:0:0:
256,192,107011,1,8,0:0:0:0:
256,192,107181,1,0,0:0:0:0:
256,192,107522,1,8,0:0:0:0:
256,192,107863,1,0,0:0:0:0:
256,192,108204,1,0,0:0:0:0:
256,192,108374,1,8,0:0:0:0:
256,192,108545,1,0,0:0:0:0:
256,192,108715,1,0,0:0:0:0:
256,192,108886,1,8,0:0:0:0:
256,192,109056,1,8,0:0:0:0:
256,192,109226,1,0,0:0:0:0:
256,192,109908,1,4,0:0:0:0:
256,192,110249,1,8,0:0:0:0:
256,192,110761,1,0,0:0:0:0:
256,192,110931,1,8,0:0:0:0:
256,192,111272,1,0,0:0:0:0:
256,192,111613,1,8,0:0:0:0:
256,192,111954,1,0,0:0:0:0:
256,192,112295,1,8,0:0:0:0:
256,192,112636,1,0,0:0:0:0:
256,192,112806,1,0,0:0:0:0:
256,192,112976,1,0,0:0:0:0:
256,192,113317,1,8,0:0:0:0:
256,192,113658,1,8,0:0:0:0:
256,192,113999,1,0,0:0:0:0:
256,192,114170,1,0,0:0:0:0:
256,192,114340,1,8,0:0:0:0:
256,192,114511,1,8,0:0:0:0:
256,192,114681,1,0,0:0:0:0:
256,192,115363,1,4,0:0:0:0:
256,192,115704,1,8,0:0:0:0:
256,192,116215,1,0,0:0:0:0:
256,192,116386,1,8,0:0:0:0:
256,192,116726,1,0,0:0:0:0:
256,192,117067,1,8,0:0:0:0:
256,192,117408,1,0,0:0:0:0:
256,192,117579,1,0,0:0:0:0:
256,192,117749,1,8,0:0:0:0:
256,192,117920,1,8,0:0:0:0:
256,192,118090,1,0,0:0:0:0:
256,192,118431,1,8,0:0:0:0:
256,192,118942,1,0,0:0:0:0:
256,192,119113,1,8,0:0:0:0:
256,192,119454,1,0,0:0:0:0:
256,192,119795,1,0,0:0:0:0:
256,192,119965,1,8,0:0:0:0:
256,192,120136,1,0,0:0:0:0:
256,192,120817,1,0,0:0:0:0:
256,192,121158,1,8,0:0:0:0:
256,192,121670,1,0,0:0:0:0:
256,192,121840,1,8,0:0:0:0:
256,192,122181,1,0,0:0:0:0:
256,192,122522,1,8,0:0:0:0:
256,192,122863,1,0,0:0:0:0:
256,192,123033,1,0,0:0:0:0:
256,192,123204,1,8,0:0:0:0:
256,192,123374,1,8,0:0:0:0:
256,192,123545,1,0,0:0:0:0:
