osu file format v14

[General]
AudioFilename: audio.mp3
AudioLeadIn: 0
PreviewTime: 98677
Countdown: 0
SampleSet: Soft
StackLeniency: 0.4
Mode: 0
LetterboxInBreaks: 0
WidescreenStoryboard: 1

[Editor]
Bookmarks: 10991,21962,32934,43905,54877,65848,76820,87791,109734
DistanceSpacing: 1.1
BeatDivisor: 8
GridSize: 32
TimelineZoom: 2.1

[Metadata]
Title:Hypersonik
TitleUnicode:Hypersonik
Artist:Eagle
ArtistUnicode:Eagle
Creator:Ascended
Version:zhuxiaoyan's Ultra
Source:beatmania IIDX 21 SPADA
Tags:kors k korsk BEMANI electronic instrumental neurofunk drum and bass drumandbass dnb drum&bass beatmania iidx infinitas Flask zhuxiaoyan frostwich frostwhich stwi synderes jas CraEZy Otosaka-Yu OtosakaYu Suzuki_1112 Suzuki1112 Jounzan Natteke_desu Natteke desu Nattekedesu EvilElvisV2 Aistre Alphabet Venax NeilPerry Mir Frey dahkjdas Seolv Lukas [_L_u_k_a_s_] [Lukas] -ascended- -_ascended_- Deppyforce jascended
BeatmapID:3783723
BeatmapSetID:1834293

[Difficulty]
HPDrainRate:5.5
CircleSize:4
OverallDifficulty:8.5
ApproachRate:9.5
SliderMultiplier:2.4
SliderTickRate:1

[Events]
//Background and Video events
0,0,"anime anime style.jpg",0,0
//Break Periods
2,22162,26923
//Storyboard Layer 0 (Background)
//Storyboard Layer 1 (Fail)
//Storyboard Layer 2 (Pass)
//Storyboard Layer 3 (Foreground)
//Storyboard Layer 4 (Overlay)
//Storyboard Sound Samples

[TimingPoints]
20,342.857142857143,4,2,1,30,1,0
705,-200,4,2,1,30,0,0
2420,-50,4,2,0,30,0,0
2505,-50,4,2,0,30,0,0
2762,-400,4,2,1,30,0,0
3277,-200,4,2,1,30,0,0
3791,-133.333333333333,4,2,1,30,0,0
4048,-133.333333333333,4,2,1,5,0,0
4134,-200,4,2,0,30,0,0
5076,-200,4,2,0,5,0,0
5162,-111.111111111111,4,2,0,30,0,0
5420,-111.111111111111,4,2,1,30,0,0
6191,-200,4,2,1,30,0,0
8077,-200,4,2,1,25,0,0
8248,-200,4,2,1,30,0,0
9277,-133.333333333333,4,2,1,30,0,0
9534,-133.333333333333,4,2,1,5,0,0
9620,-133.333333333333,4,2,1,30,0,0
9962,-100,4,2,0,30,0,0
10305,-100,4,2,1,45,0,0
10648,-200,4,2,1,45,0,0
10733,-200,4,2,1,5,0,0
10819,-200,4,2,1,45,0,0
10904,-200,4,2,1,5,0,0
10991,-133.333333333333,4,2,1,50,0,0
12448,-133.333333333333,4,2,1,5,0,0
12534,-133.333333333333,4,2,1,50,0,0
13391,-200,4,2,0,50,0,0
13477,-200,4,2,0,5,0,0
13562,-200,4,2,1,50,0,0
13734,-133.333333333333,4,2,1,50,0,0
14248,-133.333333333333,4,2,0,50,0,0
14420,-133.333333333333,4,2,1,50,0,0
14934,-133.333333333333,4,2,1,20,0,0
15105,-133.333333333333,4,2,1,50,0,0
15277,-100,4,2,1,50,0,0
15362,-100,4,2,1,5,0,0
15448,-100,4,2,1,50,0,0
15791,-66.6666666666667,4,2,1,50,0,0
15876,-66.6666666666667,4,2,1,5,0,0
15962,-66.6666666666667,4,2,1,50,0,0
16048,-57.1428571428571,4,2,1,50,0,0
16219,-57.1428571428571,4,2,1,5,0,0
16305,-57.1428571428571,4,2,1,50,0,0
16477,-133.333333333333,4,2,1,50,0,0
17934,-133.333333333333,4,2,1,5,0,0
18020,-133.333333333333,4,2,1,50,0,0
18877,-83.3333333333333,4,2,1,50,0,0
18962,-83.3333333333333,4,2,1,5,0,0
19048,-83.3333333333333,4,2,1,50,0,0
19220,-133.333333333333,4,2,1,50,0,0
19477,-133.333333333333,4,2,1,5,0,0
19562,-133.333333333333,4,2,1,50,0,0
19734,-66.6666666666667,4,2,1,50,0,0
19819,-66.6666666666667,4,2,1,5,0,0
19905,-66.6666666666667,4,2,1,50,0,0
20248,-200,4,2,1,50,0,0
20333,-200,4,2,1,5,0,0
20419,-200,4,2,1,50,0,0
20591,-200,4,2,100,50,0,0
20762,-50,4,2,100,50,0,0
20847,-50,4,2,100,5,0,0
20934,-66.6666666666667,4,2,100,50,0,0
21105,-66.6666666666667,4,2,1,50,0,0
21277,-133.333333333333,4,2,1,50,0,0
21448,-133.333333333333,4,2,100,50,0,0
21791,-66.6666666666667,4,2,1,50,0,0
21962,-133.333333333333,4,2,1,50,0,0
27448,-133.333333333333,4,2,1,50,0,0
27705,-133.333333333333,4,2,1,5,0,0
27791,-133.333333333333,4,2,1,50,0,0
28219,-133.333333333333,4,2,1,5,0,0
28305,-133.333333333333,4,2,1,50,0,0
28648,-66.6666666666667,4,2,1,50,0,0
28733,-66.6666666666667,4,2,1,5,0,0
28820,-66.6666666666667,4,2,1,60,0,0
29334,-400,4,2,1,60,0,0
29419,-400,4,2,1,5,0,0
29505,-400,4,2,1,60,0,0
29848,-100,4,2,1,60,0,0
29933,-100,4,2,1,5,0,0
30020,-100,4,2,1,60,0,0
30105,-100,4,2,1,5,0,0
30191,-100,4,2,1,70,0,0
31562,-50,4,2,1,80,0,0
32505,-50,4,2,1,5,0,0
32591,-50,4,2,1,80,0,0
32934,-100,4,2,5,70,0,0
33277,-50,4,2,1,70,0,0
33620,-200,4,2,1,70,0,0
33705,-200,4,2,1,5,0,0
33791,-66.6666666666667,4,2,1,70,0,0
33876,-66.6666666666667,4,2,1,5,0,0
33962,-40,4,2,1,70,0,0
34090,-40,4,2,1,5,0,0
34134,-100,4,2,1,70,0,0
34305,-133.333333333333,4,2,1,70,0,0
34562,-50,4,2,1,70,0,0
34991,-200,4,2,1,70,0,0
35247,-200,4,2,1,5,0,0
35334,-50,4,2,1,70,0,0
35419,-50,4,2,1,5,0,0
35505,-200,4,2,1,70,0,0
35677,-50,4,2,1,70,0,0
35762,-50,4,2,1,5,0,0
35848,-400,4,2,1,70,0,0
36020,-33.3333333333333,4,2,1,70,0,0
36705,-43.4782608695652,4,2,1,70,0,0
37048,-50,4,2,1,70,0,0
37391,-66.6666666666667,4,2,1,70,0,0
37476,-66.6666666666667,4,2,1,5,0,0
37562,-57.1428571428571,4,2,1,70,0,0
37905,-66.6666666666667,4,2,1,70,0,0
37990,-66.6666666666667,4,2,1,5,0,0
38077,-133.333333333333,4,2,1,70,0,0
38162,-133.333333333333,4,2,1,5,0,0
38248,-133.333333333333,4,2,1,70,0,0
38333,-133.333333333333,4,2,1,5,0,0
38420,-100,4,2,1,70,0,0
38762,-50,4,2,1,70,0,0
39105,-200,4,2,1,70,0,0
39190,-200,4,2,1,5,0,0
39277,-66.6666666666667,4,2,1,70,0,0
39362,-66.6666666666667,4,2,1,5,0,0
39448,-30,4,2,1,70,0,0
39576,-30,4,2,1,5,0,0
39620,-100,4,2,1,70,0,0
39791,-133.333333333333,4,2,1,70,0,0
40134,-50,4,2,1,70,0,0
40477,-100,4,2,1,70,0,0
40733,-100,4,2,1,5,0,0
40820,-50,4,2,1,70,0,0
40905,-50,4,2,1,5,0,0
40991,-200,4,2,1,70,0,0
41334,-66.6666666666667,4,2,1,70,0,0
41419,-66.6666666666667,4,2,1,5,0,0
41505,-50,4,2,1,70,0,0
41633,-50,4,2,1,5,0,0
41677,-200,4,2,1,70,0,0
41848,-100,4,2,0,70,0,0
41934,-100,4,2,0,5,0,0
42020,-100,4,2,0,70,0,0
42105,-100,4,2,0,5,0,0
42191,-66.6666666666667,4,2,1,70,0,0
42276,-66.6666666666667,4,2,1,5,0,0
42362,-80,4,2,1,70,0,0
42447,-80,4,2,1,5,0,0
42534,-200,4,2,1,70,0,0
42619,-200,4,2,1,5,0,0
42705,-200,4,2,1,70,0,0
42877,-33.3333333333333,4,2,1,70,0,0
43220,-200,4,2,1,70,0,0
43305,-200,4,2,1,5,0,0
43391,-200,4,2,1,70,0,0
43562,-66.6666666666667,4,2,1,70,0,0
43647,-66.6666666666667,4,2,1,5,0,0
43734,-66.6666666666667,4,2,1,70,0,0
43819,-66.6666666666667,4,2,1,5,0,0
43905,-100,4,2,1,70,0,0
44248,-50,4,2,1,70,0,0
44505,-200,4,2,1,70,0,0
44676,-200,4,2,1,5,0,0
44762,-66.6666666666667,4,2,1,70,0,0
44847,-66.6666666666667,4,2,1,5,0,0
44934,-40,4,2,1,70,0,0
45062,-40,4,2,1,5,0,0
45105,-100,4,2,1,70,0,0
45277,-133.333333333333,4,2,1,70,0,0
45620,-50,4,2,1,70,0,0
45962,-200,4,2,1,70,0,0
46134,-100,4,2,1,70,0,0
46219,-100,4,2,1,5,0,0
46305,-100,4,2,1,70,0,0
46477,-200,4,2,1,70,0,0
46648,-50,4,2,1,70,0,0
46733,-50,4,2,1,5,0,0
46820,-400,4,2,1,70,0,0
46991,-33.3333333333333,4,2,1,70,0,0
47334,-200,4,2,1,70,0,0
47677,-50,4,2,1,70,0,0
48362,-66.6666666666667,4,2,1,70,0,0
48447,-66.6666666666667,4,2,1,5,0,0
48534,-57.1428571428571,4,2,1,70,0,0
48877,-66.6666666666667,4,2,1,70,0,0
48962,-66.6666666666667,4,2,1,5,0,0
49048,-133.333333333333,4,2,1,70,0,0
49133,-133.333333333333,4,2,1,5,0,0
49220,-133.333333333333,4,2,1,70,0,0
49305,-133.333333333333,4,2,1,5,0,0
49391,-100,4,2,1,70,0,0
49734,-50,4,2,1,70,0,0
50077,-200,4,2,1,70,0,0
50162,-200,4,2,1,5,0,0
50248,-66.6666666666667,4,2,1,70,0,0
50333,-66.6666666666667,4,2,1,5,0,0
50420,-40,4,2,1,70,0,0
50548,-40,4,2,1,5,0,0
50591,-100,4,2,1,70,0,0
50762,-133.333333333333,4,2,1,70,0,0
51105,-50,4,2,1,70,0,0
51448,-200,4,2,1,70,0,0
51705,-200,4,2,1,5,0,0
51791,-50,4,2,1,70,0,0
51876,-50,4,2,1,5,0,0
51962,-200,4,2,1,70,0,0
52134,-100,4,2,1,70,0,0
52220,-100,4,2,0,70,0,0
52305,-100,4,2,1,70,0,0
52391,-100,4,2,0,70,0,0
52477,-200,4,2,1,70,0,0
52820,-100,4,2,1,70,0,0
52905,-100,4,2,1,5,0,0
52991,-100,4,2,1,70,0,0
53076,-100,4,2,1,5,0,0
53162,-66.6666666666667,4,2,1,70,0,0
53247,-66.6666666666667,4,2,1,5,0,0
53334,-80,4,2,1,70,0,0
53419,-80,4,2,1,5,0,0
53505,-1000,4,2,63,70,0,0
53591,-1000,4,2,1,60,0,0
54362,-1000,4,2,0,60,0,0
54534,-1000,4,2,1,60,0,0
54705,-100,4,2,0,60,0,0
54877,-50,4,2,1,68,0,0
55134,-50,4,2,1,5,0,0
55220,-50,4,2,1,68,0,0
55562,-100,4,2,1,68,0,0
55905,-66.6666666666667,4,2,1,68,0,0
55990,-66.6666666666667,4,2,1,5,0,0
56077,-66.6666666666667,4,2,1,68,0,0
56248,-200,4,2,1,68,0,0
56333,-200,4,2,1,5,0,0
56420,-66.6666666666667,4,2,1,68,0,0
56505,-66.6666666666667,4,2,1,5,0,0
56591,-66.6666666666667,4,2,1,68,0,0
56762,-100,4,2,1,68,0,0
56934,-66.6666666666667,4,2,1,68,0,0
57105,-40,4,2,1,68,0,0
57233,-40,4,2,1,5,0,0
57277,-100,4,2,1,68,0,0
57362,-100,4,2,1,5,0,0
57448,-100,4,2,1,68,0,0
57533,-100,4,2,1,5,0,0
57620,-66.6666666666667,4,2,1,58,0,0
57705,-66.6666666666667,4,2,1,5,0,0
57791,-40,4,2,1,58,0,0
58134,-200,4,2,1,58,0,0
58305,-30.3030303030303,4,2,1,58,0,0
58477,-100,4,2,1,58,0,0
58562,-100,4,2,1,5,0,0
58648,-50,4,2,1,58,0,0
58991,-66.6666666666667,4,2,1,58,0,0
59677,-100,4,2,1,58,0,0
59934,-100,4,2,1,5,0,0
60020,-100,4,2,1,58,0,0
60191,-50,4,2,1,58,0,0
60362,-42.8571428571429,4,2,1,68,0,0
60619,-42.8571428571429,4,2,1,5,0,0
60705,-50,4,2,1,68,0,0
61048,-100,4,2,1,68,0,0
61391,-200,4,2,1,68,0,0
61476,-200,4,2,1,5,0,0
61562,-66.6666666666667,4,2,1,68,0,0
61990,-66.6666666666667,4,2,1,5,0,0
62077,-100,4,2,1,68,0,0
62162,-100,4,2,1,5,0,0
62248,-57.1428571428571,4,2,1,68,0,0
62420,-100,4,2,1,68,0,0
62591,-40,4,2,1,68,0,0
62719,-40,4,2,1,5,0,0
62762,-100,4,2,1,68,0,0
62847,-100,4,2,1,5,0,0
62934,-100,4,2,1,68,0,0
63105,-400,4,2,1,58,0,0
63190,-400,4,2,1,5,0,0
63277,-40,4,2,1,58,0,0
63620,-200,4,2,1,58,0,0
63791,-50,4,2,1,58,0,0
63962,-266.666666666667,4,2,1,58,0,0
64134,-50,4,2,1,58,0,0
64477,-66.6666666666667,4,2,1,58,0,0
64562,-66.6666666666667,4,2,1,5,0,0
64648,-200,4,2,1,58,0,0
64820,-45.4545454545455,4,2,1,58,0,0
65077,-100,4,2,1,58,0,0
65248,-66.6666666666667,4,2,1,58,0,0
65419,-66.6666666666667,4,2,1,5,0,0
65505,-50,4,2,1,58,0,0
65590,-50,4,2,1,5,0,0
65677,-400,4,2,1,58,0,0
66191,-66.6666666666667,4,2,1,78,0,0
66277,-66.6666666666667,4,2,1,5,0,0
66362,-66.6666666666667,4,2,1,68,0,0
66447,-66.6666666666667,4,2,1,5,0,0
66534,-100,4,2,1,68,0,0
66877,-200,4,2,1,68,0,0
66962,-200,4,2,1,5,0,0
67048,-66.6666666666667,4,2,1,68,0,0
67220,-50,4,2,1,68,0,0
67562,-50,4,2,1,68,0,0
67647,-50,4,2,1,5,0,0
67734,-200,4,2,1,68,0,0
68077,-66.6666666666667,4,2,1,68,0,0
68162,-66.6666666666667,4,2,1,5,0,0
68248,-40,4,2,1,68,0,0
68591,-66.6666666666667,4,2,1,68,0,0
68676,-66.6666666666667,4,2,1,5,0,0
68762,-40,4,2,1,68,0,0
69105,-66.6666666666667,4,2,1,68,0,0
69277,-66.6666666666667,4,2,1,68,0,0
69448,-100,4,2,1,68,0,0
69533,-100,4,2,1,5,0,0
69620,-50,4,2,1,68,0,0
69962,-150,4,2,1,68,0,0
70305,-44.4444444444445,4,2,1,68,0,0
70562,-400,4,2,1,68,0,0
70648,-200,4,2,1,68,0,0
70734,-200,4,2,0,68,0,0
70820,-200,4,2,1,68,0,0
70862,-200,4,2,0,68,0,0
70905,-28.5714285714286,4,2,1,68,0,0
71334,-55.5555555555556,4,2,1,68,0,0
71591,-55.5555555555556,4,2,1,5,0,0
71677,-80,4,2,1,68,0,0
71762,-80,4,2,1,5,0,0
71848,-66.6666666666667,4,2,1,68,0,0
71933,-66.6666666666667,4,2,1,5,0,0
72020,-100,4,2,1,68,0,0
72362,-200,4,2,1,68,0,0
72447,-200,4,2,1,5,0,0
72534,-66.6666666666667,4,2,1,68,0,0
72877,-100,4,2,1,68,0,0
72962,-100,4,2,1,5,0,0
73048,-100,4,2,1,68,0,0
73220,-44.4444444444445,4,2,1,68,0,0
73391,-400,4,2,1,68,0,0
73562,-66.6666666666667,4,2,1,68,0,0
73647,-66.6666666666667,4,2,1,5,0,0
73734,-40,4,2,1,68,0,0
74077,-1000,4,2,1,50,0,0
74762,-1000,4,2,2,70,0,0
74848,-1000,4,2,1,50,0,0
74934,-80,4,2,2,50,0,0
75448,-80,4,2,1,50,0,0
76134,-80,4,2,2,70,0,0
76562,-80,4,2,1,70,0,0
76820,-163.934426229508,4,2,1,60,0,0
79220,-163.934426229508,4,2,0,40,0,0
79391,-400,4,2,0,40,0,0
79562,-400,4,2,1,40,0,0
80762,-400,4,2,100,20,0,0
80934,-400,4,2,1,40,0,0
81620,-400,4,2,100,40,0,0
81791,-400,4,2,1,40,0,0
82134,-400,4,2,50,30,0,0
82305,-400,4,2,1,45,0,0
84877,-100,4,2,1,45,0,0
85048,-100,4,2,1,50,0,0
86420,-400,4,2,100,50,0,0
86762,-100,4,2,1,50,0,0
86848,-100,4,2,50,50,0,0
87105,-50,4,2,2,50,0,0
87277,-50,4,2,100,50,0,0
87448,-50,4,2,1,50,0,0
87620,-100,4,2,1,50,0,0
87705,-100,4,2,1,5,0,0
87791,-100,4,2,1,55,0,0
88391,-75,4,2,1,55,0,0
88562,-75,4,2,1,5,0,0
88648,-75,4,2,1,55,0,0
88820,-200,4,2,1,55,0,0
88905,-200,4,2,1,5,0,0
88991,-200,4,2,1,55,0,0
89076,-200,4,2,1,5,0,0
89162,-86.9565217391304,4,2,1,55,0,0
89762,-100,4,2,1,55,0,0
89933,-100,4,2,1,5,0,0
90020,-80,4,2,1,55,0,0
90105,-80,4,2,1,5,0,0
90191,-74.0740740740741,4,2,1,30,0,0
90362,-74.0740740740741,4,2,1,55,0,0
90448,-74.0740740740741,4,2,1,5,0,0
90534,-100,4,2,1,57,0,0
91134,-100,4,2,1,37,0,0
91391,-100,4,2,1,57,0,0
91477,-100,4,2,1,37,0,0
91562,-100,4,2,1,57,0,0
91819,-100,4,2,1,5,0,0
91905,-80,4,2,1,57,0,0
92333,-80,4,2,1,5,0,0
92420,-200,4,2,1,57,0,0
92934,-100,4,2,1,57,0,0
93019,-100,4,2,1,5,0,0
93105,-100,4,2,1,57,0,0
93190,-100,4,2,1,5,0,0
93277,-100,4,2,1,25,0,0
93962,-100,4,2,1,30,0,0
94648,-100,4,2,1,35,0,0
95162,-200,4,2,1,35,0,0
95334,-100,4,2,1,40,0,0
96020,-100,4,2,1,70,0,0
96105,-100,4,2,1,5,0,0
96191,-100,4,2,1,70,0,0
96276,-100,4,2,1,5,0,0
96362,-80,4,2,1,70,0,0
96447,-80,4,2,1,5,0,0
96534,-80,4,2,1,70,0,0
96619,-80,4,2,1,5,0,0
96705,-200,4,2,1,70,0,0
96790,-200,4,2,1,5,0,0
96877,-200,4,2,1,70,0,0
96962,-200,4,2,1,5,0,0
97048,-57.1428571428571,4,2,1,70,0,0
97133,-57.1428571428571,4,2,1,5,0,0
97220,-57.1428571428571,4,2,1,70,0,0
97391,-50,4,2,1,80,0,0
98077,-30,4,2,1,80,0,0
98334,-30,4,2,1,5,0,0
98420,-50,4,2,1,60,0,0
98762,-50,4,2,4,70,0,1
98848,-50,4,2,100,70,0,1
99105,-66.6666666666667,4,2,100,70,0,1
99190,-66.6666666666667,4,2,100,5,0,1
99277,-66.6666666666667,4,2,100,70,0,1
99362,-200,4,2,100,70,0,1
99534,-57.1428571428571,4,2,100,70,0,1
99791,-66.6666666666667,4,2,100,70,0,1
99876,-66.6666666666667,4,2,100,5,0,1
99962,-66.6666666666667,4,2,100,70,0,1
100047,-66.6666666666667,4,2,100,5,0,1
100134,-100,4,2,100,70,0,1
100477,-100,4,2,100,70,0,1
100562,-100,4,2,100,5,0,1
100648,-100,4,2,100,70,0,1
100734,-66.6666666666667,4,2,100,70,0,1
100905,-100,4,2,100,70,0,1
101077,-200,4,2,100,70,0,1
101334,-50,4,2,100,70,0,1
101419,-50,4,2,100,5,0,1
101505,-40,4,2,100,70,0,1
101848,-50,4,2,100,70,0,1
101933,-50,4,2,100,5,0,1
102020,-50,4,2,100,70,0,1
102105,-66.6666666666667,4,2,100,70,0,1
102277,-133.333333333333,4,2,100,70,0,1
102534,-66.6666666666667,4,2,100,70,0,1
102619,-66.6666666666667,4,2,100,5,0,1
102705,-50,4,2,100,70,0,1
102790,-50,4,2,100,5,0,1
102877,-40,4,2,100,70,0,1
103220,-40,4,2,100,70,0,1
103477,-35.7142857142857,4,2,100,70,0,1
103648,-66.6666666666667,4,2,100,70,0,1
104077,-57.1428571428571,4,2,100,70,0,1
104162,-57.1428571428571,4,2,100,5,0,1
104248,-35.7142857142857,4,2,100,70,0,1
104591,-66.6666666666667,4,2,100,70,0,1
104676,-66.6666666666667,4,2,100,5,0,1
104762,-66.6666666666667,4,2,100,70,0,1
104848,-66.6666666666667,4,2,100,70,0,1
105020,-50,4,2,100,70,0,1
105277,-66.6666666666667,4,2,100,70,0,1
105362,-66.6666666666667,4,2,100,5,0,1
105448,-200,4,2,100,70,0,1
105533,-200,4,2,100,5,0,1
105620,-100,4,2,100,70,0,1
106047,-100,4,2,100,5,0,1
106134,-100,4,2,100,70,0,1
106220,-66.6666666666667,4,2,100,70,0,1
106391,-100,4,2,100,70,0,1
106562,-200,4,2,100,70,0,1
106820,-66.6666666666667,4,2,100,70,0,1
106905,-66.6666666666667,4,2,100,5,0,1
106991,-50,4,2,100,70,0,1
107334,-40,4,2,100,70,0,1
107677,-100,4,2,100,70,0,1
107762,-100,4,2,100,5,0,1
107848,-66.6666666666667,4,2,100,70,0,1
107933,-66.6666666666667,4,2,100,5,0,1
108020,-66.6666666666667,4,2,100,70,0,1
108105,-50,4,2,100,70,0,1
108362,-200,4,2,100,70,0,1
108447,-200,4,2,100,5,0,1
108534,-50,4,2,100,70,0,1
108705,-100,4,2,100,70,0,1
108790,-100,4,2,100,5,0,1
108877,-100,4,2,100,70,0,1
108962,-100,4,2,100,5,0,1
109048,-200,4,2,100,70,0,1
109391,-100,4,2,100,70,0,1
109734,-200,4,2,100,40,0,1
109820,-200,4,2,100,70,0,1
110077,-50,4,2,5,70,0,1
110162,-50,4,2,100,70,0,1
110420,-66.6666666666667,4,2,100,70,0,1
110505,-66.6666666666667,4,2,100,5,0,1
110591,-80,4,2,100,70,0,1
110676,-80,4,2,100,5,0,1
110762,-80,4,2,100,70,0,1
110847,-80,4,2,100,5,0,1
110934,-80,4,2,100,70,0,1
111105,-50,4,2,100,70,0,1
111448,-66.6666666666667,4,2,100,70,0,1
111533,-66.6666666666667,4,2,100,5,0,1
111620,-66.6666666666667,4,2,100,70,0,1
111705,-200,4,2,100,70,0,1
111877,-50,4,2,100,70,0,1
112134,-50,4,2,50,60,0,1
112305,-66.6666666666667,4,2,50,60,0,1
112477,-66.6666666666667,4,2,100,70,0,1
112648,-200,4,2,100,70,0,1
112733,-200,4,2,100,5,0,1
112820,-44.4444444444445,4,2,100,70,0,1
113162,-66.6666666666667,4,2,100,70,0,1
113505,-200,4,2,100,70,0,1
113590,-200,4,2,100,5,0,1
113677,-66.6666666666667,4,2,100,70,0,1
113762,-66.6666666666667,4,2,100,5,0,1
113848,-50,4,2,100,70,0,1
114448,-100,4,2,100,70,0,1
114620,-66.6666666666667,4,2,100,70,0,1
114791,-50,4,2,100,70,0,1
115048,-50,4,2,100,70,0,1
115220,-100,4,2,100,70,0,1
115562,-50,4,2,100,70,0,1
115905,-50,4,2,100,70,0,1
115990,-50,4,2,100,5,0,1
116077,-66.6666666666667,4,2,100,70,0,1
116162,-66.6666666666667,4,2,100,5,0,1
116248,-200,4,2,100,70,0,1
116333,-200,4,2,100,5,0,1
116420,-66.6666666666667,4,2,100,70,0,1
116505,-66.6666666666667,4,2,100,5,0,1
116591,-66.6666666666667,4,2,100,70,0,1
116676,-66.6666666666667,4,2,100,5,0,1
116762,-100,4,2,100,70,0,1
117191,-200,4,2,100,70,0,1
117362,-40,4,2,100,70,0,1
117620,-66.6666666666667,4,2,100,70,0,1
117962,-200,4,2,100,70,0,1
118219,-200,4,2,100,5,0,1
118305,-50,4,2,100,70,0,1
118562,-100,4,2,100,70,0,1
118734,-50,4,2,100,70,0,1
118991,-400,4,2,1,70,0,1
119076,-400,4,2,1,5,0,1
119162,-66.6666666666667,4,2,100,70,0,1
119247,-66.6666666666667,4,2,100,5,0,1
119334,-66.6666666666667,4,2,100,70,0,1
120705,-50,4,2,100,70,0,0

[Colours]
Combo1 : 120,147,175
Combo2 : 246,185,214
Combo3 : 255,199,192
Combo4 : 222,181,237
Combo5 : 135,131,185
Combo6 : 151,124,180

[HitObjects]
100,246,20,5,0,3:0:0:0:
100,246,362,1,0,3:0:0:0:
5,186,705,6,0,B|126:145|166:26|166:26|138:147|215:268,1,480
209,259,2420,6,0,P|195:262|212:252,2,60,8|0|0,2:0|0:0|0:0,0:0:0:0:
294,257,2591,5,0,0:0:0:0:
294,257,2762,2,0,P|320:271|345:297,1,60,0|0,1:0|0:0,0:0:0:0:
498,277,3277,6,0,P|454:295|409:362,1,120,0|0,1:0|0:0,0:0:0:0:
189,337,3791,6,0,P|241:340|323:397,1,135.000005149841,0|0,1:0|2:0,0:0:0:0:
310,381,4134,6,0,P|320:331|338:289,2,90,8|8|8,2:3|2:3|2:3,0:0:0:0:
511,24,4991,6,0,L|476:35,1,30,0|0,1:0|2:0,0:0:0:0:
356,76,5162,2,0,B|356:63|332:37|332:37|356:62|405:48|402:116,1,161.999995056153,8|2,2:0|2:0,0:0:0:0:
393,195,5505,5,0,3:0:0:0:
393,195,5848,1,0,3:0:0:0:
478,240,6191,6,0,B|315:244|295:361|295:361|358:288|468:338|391:191,1,480,8|0,2:0|0:0,0:0:0:0:
392,194,8077,6,0,L|396:164,1,30,2|2,2:0|2:0,0:0:0:0:
462,107,8248,1,0,1:0:0:0:
462,107,8762,1,0,1:0:0:0:
462,107,9105,1,0,0:0:0:0:
233,6,9277,6,0,B|275:68|298:18|355:102,1,135.000005149841,0|0,1:0|2:0,0:0:0:0:
273,127,9620,2,0,B|248:173|248:173|257:125,1,90.0000034332277,0|0,3:0|0:0,0:0:0:0:
63,22,9962,6,0,B|28:36|18:58|18:58|85:30|134:28,1,180,8|8,2:0|2:0,0:0:0:0:
134,28,10305,5,0,3:0:0:0:
74,227,10477,1,8,2:3:0:0:
135,123,10648,6,0,L|147:166,1,30,8|0,3:0|2:0,0:0:0:0:
195,321,10819,2,0,L|207:364,1,30,8|0,3:0|2:0,0:0:0:0:
385,349,10991,6,0,P|373:263|308:325,2,180.000006866455,4|0|8,3:2|3:0|2:0,0:0:0:0:
316,383,12020,1,0,0:0:0:0:
512,202,12191,6,0,P|452:205|457:146,1,135.000005149841,8|0,2:0|2:0,0:0:0:0:
457,146,12534,1,0,0:0:0:0:
289,88,12705,6,0,B|391:35|391:35|418:63|465:64,1,180.000006866455,0|8,3:0|2:0,0:0:0:0:
448,62,13391,6,0,L|459:14,1,30,8|0,2:0|2:0,0:0:0:0:
423,188,13562,1,0,3:0:0:0:
471,346,13734,6,0,P|429:297|307:225,2,180.000006866455,0|0|8,3:0|3:0|2:0,0:0:0:0:
404,384,14762,1,0,0:0:0:0:
512,246,14934,5,2,3:2:0:0:
505,248,15020,1,0,0:0:0:0:
498,250,15105,1,0,0:0:0:0:
299,384,15277,6,0,B|304:357|304:357|307:350|307:350|314:303,1,60,0|0,3:0|2:0,0:0:0:0:
341,231,15448,1,0,3:0:0:0:
341,231,15534,1,0,3:0:0:0:
341,231,15620,1,0,3:0:0:0:
272,0,15791,6,0,B|285:66|296:10|320:87,1,90.0000034332277,8|0,2:0|2:0,0:0:0:0:
499,111,15962,5,0,3:0:0:0:
432,74,16048,2,0,P|410:79|212:169,1,210.000002002716,8|0,2:0|2:0,0:0:0:0:
9,55,16305,5,0,1:0:0:0:
75,96,16391,1,0,1:0:0:0:
72,174,16477,2,0,B|39:354|66:161|28:389,2,180.000006866455,4|0|8,3:2|3:0|2:0,0:0:0:0:
145,145,17505,1,0,0:0:0:0:
310,0,17677,6,0,B|282:23|277:58|277:58|262:32|226:16,1,135.000005149841,8|0,2:0|2:0,0:0:0:0:
226,16,18020,1,0,0:0:0:0:
339,117,18191,6,0,P|425:134|538:173,1,180.000006866455,0|8,3:0|2:0,0:0:0:0:
428,39,18877,2,0,B|449:11|449:11|436:84,1,71.9999978027344,2|0,2:0|2:0,0:0:0:0:
387,217,19048,5,0,3:0:0:0:
387,217,19134,1,0,3:0:0:0:
387,217,19220,2,0,P|368:269|344:370,1,135.000005149841,0|0,3:0|2:0,0:0:0:0:
417,384,19562,1,0,3:0:0:0:
204,277,19734,6,0,P|227:327|281:415,1,90.0000034332277,0|0,0:0|2:0,0:0:0:0:
0,206,19905,5,10,2:0:0:0:
209,107,20077,1,2,3:2:0:0:
42,134,20248,6,0,L|85:151,1,30,14|0,2:0|2:0,0:0:0:0:
166,178,20419,2,0,L|209:195,1,30,8|8,2:3|2:3,0:0:0:0:
390,290,20591,6,0,L|399:318,2,20
408,199,20762,6,0,P|433:164|416:203,1,120,8|0,2:0|2:0,0:0:0:0:
335,384,20934,6,0,P|416:340|556:322,1,180.000006866455,0|0,3:0|0:0,0:0:0:0:
501,321,21191,1,2,2:1:0:0:
501,321,21277,2,0,L|441:305,1,45.0000017166138,8|2,2:0|2:1,0:0:0:0:
251,195,21448,5,0,0:0:0:0:
271,113,21534,1,0,0:0:0:0:
291,31,21620,1,0,0:0:0:0:
63,122,21791,6,0,L|185:96,1,90.0000034332277,0|2,0:0|2:3,0:0:0:0:
415,38,21962,1,4,2:0:0:0:
415,38,27448,5,4,2:0:0:0:
503,168,27620,2,0,L|443:151,1,45.0000017166138,0|0,3:0|2:0,0:0:0:0:
327,120,27791,1,0,1:0:0:0:
327,120,27962,1,0,0:0:0:0:
130,13,28134,6,0,L|142:56,1,45.0000017166138,0|0,1:0|2:0,0:0:0:0:
189,186,28305,1,0,3:0:0:0:
189,186,28391,1,0,0:0:0:0:
189,186,28477,1,0,1:0:0:0:
248,0,28648,6,0,L|219:99,1,90.0000034332277,0|0,0:0|2:0,0:0:0:0:
36,384,28820,5,0,1:0:0:0:
41,293,28992,1,0,3:0:0:0:
123,252,29163,1,0,1:0:0:0:
200,303,29334,2,0,L|227:295,1,15,0|0,0:0|2:0,0:0:0:0:
469,228,29505,5,0,1:0:0:0:
245,155,29677,1,0,3:0:0:0:
381,306,29848,2,0,L|367:238,1,60,0|0,1:0|2:0,0:0:0:0:
332,76,30020,2,0,L|317:7,1,60,0|0,0:0|2:0,0:0:0:0:
4,33,30191,5,4,2:0:0:0:
15,80,30277,1,0,3:0:0:0:
57,105,30362,1,0,3:0:0:0:
105,92,30448,1,0,3:0:0:0:
153,79,30534,1,8,2:0:0:0:
195,104,30619,1,2,2:3:0:0:
206,151,30705,1,0,1:0:0:0:
181,192,30791,1,2,2:3:0:0:
134,203,30877,6,0,B|112:186|112:186|168:199,1,60,8|0,2:0|3:0,0:0:0:0:
317,159,31048,2,0,B|343:148|343:148|304:190,1,60,0|0,3:0|3:0,0:0:0:0:
263,340,31220,2,0,B|260:367|260:367|243:312,1,60,8|2,2:0|1:0,0:0:0:0:
255,235,31391,5,0,1:0:0:0:
255,235,31477,1,2,1:0:0:0:
434,284,31562,6,0,B|460:310|475:348|475:348|410:303|325:283,1,240,4|0,1:2|0:0,0:0:0:0:
0,183,32248,6,0,B|79:44|215:42|215:42|216:87|254:122,1,360,4|0,1:2|2:0,0:0:0:0:
306,50,32591,6,0,B|330:30|330:30|263:55,6,60,8|0|0|0|0|0|0,2:0|0:0|0:0|0:0|0:0|0:0|0:0,0:0:0:0:
468,198,32934,6,0,B|431:209|418:233|418:233|430:209|412:175,1,120,4|0,1:2|0:0,0:0:0:0:
276,168,33191,1,0,0:0:0:0:
281,164,33277,2,0,B|520:105|280:174|512:108,1,240,10|0,2:1|0:0,0:0:0:0:
406,10,33534,1,2,2:1:0:0:
399,16,33620,6,0,L|391:70,1,30,2|0,2:0|2:0,0:0:0:0:
414,333,33791,2,0,B|380:286|423:310|378:250,1,90.0000034332277,2|0,3:1|2:0,0:0:0:0:
235,356,33962,6,0,B|164:358|164:358|342:290,1,225,10|0,2:1|2:0,0:0:0:0:
457,196,34134,2,0,P|452:173|450:196,1,60,2|2,2:0|2:0,0:0:0:0:
270,29,34305,6,0,P|301:39|274:20,1,90.0000034332277,0|0,1:0|0:0,0:0:0:0:
416,70,34562,1,0,0:0:0:0:
419,75,34648,2,0,P|289:93|299:180,1,240,10|0,2:1|0:0,0:0:0:0:
139,69,34905,5,2,2:1:0:0:
149,72,34991,2,0,L|187:80,1,30,0|2,0:0|2:3,0:0:0:0:
169,157,35162,2,0,L|139:150,1,30,2|0,3:1|2:0,0:0:0:0:
52,270,35334,6,0,B|33:279|21:295|21:295|64:280|113:267,1,120,10|0,2:1|2:0,0:0:0:0:
301,357,35505,6,0,L|266:348,1,30,2|2,2:0|2:0,0:0:0:0:
174,384,35677,6,0,P|202:275|216:237,1,120,0|0,3:0|2:0,0:0:0:0:
257,52,35848,2,0,L|261:66,1,15,2|2,2:0|2:0,0:0:0:0:
480,195,36020,6,0,B|526:237|453:287|532:313|568:225|505:104|436:78|337:135|306:192|271:158|230:181|230:181|266:118|259:170|316:124,1,540.000020599366,8|2,2:0|3:1,0:0:0:0:
53,115,36362,5,2,2:0:0:0:
46,108,36448,1,0,3:0:0:0:
53,102,36534,1,2,3:1:0:0:
59,108,36620,1,2,2:0:0:0:
122,61,36705,6,0,B|146:27|188:4|188:4|137:95|114:214,1,276.000005264282,8|0,1:0|0:0,0:0:0:0:
35,359,36962,1,2,2:0:0:0:
30,368,37048,2,0,B|195:328|195:328|201:323|201:323|267:310,1,240,0|2,3:0|2:0,0:0:0:0:
346,264,37305,5,2,2:0:0:0:
352,269,37391,2,0,B|396:278|396:278|361:309,1,90.0000034332277,8|0,2:0|2:0,0:0:0:0:
150,232,37562,6,0,B|140:243|133:257|133:257|173:241|221:226,1,105.000001001358,0|0,3:0|3:0,0:0:0:0:
464,166,37734,1,0,3:0:0:0:
461,157,37820,1,0,1:0:0:0:
485,83,37905,6,0,P|470:40|414:15,1,90.0000034332277,2|0,3:1|2:0,0:0:0:0:
130,16,38077,6,0,L|174:24,1,45.0000017166138,10|0,2:1|2:0,0:0:0:0:
255,36,38248,2,0,L|299:44,1,45.0000017166138,2|0,1:0|2:0,0:0:0:0:
489,283,38420,6,0,P|498:327|469:294,1,120,4|0,1:2|0:0,0:0:0:0:
504,186,38677,1,0,0:0:0:0:
510,192,38762,2,0,B|331:226|331:226|323:256|278:285,1,240,10|0,2:1|0:0,0:0:0:0:
203,151,39020,1,2,2:1:0:0:
211,153,39105,6,0,L|240:158,1,30,2|0,2:0|2:0,0:0:0:0:
454,377,39277,2,0,L|428:284,1,90.0000034332277,2|0,3:1|2:0,0:0:0:0:
434,100,39448,6,0,B|448:60|484:35|484:35|340:2|290:90,1,300,10|0,2:1|2:0,0:0:0:0:
240,158,39620,2,0,B|246:185|246:185|273:167,1,60,2|2,2:0|2:0,0:0:0:0:
41,128,39791,6,0,P|97:113|127:105,1,90.0000034332277,0|0,1:0|0:0,0:0:0:0:
96,12,40048,1,0,0:0:0:0:
89,13,40134,2,0,P|46:181|21:271,1,240,10|0,2:1|0:0,0:0:0:0:
24,334,40391,5,2,2:1:0:0:
24,342,40477,2,0,B|41:366|41:366|41:317,1,60,0|2,0:0|2:3,0:0:0:0:
159,223,40648,2,0,B|171:196|171:196|128:220,1,60,2|0,3:1|2:0,0:0:0:0:
259,348,40820,6,0,B|246:332|246:332|343:361,1,120,10|0,2:1|2:0,0:0:0:0:
506,227,40991,6,0,L|463:233,1,30,2|2,2:0|2:0,0:0:0:0:
382,273,41162,1,0,3:0:0:0:
382,273,41334,6,0,P|391:230|412:154,1,90.0000034332277,2|0,1:3|2:0,0:0:0:0:
107,0,41505,6,0,P|161:66|226:182,1,180,10|0,2:1|2:0,0:0:0:0:
85,128,41677,2,0,L|57:144,1,30,2|0,2:1|1:0,0:0:0:0:
338,3,41848,6,0,L|317:86,1,60,2|0,1:2|2:0,0:0:0:0:
296,219,42020,2,0,L|275:302,1,60,2|0,1:2|2:0,0:0:0:0:
459,384,42191,6,0,B|481:344|481:344|458:284,1,90.0000034332277,8|0,2:0|2:0,0:0:0:0:
209,147,42362,2,0,L|294:129,1,75,0|0,3:0|2:0,0:0:0:0:
454,54,42534,6,0,L|461:24,1,30,0|0,3:0|2:0,0:0:0:0:
144,231,42705,5,2,3:1:0:0:
144,231,42791,1,0,3:0:0:0:
144,231,42877,2,0,B|86:261|70:312|70:312|198:223|298:218,1,360,8|2,2:0|3:1,0:0:0:0:
512,153,43134,5,8,3:0:0:0:
437,137,43220,2,0,L|397:133,1,30,8|0,2:3|2:0,0:0:0:0:
327,93,43391,5,0,0:0:0:0:
327,93,43477,1,2,2:0:0:0:
327,93,43562,2,0,B|335:69|335:69|337:58|337:58|361:-14,1,90.0000034332277,8|0,2:0|2:0,0:0:0:0:
55,24,43734,6,0,B|29:25|16:6|16:6|36:-5|65:19,1,90.0000034332277,0|0,3:0|2:0,0:0:0:0:
134,68,43905,6,0,B|122:83|122:83|163:195,1,120,4|0,1:2|0:0,0:0:0:0:
215,381,44162,1,0,0:0:0:0:
220,384,44248,2,0,B|239:266|239:266|235:256|235:256|260:126,1,240,10|0,2:1|0:0,0:0:0:0:
84,253,44505,5,2,2:1:0:0:
75,252,44591,2,0,L|36:246,1,30,2|0,2:0|2:0,0:0:0:0:
330,337,44762,2,0,L|420:323,1,90.0000034332277,2|0,3:1|2:0,0:0:0:0:
512,373,44934,6,0,B|296:323|510:374|285:328,1,225,10|0,2:1|2:0,0:0:0:0:
133,383,45105,2,0,B|127:354|127:354|154:320,1,60,2|2,2:0|2:0,0:0:0:0:
375,244,45277,6,0,B|369:213|369:213|371:205|371:205|321:157,1,90.0000034332277,0|0,1:0|0:0,0:0:0:0:
500,46,45534,1,0,0:0:0:0:
494,44,45620,2,0,B|504:-31|596:30|440:144|369:98,1,240,10|0,2:1|0:0,0:0:0:0:
180,221,45877,5,2,2:1:0:0:
179,230,45962,2,0,P|171:221|179:225,1,30,0|2,0:0|2:3,0:0:0:0:
21,142,46134,6,0,L|79:156,1,60,2|0,3:1|2:0,0:0:0:0:
264,298,46305,1,10,2:1:0:0:
264,298,46477,2,0,L|270:333,1,30,2|2,2:0|2:0,0:0:0:0:
44,373,46648,6,0,P|106:355|185:333,1,120,0|0,3:0|2:0,0:0:0:0:
403,279,46820,2,0,P|396:277|388:274,1,15,2|2,2:0|2:0,0:0:0:0:
84,228,46991,6,0,B|9:209|10:131|85:43|188:108|142:133|252:185|302:209|371:120|364:65|364:65|338:101|304:116,1,540.000020599366,10|0,2:1|3:0,0:0:0:0:
193,48,47334,2,0,L|201:11,1,30,0|2,0:0|2:0,0:0:0:0:
135,378,47505,1,0,3:0:0:0:
135,378,47591,1,0,3:0:0:0:
96,309,47677,6,0,B|160:280|175:227|175:227|159:280|218:365,1,240,8|0,1:0|0:0,0:0:0:0:
470,256,47934,1,2,2:0:0:0:
464,253,48020,2,0,B|498:271|518:302|518:302|434:263|340:259,1,240,0|2,3:0|2:0,0:0:0:0:
268,292,48277,5,2,2:0:0:0:
264,293,48362,2,0,P|276:250|299:168,1,90.0000034332277,8|0,2:0|2:0,0:0:0:0:
497,27,48534,6,0,L|353:60,1,105.000001001358,0|0,3:0|3:0,0:0:0:0:
111,111,48705,1,0,3:0:0:0:
117,107,48791,1,0,1:0:0:0:
173,52,48877,6,0,P|225:71|255:116,1,90.0000034332277,2|0,3:1|2:0,0:0:0:0:
496,133,49048,6,0,L|431:147,1,45.0000017166138,10|0,2:1|2:0,0:0:0:0:
512,212,49220,2,0,L|447:226,1,45.0000017166138,2|0,1:0|2:0,0:0:0:0:
204,384,49391,6,0,P|218:320|239:252,1,120,4|0,1:2|0:0,0:0:0:0:
35,21,49648,1,0,0:0:0:0:
30,24,49734,2,0,B|47:110|117:108|116:99|175:111|198:175,1,240,10|0,2:1|0:0,0:0:0:0:
100,210,49991,5,2,2:1:0:0:
94,214,50077,2,0,L|55:227,1,30,2|0,2:0|2:0,0:0:0:0:
198,47,50248,2,0,B|229:35|217:13|217:13|185:15|190:71,1,90.0000034332277,2|0,3:1|2:0,0:0:0:0:
504,34,50420,6,0,P|334:70|276:91,1,225,10|0,2:1|2:0,0:0:0:0:
330,163,50591,2,0,P|353:169|346:146,1,60,2|2,2:0|2:0,0:0:0:0:
94,19,50762,6,0,P|50:47|61:94,1,90.0000034332277,0|0,1:0|0:0,0:0:0:0:
4,251,51020,1,0,0:0:0:0:
1,246,51105,2,0,B|64:229|87:174|87:174|80:232|120:294,1,240,10|0,2:1|0:0,0:0:0:0:
236,202,51362,5,2,2:1:0:0:
230,199,51448,2,0,L|188:209,1,30,0|2,0:0|2:3,0:0:0:0:
394,162,51620,2,0,L|365:169,1,30,2|0,3:1|2:0,0:0:0:0:
340,384,51791,6,0,P|307:361|269:273,1,120,10|0,2:1|2:0,0:0:0:0:
201,104,51962,6,0,P|207:80|212:72,1,30,2|2,2:0|2:0,0:0:0:0:
332,8,52134,5,0,3:0:0:0:
349,21,52220,1,2,2:0:0:0:
336,38,52305,1,2,1:3:0:0:
319,25,52391,1,2,2:0:0:0:
426,48,52477,6,0,L|463:61,1,30,8|8,1:0|2:3,0:0:0:0:
304,117,52648,2,0,L|311:155,1,30,0|8,1:0|2:3,0:0:0:0:
487,200,52820,6,0,L|411:222,1,60,2|0,1:2|2:0,0:0:0:0:
332,337,52991,2,0,L|256:359,1,60,10|0,1:2|2:0,0:0:0:0:
178,191,53162,6,0,P|244:202|279:240,1,90.0000034332277,8|0,2:0|2:0,0:0:0:0:
481,382,53334,2,0,L|461:298,1,75,8|0,3:1|2:0,0:0:0:0:
372,100,53505,6,0,L|375:77,1,24,0|2,0:0|2:0,0:0:0:0:
388,0,54020,1,2,2:0:0:0:
388,0,54105,1,8,3:0:0:0:
388,0,54191,1,8,0:0:0:0:
152,90,54362,5,2,2:0:0:0:
76,108,54448,1,2,2:0:0:0:
0,126,54534,1,2,2:0:0:0:
209,13,54705,6,0,B|221:21|221:21|272:34,1,60,0|2,3:0|2:0,0:0:0:0:
356,206,54877,6,0,B|504:161|495:74|379:23|329:98|392:232,1,360,4|0,3:2|2:0,0:0:0:0:
482,275,55220,2,0,P|464:266|228:205,1,240,8|0,2:0|3:0,0:0:0:0:
132,234,55477,5,0,0:0:0:0:
127,237,55562,2,0,B|90:266|107:296|107:296|111:275|138:252,1,120,2|0,3:1|0:0,0:0:0:0:
263,127,55820,5,2,2:1:0:0:
239,57,55905,2,0,P|213:16|142:8,1,90.0000034332277,8|0,2:0|2:0,0:0:0:0:
45,153,56077,6,0,P|90:142|152:128,1,90.0000034332277,2|0,3:1|3:0,0:0:0:0:
359,78,56248,2,0,L|353:47,1,30,0|0,3:0|2:0,0:0:0:0:
474,6,56420,6,0,B|496:40|496:40|457:107,1,90.0000034332277,0|0,3:0|2:0,0:0:0:0:
382,261,56591,1,8,2:0:0:0:
382,261,56762,6,0,L|366:186,1,60,2|0,2:0|3:0,0:0:0:0:
512,367,56934,6,0,P|482:315|433:327,1,90.0000034332277,0|2,0:0|2:3,0:0:0:0:
68,330,57105,2,0,P|145:308|297:263,1,225,0|0,3:0|2:0,0:0:0:0:
256,183,57277,6,0,B|277:160|277:160|269:207,1,60,8|0,2:0|2:0,0:0:0:0:
327,332,57448,2,0,B|336:361|336:361|299:331,1,60,2|0,2:0|2:0,0:0:0:0:
38,166,57620,6,0,P|14:178|44:171,1,90.0000034332277,0|0,3:0|2:0,0:0:0:0:
164,227,57791,2,0,B|57:171|39:72|66:6|149:35|167:80|91:105,1,300,2|8,2:0|2:0,0:0:0:0:
68,330,58048,5,0,0:0:0:0:
65,335,58134,2,0,L|57:366,1,30,0|0,3:0|3:0,0:0:0:0:
385,93,58305,6,0,B|426:65|445:35|445:35|360:99|165:145,1,264.0000025177,2|2,1:0|2:1,0:0:0:0:
199,154,58477,2,0,P|193:133|203:153,1,60,0|0,3:0|2:0,0:0:0:0:
512,296,58648,6,0,P|469:276|260:222,1,240,10|2,2:1|2:0,0:0:0:0:
12,90,58905,1,2,2:0:0:0:
5,92,58991,2,0,B|79:118|102:185|102:185|84:117|149:37,1,270.000010299683,0|2,3:0|2:0,0:0:0:0:
6,346,59334,2,0,P|38:276|128:294,1,180.000006866455,8|0,2:0|3:0,0:0:0:0:
209,379,59591,5,0,3:0:0:0:
202,384,59677,2,0,B|213:323|213:323|212:315|212:315|231:197,1,180,0|0,1:0|2:0,0:0:0:0:
462,42,60020,2,0,B|455:11|455:11|484:40,1,60,8|2,2:0|3:0,0:0:0:0:
509,147,60191,6,0,P|461:132|358:109,1,120,0|2,0:0|2:3,0:0:0:0:
229,206,60362,6,0,B|324:204|401:119|414:-18|263:-58|196:31|273:110,1,419.999994659424,4|0,3:2|2:0,0:0:0:0:
347,303,60705,2,0,P|250:233|132:213,1,240,8|0,2:0|3:0,0:0:0:0:
6,311,60962,5,0,0:0:0:0:
3,317,61048,2,0,B|38:330|54:352|54:352|56:327|98:286,1,120,2|0,3:1|0:0,0:0:0:0:
32,170,61305,5,2,2:1:0:0:
17,98,61391,2,0,L|11:57,1,30,8|0,2:0|2:0,0:0:0:0:
145,15,61562,6,0,P|193:26|236:81,1,90.0000034332277,2|0,3:1|3:0,0:0:0:0:
320,171,61734,1,0,3:0:0:0:
468,67,61905,6,0,P|423:70|386:95,1,90.0000034332277,0|0,3:0|2:0,0:0:0:0:
277,292,62077,2,0,P|268:258|260:218,1,60,8|0,2:0|2:0,0:0:0:0:
75,164,62248,6,0,L|216:193,1,105.000001001358,2|0,2:0|3:0,0:0:0:0:
402,258,62420,6,0,B|421:281|421:281|416:316,1,60,0|2,0:0|2:3,0:0:0:0:
182,374,62591,2,0,P|111:342|207:293,1,225,0|0,3:0|2:0,0:0:0:0:
320,171,62762,6,0,P|329:152|314:169,1,60,8|0,2:0|2:0,0:0:0:0:
45,35,62934,5,2,2:0:0:0:
121,52,63020,1,0,0:0:0:0:
198,70,63105,6,0,L|203:56,1,15,0|0,3:0|2:0,0:0:0:0:
433,86,63277,2,0,B|451:42|493:5|493:5|397:52|293:75,1,300,2|8,2:0|2:0,0:0:0:0:
154,206,63534,5,0,0:0:0:0:
156,215,63620,2,0,L|163:255,1,30,0|0,3:0|3:0,0:0:0:0:
52,376,63791,6,0,P|69:300|122:347,1,160,2|2,1:0|2:1,0:0:0:0:
310,197,63962,2,0,P|312:184|305:195,1,30.0000011444092,0|0,3:0|0:0,0:0:0:0:
205,349,64134,6,0,B|288:271|288:271|365:433,1,240,10|2,2:1|2:0,0:0:0:0:
319,115,64391,5,2,2:0:0:0:
319,110,64477,2,0,P|326:65|338:-1,1,90.0000034332277,0|0,3:0|2:0,0:0:0:0:
444,90,64648,2,0,L|400:77,1,30,0|0,3:0|1:0,0:0:0:0:
56,50,64820,6,0,B|122:-4|228:8|228:8|199:35|194:84,1,264.000008056641,8|0,2:0|0:0,0:0:0:0:
96,232,65077,2,0,P|88:240|92:219,1,60,0|2,3:0|2:0,0:0:0:0:
312,53,65248,5,0,3:0:0:0:
311,53,65334,2,0,P|320:86|293:64,1,90.0000034332277,0|0,0:0|2:0,0:0:0:0:
9,141,65505,6,0,B|-5:152|-14:167|-14:167|37:139|136:122,1,120,12|0,2:0|2:0,0:0:0:0:
249,222,65677,2,0,L|258:257,1,30,0|0,3:0|0:0,0:0:0:0:
477,360,66191,6,0,B|495:321|495:321|481:269,1,90.0000034332277,4|0,3:2|2:0,0:0:0:0:
385,269,66362,2,0,B|367:308|367:308|381:360,1,90.0000034332277,0|0,3:2|2:0,0:0:0:0:
150,369,66534,6,0,P|208:355|266:342,1,120,2|0,3:1|0:0,0:0:0:0:
508,115,66791,5,2,2:1:0:0:
487,41,66877,2,0,P|481:22|473:5,1,30,8|0,2:0|2:0,0:0:0:0:
395,92,67048,6,0,P|352:69|309:54,1,90.0000034332277,2|0,3:1|3:0,0:0:0:0:
315,216,67220,6,0,P|186:256|71:310,1,240,0|0,3:0|3:0,0:0:0:0:
65,229,67477,5,0,0:0:0:0:
65,223,67562,2,0,B|26:192|26:192|127:219,1,120,8|0,2:0|2:0,0:0:0:0:
190,368,67734,6,0,L|180:333,1,30,2|0,2:0|3:0,0:0:0:0:
120,99,67905,1,0,0:0:0:0:
120,99,68077,6,0,B|154:82|154:82|161:85|161:85|164:77|164:77|221:53,1,90.0000034332277,0|0,3:0|2:0,0:0:0:0:
436,127,68248,2,0,P|482:15|366:50,1,300,8|2,2:0|2:0,0:0:0:0:
223,134,68505,5,0,0:0:0:0:
218,138,68591,2,0,B|205:184|205:184|227:219,1,90.0000034332277,0|0,3:0|2:0,0:0:0:0:
144,316,68762,2,0,B|111:330|79:373|79:373|199:303|276:295,1,300,2|8,2:0|2:0,0:0:0:0:
495,284,69020,5,0,0:0:0:0:
495,284,69105,2,0,P|449:274|386:262,1,90.0000034332277,0|0,3:0|3:0,0:0:0:0:
153,50,69277,6,0,P|132:9|172:34,1,120.000004577637,2|2,1:0|2:1,0:0:0:0:
195,237,69448,6,0,L|166:342,1,60,0|0,3:0|2:0,0:0:0:0:
103,179,69620,2,0,B|171:112|248:138|248:138|270:184|327:198,1,240,10|2,2:1|2:0,0:0:0:0:
454,32,69877,5,2,2:0:0:0:
446,27,69962,2,0,P|389:40|349:84,1,120,0|2,3:0|2:0,0:0:0:0:
419,369,70305,6,0,B|364:288|257:296|257:296|303:322|320:414,1,270.000010299683,8|0,2:0|3:0,0:0:0:0:
219,371,70562,2,0,L|201:381,1,15,0|0,3:0|1:0,0:0:0:0:
414,194,70762,6,0,L|393:137,1,40,2|2,2:0|2:0,0:0:0:0:
495,139,70991,6,0,B|459:70|522:86|480:10|480:10|236:-10|238:246|238:246|427:142,1,630.000006008148,8|2,2:0|2:0,0:0:0:0:
414,194,71334,6,0,P|162:120|69:102,1,323.999990112305,4|0,3:2|2:0,0:0:0:0:
19,88,71677,6,0,P|-2:87|22:97,1,75,8|0,2:0|2:0,0:0:0:0:
240,16,71848,6,0,B|251:9|264:7|264:7|243:31|220:67,1,90.0000034332277,0|0,3:0|2:0,0:0:0:0:
180,306,72020,2,0,P|171:265|146:163,1,120,2|0,3:1|0:0,0:0:0:0:
81,273,72277,5,2,2:1:0:0:
74,276,72362,2,0,L|24:292,1,30,8|0,2:0|2:0,0:0:0:0:
285,124,72534,6,0,B|307:163|307:163|252:264,1,90.0000034332277,2|0,3:1|3:0,0:0:0:0:
202,383,72705,1,0,3:0:0:0:
439,226,72877,6,0,L|367:206,1,60,0|0,3:0|2:0,0:0:0:0:
168,154,73048,1,8,2:0:0:0:
9,359,73220,6,0,B|-20:389|-20:389|83:343,1,135.000005149842,2|0,2:0|3:0,0:0:0:0:
180,306,73391,2,0,L|153:300,1,15,0|2,0:0|2:3,0:0:0:0:
16,141,73562,6,0,P|57:161|94:229,1,90.0000034332277,0|0,3:0|2:0,0:0:0:0:
364,273,73734,2,0,B|376:301|376:301|326:321|287:369|287:369|280:312|246:258|246:258|280:243,1,300,8|2,2:0|2:0,0:0:0:0:
377,113,73991,5,0,0:0:0:0:
414,47,74077,2,0,L|423:28,2,18,0|0|0,3:0|3:0|3:0,0:0:0:0:
503,174,74762,5,8,2:0:0:0:
503,174,74934,2,0,P|262:40|64:12,1,450,0|0,0:0|3:0,0:0:0:0:
13,59,75620,5,0,3:0:0:0:
13,59,75705,1,0,3:0:0:0:
93,103,75877,1,0,3:0:0:0:
93,103,75963,1,0,3:0:0:0:
125,367,76134,6,0,P|167:184|223:5,1,375,8|0,2:0|3:0,0:0:0:0:
454,96,76820,6,0,B|476:131|501:111|537:160|537:160|494:51|394:6|269:91|255:188|215:259|171:294|171:294|209:207|144:224|205:168|205:168|248:142|279:74|224:6|224:6|243:48|215:91,1,1024.79995777954,4|8,2:0|2:0,0:0:0:0:
132,44,79391,6,0,L|98:39,1,30,0|0,0:0|1:0,0:0:0:0:
26,29,79905,5,0,3:0:0:0:
67,241,80077,1,0,0:0:0:0:
67,241,80163,1,0,3:0:0:0:
141,211,80420,1,0,3:0:0:0:
203,260,80591,1,0,1:0:0:0:
281,271,80762,2,0,L|298:265,3,10,0|0|0|0,0:0|0:0|0:0|1:0,0:0:0:0:
269,349,81105,5,0,0:0:0:0:
347,360,81277,1,0,3:0:0:0:
347,360,81448,1,0,0:0:0:0:
395,297,81620,1,0,0:0:0:0:
402,301,81677,1,0,0:0:0:0:
409,305,81734,1,0,0:0:0:0:
416,309,81791,1,0,3:0:0:0:
493,363,81962,5,0,1:0:0:0:
441,84,82134,1,2,2:3:0:0:
476,163,82305,5,0,1:0:0:0:
476,163,82648,5,0,3:0:0:0:
252,131,82820,1,0,0:0:0:0:
252,131,82905,1,0,3:0:0:0:
301,69,83162,1,0,3:0:0:0:
223,58,83334,1,0,1:0:0:0:
174,120,83505,1,0,0:0:0:0:
100,149,83677,5,0,1:0:0:0:
37,99,83848,1,0,0:0:0:0:
48,19,84020,1,0,3:0:0:0:
48,19,84191,1,0,0:0:0:0:
111,68,84362,5,0,0:0:0:0:
89,230,84534,1,0,3:0:0:0:
223,384,84705,5,8,1:2:0:0:
191,147,84877,2,0,L|269:161,1,60,2|0,2:3|3:0,0:0:0:0:
499,189,85048,5,0,1:0:0:0:
442,78,85391,5,0,3:0:0:0:
415,295,85562,1,0,0:0:0:0:
415,295,85648,1,0,3:0:0:0:
482,340,85905,5,0,3:0:0:0:
415,295,86077,1,0,1:0:0:0:
335,310,86248,1,0,0:0:0:0:
289,377,86420,1,0,1:0:0:0:
282,373,86477,1,0,0:0:0:0:
275,369,86534,1,0,0:0:0:0:
268,365,86591,1,0,0:0:0:0:
300,184,86762,6,0,B|329:195|329:195|310:215,1,60,0|2,0:0|2:3,0:0:0:0:
7,311,86934,5,0,3:0:0:0:
7,311,87020,1,0,3:0:0:0:
7,311,87105,2,0,P|96:273|268:215,1,240,2|0,2:0|0:0,0:0:0:0:
408,160,87362,1,0,0:0:0:0:
399,148,87448,1,8,2:0:0:0:
302,15,87620,2,0,B|289:30|289:30|309:78,1,60,2|0,2:3|2:0,0:0:0:0:
431,240,87791,6,0,B|509:247|509:247|414:266|317:324,1,240,4|0,1:2|3:0,0:0:0:0:
237,373,88305,1,0,0:0:0:0:
229,374,88391,2,0,P|230:295|285:348,1,160,0|0,3:0|2:0,0:0:0:0:
327,377,88648,1,0,3:0:0:0:
244,216,88820,6,0,L|253:187,1,30,0|0,1:0|2:0,0:0:0:0:
278,93,88991,2,0,L|269:64,1,30,0|0,0:0|2:0,0:0:0:0:
103,8,89162,6,0,B|69:50|31:72|31:72|115:29|210:17,1,276.000005264282,0|0,1:0|3:0,0:0:0:0:
40,178,89677,1,0,0:0:0:0:
38,181,89762,2,0,P|94:237|139:303,1,120,0|0,3:0|2:0,0:0:0:0:
166,358,90020,2,0,B|178:388|178:388|139:346,1,75,0|0,3:0|2:0,0:0:0:0:
75,337,90191,6,0,B|89:268|172:257|179:302|250:272|262:212,1,243.000000926971,8|0,1:2|2:0,0:0:0:0:
326,168,90534,6,0,B|295:116|295:116|229:139,2,120,0|0|0,1:0|0:0|3:0,0:0:0:0:
375,237,91048,1,0,0:0:0:0:
380,232,91134,1,2,3:1:0:0:
451,276,91305,5,2,2:1:0:0:
144,146,91477,5,2,2:1:0:0:
138,150,91562,1,0,1:0:0:0:
8,84,91734,6,0,P|45:92|95:115,1,60,2|0,2:1|2:0,0:0:0:0:
210,201,91905,6,0,P|240:272|254:346,1,150,0|0,1:0|0:0,0:0:0:0:
149,283,92162,1,0,0:0:0:0:
143,287,92248,2,0,P|129:326|112:370,1,75,0|0,3:0|2:0,0:0:0:0:
46,283,92420,6,0,L|-6:269,1,30,0|2,0:0|3:1,0:0:0:0:
254,343,92591,5,0,0:0:0:0:
254,343,92762,1,0,3:0:0:0:
436,240,92934,2,0,B|419:216|419:216|382:229,1,60,8|0,1:2|2:0,0:0:0:0:
373,322,93105,2,0,B|390:346|390:346|427:333,1,60,2|0,2:1|2:0,0:0:0:0:
494,154,93277,5,0,1:0:0:0:
492,146,93362,1,0,3:0:0:0:
490,138,93448,1,0,3:0:0:0:
488,130,93534,1,0,3:0:0:0:
486,122,93620,2,0,P|461:94|423:85,1,60,0|0,3:0|3:0,0:0:0:0:
435,2,93791,2,0,P|398:9|371:38,1,60,0|0,3:0|3:0,0:0:0:0:
252,5,93962,5,0,3:0:0:0:
221,35,94047,1,0,3:0:0:0:
223,79,94133,1,0,3:0:0:0:
258,105,94219,1,0,3:0:0:0:
301,95,94305,2,0,B|317:121|317:121|317:163,1,60,0|0,3:0|3:0,0:0:0:0:
169,192,94477,2,0,B|153:166|153:166|153:124,1,60,0|0,3:0|3:0,0:0:0:0:
0,86,94648,5,0,3:0:0:0:
3,56,94733,1,0,3:0:0:0:
22,34,94819,1,0,3:0:0:0:
51,25,94905,1,0,3:0:0:0:
79,35,94991,2,0,L|139:49,1,60,0|0,3:0|3:0,0:0:0:0:
78,179,95162,6,0,L|70:209,1,30,0|0,3:0|3:0,0:0:0:0:
51,360,95334,5,0,3:0:0:0:
102,340,95420,1,0,3:0:0:0:
145,375,95505,1,0,3:0:0:0:
198,383,95591,1,0,3:0:0:0:
232,341,95677,1,8,3:2:0:0:
212,290,95762,1,0,3:0:0:0:
220,236,95848,2,0,L|243:160,1,60,0|0,3:0|3:0,0:0:0:0:
512,85,96020,6,0,P|475:90|445:114,1,60,4|0,3:2|2:0,0:0:0:0:
316,7,96191,2,0,P|330:41|324:79,1,60,10|0,2:1|2:0,0:0:0:0:
238,179,96362,6,0,B|233:145|233:145|261:104,1,75,8|0,3:2|2:0,0:0:0:0:
482,187,96534,2,0,B|487:221|487:221|459:262,1,75,10|0,2:1|2:0,0:0:0:0:
298,339,96705,6,0,L|312:306,1,30,8|0,3:2|2:0,0:0:0:0:
379,138,96877,2,0,L|367:165,1,30,10|0,2:1|2:0,0:0:0:0:
512,372,97048,6,0,P|483:361|393:331,1,105.000001001358,8|0,3:2|2:0,0:0:0:0:
107,180,97220,5,10,2:1:0:0:
107,180,97305,1,0,0:0:0:0:
92,285,97391,6,0,B|90:375|36:421|-81:325|77:365|56:268,1,240,4|0,1:2|0:0,0:0:0:0:
464,50,98077,6,0,B|539:105|545:30|489:-27|338:-10|214:62|221:201|221:201|274:147|334:141,1,600,4|0,1:2|2:0,0:0:0:0:
393,201,98420,6,0,P|397:208|397:190,6,60,8|0|0|0|0|0|0,2:0|0:0|0:0|0:0|0:0|0:0|0:0,0:0:0:0:
427,375,98762,6,0,P|439:288|472:124,1,240,14|0,3:2|0:0,0:0:0:0:
271,8,99020,1,0,0:0:0:0:
265,10,99105,2,0,B|245:53|245:53|259:121,1,90.0000034332277,8|0,2:0|2:0,0:0:0:0:
57,204,99277,5,2,2:1:0:0:
131,184,99362,2,0,L|166:174,1,30,0|0,3:0|0:0,0:0:0:0:
434,68,99534,6,0,B|455:50|471:18|471:18|395:54|283:78,1,210.000002002716,2|2,1:0|2:1,0:0:0:0:
332,66,99791,6,0,P|366:99|376:167,1,90.0000034332277,8|0,2:0|2:0,0:0:0:0:
439,320,99962,2,0,P|468:286|478:243,1,90.0000034332277,2|0,2:0|2:0,0:0:0:0:
228,265,100134,6,0,P|296:238|360:216,1,120,0|0,3:0|0:0,0:0:0:0:
336,317,100391,1,0,0:0:0:0:
340,323,100477,2,0,B|333:350|333:350|294:323,1,60,8|0,2:0|2:0,0:0:0:0:
212,159,100648,5,2,2:1:0:0:
192,87,100734,2,0,P|202:46|214:-2,1,90.0000034332277,0|0,3:0|0:0,0:0:0:0:
93,106,100905,6,0,P|68:82|39:54,1,60,2|0,3:1|0:0,0:0:0:0:
78,215,101077,6,0,P|61:219|42:225,1,30,2|8,3:1|2:0,0:0:0:0:
170,287,101248,5,2,3:1:0:0:
118,342,101334,2,0,P|92:348|121:344,1,120,2|0,3:0|2:0,0:0:0:0:
357,381,101505,6,0,B|353:292|273:248|244:299|159:281|156:160,1,300,0|0,3:0|0:0,0:0:0:0:
228,53,101762,1,0,0:0:0:0:
235,49,101848,2,0,B|247:35|272:24|272:24|251:57|227:110,1,120,8|0,2:0|2:0,0:0:0:0:
4,247,102020,5,2,2:1:0:0:
73,217,102105,2,0,P|116:203|177:187,1,90.0000034332277,0|0,3:0|0:0,0:0:0:0:
90,113,102277,6,0,L|78:60,1,45.0000017166138,2|0,1:0|3:0,0:0:0:0:
310,162,102448,5,2,2:1:0:0:
388,172,102534,2,0,P|424:206|430:256,1,90.0000034332277,8|0,2:0|2:0,0:0:0:0:
254,384,102705,6,0,P|267:327|293:231,1,120,2|0,2:0|2:0,0:0:0:0:
388,44,102877,6,0,P|455:-13|429:110,1,300,0|0,3:0|0:0,0:0:0:0:
508,241,103134,5,0,0:0:0:0:
512,236,103220,2,0,P|412:153|219:96,1,300,8|2,2:0|2:1,0:0:0:0:
80,42,103477,6,0,B|130:56|151:86|151:86|154:48|191:14,1,167.999994873047,0|0,3:0|0:0,0:0:0:0:
176,180,103648,2,0,B|174:204|196:217|196:217|207:193|190:173,1,90.0000034332277,2|0,3:1|0:0,0:0:0:0:
0,180,103820,6,0,P|44:165|92:146,1,90.0000034332277,2|8,3:1|2:0,0:0:0:0:
366,28,103991,5,2,3:1:0:0:
442,50,104077,2,0,P|468:52|435:59,1,105.000001001358,2|0,3:0|2:0,0:0:0:0:
452,314,104248,6,0,B|477:278|467:180|404:148|320:125|280:231|365:274,1,335.999989746094,4|0,3:2|0:0,0:0:0:0:
222,349,104505,1,0,0:0:0:0:
227,352,104591,2,0,P|262:353|233:337,1,90.0000034332277,8|0,2:0|2:0,0:0:0:0:
100,207,104762,5,2,2:1:0:0:
104,202,104848,2,0,P|156:226|174:267,1,90.0000034332277,0|0,3:0|0:0,0:0:0:0:
375,384,105020,6,0,P|350:276|324:145,1,240,2|2,1:0|2:1,0:0:0:0:
324,149,105277,6,0,B|354:114|354:114|396:127,1,90.0000034332277,8|0,2:0|2:0,0:0:0:0:
507,219,105448,6,0,L|459:206,1,30,2|0,2:0|2:0,0:0:0:0:
300,1,105620,6,0,P|244:56|243:131,1,120,0|0,3:0|0:0,0:0:0:0:
169,162,105877,1,0,0:0:0:0:
164,167,105962,2,0,P|143:172|163:164,1,60,8|0,2:0|2:0,0:0:0:0:
5,72,106134,5,2,2:1:0:0:
2,67,106220,2,0,P|44:84|77:132,1,90.0000034332277,0|0,3:0|0:0,0:0:0:0:
259,283,106391,6,0,P|253:254|239:228,1,60,2|0,3:1|0:0,0:0:0:0:
57,206,106562,6,0,L|6:225,1,30,2|8,3:1|2:0,0:0:0:0:
264,142,106734,5,2,3:1:0:0:
335,115,106820,2,0,B|346:75|346:75|318:21,1,90.0000034332277,2|0,3:0|2:0,0:0:0:0:
2,67,106991,6,0,B|7:201|97:130|146:240,1,240,4|0,3:2|3:0,0:0:0:0:
18,366,107248,5,0,0:0:0:0:
17,358,107334,2,0,B|104:241|221:277|221:277|227:313|286:344,1,300,8|0,2:0|0:0,0:0:0:0:
340,249,107591,5,0,1:0:0:0:
338,242,107677,2,0,B|315:227|315:227|320:281,1,60,0|0,0:0|2:0,0:0:0:0:
490,367,107848,6,0,P|452:351|405:336,1,90.0000034332277,0|0,1:0|2:0,0:0:0:0:
139,174,108020,5,8,2:0:0:0:
84,239,108105,2,0,B|161:-6|69:239|154:-15,1,240,2|2,2:3|2:3,0:0:0:0:
7,70,108362,6,0,L|45:81,1,30,4|0,3:2|2:0,0:0:0:0:
340,172,108534,6,0,P|312:181|228:216,1,120,0|2,0:0|3:0,0:0:0:0:
91,381,108705,6,0,B|71:358|71:358|77:306,1,60,8|0,2:0|2:0,0:0:0:0:
159,304,108877,2,0,B|179:327|179:327|172:378,1,60,2|0,3:1|2:0,0:0:0:0:
261,117,109048,6,0,L|249:85,1,30,0|2,0:0|3:1,0:0:0:0:
255,12,109220,2,0,L|223:-2,1,30,0|0,0:0|1:0,0:0:0:0:
0,162,109391,5,8,3:2:0:0:
65,123,109477,1,0,3:0:0:0:
138,141,109562,1,0,3:0:0:0:
176,205,109648,1,0,3:0:0:0:
157,277,109734,2,0,B|138:303|138:303|139:260,1,60,0|2,1:0|2:1,0:0:0:0:
493,374,110077,6,0,B|426:225|282:356|363:108,1,240,4|0,1:2|0:0,0:0:0:0:
424,92,110334,5,0,3:0:0:0:
484,137,110420,2,0,B|502:138|517:143|517:143|481:152|412:169,1,90.0000034332277,0|0,0:0|2:0,0:0:0:0:
235,288,110591,6,0,B|224:253|224:253|280:193,1,75,0|0,3:0|2:0,0:0:0:0:
330,71,110762,2,0,B|341:106|341:106|285:166,1,75,8|0,2:0|2:0,0:0:0:0:
79,234,110934,5,0,0:0:0:0:
79,234,111020,1,0,0:0:0:0:
13,177,111105,6,0,B|-22:109|-22:109|135:169,1,240,0|2,1:0|2:1,0:0:0:0:
217,19,111362,5,0,3:0:0:0:
210,17,111448,2,0,P|166:36|139:85,1,90.0000034332277,8|0,2:0|2:0,0:0:0:0:
19,329,111620,5,2,2:1:0:0:
94,308,111705,2,0,L|144:295,1,30,0|0,3:0|0:0,0:0:0:0:
431,384,111877,6,0,B|355:285|355:285|251:335,1,240,2|0,2:1|1:0,0:0:0:0:
66,227,112134,5,0,3:0:0:0:
40,153,112220,1,2,2:3:0:0:
14,79,112305,2,0,B|57:66|57:66|111:90,1,90.0000034332277,2|2,2:3|2:3,0:0:0:0:
261,199,112477,5,0,1:0:0:0:
261,199,112648,2,0,L|254:154,1,30,2|0,2:1|2:0,0:0:0:0:
512,0,112820,6,0,B|394:18|384:131|384:131|421:148|442:187,1,270.000010299683,12|0,1:2|0:0,0:0:0:0:
290,318,113077,5,0,3:0:0:0:
345,266,113162,2,0,P|424:225|512:204,1,180.000006866455,0|0,0:0|3:0,0:0:0:0:
382,364,113420,5,0,0:0:0:0:
388,362,113505,2,0,P|413:370|436:384,1,30,8|0,2:0|2:0,0:0:0:0:
180,273,113677,6,0,P|162:243|167:174,1,90.0000034332277,0|0,0:0|2:0,0:0:0:0:
58,111,113848,5,0,1:0:0:0:
50,114,113934,1,0,0:0:0:0:
43,117,114020,1,2,2:1:0:0:
13,22,114105,6,0,P|63:32|186:68,1,120,0|8,3:0|2:0,0:0:0:0:
292,137,114277,5,0,0:0:0:0:
274,220,114362,1,2,2:1:0:0:
258,299,114448,2,0,P|251:318|261:300,1,60,0|0,3:0|0:0,0:0:0:0:
82,360,114620,6,0,P|112:325|154:311,1,90.0000034332277,2|0,2:1|3:0,0:0:0:0:
372,223,114791,6,0,P|423:237|465:346,1,120,0|0,1:0|3:0,0:0:0:0:
158,161,114962,5,2,2:3:0:0:
132,87,115048,2,0,B|103:72|124:33|124:33|169:67|114:113,1,120,2|2,2:3|2:3,0:0:0:0:
350,18,115220,6,0,P|277:42|214:70,1,120,4|2,1:2|2:1,0:0:0:0:
110,243,115562,6,0,P|29:264|89:172,1,240,8|0,1:2|0:0,0:0:0:0:
239,268,115820,5,0,3:0:0:0:
290,331,115905,2,0,P|255:375|217:308,1,120,0|0,0:0|2:0,0:0:0:0:
371,218,116077,2,0,P|397:214|370:217,1,90.0000034332277,0|0,3:0|2:0,0:0:0:0:
512,244,116248,6,0,L|477:231,1,30,8|0,2:0|2:0,0:0:0:0:
192,164,116420,2,0,P|239:152|304:135,1,90.0000034332277,0|0,0:0|2:0,0:0:0:0:
442,7,116591,6,0,B|476:37|476:37|466:80,1,90.0000034332277,0|0,1:0|2:0,0:0:0:0:
345,337,116762,5,2,2:1:0:0:
355,263,116848,2,0,L|370:177,1,60,0|8,3:0|2:0,0:0:0:0:
265,28,117020,5,0,0:0:0:0:
265,28,117106,1,2,2:1:0:0:
265,28,117191,2,0,L|298:55,1,30,0|0,3:0|0:0,0:0:0:0:
442,7,117362,6,0,B|423:49|423:49|317:54|190:151,1,300,2|0,2:1|1:0,0:0:0:0:
79,94,117620,6,0,B|62:68|62:68|143:101,1,90.0000034332277,0|2,3:0|1:0,0:0:0:0:
282,214,117791,5,2,1:0:0:0:
289,218,117877,1,2,1:0:0:0:
259,292,117962,2,0,P|241:361|235:388,1,90,4|0,1:2|2:0,0:0:0:0:
512,384,118305,6,0,B|466:289|346:320|385:206,1,240,8|0,1:2|0:0,0:0:0:0:
512,258,118562,6,0,P|487:249|446:235,1,60,2|0,3:1|0:0,0:0:0:0:
280,50,118734,6,0,B|317:104|299:166|299:166|340:112|398:114,1,240,2|0,2:1|3:0,0:0:0:0:
369,32,118991,2,0,L|383:10,1,15,10|0,2:1|2:0,0:0:0:0:
195,119,119162,6,0,P|145:138|57:172,1,90.0000034332277,2|0,2:1|2:0,0:0:0:0:
0,236,119334,5,0,1:0:0:0:
54,1,119505,1,0,1:0:0:0:
40,335,119677,5,8,2:0:0:0:
77,308,119762,1,0,0:0:0:0:
122,315,119848,1,0,1:0:0:0:
148,351,119934,1,0,3:0:0:0:
198,381,120020,5,8,3:2:0:0:
254,366,120105,1,0,3:0:0:0:
282,315,120191,1,0,3:0:0:0:
265,259,120277,1,0,3:0:0:0:
200,224,120362,5,8,3:2:0:0:
153,166,120448,1,0,3:0:0:0:
160,91,120534,1,0,3:0:0:0:
217,42,120620,1,0,3:0:0:0:
291,47,120705,5,4,2:0:0:0:
