osu file format v14

[General]
AudioFilename: audio.mp3
AudioLeadIn: 0
PreviewTime: 98677
Countdown: 0
SampleSet: Soft
StackLeniency: 0.2
Mode: 0
LetterboxInBreaks: 0
WidescreenStoryboard: 1

[Editor]
Bookmarks: 10991,12191,21962,27105,32934,43905,54877,65848,76820,87791,109734
DistanceSpacing: 0.9
BeatDivisor: 4
GridSize: 4
TimelineZoom: 2.999999

[Metadata]
Title:Hypersonik
TitleUnicode:Hypersonik
Artist:Eagle
ArtistUnicode:Eagle
Creator:Ascended
Version:dahkjdas' Insane
Source:beatmania IIDX 21 SPADA
Tags:kors k korsk BEMANI electronic instrumental neurofunk drum and bass drumandbass dnb drum&bass beatmania iidx infinitas Flask zhuxiaoyan frostwich frostwhich stwi synderes jas CraEZy Otosaka-Yu OtosakaYu Suzuki_1112 Suzuki1112 Jounzan Natteke_desu Natteke desu Nattekedesu EvilElvisV2 Aistre Alphabet Venax NeilPerry Mir Frey dahkjdas Seolv Lukas [_L_u_k_a_s_] [Lukas] -ascended- -_ascended_- Deppyforce jascended
BeatmapID:3825776
BeatmapSetID:1834293

[Difficulty]
HPDrainRate:5.5
CircleSize:4
OverallDifficulty:8
ApproachRate:9
SliderMultiplier:1.92
SliderTickRate:1

[Events]
//Background and Video events
0,0,"anime style.jpg",0,0
//Break Periods
2,22162,26848
2,77020,85820
//Storyboard Layer 0 (Background)
//Storyboard Layer 1 (Fail)
//Storyboard Layer 2 (Pass)
//Storyboard Layer 3 (Foreground)
//Storyboard Layer 4 (Overlay)
//Storyboard Sound Samples

[TimingPoints]
20,342.857142857143,4,2,1,30,1,0
20,-100,4,2,1,30,0,0
277,-100,4,2,1,5,0,0
362,-100,4,2,1,30,0,0
2420,-100,4,2,0,30,0,0
2505,-100,4,2,1,30,0,0
2591,-200,4,2,1,30,0,0
4134,-200,4,2,0,30,0,0
5420,-200,4,2,1,30,0,0
5505,-100,4,2,1,30,0,0
5762,-100,4,2,1,5,0,0
5848,-100,4,2,1,30,0,0
6191,-200,4,2,1,30,0,0
8077,-200,4,2,1,25,0,0
8248,-200,4,2,1,30,0,0
9962,-100,4,2,0,30,0,0
10305,-200,4,2,1,45,0,0
10991,-133.333333333333,4,2,1,50,0,0
13391,-133.333333333333,4,2,0,50,0,0
13477,-133.333333333333,4,2,0,50,0,0
13562,-133.333333333333,4,2,1,50,0,0
14248,-133.333333333333,4,2,0,50,0,0
14420,-133.333333333333,4,2,1,50,0,0
14934,-133.333333333333,4,2,1,20,0,0
15277,-133.333333333333,4,2,1,50,0,0
16219,-133.333333333333,4,2,1,5,0,0
16305,-133.333333333333,4,2,1,50,0,0
19905,-100,4,2,1,50,0,0
20591,-133.333333333333,4,2,100,50,0,0
21105,-133.333333333333,4,2,1,50,0,0
21448,-133.333333333333,4,2,100,50,0,0
21791,-133.333333333333,4,2,1,50,0,0
27448,-111.111111111111,4,2,1,50,0,0
28820,-111.111111111111,4,2,1,60,0,0
30191,-111.111111111111,4,2,1,70,0,0
31562,-166.666666666667,4,2,1,80,0,0
32161,-166.666666666667,4,2,1,5,0,0
32248,-133.333333333333,4,2,1,80,0,0
32591,-100,4,2,1,80,0,0
32934,-100,4,2,5,70,0,0
33191,-100,4,2,5,5,0,0
33277,-100,4,2,1,70,0,0
34562,-100,4,2,1,5,0,0
34648,-100,4,2,1,70,0,0
35247,-100,4,2,1,5,0,0
35334,-100,4,2,1,70,0,0
35677,-90.9090909090909,4,2,1,70,0,0
38334,-90.9090909090909,4,2,1,5,0,0
38420,-100,4,2,1,70,0,0
38677,-100,4,2,1,5,0,0
38762,-100,4,2,1,70,0,0
40048,-100,4,2,1,5,0,0
40134,-100,4,2,1,70,0,0
40733,-100,4,2,1,5,0,0
40820,-100,4,2,1,70,0,0
41162,-90.9090909090909,4,2,1,70,0,0
41419,-90.9090909090909,4,2,1,5,0,0
41505,-90.9090909090909,4,2,1,70,0,0
41590,-90.9090909090909,4,2,1,5,0,0
41677,-90.9090909090909,4,2,1,70,0,0
41848,-90.9090909090909,4,2,0,70,0,0
41934,-90.9090909090909,4,2,0,5,0,0
42020,-90.9090909090909,4,2,0,70,0,0
42105,-90.9090909090909,4,2,0,5,0,0
42191,-90.9090909090909,4,2,1,70,0,0
42276,-90.9090909090909,4,2,1,5,0,0
42363,-90.9090909090909,4,2,1,70,0,0
42448,-90.9090909090909,4,2,1,5,0,0
42534,-90.9090909090909,4,2,1,70,0,0
43647,-90.9090909090909,4,2,1,5,0,0
43734,-90.9090909090909,4,2,1,70,0,0
43819,-90.9090909090909,4,2,1,5,0,0
43905,-100,4,2,1,70,0,0
44162,-100,4,2,1,5,0,0
44248,-100,4,2,1,70,0,0
45534,-100,4,2,1,5,0,0
45620,-100,4,2,1,70,0,0
47076,-100,4,2,1,5,0,0
47162,-100,4,2,1,70,0,0
49133,-100,4,2,1,5,0,0
49219,-100,4,2,1,70,0,0
49304,-100,4,2,1,5,0,0
49391,-100,4,2,1,70,0,0
49648,-100,4,2,1,5,0,0
49734,-100,4,2,1,70,0,0
51019,-100,4,2,1,5,0,0
51105,-100,4,2,1,70,0,0
52134,-133.333333333333,4,2,1,70,0,0
52220,-133.333333333333,4,2,0,70,0,0
52305,-133.333333333333,4,2,1,70,0,0
52391,-133.333333333333,4,2,0,70,0,0
52477,-133.333333333333,4,2,1,70,0,0
52820,-100,4,2,1,70,0,0
52905,-100,4,2,1,5,0,0
52991,-133.333333333333,4,2,1,70,0,0
53076,-133.333333333333,4,2,1,5,0,0
53162,-80,4,2,1,70,0,0
53247,-80,4,2,1,5,0,0
53334,-66.6666666666667,4,2,1,70,0,0
53419,-66.6666666666667,4,2,1,5,0,0
53505,-133.333333333333,4,2,63,70,0,0
53591,-133.333333333333,4,2,1,70,0,0
53847,-133.333333333333,4,2,1,60,0,0
54191,-100,4,2,1,60,0,0
54276,-100,4,2,1,5,0,0
54362,-100,4,2,0,60,0,0
54534,-100,4,2,1,60,0,0
54705,-100,4,2,0,60,0,0
54877,-90.9090909090909,4,2,1,68,0,0
54962,-90.9090909090909,4,2,1,5,0,0
55048,-90.9090909090909,4,2,1,68,0,0
55133,-90.9090909090909,4,2,1,5,0,0
55220,-90.9090909090909,4,2,1,68,0,0
55476,-90.9090909090909,4,2,1,5,0,0
55562,-90.9090909090909,4,2,1,68,0,0
55990,-90.9090909090909,4,2,1,5,0,0
56077,-90.9090909090909,4,2,1,68,0,0
57190,-90.9090909090909,4,2,1,5,0,0
57277,-90.9090909090909,4,2,1,68,0,0
57362,-90.9090909090909,4,2,1,5,0,0
57448,-90.9090909090909,4,2,1,68,0,0
57620,-90.9090909090909,4,2,1,58,0,0
58347,-90.9090909090909,4,2,1,5,0,0
58391,-90.9090909090909,4,2,1,58,0,0
58433,-90.9090909090909,4,2,1,5,0,0
58477,-90.9090909090909,4,2,1,58,0,0
58519,-90.9090909090909,4,2,1,5,0,0
58563,-90.9090909090909,4,2,1,58,0,0
58605,-90.9090909090909,4,2,1,5,0,0
58648,-90.9090909090909,4,2,1,58,0,0
59762,-90.9090909090909,4,2,1,5,0,0
59848,-90.9090909090909,4,2,1,58,0,0
59933,-90.9090909090909,4,2,1,5,0,0
60020,-90.9090909090909,4,2,1,58,0,0
60362,-90.9090909090909,4,2,1,68,0,0
60447,-90.9090909090909,4,2,1,5,0,0
60534,-90.9090909090909,4,2,1,68,0,0
60619,-90.9090909090909,4,2,1,5,0,0
60705,-90.9090909090909,4,2,1,68,0,0
60962,-90.9090909090909,4,2,1,5,0,0
61048,-90.9090909090909,4,2,1,68,0,0
61476,-90.9090909090909,4,2,1,5,0,0
61562,-90.9090909090909,4,2,1,68,0,0
62676,-90.9090909090909,4,2,1,5,0,0
62762,-90.9090909090909,4,2,1,68,0,0
62847,-90.9090909090909,4,2,1,5,0,0
62934,-90.9090909090909,4,2,1,68,0,0
63105,-90.9090909090909,4,2,1,58,0,0
63833,-90.9090909090909,4,2,1,5,0,0
63877,-90.9090909090909,4,2,1,58,0,0
63919,-90.9090909090909,4,2,1,5,0,0
63962,-90.9090909090909,4,2,1,58,0,0
64004,-90.9090909090909,4,2,1,5,0,0
64048,-90.9090909090909,4,2,1,58,0,0
64090,-90.9090909090909,4,2,1,5,0,0
64134,-90.9090909090909,4,2,1,58,0,0
64562,-90.9090909090909,4,2,1,5,0,0
64648,-90.9090909090909,4,2,1,58,0,0
66105,-90.9090909090909,4,2,1,5,0,0
66191,-90.9090909090909,4,2,1,78,0,0
66276,-90.9090909090909,4,2,1,5,0,0
66362,-90.9090909090909,4,2,1,68,0,0
66447,-90.9090909090909,4,2,1,5,0,0
66534,-90.9090909090909,4,2,1,68,0,0
66962,-90.9090909090909,4,2,1,5,0,0
67048,-90.9090909090909,4,2,1,68,0,0
68162,-90.9090909090909,4,2,1,5,0,0
68248,-90.9090909090909,4,2,1,68,0,0
68333,-90.9090909090909,4,2,1,5,0,0
68420,-90.9090909090909,4,2,1,68,0,0
69319,-90.9090909090909,4,2,1,5,0,0
69363,-90.9090909090909,4,2,1,68,0,0
69405,-90.9090909090909,4,2,1,5,0,0
69449,-90.9090909090909,4,2,1,68,0,0
69491,-90.9090909090909,4,2,1,5,0,0
69535,-90.9090909090909,4,2,1,68,0,0
69577,-90.9090909090909,4,2,1,5,0,0
69620,-90.9090909090909,4,2,1,68,0,0
70734,-90.9090909090909,4,2,0,68,0,0
70820,-90.9090909090909,4,2,1,68,0,0
70862,-90.9090909090909,4,2,0,68,0,0
70905,-90.9090909090909,4,2,1,68,0,0
71419,-90.9090909090909,4,2,1,5,0,0
71505,-90.9090909090909,4,2,1,68,0,0
71590,-90.9090909090909,4,2,1,5,0,0
71677,-90.9090909090909,4,2,1,68,0,0
71933,-90.9090909090909,4,2,1,5,0,0
72020,-90.9090909090909,4,2,1,68,0,0
72447,-90.9090909090909,4,2,1,5,0,0
72534,-90.9090909090909,4,2,1,68,0,0
73647,-90.9090909090909,4,2,1,5,0,0
73734,-90.9090909090909,4,2,1,68,0,0
73819,-90.9090909090909,4,2,1,5,0,0
73905,-90.9090909090909,4,2,1,68,0,0
74077,-90.9090909090909,4,2,1,50,0,0
74505,-90.9090909090909,4,2,1,5,0,0
74591,-90.9090909090909,4,2,1,50,0,0
74676,-90.9090909090909,4,2,1,5,0,0
74762,-80,4,2,2,70,0,0
74848,-80,4,2,1,70,0,0
75019,-80,4,2,2,5,0,0
75105,-166.666666666667,4,2,2,70,0,0
75448,-100,4,2,1,50,0,0
76134,-133.333333333333,4,2,2,70,0,0
76562,-133.333333333333,4,2,1,70,0,0
76820,-133.333333333333,4,2,1,60,0,0
86420,-133.333333333333,4,2,100,50,0,0
87620,-133.333333333333,4,2,1,50,0,0
87791,-166.666666666667,4,2,1,55,0,0
90191,-166.666666666667,4,2,1,30,0,0
90534,-133.333333333333,4,2,1,57,0,0
91134,-133.333333333333,4,2,1,37,0,0
91562,-133.333333333333,4,2,1,57,0,0
93277,-111.111111111111,4,2,1,25,0,0
93962,-111.111111111111,4,2,1,30,0,0
94648,-111.111111111111,4,2,1,35,0,0
95334,-111.111111111111,4,2,1,40,0,0
96020,-111.111111111111,4,2,1,70,0,0
97391,-111.111111111111,4,2,1,80,0,0
98420,-200,4,2,1,60,0,0
98677,-200,4,2,1,5,0,0
98762,-100,4,2,4,70,0,0
98848,-100,4,2,100,70,0,0
99019,-100,4,2,100,5,0,0
99105,-100,4,2,100,70,0,0
99876,-100,4,2,100,5,0,0
99962,-100,4,2,100,70,0,0
100391,-100,4,2,100,5,0,0
100477,-100,4,2,100,70,0,0
101762,-100,4,2,100,5,0,0
101848,-100,4,2,100,70,0,0
103134,-100,4,2,100,5,0,0
103220,-100,4,2,100,70,0,0
104505,-100,4,2,100,5,0,0
104591,-100,4,2,100,70,0,0
105877,-100,4,2,100,5,0,0
105962,-100,4,2,100,70,0,0
108447,-100,4,2,100,5,0,0
108534,-100,4,2,100,70,0,0
108790,-100,4,2,100,5,0,0
108877,-100,4,2,100,70,0,0
108962,-100,4,2,100,5,0,0
109048,-100,4,2,100,70,0,0
109734,-250,4,2,100,40,0,0
109905,-250,4,2,100,70,0,0
109991,-250,4,2,100,5,0,0
110077,-100,4,2,5,70,0,0
110162,-100,4,2,100,70,0,0
110847,-100,4,2,100,5,0,0
110934,-100,4,2,100,70,0,0
111019,-100,4,2,100,5,0,0
111105,-100,4,2,100,70,0,0
112134,-100,4,2,50,60,0,0
112477,-100,4,2,100,70,0,0
113590,-100,4,2,100,5,0,0
113677,-100,4,2,100,70,0,0
113762,-100,4,2,100,5,0,0
113848,-100,4,2,100,70,0,0
116333,-100,4,2,100,5,0,0
116420,-100,4,2,100,70,0,0
116505,-100,4,2,100,5,0,0
116591,-100,4,2,100,70,0,0
118991,-100,4,2,1,70,0,0
119162,-100,4,2,100,70,0,0
120534,-83.3333333333333,4,2,100,70,0,0

[Colours]
Combo1 : 21,251,141
Combo2 : 159,64,255
Combo3 : 255,106,255
Combo4 : 255,140,85

[HitObjects]
350,205,20,6,0,L|178:190,1,144,0|0,3:0|2:0,0:0:0:0:
189,174,362,2,0,L|302:184,1,96,0|0,3:0|0:0,0:0:0:0:
428,192,705,1,0,0:0:0:0:
449,196,2591,5,0,0:0:0:0:
449,196,2762,1,0,1:0:0:0:
449,196,3277,2,0,B|381:203|381:203|387:198|387:198|316:205,1,144,0|0,1:0|1:0,0:0:0:0:
152,224,5505,6,0,L|164:69,1,144,0|0,3:0|2:0,0:0:0:0:
180,73,5848,2,0,L|173:175,1,96,0|0,3:0|0:0,0:0:0:0:
231,273,6191,2,0,P|191:257|115:324,1,144,8|0,2:0|0:0,0:0:0:0:
116,311,8077,6,0,P|121:330|121:355,2,24,2|2|0,2:0|2:0|1:0,0:0:0:0:
83,236,8762,1,0,1:0:0:0:
83,236,9105,1,0,0:0:0:0:
44,343,9277,1,0,1:0:0:0:
83,236,9620,6,0,P|90:198|96:172,1,48,0|0,3:0|0:0,0:0:0:0:
94,16,9962,2,0,P|107:80|111:136,1,96,8|0,2:0|0:0,0:0:0:0:
110,110,10220,1,8,2:0:0:0:
110,110,10305,1,0,3:0:0:0:
171,180,10477,1,8,2:3:0:0:
198,103,10648,1,8,3:0:0:0:
92,188,10820,1,8,3:0:0:0:
235,244,10991,6,0,P|313:268|396:157,1,216.000008239746,4|0,3:2|0:0,0:0:0:0:
396,179,11677,2,0,P|386:128|386:83,1,72.0000027465821,8|0,2:0|0:0,0:0:0:0:
305,176,12020,1,0,0:0:0:0:
428,30,12191,6,0,B|308:-1|346:91|221:56,1,216.000008239746,8|0,2:0|3:0,0:0:0:0:
222,56,13048,2,0,P|210:109|211:161,1,72.0000027465821,8|0,2:0|0:0,0:0:0:0:
95,196,13391,2,0,P|80:192|55:190,3,36.0000013732911,8|0|0|0,2:0|0:0|3:0|0:0,0:0:0:0:
59,190,13734,6,0,P|116:167|157:255,1,144.000005493164,0|0,3:0|3:0,0:0:0:0:
93,378,14420,2,0,P|57:349|34:337,1,72.0000027465821,8|0,2:0|0:0,0:0:0:0:
114,292,14762,1,0,0:0:0:0:
285,346,14934,1,2,3:2:0:0:
285,346,15277,5,0,3:0:0:0:
204,383,15448,1,0,3:0:0:0:
196,347,15534,1,0,3:0:0:0:
204,311,15620,1,0,3:0:0:0:
265,124,15791,2,0,P|285:153|292:188,1,72.0000027465821,8|0,2:0|3:0,0:0:0:0:
371,175,16048,2,0,P|364:228|340:257,1,72.0000027465821,8|0,2:0|2:0,0:0:0:0:
282,269,16305,1,0,1:0:0:0:
282,269,16391,1,0,1:0:0:0:
282,269,16477,6,0,P|230:253|157:303,1,144.000005493164,4|0,3:2|3:0,0:0:0:0:
68,230,17162,2,0,P|72:183|97:141,1,72.0000027465821,8|0,2:0|0:0,0:0:0:0:
149,213,17505,1,0,0:0:0:0:
108,78,17677,6,0,P|172:108|267:10,1,216.000008239746,8|0,2:0|3:0,0:0:0:0:
267,20,18534,2,0,P|221:17|195:11,1,72.0000027465821,8|0,2:0|0:0,0:0:0:0:
350,25,18877,1,2,2:0:0:0:
302,96,19048,1,0,3:0:0:0:
382,104,19220,6,0,P|397:150|394:256,1,144.000005493164,0|0,3:0|3:0,0:0:0:0:
396,244,19905,6,0,L|302:287,1,96,10|2,2:0|3:2,0:0:0:0:
116,244,20248,2,0,L|210:287,1,96,14|8,2:0|2:3,0:0:0:0:
203,283,20505,1,8,2:3:0:0:
203,283,20591,1,0,0:0:0:0:
336,134,20762,5,8,2:0:0:0:
162,132,20934,1,0,3:0:0:0:
256,218,21105,1,0,0:0:0:0:
256,199,21191,1,2,2:1:0:0:
256,180,21277,1,8,2:0:0:0:
256,162,21362,1,2,2:1:0:0:
256,143,21448,6,0,L|256:101,3,24.0000009155274
256,40,21791,1,0,0:0:0:0:
170,215,21962,1,4,2:0:0:0:
61,231,27448,5,4,2:0:0:0:
147,221,27620,1,0,3:0:0:0:
64,216,27791,1,0,1:0:0:0:
150,206,27963,1,0,0:0:0:0:
216,151,28134,5,0,1:0:0:0:
301,160,28305,1,0,3:0:0:0:
224,166,28477,1,0,1:0:0:0:
309,175,28648,1,0,0:0:0:0:
382,223,28820,5,0,1:0:0:0:
391,96,28991,1,0,3:0:0:0:
394,213,29162,1,0,1:0:0:0:
400,111,29334,1,0,0:0:0:0:
469,165,29505,5,0,1:0:0:0:
329,152,29677,1,0,3:0:0:0:
468,264,29848,5,0,1:0:0:0:
340,274,30020,1,0,0:0:0:0:
489,370,30191,6,0,P|468:366|437:356,3,43.1999986816407,4|0|0|0,2:0|3:0|3:0|3:0,0:0:0:0:
364,351,30534,2,0,P|339:355|312:365,3,43.1999986816407,8|2|0|2,2:0|2:3|1:0|2:3,0:0:0:0:
245,326,30877,2,0,P|236:297|236:267,3,43.1999986816407,8|0|0|0,2:0|3:0|3:0|3:0,0:0:0:0:
142,257,31220,2,0,P|151:286|151:316,3,43.1999986816407,8|2|0|2,2:0|1:0|1:0|1:0,0:0:0:0:
109,374,31562,6,0,B|230:406|182:321|300:349,1,201.599993847656,4|0,1:2|2:0,0:0:0:0:
299,348,32248,2,0,P|271:316|276:267,1,72.0000027465821,4|0,1:2|0:0,0:0:0:0:
362,193,32591,2,0,P|348:267|343:320,1,96,8|0,2:0|0:0,0:0:0:0:
241,208,32934,6,0,B|214:216|195:236|195:236|149:234|98:214,1,144,4|0,1:2|2:0,0:0:0:0:
90,210,33277,1,10,2:1:0:0:
210,85,33448,1,0,0:0:0:0:
210,85,33534,2,0,B|253:119|253:119|236:237,1,144,2|2,2:1|3:1,0:0:0:0:
349,267,33962,2,0,B|323:286|307:294|307:294|286:294|235:286,1,96,10|2,2:1|2:0,0:0:0:0:
81,302,34305,6,0,P|148:306|171:243,1,144,0|0,1:0|2:0,0:0:0:0:
167,223,34648,1,10,2:1:0:0:
23,172,34820,1,0,0:0:0:0:
36,181,34905,2,0,L|102:174,1,48,2|0,2:1|0:0,0:0:0:0:
298,185,35162,2,0,L|250:190,1,48,2|0,3:1|2:0,0:0:0:0:
160,118,35334,2,0,P|170:188|175:243,1,96,10|2,2:1|2:0,0:0:0:0:
218,287,35591,1,2,2:0:0:0:
233,294,35677,6,0,B|295:290|295:290|320:303|320:303|397:298,1,158.400004833985,0|2,3:0|2:0,0:0:0:0:
433,372,36020,2,0,P|484:356|440:266,1,158.400004833985,8|2,2:0|3:1,0:0:0:0:
351,150,36362,2,0,P|359:205|402:217,1,105.600003222656,2|2,2:0|3:1,0:0:0:0:
500,40,36620,1,2,2:0:0:0:
508,29,36705,2,0,P|490:111|475:215,1,158.400004833985,8|2,1:0|2:0,0:0:0:0:
503,270,37048,6,0,B|441:263|441:263|414:277|414:277|347:268,1,158.400004833985,0|2,3:0|2:0,0:0:0:0:
245,353,37391,2,0,B|306:346|306:346|334:360|334:360|400:351,1,158.400004833985,8|0,2:0|3:0,0:0:0:0:
417,362,37734,1,0,3:0:0:0:
423,330,37820,1,0,1:0:0:0:
427,298,37905,1,2,3:1:0:0:
279,147,38077,2,0,P|294:221|395:187,1,158.400004833985,10|0,2:1|2:0,0:0:0:0:
354,219,38420,6,0,P|270:231|191:248,1,144,4|0,1:2|2:0,0:0:0:0:
195,248,38762,1,10,2:1:0:0:
22,199,38935,1,0,0:0:0:0:
41,206,39020,2,0,B|78:185|84:153|84:153|110:177|157:175,1,144,2|2,2:1|3:1,0:0:0:0:
320,140,39448,2,0,P|256:129|193:119,1,96,10|2,2:1|2:0,0:0:0:0:
131,75,39705,1,2,2:0:0:0:
138,89,39791,6,0,P|149:168|160:255,1,144,0|0,1:0|2:0,0:0:0:0:
160,251,40134,1,10,2:1:0:0:
282,243,40305,1,0,0:0:0:0:
282,243,40391,2,0,B|265:226|265:226|230:232,1,48,2|0,2:1|0:0,0:0:0:0:
125,323,40648,2,0,B|142:340|142:340|177:334,1,48,2|0,3:1|2:0,0:0:0:0:
287,373,40820,2,0,B|320:362|335:346|335:346|390:344|449:380,1,144,10|2,2:1|2:0,0:0:0:0:
437,376,41162,5,0,3:0:0:0:
479,297,41334,2,0,L|476:224,1,52.8000016113282,2|0,1:3|2:0,0:0:0:0:
398,265,41505,2,0,L|395:192,1,52.8000016113282,10|0,2:1|2:0,0:0:0:0:
467,162,41677,2,0,L|464:89,1,52.8000016113282,2|0,2:1|1:0,0:0:0:0:
404,45,41848,6,0,L|324:56,1,52.8000016113282,2|0,1:2|2:0,0:0:0:0:
363,129,42020,2,0,L|283:140,1,52.8000016113282,2|0,1:2|2:0,0:0:0:0:
274,56,42191,2,0,L|194:67,1,52.8000016113282,8|0,2:0|2:0,0:0:0:0:
233,140,42363,2,0,L|153:151,1,52.8000016113282,0|0,3:0|2:0,0:0:0:0:
145,37,42534,6,0,B|131:96|104:70|90:126,1,105.600003222656,0|2,3:0|3:1,0:0:0:0:
0,185,42791,1,0,3:0:0:0:
9,199,42877,2,0,B|67:181|58:218|113:202,1,105.600003222656,8|2,2:0|3:1,0:0:0:0:
196,245,43134,1,8,3:0:0:0:
207,258,43220,2,0,L|328:251,1,105.600003222656,8|0,2:3|0:0,0:0:0:0:
389,290,43477,1,2,2:0:0:0:
400,303,43562,2,0,L|411:226,1,52.8000016113282,8|0,2:0|2:0,0:0:0:0:
497,228,43734,2,0,L|489:280,1,52.8000016113282,0|0,3:0|2:0,0:0:0:0:
467,361,43905,6,0,P|397:368|313:384,1,144,4|0,1:2|2:0,0:0:0:0:
324,381,44248,1,10,2:1:0:0:
204,320,44420,1,0,0:0:0:0:
192,311,44505,2,0,P|210:253|297:284,1,144,2|2,2:1|3:1,0:0:0:0:
466,285,44934,2,0,P|401:274|355:264,1,96,10|2,2:1|2:0,0:0:0:0:
318,46,45277,6,0,B|358:88|358:88|340:177,1,144,0|0,1:0|2:0,0:0:0:0:
338,192,45620,1,10,2:1:0:0:
183,264,45791,1,0,0:0:0:0:
183,264,45877,2,0,B|216:244|216:244|244:259|244:259|275:251|275:251|314:269,1,144,2|2,2:1|3:1,0:0:0:0:
481,274,46305,2,0,P|439:285|395:233,1,96,10|2,2:1|2:0,0:0:0:0:
411,238,46562,1,2,2:0:0:0:
385,242,46648,6,0,L|205:216,1,144,0|2,3:0|2:0,0:0:0:0:
242,221,46991,2,0,L|239:162,1,48,10|0,2:1|2:0,0:0:0:0:
161,207,47162,2,0,L|157:147,1,48,0|0,0:0|3:0,0:0:0:0:
76,132,47334,2,0,L|81:242,1,96,0|0,0:0|3:0,0:0:0:0:
97,309,47591,1,0,3:0:0:0:
84,323,47677,2,0,L|79:227,1,96,8|0,1:0|0:0,0:0:0:0:
169,92,48020,6,0,L|178:261,1,144,0|2,3:0|2:0,0:0:0:0:
178,253,48362,1,8,2:0:0:0:
360,183,48534,1,0,3:0:0:0:
354,211,48620,1,0,3:0:0:0:
348,239,48705,2,0,P|314:262|291:283,1,48,0|0,3:0|1:0,0:0:0:0:
215,262,48877,1,2,3:1:0:0:
262,195,49048,2,0,L|262:147,1,48,10|0,2:1|2:0,0:0:0:0:
215,262,49219,2,0,P|196:247|176:235,1,48,2|0,1:0|2:0,0:0:0:0:
260,333,49391,6,0,P|195:358|100:360,1,144,4|0,1:2|2:0,0:0:0:0:
103,356,49734,1,10,2:1:0:0:
58,184,49905,1,0,0:0:0:0:
58,184,49991,2,0,P|123:159|218:157,1,144,2|2,2:1|3:1,0:0:0:0:
119,250,50420,2,0,P|174:255|236:267,1,96,10|2,2:1|2:0,0:0:0:0:
284,222,50677,1,2,2:0:0:0:
298,230,50762,6,0,P|336:195|351:93,1,144,0|0,1:0|2:0,0:0:0:0:
351,90,51105,1,10,2:1:0:0:
415,165,51277,1,0,0:0:0:0:
415,165,51362,2,0,L|473:156,1,48,2|0,2:1|0:0,0:0:0:0:
274,130,51534,2,0,L|226:137,1,48,2|2,2:3|3:1,0:0:0:0:
416,34,51791,2,0,P|474:21|539:-5,1,96,10|2,2:1|2:0,0:0:0:0:
335,192,52134,6,0,L|330:246,3,36.0000013732911,0|2|2|2,3:0|2:0|1:3|2:0,0:0:0:0:
261,268,52477,1,8,1:0:0:0:
230,259,52562,1,8,2:3:0:0:
199,268,52648,1,0,1:0:0:0:
168,278,52734,1,8,2:3:0:0:
136,271,52820,2,0,L|86:278,1,48,2|0,1:2|2:0,0:0:0:0:
24,173,52991,6,0,P|16:157|6:143,1,36.0000013732911,10|0,1:2|2:0,0:0:0:0:
94,99,53162,6,0,P|99:118|96:171,1,60,8|0,2:0|2:0,0:0:0:0:
163,199,53334,6,0,P|180:167|185:132,1,72.0000027465821,8|0,3:1|2:0,0:0:0:0:
258,97,53505,6,0,P|265:126|262:164,3,36.0000013732911
344,147,53848,2,0,P|335:175|313:207,3,36.0000013732911,2|0|2|8,2:0|0:0|2:0|3:0,0:0:0:0:
297,258,54191,6,0,L|372:254,1,48,8|0,0:0|2:0,0:0:0:0:
424,250,54362,1,2,2:0:0:0:
438,249,54448,1,2,2:0:0:0:
452,248,54534,1,2,2:0:0:0:
465,161,54705,1,0,3:0:0:0:
450,162,54791,1,2,2:0:0:0:
435,163,54877,6,0,L|443:84,1,52.8000016113282,4|0,3:2|2:0,0:0:0:0:
364,74,55048,2,0,L|358:126,1,52.8000016113282,0|0,0:0|2:0,0:0:0:0:
350,205,55220,1,8,2:0:0:0:
229,155,55391,2,0,B|255:148|255:148|305:161,1,52.8000016113282,0|0,3:0|2:0,0:0:0:0:
266,63,55562,6,0,B|210:52|224:83|163:70,1,105.600003222656,2|0,3:1|0:0,0:0:0:0:
17,134,55820,1,2,2:1:0:0:
33,151,55905,2,0,P|57:165|97:166,1,52.8000016113282,8|0,2:0|2:0,0:0:0:0:
88,41,56077,2,0,P|82:68|93:106,1,52.8000016113282,2|0,3:1|3:0,0:0:0:0:
45,248,56248,5,0,3:0:0:0:
188,219,56420,1,0,3:0:0:0:
81,168,56591,1,8,2:0:0:0:
116,309,56762,1,2,2:0:0:0:
114,324,56848,1,0,3:0:0:0:
112,339,56934,1,0,0:0:0:0:
112,339,57105,6,0,L|34:344,1,52.8000016113282,0|0,3:0|2:0,0:0:0:0:
193,372,57277,2,0,L|245:368,1,52.8000016113282,8|0,2:0|2:0,0:0:0:0:
352,305,57448,1,2,2:0:0:0:
345,319,57534,1,0,0:0:0:0:
338,333,57620,6,0,B|296:301|296:301|314:212,1,105.600003222656,0|2,3:0|2:0,0:0:0:0:
344,106,57962,1,8,2:0:0:0:
208,170,58134,2,0,L|297:164,1,52.8000016113282,0|0,3:0|3:0,0:0:0:0:
487,233,58305,6,0,L|495:263,1,26.4000008056641,2|0,1:0|2:0,0:0:0:0:
453,242,58391,2,0,L|448:272,1,26.4000008056641,0|0,0:0|2:0,0:0:0:0:
423,235,58477,2,0,L|406:261,1,26.4000008056641,0|0,3:0|2:0,0:0:0:0:
393,215,58563,2,0,L|366:231,1,26.4000008056641,0|0,0:0|2:0,0:0:0:0:
378,180,58648,1,10,2:1:0:0:
476,48,58820,1,2,2:0:0:0:
476,48,58905,1,2,2:0:0:0:
476,48,58991,6,0,P|461:124|454:188,1,105.600003222656,0|0,3:0|0:0,0:0:0:0:
254,194,59334,1,8,2:0:0:0:
335,247,59505,1,0,3:0:0:0:
335,247,59591,1,0,3:0:0:0:
335,247,59677,2,0,L|347:311,1,52.8000016113282,0|0,1:0|2:0,0:0:0:0:
183,154,59848,2,0,L|170:90,1,52.8000016113282,0|0,0:0|2:0,0:0:0:0:
253,276,60020,2,0,L|277:396,1,105.600003222656,8|0,2:0|0:0,0:0:0:0:
59,327,60362,6,0,B|85:320|85:320|125:330,1,52.8000016113282,4|0,3:2|2:0,0:0:0:0:
106,167,60534,2,0,B|80:174|80:174|40:164,1,52.8000016113282,0|0,0:0|2:0,0:0:0:0:
136,245,60705,1,8,2:0:0:0:
0,249,60877,2,0,L|59:248,1,52.8000016113282,0|0,3:0|2:0,0:0:0:0:
212,297,61048,6,0,B|229:246|229:246|202:168,1,105.600003222656,2|0,3:1|0:0,0:0:0:0:
278,134,61305,1,2,2:1:0:0:
285,155,61391,2,0,L|310:238,1,52.8000016113282,8|0,2:0|2:0,0:0:0:0:
286,338,61562,2,0,L|311:255,1,52.8000016113282,2|0,3:1|3:0,0:0:0:0:
376,246,61734,5,0,3:0:0:0:
212,297,61905,1,0,3:0:0:0:
376,246,62077,1,8,2:0:0:0:
260,142,62248,1,2,2:0:0:0:
257,157,62334,1,0,3:0:0:0:
255,172,62420,1,0,0:0:0:0:
255,172,62591,6,0,L|248:96,1,52.8000016113282,0|0,3:0|2:0,0:0:0:0:
327,28,62762,2,0,L|334:104,1,52.8000016113282,8|0,2:0|2:0,0:0:0:0:
405,161,62934,1,2,2:0:0:0:
415,173,63020,1,0,0:0:0:0:
425,189,63105,6,0,P|377:200|339:143,1,105.600003222656,0|2,3:0|2:0,0:0:0:0:
244,34,63448,1,8,2:0:0:0:
418,79,63620,2,0,L|478:73,1,52.8000016113282,0|0,3:0|3:0,0:0:0:0:
256,173,63791,6,0,L|227:143,1,26.4000008056641,2|0,1:0|2:0,0:0:0:0:
229,194,63877,2,0,L|192:181,1,26.4000008056641,0|0,0:0|2:0,0:0:0:0:
218,224,63962,2,0,L|177:225,1,26.4000008056641,0|0,3:0|2:0,0:0:0:0:
219,258,64048,2,0,L|185:265,1,26.4000008056641,0|0,0:0|2:0,0:0:0:0:
234,292,64134,2,0,B|332:276|283:328|388:312,1,158.400004833985,10|2,2:1|2:0,0:0:0:0:
386,312,64477,6,0,L|380:364,1,52.8000016113282,0|0,3:0|2:0,0:0:0:0:
398,235,64648,2,0,L|404:183,1,52.8000016113282,0|0,3:0|1:0,0:0:0:0:
249,165,64820,1,8,2:0:0:0:
325,61,64991,1,0,0:0:0:0:
326,76,65077,1,0,3:0:0:0:
327,91,65162,2,0,L|334:166,1,52.8000016113282,2|0,2:0|3:0,0:0:0:0:
310,226,65334,1,0,0:0:0:0:
508,198,65505,2,0,P|451:190|375:177,1,105.600003222656,12|0,2:0|3:0,0:0:0:0:
241,88,65848,6,0,P|179:65|192:151,1,158.400004833985,0|0,0:0|2:0,0:0:0:0:
165,136,66191,2,0,L|77:124,1,52.8000016113282,4|0,3:2|2:0,0:0:0:0:
244,174,66362,2,0,L|310:183,1,52.8000016113282,0|0,3:2|2:0,0:0:0:0:
177,324,66534,2,0,L|170:187,1,105.600003222656,2|0,3:1|0:0,0:0:0:0:
96,280,66791,1,2,2:1:0:0:
91,295,66877,2,0,L|70:360,1,52.8000016113282,8|0,2:0|2:0,0:0:0:0:
252,274,67048,2,0,L|286:333,1,52.8000016113282,2|0,3:1|3:0,0:0:0:0:
177,324,67220,5,0,3:0:0:0:
165,136,67391,1,0,3:0:0:0:
177,324,67562,1,8,2:0:0:0:
336,256,67734,1,2,2:0:0:0:
351,253,67820,1,0,3:0:0:0:
366,250,67905,1,0,0:0:0:0:
366,250,68077,6,0,L|372:187,1,52.8000016113282,0|0,3:0|2:0,0:0:0:0:
288,181,68248,2,0,L|294:118,1,52.8000016113282,8|0,2:0|2:0,0:0:0:0:
436,49,68420,1,2,2:0:0:0:
434,64,68505,1,0,0:0:0:0:
431,78,68591,6,0,P|375:81|349:18,1,105.600003222656,0|2,3:0|2:0,0:0:0:0:
208,149,68934,1,8,2:0:0:0:
278,271,69105,2,0,P|259:258|211:260,1,52.8000016113282,0|0,3:0|3:0,0:0:0:0:
23,252,69277,6,0,L|15:282,1,26.4000008056641,2|0,1:0|2:0,0:0:0:0:
57,261,69363,2,0,L|62:291,1,26.4000008056641,0|0,0:0|2:0,0:0:0:0:
87,254,69449,2,0,L|104:280,1,26.4000008056641,0|0,3:0|2:0,0:0:0:0:
117,234,69535,2,0,L|144:250,1,26.4000008056641,0|0,0:0|2:0,0:0:0:0:
132,199,69620,1,10,2:1:0:0:
42,71,69791,1,2,2:0:0:0:
42,71,69877,1,2,2:0:0:0:
42,71,69962,6,0,P|52:148|54:224,1,105.600003222656,0|0,3:0|0:0,0:0:0:0:
306,286,70305,2,0,B|254:271|254:271|188:289,1,105.600003222656,8|0,2:0|3:0,0:0:0:0:
195,156,70648,5,0,1:0:0:0:
253,194,70762,5,2,2:0:0:0:
313,156,70877,5,2,2:0:0:0:
252,101,70991,6,0,B|240:33|277:61|266:-5,1,105.600003222656,8|0,2:0|0:0,0:0:0:0:
443,166,71334,6,0,B|419:161|419:161|363:171,1,52.8000016113282,4|0,3:2|2:0,0:0:0:0:
438,8,71505,2,0,B|411:13|411:13|387:8,1,52.8000016113282,0|0,0:0|2:0,0:0:0:0:
351,87,71677,1,8,2:0:0:0:
217,89,71848,2,0,L|269:87,1,52.8000016113282,0|0,3:0|2:0,0:0:0:0:
325,252,72020,6,0,B|298:204|298:204|321:125,1,105.600003222656,2|0,3:1|0:0,0:0:0:0:
351,87,72277,1,2,2:1:0:0:
351,87,72362,2,0,L|342:11,1,52.8000016113282,8|0,2:0|2:0,0:0:0:0:
216,172,72534,2,0,L|225:248,1,52.8000016113282,2|0,3:1|3:0,0:0:0:0:
416,291,72705,5,0,3:0:0:0:
267,332,72877,1,0,3:0:0:0:
299,190,73048,1,8,2:0:0:0:
340,306,73220,1,2,2:0:0:0:
345,320,73305,1,0,3:0:0:0:
350,334,73391,1,0,0:0:0:0:
350,334,73562,6,0,L|430:345,1,52.8000016113282,0|0,3:0|2:0,0:0:0:0:
214,324,73734,2,0,L|294:335,1,52.8000016113282,8|0,2:0|2:0,0:0:0:0:
375,224,73905,1,2,2:0:0:0:
378,208,73991,1,0,0:0:0:0:
381,192,74077,5,0,3:0:0:0:
311,94,74248,1,0,0:0:0:0:
397,107,74420,2,0,P|417:112|469:116,1,52.8000016113282,0|0,0:0|2:0,0:0:0:0:
298,176,74591,2,0,P|277:170|225:166,1,52.8000016113282,0|0,3:0|2:0,0:0:0:0:
52,162,74762,6,0,P|124:194|145:81,1,180,8|0,2:0|2:0,0:0:0:0:
170,121,75105,2,0,P|157:154|158:187,1,57.5999982421876
91,82,75448,5,0,3:0:0:0:
237,169,75620,1,0,3:0:0:0:
237,169,75705,1,0,3:0:0:0:
95,255,75877,1,0,3:0:0:0:
95,255,75962,1,0,3:0:0:0:
190,364,76134,6,0,B|204:306|204:306|183:239|183:239|218:280,1,180.000006866455,8|0,2:0|3:0,0:0:0:0:
119,308,76820,1,4,2:0:0:0:
256,192,86420,12,2,87620,2:3:0:0:
113,176,87791,6,0,P|147:170|191:164,1,57.5999982421876,4|0,1:2|0:0,0:0:0:0:
325,216,88134,2,0,P|283:211|227:192,2,86.3999973632813,0|0|0,3:0|3:0|3:0,0:0:0:0:
233,119,88820,1,0,1:0:0:0:
233,119,89162,6,0,P|230:81|224:45,1,57.5999982421876,0|0,1:0|0:0,0:0:0:0:
295,16,89505,2,0,P|334:33|379:46,2,86.3999973632813,0|0|0,3:0|3:0|3:0,0:0:0:0:
151,100,90191,1,8,1:2:0:0:
151,100,90534,6,0,P|106:108|62:113,1,72.0000027465821,0|0,1:0|0:0,0:0:0:0:
56,203,90877,2,0,P|101:195|145:190,1,72.0000027465821,0|0,3:0|0:0,0:0:0:0:
127,191,91134,1,2,3:1:0:0:
127,191,91220,1,0,0:0:0:0:
299,229,91391,5,0,0:0:0:0:
218,195,91562,1,0,1:0:0:0:
187,271,91734,1,2,2:1:0:0:
340,329,91905,6,0,P|292:318|242:311,1,72.0000027465821,0|0,1:0|0:0,0:0:0:0:
429,353,92248,2,0,P|421:300|412:261,1,72.0000027465821,0|0,3:0|0:0,0:0:0:0:
417,282,92505,1,2,3:1:0:0:
417,282,92591,1,0,0:0:0:0:
334,121,92762,5,0,3:0:0:0:
371,203,92934,1,8,1:2:0:0:
455,168,93105,1,2,2:1:0:0:
284,191,93277,6,0,L|184:202,1,86.3999973632813,0|0,1:0|3:0,0:0:0:0:
109,87,93620,2,0,L|194:77,1,86.3999973632813,0|0,3:0|3:0,0:0:0:0:
209,92,93877,1,0,3:0:0:0:
224,106,93962,2,0,L|125:118,1,86.3999973632813,0|0,3:0|3:0,0:0:0:0:
318,92,94305,1,0,3:0:0:0:
318,92,94477,1,0,3:0:0:0:
257,192,94648,6,0,L|371:207,1,86.3999973632813,0|0,3:0|3:0,0:0:0:0:
400,332,94991,2,0,L|314:320,1,86.3999973632813,0|0,3:0|3:0,0:0:0:0:
302,302,95248,1,0,3:0:0:0:
290,283,95334,2,0,L|400:300,1,86.3999973632813,0|0,3:0|3:0,0:0:0:0:
198,271,95677,1,8,3:2:0:0:
198,271,95848,1,0,3:0:0:0:
282,127,96020,5,4,3:2:0:0:
305,238,96191,1,10,2:1:0:0:
204,163,96362,5,8,3:2:0:0:
364,138,96534,1,10,2:1:0:0:
233,298,96705,5,8,3:2:0:0:
374,313,96877,1,10,2:1:0:0:
167,242,97048,5,8,3:2:0:0:
430,220,97220,1,10,2:1:0:0:
430,220,97562,5,0,0:0:0:0:
396,149,97734,1,0,0:0:0:0:
320,132,97905,1,0,0:0:0:0:
256,177,98077,2,0,P|207:169|174:136,1,86.3999973632813,4|0,1:2|0:0,0:0:0:0:
236,12,98334,1,0,0:0:0:0:
220,13,98420,2,0,P|199:24|183:71,1,72,8|0,2:0|2:0,0:0:0:0:
114,104,98762,6,0,B|166:74|166:74|264:99,1,144,14|0,3:2|2:0,0:0:0:0:
266,101,99105,1,8,2:0:0:0:
332,259,99277,1,2,2:1:0:0:
339,245,99362,2,0,P|344:209|335:174,1,48,0|0,3:0|0:0,0:0:0:0:
188,167,99534,1,2,1:0:0:0:
180,180,99619,2,0,P|174:215|183:250,1,48,0|2,0:0|2:1,0:0:0:0:
248,286,99791,2,0,L|260:203,1,48,8|0,2:0|2:0,0:0:0:0:
271,102,99962,1,2,2:0:0:0:
419,231,100134,6,0,L|263:237,1,144,0|0,3:0|2:0,0:0:0:0:
254,238,100477,1,8,2:0:0:0:
159,331,100648,1,2,2:1:0:0:
142,333,100734,2,0,P|116:336|70:345,1,48,0|0,3:0|0:0,0:0:0:0:
80,173,100905,1,2,3:1:0:0:
97,171,100991,2,0,P|123:168|169:159,1,48,0|2,0:0|3:1,0:0:0:0:
174,249,101162,2,0,L|94:244,1,48,8|2,2:0|3:1,0:0:0:0:
6,239,101334,1,2,3:0:0:0:
100,89,101505,6,0,B|161:128|161:128|259:109,1,144,0|0,3:0|2:0,0:0:0:0:
252,110,101848,1,8,2:0:0:0:
333,68,102020,1,2,2:1:0:0:
337,84,102105,2,0,L|344:166,1,48,0|0,3:0|0:0,0:0:0:0:
434,172,102277,1,2,1:0:0:0:
430,156,102362,2,0,L|423:74,1,48,0|2,3:0|2:1,0:0:0:0:
413,20,102534,1,8,2:0:0:0:
350,218,102705,1,2,2:0:0:0:
350,218,102791,1,0,0:0:0:0:
350,218,102877,6,0,P|294:182|202:211,1,144,0|0,3:0|2:0,0:0:0:0:
208,208,103220,1,8,2:0:0:0:
273,268,103391,1,2,2:1:0:0:
275,285,103477,2,0,L|279:343,1,48,0|0,3:0|0:0,0:0:0:0:
127,230,103648,2,0,L|123:172,1,48,2|0,3:1|0:0,0:0:0:0:
246,120,103820,1,2,3:1:0:0:
246,120,103905,1,8,2:0:0:0:
190,293,104077,1,2,3:0:0:0:
190,293,104162,1,0,0:0:0:0:
190,293,104248,6,0,P|114:285|15:272,1,144,4|0,3:2|2:0,0:0:0:0:
30,274,104591,1,8,2:0:0:0:
122,205,104762,1,2,2:1:0:0:
132,196,104848,2,0,P|140:170|140:134,1,48,0|0,3:0|0:0,0:0:0:0:
116,15,105020,1,2,1:0:0:0:
106,24,105106,2,0,P|98:50|98:86,1,48,0|2,0:0|2:1,0:0:0:0:
57,147,105277,1,8,2:0:0:0:
208,87,105448,1,2,2:0:0:0:
208,87,105534,1,0,0:0:0:0:
208,87,105620,6,0,B|234:135|234:135|218:244,1,144,0|0,3:0|2:0,0:0:0:0:
216,240,105962,1,8,2:0:0:0:
313,305,106134,1,2,2:1:0:0:
301,290,106220,2,0,L|313:206,1,48,0|0,3:0|0:0,0:0:0:0:
323,160,106391,1,2,3:1:0:0:
341,157,106477,2,0,L|407:209,1,48,0|2,0:0|3:1,0:0:0:0:
434,255,106648,2,0,L|355:286,1,48,8|2,2:0|3:1,0:0:0:0:
467,176,106820,1,2,3:0:0:0:
336,76,106991,5,4,3:2:0:0:
380,150,107162,1,0,3:0:0:0:
384,163,107248,1,0,0:0:0:0:
388,176,107334,1,8,2:0:0:0:
301,152,107505,1,0,0:0:0:0:
294,164,107591,1,0,1:0:0:0:
289,176,107677,1,0,0:0:0:0:
253,85,107848,1,0,1:0:0:0:
240,90,107934,1,0,0:0:0:0:
227,96,108020,1,8,2:0:0:0:
141,144,108191,5,0,0:0:0:0:
141,144,108277,1,2,2:3:0:0:
141,144,108362,2,0,L|133:72,1,48,4|0,3:2|2:0,0:0:0:0:
212,238,108534,2,0,L|204:166,1,48,0|2,0:0|3:0,0:0:0:0:
61,180,108705,6,0,L|53:108,1,48,8|0,2:0|2:0,0:0:0:0:
132,274,108877,2,0,L|124:202,1,48,2|0,3:1|2:0,0:0:0:0:
49,263,109048,5,0,0:0:0:0:
45,279,109134,2,0,L|30:383,1,96,2|0,3:1|1:0,0:0:0:0:
132,356,109391,5,8,3:2:0:0:
150,305,109476,1,0,3:0:0:0:
195,278,109562,1,0,3:0:0:0:
248,284,109648,1,0,3:0:0:0:
285,320,109734,2,0,L|351:330,1,57.6,0|0,1:0|2:0,0:0:0:0:
415,376,110077,6,0,B|425:327|425:327|409:265,1,96,4|0,1:2|0:0,0:0:0:0:
344,246,110334,1,0,3:0:0:0:
344,246,110420,2,0,L|356:122,1,96,0|0,0:0|3:0,0:0:0:0:
431,137,110762,2,0,B|432:166|432:166|414:217,1,48,8|0,2:0|2:0,0:0:0:0:
275,164,110934,2,0,B|273:134|273:134|291:83,1,48,0|0,0:0|2:0,0:0:0:0:
434,50,111105,6,0,B|394:66|366:73|366:73|338:60|296:27,1,144,0|0,1:0|3:0,0:0:0:0:
305,34,111448,1,8,2:0:0:0:
193,130,111620,1,2,2:1:0:0:
193,130,111706,2,0,L|200:13,1,96,0|2,3:0|2:1,0:0:0:0:
202,14,111963,1,0,0:0:0:0:
57,119,112134,1,0,3:0:0:0:
89,132,112219,1,2,2:3:0:0:
112,159,112305,1,2,2:3:0:0:
120,194,112391,1,2,2:3:0:0:
110,229,112477,6,0,P|61:223|14:218,1,96,0|2,1:0|2:1,0:0:0:0:
290,249,112820,2,0,P|241:243|194:238,1,96,12|0,1:2|0:0,0:0:0:0:
159,161,113077,1,0,3:0:0:0:
159,161,113162,2,0,B|153:110|153:110|177:61,1,96,0|0,0:0|3:0,0:0:0:0:
235,124,113505,2,0,L|297:135,1,48,8|0,2:0|2:0,0:0:0:0:
98,51,113677,2,0,L|50:42,1,48,0|0,0:0|2:0,0:0:0:0:
246,28,113848,5,0,1:0:0:0:
256,38,113934,1,0,0:0:0:0:
265,48,114020,2,0,L|317:58,2,48,2|0|8,2:1|3:0|2:0,0:0:0:0:
144,136,114362,1,2,2:1:0:0:
144,136,114448,2,0,B|159:179|159:179|144:256,1,96,0|2,3:0|2:1,0:0:0:0:
144,247,114705,1,0,3:0:0:0:
234,223,114877,2,0,L|249:302,1,48,0|2,3:0|2:3,0:0:0:0:
175,324,115048,2,0,L|190:403,1,48,2|2,2:3|2:3,0:0:0:0:
266,352,115220,6,0,P|329:365|384:379,1,96,4|2,1:2|2:1,0:0:0:0:
500,261,115562,2,0,P|453:249|406:240,1,96,8|0,1:2|0:0,0:0:0:0:
332,285,115820,1,0,3:0:0:0:
332,285,115905,2,0,B|321:237|321:237|339:152,1,96,0|0,0:0|3:0,0:0:0:0:
260,146,116248,2,0,L|241:232,1,48,8|0,2:0|2:0,0:0:0:0:
259,322,116420,2,0,L|248:275,1,48,0|0,0:0|2:0,0:0:0:0:
101,238,116591,5,0,1:0:0:0:
115,236,116677,1,0,0:0:0:0:
129,234,116762,2,0,L|194:227,2,48,2|0|8,2:1|3:0|2:0,0:0:0:0:
25,132,117105,1,2,2:1:0:0:
25,132,117191,2,0,B|65:158|65:158|135:149,1,96,0|2,3:0|2:1,0:0:0:0:
130,150,117448,2,0,L|141:85,1,48,0|0,0:0|1:0,0:0:0:0:
250,41,117620,1,0,3:0:0:0:
284,50,117705,1,2,1:0:0:0:
310,74,117791,1,2,1:0:0:0:
320,108,117877,1,2,1:0:0:0:
311,144,117962,6,0,P|252:137|206:129,1,96,4|0,1:2|0:0,0:0:0:0:
201,240,118305,2,0,P|260:247|306:255,1,96,8|0,1:2|0:0,0:0:0:0:
369,208,118562,1,2,3:1:0:0:
378,225,118648,2,0,P|390:297|395:355,1,96
392,319,118905,1,0,3:0:0:0:
392,319,118991,1,10,2:1:0:0:
471,256,119162,1,2,2:1:0:0:
361,112,119334,6,0,P|418:147|488:166,1,96,0|0,1:0|1:0,0:0:0:0:
280,95,119591,1,0,0:0:0:0:
280,95,119677,2,0,P|281:27|263:-42,1,96,8|0,2:0|1:0,0:0:0:0:
306,171,119934,1,0,3:0:0:0:
306,171,120020,2,0,P|247:203|194:253,1,96,8|0,3:2|3:0,0:0:0:0:
101,199,120277,1,0,3:0:0:0:
101,199,120362,2,0,P|129:207|170:227,1,48,8|0,3:2|3:0,0:0:0:0:
179,346,120534,2,0,B|184:314|184:314|178:272,1,57.5999982421876,0|0,3:0|3:0,0:0:0:0:
190,143,120705,5,4,2:0:0:0:
