osu file format v14

[General]
AudioFilename: audio.mp3
AudioLeadIn: 0
PreviewTime: 98677
Countdown: 0
SampleSet: Soft
StackLeniency: 0.2
Mode: 0
LetterboxInBreaks: 0
WidescreenStoryboard: 1

[Editor]
Bookmarks: 10991,12191,21962,27105,32934,43905,54877,65848,76820,87791,109734
DistanceSpacing: 1.1
BeatDivisor: 4
GridSize: 32
TimelineZoom: 2.999999

[Metadata]
Title:Hypersonik
TitleUnicode:Hypersonik
Artist:Eagle
ArtistUnicode:Eagle
Creator:Ascended
Version:Seolv's Insane
Source:beatmania IIDX 21 SPADA
Tags:kors k korsk BEMANI electronic instrumental neurofunk drum and bass drumandbass dnb drum&bass beatmania iidx infinitas Flask zhuxiaoyan frostwich frostwhich stwi synderes jas CraEZy Otosaka-Yu OtosakaYu Suzuki_1112 Suzuki1112 Jounzan Natteke_desu Natteke desu Nattekedesu EvilElvisV2 Aistre Alphabet Venax NeilPerry Mir Frey dahkjdas Seolv Lukas [_L_u_k_a_s_] [Lukas] -ascended- -_ascended_- Deppyforce jascended
BeatmapID:3802658
BeatmapSetID:1834293

[Difficulty]
HPDrainRate:5
CircleSize:4
OverallDifficulty:8
ApproachRate:9
SliderMultiplier:1.92
SliderTickRate:1

[Events]
//Background and Video events
0,0,"anime style.jpg",0,0
//Break Periods
2,22162,26848
2,77020,87191
//Storyboard Layer 0 (Background)
//Storyboard Layer 1 (Fail)
//Storyboard Layer 2 (Pass)
//Storyboard Layer 3 (Foreground)
//Storyboard Layer 4 (Overlay)
//Storyboard Sound Samples

[TimingPoints]
20,342.857142857143,4,2,1,30,1,0
2420,-100,4,2,0,30,0,0
2505,-100,4,2,1,30,0,0
2591,-100,4,2,0,30,0,0
2762,-100,4,2,1,30,0,0
4134,-100,4,2,0,30,0,0
4905,-100,4,2,0,5,0,0
4991,-100,4,2,0,30,0,0
5420,-100,4,2,1,30,0,0
6191,-71.4285714285714,4,2,1,30,0,0
6448,-71.4285714285714,4,2,1,5,0,0
6534,-71.4285714285714,4,2,1,30,0,0
8077,-71.4285714285714,4,2,1,25,0,0
8248,-71.4285714285714,4,2,1,30,0,0
9620,-142.857142857143,4,2,1,30,0,0
9962,-142.857142857143,4,2,0,30,0,0
10305,-142.857142857143,4,2,1,45,0,0
10991,-100,4,2,1,50,0,0
13048,-71.4285714285714,4,2,1,50,0,0
13305,-71.4285714285714,4,2,1,5,0,0
13391,-125,4,2,0,50,0,0
13477,-125,4,2,0,5,0,0
13562,-125,4,2,1,50,0,0
13647,-125,4,2,1,5,0,0
13734,-125,4,2,1,50,0,0
14248,-125,4,2,1,50,0,0
14333,-125,4,2,0,50,0,0
14420,-71.4285714285714,4,2,1,50,0,0
14762,-100,4,2,1,50,0,0
14847,-100,4,2,1,50,0,0
14934,-100,4,2,1,20,0,0
15105,-100,4,2,1,20,0,0
15190,-100,4,2,1,20,0,0
15277,-100,4,2,1,50,0,0
15791,-62.5,4,2,1,50,0,0
16219,-62.5,4,2,1,5,0,0
16305,-62.5,4,2,1,50,0,0
16477,-100,4,2,1,50,0,0
18791,-100,4,2,1,5,0,0
19048,-100,4,2,1,50,0,0
19905,-66.6666666666667,4,2,1,50,0,0
19990,-66.6666666666667,4,2,1,5,0,0
20077,-66.6666666666667,4,2,1,50,0,0
20162,-66.6666666666667,4,2,1,5,0,0
20248,-66.6666666666667,4,2,1,50,0,0
20591,-66.6666666666667,4,2,100,50,0,0
21105,-66.6666666666667,4,2,1,50,0,0
21448,-66.6666666666667,4,2,100,50,0,0
21791,-66.6666666666667,4,2,1,50,0,0
28820,-66.6666666666667,4,2,1,60,0,0
30191,-100,4,2,1,70,0,0
30877,-83.3333333333333,4,2,1,70,0,0
31562,-76.9230769230769,4,2,1,80,0,0
31819,-76.9230769230769,4,2,1,5,0,0
31905,-76.9230769230769,4,2,1,80,0,0
32248,-62.5,4,2,1,80,0,0
32505,-62.5,4,2,1,5,0,0
32591,-62.5,4,2,1,80,0,0
32848,-62.5,4,2,1,5,0,0
32934,-62.5,4,2,5,70,0,0
33277,-62.5,4,2,1,70,0,0
33962,-83.3333333333333,4,2,1,70,0,0
35247,-83.3333333333333,4,2,1,5,0,0
35334,-83.3333333333333,4,2,1,70,0,0
40732,-83.3333333333333,4,2,1,5,0,0
40819,-83.3333333333333,4,2,1,70,0,0
41848,-83.3333333333333,4,2,0,70,0,0
41934,-83.3333333333333,4,2,1,70,0,0
42020,-83.3333333333333,4,2,0,70,0,0
42105,-83.3333333333333,4,2,1,70,0,0
43819,-83.3333333333333,4,2,1,5,0,0
43905,-83.3333333333333,4,2,1,70,0,0
46219,-83.3333333333333,4,2,1,5,0,0
46305,-83.3333333333333,4,2,1,70,0,0
51705,-83.3333333333333,4,2,1,5,0,0
51791,-83.3333333333333,4,2,1,70,0,0
52220,-83.3333333333333,4,2,0,70,0,0
52305,-83.3333333333333,4,2,1,70,0,0
52391,-83.3333333333333,4,2,0,70,0,0
52477,-83.3333333333333,4,2,1,70,0,0
53505,-111.111111111111,4,2,63,70,0,0
53591,-111.111111111111,4,2,1,70,0,0
53847,-111.111111111111,4,2,1,60,0,0
54362,-111.111111111111,4,2,0,60,0,0
54534,-111.111111111111,4,2,1,60,0,0
54705,-111.111111111111,4,2,0,60,0,0
54877,-90.9090909090909,4,2,1,68,0,0
55990,-90.9090909090909,4,2,1,5,0,0
56077,-90.9090909090909,4,2,1,68,0,0
57620,-90.9090909090909,4,2,1,58,0,0
57877,-90.9090909090909,4,2,1,5,0,0
57962,-90.9090909090909,4,2,1,58,0,0
58390,-90.9090909090909,4,2,1,5,0,0
58477,-90.9090909090909,4,2,1,58,0,0
58562,-90.9090909090909,4,2,1,5,0,0
58648,-90.9090909090909,4,2,1,58,0,0
59933,-90.9090909090909,4,2,1,5,0,0
60020,-90.9090909090909,4,2,1,58,0,0
60362,-90.9090909090909,4,2,1,68,0,0
61475,-90.9090909090909,4,2,1,5,0,0
61562,-90.9090909090909,4,2,1,68,0,0
63105,-90.9090909090909,4,2,1,58,0,0
63362,-90.9090909090909,4,2,1,5,0,0
63447,-90.9090909090909,4,2,1,58,0,0
63875,-90.9090909090909,4,2,1,5,0,0
63962,-90.9090909090909,4,2,1,58,0,0
64047,-90.9090909090909,4,2,1,5,0,0
64134,-90.9090909090909,4,2,1,58,0,0
66191,-90.9090909090909,4,2,1,78,0,0
66362,-90.9090909090909,4,2,1,68,0,0
66963,-90.9090909090909,4,2,1,5,0,0
67048,-90.9090909090909,4,2,1,68,0,0
68848,-90.9090909090909,4,2,1,5,0,0
68934,-90.9090909090909,4,2,1,68,0,0
69363,-90.9090909090909,4,2,1,5,0,0
69448,-90.9090909090909,4,2,1,68,0,0
69533,-90.9090909090909,4,2,1,5,0,0
69620,-90.9090909090909,4,2,1,68,0,0
70734,-90.9090909090909,4,2,0,68,0,0
70820,-90.9090909090909,4,2,1,68,0,0
70862,-90.9090909090909,4,2,0,68,0,0
70905,-90.9090909090909,4,2,1,68,0,0
72448,-90.9090909090909,4,2,1,5,0,0
72534,-90.9090909090909,4,2,1,68,0,0
74077,-90.9090909090909,4,2,1,50,0,0
74762,-90.9090909090909,4,2,2,70,0,0
74848,-90.9090909090909,4,2,1,70,0,0
74934,-90.9090909090909,4,2,2,70,0,0
75448,-90.9090909090909,4,2,1,50,0,0
76134,-90.9090909090909,4,2,2,70,0,0
76562,-90.9090909090909,4,2,1,70,0,0
76820,-90.9090909090909,4,2,1,60,0,0
79219,-90.9090909090909,4,2,0,40,0,0
79562,-90.9090909090909,4,2,1,40,0,0
80762,-90.9090909090909,4,2,100,40,0,0
80934,-90.9090909090909,4,2,1,40,0,0
81620,-90.9090909090909,4,2,100,40,0,0
81791,-90.9090909090909,4,2,1,40,0,0
82134,-90.9090909090909,4,2,50,30,0,0
82305,-90.9090909090909,4,2,1,45,0,0
85048,-90.9090909090909,4,2,1,50,0,0
86420,-90.9090909090909,4,2,100,50,0,0
86762,-90.9090909090909,4,2,1,50,0,0
86848,-90.9090909090909,4,2,50,50,0,0
87105,-90.9090909090909,4,2,2,50,0,0
87277,-90.9090909090909,4,2,100,50,0,0
87448,-90.9090909090909,4,2,1,50,0,0
87791,-125,4,2,1,55,0,0
90191,-125,4,2,1,30,0,0
90534,-125,4,2,1,57,0,0
91134,-125,4,2,1,37,0,0
91562,-125,4,2,1,57,0,0
93277,-125,4,2,1,25,0,0
93962,-125,4,2,1,30,0,0
94648,-125,4,2,1,35,0,0
95334,-125,4,2,1,40,0,0
96020,-100,4,2,1,70,0,0
96105,-100,4,2,1,5,0,0
96191,-100,4,2,1,70,0,0
96447,-100,4,2,1,5,0,0
96534,-100,4,2,1,70,0,0
96619,-100,4,2,1,5,0,0
96705,-100,4,2,1,70,0,0
96790,-100,4,2,1,5,0,0
96877,-100,4,2,1,70,0,0
96962,-100,4,2,1,5,0,0
97048,-100,4,2,1,70,0,0
97391,-76.9230769230769,4,2,1,80,0,0
98420,-114.942528735632,4,2,1,60,0,0
98677,-114.942528735632,4,2,1,5,0,0
98762,-83.3333333333333,4,2,4,70,0,0
98848,-83.3333333333333,4,2,100,70,0,0
99019,-83.3333333333333,4,2,100,5,0,0
99105,-83.3333333333333,4,2,100,70,0,0
100391,-83.3333333333333,4,2,100,5,0,0
100477,-83.3333333333333,4,2,100,70,0,0
101762,-83.3333333333333,4,2,100,5,0,0
101848,-83.3333333333333,4,2,100,70,0,0
103134,-83.3333333333333,4,2,100,5,0,0
103220,-83.3333333333333,4,2,100,70,0,0
104505,-83.3333333333333,4,2,100,5,0,0
104591,-83.3333333333333,4,2,100,70,0,0
105877,-83.3333333333333,4,2,100,5,0,0
105963,-83.3333333333333,4,2,100,70,0,0
109734,-83.3333333333333,4,2,100,40,0,0
109905,-83.3333333333333,4,2,100,70,0,0
110077,-83.3333333333333,4,2,5,70,0,0
110162,-83.3333333333333,4,2,100,70,0,0
112134,-83.3333333333333,4,2,50,60,0,0
112477,-83.3333333333333,4,2,100,70,0,0
118991,-83.3333333333333,4,2,1,70,0,0
119162,-83.3333333333333,4,2,100,70,0,0

[Colours]
Combo1 : 21,251,141
Combo2 : 159,64,255
Combo3 : 255,106,255
Combo4 : 255,140,85

[HitObjects]
375,195,20,6,0,B|344:187|333:156|333:156|374:285,2,192,0|0|0,3:0|3:0|0:0,0:0:0:0:
372,281,2420,6,0,P|336:250|289:248,2,96,8|0|0,2:0|0:0|1:0,0:0:0:0:
372,281,3277,1,0,1:0:0:0:
372,281,3791,1,0,1:0:0:0:
235,325,4134,6,0,B|312:301|312:301|314:298|314:298|371:281,1,144,8|8,2:3|2:3,0:0:0:0:
235,325,4648,2,0,B|312:301|312:301|314:298|314:298|371:281,1,144,8|0,2:3|2:0,0:0:0:0:
378,287,4991,1,0,1:0:0:0:
422,349,5162,2,0,B|462:325|462:325|452:276,1,96,8|0,2:0|0:0,0:0:0:0:
419,31,5505,5,0,3:0:0:0:
419,31,5848,1,0,3:0:0:0:
503,189,6191,2,0,B|446:120|366:125|366:125|347:154|313:160,1,201.599993847656,8|0,2:0|2:0,0:0:0:0:
333,146,6534,2,0,P|316:106|336:145,1,134.399995898438
307,264,6962,6,0,B|270:206|334:172|334:182|390:129|345:83,2,201.599993847656
307,264,8077,1,2,2:0:0:0:
299,270,8162,2,0,P|284:247|246:228,1,67.1999979492188,2|0,2:0|1:0,0:0:0:0:
249,228,8762,1,0,1:0:0:0:
265,148,9105,6,0,P|237:205|174:199,1,134.399995898438,0|0,0:0|1:0,0:0:0:0:
137,137,9620,6,0,L|150:71,1,67.1999979492188,0|0,3:0|0:0,0:0:0:0:
106,302,9962,1,8,2:0:0:0:
106,302,10305,5,0,3:0:0:0:
249,228,10477,5,8,2:3:0:0:
380,266,10648,5,8,3:0:0:0:
398,346,10820,5,8,3:0:0:0:
473,199,10991,6,0,P|457:153|480:109,1,96,4|0,3:2|0:0,0:0:0:0:
395,62,11334,2,0,P|426:25|476:23,1,96,0|0,3:0|0:0,0:0:0:0:
473,198,11677,2,0,P|381:226|302:280,1,192,8|0,2:0|0:0,0:0:0:0:
196,90,12191,2,0,P|265:155|351:196,1,192,8|0,2:0|0:0,0:0:0:0:
255,195,12705,2,0,P|218:223|221:269,1,96,0|0,3:0|0:0,0:0:0:0:
218,374,13048,6,0,B|184:318|224:277|227:296|285:256|254:193,1,201.599993847656,8|0,2:0|2:0,0:0:0:0:
248,197,13391,2,0,P|255:222|272:233,1,38.4,8|0,2:0|2:0,0:0:0:0:
327,339,13562,2,0,P|352:345|370:336,1,38.4,0|0,3:0|2:0,0:0:0:0:
455,373,13734,6,0,P|399:324|326:338,1,153.6,0|0,3:0|3:0,0:0:0:0:
493,241,14248,1,0,0:0:0:0:
430,165,14420,2,0,B|450:273|450:273|440:295,2,134.399995898438,8|0|0,2:0|0:0|0:0,0:0:0:0:
487,59,14934,6,0,L|500:30,3,32,2|0|0|0,3:2|0:0|0:0|0:0,0:0:0:0:
430,165,15277,1,0,3:0:0:0:
493,241,15448,1,0,3:0:0:0:
454,255,15534,1,0,3:0:0:0:
440,295,15620,1,0,3:0:0:0:
501,362,15791,6,0,B|485:366|485:366|426:322|359:314,1,153.6,8|0,2:0|3:0,0:0:0:0:
323,382,16048,2,0,B|311:370|311:370|320:297|293:235,1,153.6,8|0,2:0|2:0,0:0:0:0:
220,244,16305,2,0,B|224:228|224:228|257:217|285:186,1,76.8,0|0,1:0|1:0,0:0:0:0:
365,76,16477,6,0,P|413:73|456:106,1,96,4|0,3:2|0:0,0:0:0:0:
433,176,16820,2,0,P|385:179|342:146,1,96,0|0,3:0|0:0,0:0:0:0:
506,151,17163,2,0,P|414:169|355:242,1,192,8|0,2:0|0:0,0:0:0:0:
297,13,17677,2,0,P|358:84|451:98,1,192,8|0,2:0|0:0,0:0:0:0:
428,12,18191,2,0,P|385:32|364:75,1,96,0|0,3:0|0:0,0:0:0:0:
338,321,18534,2,0,B|380:330|391:363|391:363|380:330|409:296,1,144,8|0,2:0|2:0,0:0:0:0:
355,242,19048,1,0,3:0:0:0:
461,345,19220,6,0,P|378:299|286:272,1,192,0|0,3:0|3:0,0:0:0:0:
355,242,19734,1,0,0:0:0:0:
159,336,19905,6,0,P|139:306|142:270,1,72.0000027465821,10|0,2:0|2:0,0:0:0:0:
230,323,20077,2,0,P|233:287|214:258,1,72.0000027465821,2|0,3:2|2:0,0:0:0:0:
169,175,20248,2,0,P|224:216|292:198,1,144.000005493164,14|8,2:0|2:3,0:0:0:0:
295,192,20505,1,8,2:3:0:0:
293,184,20591,1,0,0:0:0:0:
229,323,20762,6,0,P|161:299|89:291,1,144.000005493164,8|0,2:0|3:0,0:0:0:0:
89,291,21105,2,0,P|115:267|126:233,1,72.0000027465821,0|2,0:0|2:1,0:0:0:0:
149,104,21277,2,0,B|138:134|173:169|173:169|215:149|218:117,1,144.000005493164,8|0,2:0|0:0,0:0:0:0:
220,110,21534,1,0,0:0:0:0:
228,109,21620,6,0,P|88:150|18:181,1,216.000008239746,0|2,0:0|2:3,0:0:0:0:
23,178,21962,1,4,2:0:0:0:
150,298,27448,5,4,2:0:0:0:
150,298,27620,1,0,3:0:0:0:
219,338,27791,1,0,1:0:0:0:
219,338,27962,1,0,0:0:0:0:
275,234,28134,5,0,1:0:0:0:
275,234,28306,1,0,3:0:0:0:
337,194,28477,1,0,1:0:0:0:
337,194,28648,1,0,0:0:0:0:
448,328,28820,5,0,1:0:0:0:
467,253,28992,1,0,3:0:0:0:
451,333,29163,1,0,1:0:0:0:
471,257,29334,1,0,0:0:0:0:
337,194,29506,5,0,1:0:0:0:
318,119,29678,1,0,3:0:0:0:
334,199,29849,1,0,1:0:0:0:
314,123,30020,1,0,0:0:0:0:
479,116,30191,6,0,P|469:138|463:161,3,48,4|0|0|0,2:0|3:0|3:0|3:0,0:0:0:0:
382,209,30534,2,0,P|359:199|336:193,3,48,8|2|0|2,2:0|2:3|1:0|2:3,0:0:0:0:
314,123,30877,1,8,2:0:0:0:
323,117,30963,1,0,3:0:0:0:
331,109,31048,2,0,P|321:86|316:52,1,57.5999982421876,0|0,3:0|3:0,0:0:0:0:
256,5,31220,2,0,P|233:14|199:20,2,57.5999982421876,8|2|0,2:0|1:0|1:0,0:0:0:0:
216,245,31562,6,0,P|165:188|143:261,1,187.199991430664,4|0,1:2|2:0,0:0:0:0:
177,326,31905,2,0,B|196:330|201:345|201:345|196:330|209:315,3,62.3999971435548
216,245,32248,6,0,P|161:171|142:261,1,230.4,4|0,1:2|2:0,0:0:0:0:
100,321,32591,2,0,P|209:300|281:383,1,230.4,8|0,2:0|2:0,0:0:0:0:
273,384,32934,6,0,B|278:298|356:359|368:259,1,153.6,4|0,1:2|0:0,0:0:0:0:
384,175,33277,2,0,B|446:188|460:250|460:250|446:188|505:147,2,230.4,10|2|2,2:1|2:1|3:1,0:0:0:0:
429,91,33962,2,0,B|427:161|374:158|379:156|332:180|341:235,1,172.799994726563,10|2,2:1|2:0,0:0:0:0:
365,273,34305,2,0,P|420:281|454:326,1,115.199996484375,0|0,1:0|0:0,0:0:0:0:
273,384,34648,6,0,P|263:302|243:231,1,115.199996484375,10|0,2:1|0:0,0:0:0:0:
225,227,34905,2,0,P|291:177|342:124,1,115.199996484375,2|2,2:1|2:3,0:0:0:0:
365,143,35162,2,0,P|403:159|438:168,1,57.5999982421876,2|0,3:1|2:0,0:0:0:0:
460,224,35334,1,10,2:1:0:0:
380,243,35505,5,2,2:0:0:0:
380,243,35677,2,0,P|396:158|429:78,1,172.799994726563,0|2,3:0|2:0,0:0:0:0:
421,66,36020,2,0,B|407:9|324:17|324:17|303:40|271:34,1,172.799994726563,8|2,2:0|3:1,0:0:0:0:
130,140,36534,1,2,3:1:0:0:
130,140,36620,1,2,2:0:0:0:
130,140,36705,2,0,P|194:143|223:85,1,115.199996484375,8|0,1:0|0:0,0:0:0:0:
276,34,37048,6,0,P|255:117|243:203,1,172.799994726563,0|2,3:0|2:0,0:0:0:0:
236,217,37391,1,8,2:0:0:0:
191,276,37562,2,0,P|197:303|201:332,1,57.5999982421876,0|0,3:0|3:0,0:0:0:0:
274,379,37734,1,0,3:0:0:0:
280,368,37820,1,0,1:0:0:0:
291,364,37905,2,0,P|348:369|404:381,2,115.199996484375,2|10|2,3:1|2:1|1:0,0:0:0:0:
99,300,38420,6,0,P|152:314|191:276,1,115.199996484375,4|0,1:2|0:0,0:0:0:0:
260,149,38762,2,0,B|309:138|297:204|369:202|380:141|425:169,2,172.799994726563,10|2|2,2:1|2:1|3:1,0:0:0:0:
199,195,39448,2,0,P|119:172|59:229,1,172.799994726563,10|2,2:1|2:0,0:0:0:0:
59,239,39791,2,0,B|54:179|-1:203|-1:136,1,115.199996484375,0|0,1:0|0:0,0:0:0:0:
120,39,40134,6,0,P|164:85|218:84,1,115.199996484375,10|0,2:1|0:0,0:0:0:0:
216,93,40391,2,0,P|277:77|303:30,1,115.199996484375,2|2,2:1|2:3,0:0:0:0:
306,29,40647,2,0,P|326:9|354:8,1,57.5999982421876,2|0,3:1|2:0,0:0:0:0:
425,33,40819,1,10,2:1:0:0:
377,138,40991,6,0,L|386:194,2,57.5999982421876,2|2|0,2:0|2:0|3:0,0:0:0:0:
354,8,41334,1,2,1:3:0:0:
377,138,41505,2,0,B|354:278|354:278|321:316,1,172.799994726563,10|0,2:1|1:0,0:0:0:0:
329,308,41848,1,2,1:2:0:0:
253,273,42020,1,2,1:2:0:0:
218,349,42191,1,8,2:0:0:0:
294,384,42362,1,0,3:0:0:0:
218,349,42534,6,0,P|164:327|108:315,1,115.199996484375,0|2,3:0|3:1,0:0:0:0:
94,305,42791,1,0,3:0:0:0:
95,287,42877,1,8,2:0:0:0:
166,225,43047,2,0,P|169:253|176:281,2,57.5999982421876,2|8|8,3:1|3:0|2:3,0:0:0:0:
104,179,43391,1,0,0:0:0:0:
104,179,43477,1,2,2:0:0:0:
104,179,43562,2,0,B|120:79|182:132|186:32,1,172.799994726563,8|0,2:0|2:0,0:0:0:0:
180,30,43905,6,0,L|291:0,1,115.199996484375,4|0,1:2|0:0,0:0:0:0:
384,69,44248,2,0,B|411:121|411:121|292:80,2,172.799994726563,10|2|2,2:1|2:1|3:1,0:0:0:0:
291,0,44933,2,0,B|289:70|236:67|241:65|194:89|203:144,1,172.799994726563,10|2,2:1|2:0,0:0:0:0:
199,150,45276,2,0,B|232:196|232:196|278:160,1,115.199996484375,0|0,1:0|0:0,0:0:0:0:
384,69,45620,6,0,L|403:182,1,115.199996484375,10|0,2:1|0:0,0:0:0:0:
406,197,45877,2,0,L|317:270,1,115.199996484375,2|2,2:1|2:3,0:0:0:0:
306,284,46134,2,0,L|252:263,1,57.5999982421876,2|0,3:1|2:0,0:0:0:0:
175,240,46305,1,10,2:1:0:0:
106,296,46477,5,2,2:0:0:0:
106,296,46648,2,0,P|82:345|27:352,1,115.199996484375,0|2,3:0|2:0,0:0:0:0:
23,225,46991,2,0,P|102:258|187:274,1,172.799994726563,10|0,2:1|3:0,0:0:0:0:
269,185,47505,1,0,3:0:0:0:
269,185,47591,1,0,3:0:0:0:
269,185,47677,2,0,B|285:149|320:156|320:156|283:164|281:204,1,115.199996484375,8|0,1:0|0:0,0:0:0:0:
281,275,48019,6,0,P|252:198|164:186,1,172.799994726563,0|2,3:0|2:0,0:0:0:0:
169,183,48362,1,8,2:0:0:0:
156,99,48533,2,0,P|162:70|166:42,1,57.5999982421876,0|0,3:0|3:0,0:0:0:0:
270,45,48705,1,0,3:0:0:0:
276,56,48791,1,0,1:0:0:0:
283,66,48877,2,0,P|270:122|262:179,2,115.199996484375,2|10|2,3:1|2:1|1:0,0:0:0:0:
362,30,49391,6,0,P|435:26|455:80,1,115.199996484375,4|0,1:2|0:0,0:0:0:0:
458,169,49734,2,0,B|492:27|492:27|512:9,2,172.799994726563,10|2|2,2:1|2:1|3:1,0:0:0:0:
426,296,50419,2,0,P|365:352|286:329,1,172.799994726563,10|2,2:1|2:0,0:0:0:0:
281,318,50762,2,0,P|238:282|183:294,1,115.199996484375,0|0,1:0|0:0,0:0:0:0:
94,345,51105,6,0,B|74:294|58:269|58:269|64:238,1,115.199996484375,10|0,2:1|0:0,0:0:0:0:
66,230,51362,2,0,B|100:187|113:160|113:160|143:151,1,115.199996484375,2|2,2:1|2:3,0:0:0:0:
150,155,51620,2,0,P|190:170|216:163,1,57.5999982421876,2|0,3:1|2:0,0:0:0:0:
269,216,51791,2,0,P|319:191|344:140,1,115.199996484375,10|2,2:1|2:0,0:0:0:0:
355,22,52134,6,0,P|249:58|178:71,1,172.799994726563,0|2,3:0|2:0,0:0:0:0:
182,72,52477,2,0,P|145:50|125:57,1,57.5999982421876,8|8,1:0|2:3,0:0:0:0:
85,0,52648,2,0,P|47:21|43:41,1,57.5999982421876,0|8,1:0|2:3,0:0:0:0:
70,147,52820,5,2,1:2:0:0:
93,220,52991,1,10,1:2:0:0:
116,293,53162,1,8,2:0:0:0:
139,366,53334,1,8,3:1:0:0:
133,365,53505,2,0,B|224:386|237:311|227:318|245:229|339:259,1,259.199992089844,0|2,0:0|2:0,0:0:0:0:
438,244,54191,5,8,0:0:0:0:
438,244,54277,1,0,0:0:0:0:
438,244,54362,2,0,L|444:201,2,43.1999986816407,2|2|2,2:0|2:0|2:0,0:0:0:0:
459,119,54705,2,0,L|465:76,1,43.1999986816407,0|2,3:0|2:0,0:0:0:0:
475,0,54877,6,0,P|428:42|384:19,1,105.600003222656,4|0,3:2|0:0,0:0:0:0:
348,91,55220,1,8,2:0:0:0:
348,91,55391,1,0,3:0:0:0:
443,201,55562,2,0,P|350:168|269:166,1,158.400004833985,2|2,3:1|2:1,0:0:0:0:
283,173,55905,2,0,P|257:202|237:202,1,52.8000016113282,8|0,2:0|2:0,0:0:0:0:
91,228,56077,6,0,B|73:175|73:175|108:140,1,105.600003222656,2|0,3:1|3:0,0:0:0:0:
108,140,56420,1,0,3:0:0:0:
172,239,56591,2,0,B|207:204|207:204|189:151,1,105.600003222656,8|2,2:0|2:0,0:0:0:0:
187,144,56848,1,0,3:0:0:0:
184,136,56934,1,0,0:0:0:0:
203,63,57105,1,0,3:0:0:0:
342,0,57277,2,0,P|391:18|443:26,1,105.600003222656,8|2,2:0|2:0,0:0:0:0:
512,91,57620,6,0,P|439:81|415:151,1,158.400004833985,0|0,3:0|2:0,0:0:0:0:
428,166,57962,2,0,B|339:150|371:226|275:199,1,158.400004833985,8|0,2:0|3:0,0:0:0:0:
264,212,58305,2,0,P|270:238|274:264,1,52.8000016113282,2|0,1:0|2:0,0:0:0:0:
351,339,58477,2,0,P|355:312|360:287,1,52.8000016113282,0|0,3:0|2:0,0:0:0:0:
257,361,58648,1,10,2:1:0:0:
257,361,58820,1,2,2:0:0:0:
165,320,58991,6,0,B|130:260|61:287|61:287|88:320,1,158.400004833985,0|2,3:0|2:0,0:0:0:0:
82,326,59334,2,0,B|69:244|156:268|131:178,1,158.400004833985,8|0,2:0|3:0,0:0:0:0:
126,176,59677,1,0,1:0:0:0:
1,188,59848,2,0,L|52:197,1,52.8000016113282,0|0,0:0|2:0,0:0:0:0:
165,320,60020,2,0,P|221:268|297:278,1,158.400004833985,8|2,2:0|2:3,0:0:0:0:
310,282,60362,6,0,P|352:235|329:191,1,105.600003222656,4|0,3:2|0:0,0:0:0:0:
284,146,60705,1,8,2:0:0:0:
284,146,60876,1,0,3:0:0:0:
365,74,61047,2,0,P|272:107|191:109,1,158.400004833985,2|2,3:1|2:1,0:0:0:0:
205,121,61390,2,0,P|176:95|176:75,1,52.8000016113282,8|0,2:0|2:0,0:0:0:0:
204,10,61562,6,0,B|165:46|165:46|116:27,1,105.600003222656,2|0,3:1|3:0,0:0:0:0:
55,87,61905,1,0,3:0:0:0:
207,19,62077,2,0,B|168:55|168:55|119:36,1,105.600003222656,8|2,2:0|2:0,0:0:0:0:
108,30,62333,1,0,3:0:0:0:
95,27,62419,1,0,0:0:0:0:
142,147,62590,1,0,3:0:0:0:
189,267,62762,2,0,P|174:335|171:386,1,105.600003222656,8|2,2:0|2:0,0:0:0:0:
44,205,63105,6,0,P|69:136|142:147,1,158.400004833985,0|0,3:0|2:0,0:0:0:0:
151,168,63447,2,0,B|149:90|225:122|219:28,1,158.400004833985,8|0,2:0|3:0,0:0:0:0:
226,21,63790,2,0,P|200:15|174:11,1,52.8000016113282,2|0,1:0|2:0,0:0:0:0:
246,113,63962,2,0,P|272:107|298:103,1,52.8000016113282,0|0,3:0|2:0,0:0:0:0:
349,29,64134,2,0,P|399:18|442:57,1,105.600003222656,10|2,2:1|2:0,0:0:0:0:
479,117,64477,5,0,3:0:0:0:
479,117,64648,1,0,3:0:0:0:
407,200,64820,2,0,P|357:216|321:254,1,105.600003222656,8|0,2:0|0:0,0:0:0:0:
313,257,65077,2,0,P|302:308|317:358,1,105.600003222656,0|0,3:0|3:0,0:0:0:0:
314,369,65334,1,0,0:0:0:0:
217,329,65505,1,12,2:0:0:0:
217,329,65677,1,0,3:0:0:0:
60,384,65849,6,0,P|18:337|41:293,1,105.600003222656
108,230,66192,1,4,3:2:0:0:
108,230,66363,1,0,3:2:0:0:
22,200,66535,2,0,P|100:192|174:163,1,158.400004833985,2|2,3:1|2:1,0:0:0:0:
177,152,66878,2,0,P|190:129|214:121,1,52.8000016113282,8|0,2:0|2:0,0:0:0:0:
275,79,67048,6,0,L|261:183,1,105.600003222656,2|0,3:1|3:0,0:0:0:0:
144,56,67392,1,0,3:0:0:0:
288,67,67562,2,0,L|274:171,1,105.600003222656,8|2,2:0|2:0,0:0:0:0:
276,180,67820,1,0,3:0:0:0:
276,188,67906,1,0,0:0:0:0:
326,234,68078,1,0,3:0:0:0:
471,152,68249,2,0,B|419:143|419:143|375:173,1,105.600003222656,8|2,2:0|2:0,0:0:0:0:
288,317,68591,6,0,P|210:331|137:363,1,158.400004833985,0|0,3:0|2:0,0:0:0:0:
108,384,68934,2,0,B|124:295|48:327|75:231,1,158.400004833985,8|0,2:0|3:0,0:0:0:0:
70,229,69278,2,0,P|78:204|100:190,1,52.8000016113282,2|0,1:0|2:0,0:0:0:0:
110,94,69448,2,0,P|135:88|158:100,1,52.8000016113282,0|0,3:0|2:0,0:0:0:0:
251,114,69620,1,10,2:1:0:0:
251,114,69791,1,2,2:0:0:0:
374,22,69962,6,0,B|350:150|350:150|378:194,1,158.400004833985,0|2,3:0|2:0,0:0:0:0:
387,199,70306,2,0,P|311:188|254:240,1,158.400004833985,8|0,2:0|3:0,0:0:0:0:
249,264,70648,2,0,L|242:334,2,70.4000021484376,0|2|2,1:0|2:0|2:0,0:0:0:0:
191,152,70992,2,0,B|110:139|134:226|53:204,1,158.400004833985,8|2,2:0|2:0,0:0:0:0:
30,192,71335,6,0,P|20:142|59:110,1,105.600003222656,4|0,3:2|0:0,0:0:0:0:
130,72,71678,1,8,2:0:0:0:
130,72,71849,1,0,3:0:0:0:
191,152,72020,2,0,P|162:225|154:304,1,158.400004833985,2|2,3:1|2:1,0:0:0:0:
146,325,72363,2,0,P|117:299|117:279,1,52.8000016113282,8|0,2:0|2:0,0:0:0:0:
199,232,72534,6,0,P|247:211|299:204,1,105.600003222656,2|0,3:1|3:0,0:0:0:0:
362,248,72878,1,0,3:0:0:0:
230,345,73048,2,0,P|282:337|330:317,1,105.600003222656,8|2,2:0|2:0,0:0:0:0:
330,317,73306,1,0,3:0:0:0:
330,317,73392,1,0,0:0:0:0:
293,384,73563,1,0,3:0:0:0:
146,325,73735,2,0,P|104:293|50:310,1,105.600003222656,8|2,2:0|2:0,0:0:0:0:
9,361,74077,6,0,B|17:309|54:312|54:307|103:318|110:256,2,158.400004833985,0|0|0,3:0|3:0|3:0,0:0:0:0:
104,174,74762,1,8,2:0:0:0:
146,325,74934,2,0,B|146:266|87:262|83:251|18:271|7:182,1,211.200006445313
127,71,75448,6,0,P|111:121|103:173,1,105.600003222656,0|0,3:0|3:0,0:0:0:0:
95,182,75705,2,0,P|87:156|83:130,1,52.8000016113282,0|0,3:0|0:0,0:0:0:0:
47,66,75877,1,0,3:0:0:0:
47,66,75962,1,0,3:0:0:0:
211,123,76134,6,0,P|88:93|7:192,1,264.000008056641,8|0,2:0|3:0,0:0:0:0:
212,15,76820,1,4,2:0:0:0:
95,253,87791,6,0,P|133:249|161:224,1,76.8,4|0,1:2|0:0,0:0:0:0:
105,177,88134,2,0,B|121:87|121:87|143:68,2,115.2,0|0|0,3:0|3:0|3:0,0:0:0:0:
85,330,88820,1,0,1:0:0:0:
85,330,88991,1,0,0:0:0:0:
198,368,89162,6,0,P|233:353|270:344,1,76.8,0|0,1:0|0:0,0:0:0:0:
374,285,89505,2,0,P|326:291|308:229,2,115.2,0|0|0,3:0|3:0|3:0,0:0:0:0:
453,183,90191,2,0,P|415:192|380:207,1,76.8,8|0,1:2|0:0,0:0:0:0:
490,301,90534,5,0,1:0:0:0:
490,301,90705,1,0,0:0:0:0:
380,207,90877,2,0,P|353:98|342:71,2,115.2,0|2|0,3:0|3:1|0:0,0:0:0:0:
481,97,91562,2,0,P|488:59|499:22,1,76.8,0|2,1:0|2:1,0:0:0:0:
351,95,91905,6,0,P|325:122|288:127,1,76.8,0|0,1:0|0:0,0:0:0:0:
282,230,92248,2,0,P|245:220|222:190,1,76.8,0|0,3:0|0:0,0:0:0:0:
222,190,92505,1,2,3:1:0:0:
222,190,92591,1,0,0:0:0:0:
165,128,92762,1,0,3:0:0:0:
95,171,92934,2,0,P|35:155|3:151,1,76.8,8|2,1:2|2:1,0:0:0:0:
122,28,93277,6,0,L|134:74,3,38.4,0|0|0|0,1:0|3:0|3:0|3:0,0:0:0:0:
175,90,93620,2,0,L|162:135,3,38.4,0|0|0|0,3:0|3:0|3:0|3:0,0:0:0:0:
189,170,93962,2,0,L|155:203,3,38.4,0|0|0|0,3:0|3:0|3:0|3:0,0:0:0:0:
161,246,94305,2,0,L|115:258,3,38.4,0|0|0|0,3:0|3:0|3:0|3:0,0:0:0:0:
102,295,94648,5,0,3:0:0:0:
176,323,94820,1,0,3:0:0:0:
250,351,94991,1,0,3:0:0:0:
324,379,95162,1,0,3:0:0:0:
331,376,95248,1,0,3:0:0:0:
339,373,95334,2,0,P|341:353|344:335,1,38.4,0|0,3:0|3:0,0:0:0:0:
289,276,95505,2,0,P|286:256|283:238,2,38.4,0|0|8,3:0|3:0|3:2,0:0:0:0:
289,276,95848,1,0,3:0:0:0:
388,85,96020,6,0,P|365:93|349:110,1,48,4|0,3:2|2:0,0:0:0:0:
275,117,96191,1,10,2:1:0:0:
275,117,96277,1,0,0:0:0:0:
275,117,96362,2,0,P|271:140|278:163,1,48,8|0,3:2|2:0,0:0:0:0:
215,210,96534,2,0,P|196:194|173:189,1,48,10|0,2:1|2:0,0:0:0:0:
130,128,96705,2,0,P|107:136|91:153,1,48,8|0,3:2|2:0,0:0:0:0:
29,115,96877,2,0,P|32:91|25:68,1,48,10|0,2:1|2:0,0:0:0:0:
57,0,97048,1,8,3:2:0:0:
57,0,97134,1,0,0:0:0:0:
57,0,97220,1,10,2:1:0:0:
130,128,97391,6,0,L|113:251,2,124.79999428711,4|0|0,1:2|0:0|0:0,0:0:0:0:
107,327,98077,2,0,B|120:343|120:343|102:359|101:380|101:380|101:359|90:341|90:341|106:326,1,124.79999428711,4|0,1:2|0:0,0:0:0:0:
130,128,98420,6,0,L|113:251,1,125.280001051392,8|0,2:0|2:0,0:0:0:0:
105,270,98762,6,0,P|158:332|233:280,1,172.799994726563,14|0,3:2|2:0,0:0:0:0:
239,297,99105,1,8,2:0:0:0:
361,346,99277,1,2,2:1:0:0:
375,347,99362,2,0,P|386:262|399:218,2,115.199996484375,0|2|2,3:0|1:0|2:1,0:0:0:0:
380,354,99791,2,0,P|435:359|477:321,1,115.199996484375,8|2,2:0|2:0,0:0:0:0:
445,174,100134,6,0,B|325:204|325:204|313:236|290:235,1,172.799994726563,0|0,3:0|2:0,0:0:0:0:
280,233,100477,1,8,2:0:0:0:
230,113,100648,1,2,2:1:0:0:
223,104,100734,2,0,P|276:87|323:119,2,115.199996484375,0|2|2,3:0|3:1|3:1,0:0:0:0:
173,168,101162,2,0,P|174:197|163:224,2,57.5999982421876,8|2|2,2:0|3:1|3:0,0:0:0:0:
57,70,101505,6,0,B|23:62|11:38|11:38|59:170,1,172.799994726563,0|0,3:0|2:0,0:0:0:0:
51,158,101848,1,8,2:0:0:0:
129,303,102020,1,2,2:1:0:0:
128,317,102105,2,0,P|213:328|257:341,2,115.199996484375,0|2|2,3:0|1:0|2:1,0:0:0:0:
116,298,102534,2,0,P|172:293|200:242,1,115.199996484375,8|2,2:0|2:0,0:0:0:0:
371,127,102877,6,0,B|362:223|295:168|280:262,1,172.799994726563,0|0,3:0|2:0,0:0:0:0:
284,273,103220,1,8,2:0:0:0:
226,147,103391,1,2,2:1:0:0:
233,152,103477,2,0,P|225:94|210:39,2,115.199996484375,0|2|2,3:0|3:1|3:1,0:0:0:0:
291,206,103905,2,0,P|283:233|279:262,2,57.5999982421876,8|2|2,2:0|3:1|3:0,0:0:0:0:
339,32,104248,6,0,P|393:95|473:75,1,172.799994726563,4|0,3:2|2:0,0:0:0:0:
482,68,104591,1,8,2:0:0:0:
291,206,104763,1,2,2:1:0:0:
285,199,104848,2,0,P|229:212|171:217,2,115.199996484375,0|2|2,3:0|1:0|2:1,0:0:0:0:
292,189,105277,2,0,B|305:129|353:169|364:102,1,115.199996484375,8|2,2:0|2:0,0:0:0:0:
212,15,105620,6,0,B|139:58|66:63|66:63|54:76,1,172.799994726563,0|0,3:0|2:0,0:0:0:0:
52,90,105963,1,8,2:0:0:0:
171,217,106134,1,2,2:1:0:0:
178,229,106220,2,0,P|182:282|132:301,2,115.199996484375,0|2|2,3:0|3:1|3:1,0:0:0:0:
132,155,106648,2,0,P|135:126|141:98,2,57.5999982421876,8|2|2,2:0|3:1|3:0,0:0:0:0:
221,305,106991,5,4,3:2:0:0:
293,341,107162,2,0,P|320:331|347:323,2,57.5999982421876,0|0|8,3:0|0:0|2:0,0:0:0:0:
364,249,107505,2,0,P|382:227|402:206,2,57.5999982421876,0|0|0,0:0|1:0|0:0,0:0:0:0:
349,133,107848,2,0,P|346:104|346:75,2,57.5999982421876,0|0|8,1:0|0:0|2:0,0:0:0:0:
241,87,108191,2,0,P|215:74|189:60,1,57.5999982421876,0|2,0:0|2:3,0:0:0:0:
129,17,108362,5,4,3:2:0:0:
58,47,108534,5,0,0:0:0:0:
17,131,108705,5,8,2:0:0:0:
19,228,108877,5,2,3:1:0:0:
104,300,109048,6,0,P|131:308|160:329,3,57.5999982421876,0|2|0|0,0:0|3:1|0:0|1:0,0:0:0:0:
174,323,109391,2,0,P|180:350|176:385,3,57.5999982421876,8|0|0|0,3:2|3:0|3:0|3:0,0:0:0:0:
193,384,109734,5,0,1:0:0:0:
259,342,109905,1,2,2:1:0:0:
382,384,110077,2,0,P|386:302|425:219,1,172.799994726563,4|0,1:2|3:0,0:0:0:0:
433,211,110420,2,0,P|419:152|344:154,1,115.199996484375,0|0,0:0|3:0,0:0:0:0:
234,238,110762,2,0,P|292:255|327:189,1,115.199996484375,8|0,2:0|0:0,0:0:0:0:
228,60,111105,5,0,1:0:0:0:
124,124,111277,1,2,2:1:0:0:
124,124,111362,1,0,3:0:0:0:
124,124,111448,2,0,B|36:102|36:102|45:124,1,115.199996484375,8|2,2:0|2:1,0:0:0:0:
50,133,111705,2,0,B|38:76|99:86|80:25,2,115.199996484375,0|2|0,3:0|2:1|1:0,0:0:0:0:
56,144,112134,1,0,3:0:0:0:
10,249,112305,1,2,2:3:0:0:
90,323,112477,6,0,P|146:326|182:368,1,115.199996484375,0|2,1:0|2:1,0:0:0:0:
329,368,112820,2,0,B|299:237|299:237|320:206,1,172.799994726563,12|0,1:2|3:0,0:0:0:0:
322,211,113162,2,0,P|285:253|229:256,1,115.199996484375,0|0,0:0|3:0,0:0:0:0:
410,251,113505,2,0,L|436:139,1,115.199996484375,8|0,2:0|0:0,0:0:0:0:
345,0,113848,5,0,1:0:0:0:
126,71,114020,1,2,2:1:0:0:
126,71,114105,1,0,3:0:0:0:
125,71,114191,2,0,P|158:25|213:24,1,115.199996484375,8|2,2:0|2:1,0:0:0:0:
224,35,114448,2,0,P|256:80|311:81,2,115.199996484375,0|2|0,3:0|2:1|1:0,0:0:0:0:
228,22,114877,1,0,3:0:0:0:
127,147,115048,1,2,2:3:0:0:
90,218,115220,6,0,P|142:195|198:182,1,115.199996484375,4|2,1:2|2:1,0:0:0:0:
345,314,115562,2,0,B|370:220|444:271|462:191,1,172.799994726563,8|0,1:2|3:0,0:0:0:0:
452,179,115906,2,0,P|400:168|378:217,1,115.199996484375,0|0,0:0|3:0,0:0:0:0:
271,384,116248,2,0,P|257:325|173:299,1,115.199996484375,8|0,2:0|0:0,0:0:0:0:
142,300,116591,5,0,1:0:0:0:
278,234,116763,1,2,2:1:0:0:
278,234,116848,1,0,3:0:0:0:
278,234,116934,2,0,B|292:145|292:145|267:113,1,115.199996484375,8|2,2:0|2:1,0:0:0:0:
270,117,117191,2,0,P|318:74|390:109,1,115.199996484375,0|2,3:0|2:1,0:0:0:0:
227,27,117534,5,0,1:0:0:0:
227,34,117620,2,0,P|174:23|146:13,1,57.5999982421876,0|2,3:0|1:0,0:0:0:0:
135,90,117791,2,0,P|82:101|54:111,1,57.5999982421876,2|2,1:0|1:0,0:0:0:0:
40,173,117962,6,0,P|27:116|6:63,1,115.199996484375,4|0,1:2|0:0,0:0:0:0:
8,57,118220,1,0,0:0:0:0:
11,51,118305,1,8,1:2:0:0:
146,182,118477,2,0,P|135:208|129:236,2,57.5999982421876,0|2|0,0:0|3:1|0:0,0:0:0:0:
17,346,118820,1,0,0:0:0:0:
17,346,118905,1,0,3:0:0:0:
17,346,118991,2,0,P|57:307|113:312,1,115.199996484375,10|2,2:1|2:1,0:0:0:0:
243,371,119334,5,0,1:0:0:0:
331,257,119505,2,0,L|320:342,2,57.5999982421876,0|0|8,1:0|0:0|2:0,0:0:0:0:
145,181,119848,2,0,L|138:124,1,57.5999982421876,0|0,1:0|3:0,0:0:0:0:
204,63,120020,1,8,3:2:0:0:
239,44,120105,1,0,3:0:0:0:
279,40,120191,1,0,3:0:0:0:
317,52,120277,1,0,3:0:0:0:
348,77,120362,2,0,L|355:19,3,57.5999982421876,8|0|0|0,3:2|3:0|3:0|3:0,0:0:0:0:
429,0,120705,5,4,2:0:0:0:
