osu file format v14

[General]
AudioFilename: audio.mp3
AudioLeadIn: 0
PreviewTime: 98677
Countdown: 0
SampleSet: Normal
StackLeniency: 0.2
Mode: 0
LetterboxInBreaks: 0
WidescreenStoryboard: 1

[Editor]
Bookmarks: 54877,76820
DistanceSpacing: 1.3
BeatDivisor: 4
GridSize: 4
TimelineZoom: 1.7

[Metadata]
Title:Hypersonik
TitleUnicode:Hypersonik
Artist:Eagle
ArtistUnicode:Eagle
Creator:Ascended
Version:Otosaka's Extreme
Source:beatmania IIDX 21 SPADA
Tags:kors k korsk BEMANI electronic instrumental neurofunk drum and bass drumandbass dnb drum&bass beatmania iidx infinitas Flask zhuxiaoyan frostwich frostwhich stwi synderes jas CraEZy Otosaka-Yu OtosakaYu Suzuki_1112 Suzuki1112 Jounzan Natteke_desu Natteke desu Nattekedesu EvilElvisV2 Aistre Alphabet Venax NeilPerry Mir Frey dahkjdas Seolv Lukas [_L_u_k_a_s_] [Lukas] -ascended- -_ascended_- Deppyforce jascended
BeatmapID:3811148
BeatmapSetID:1834293

[Difficulty]
HPDrainRate:4
CircleSize:4.5
OverallDifficulty:9
ApproachRate:9.5
SliderMultiplier:2
SliderTickRate:1

[Events]
//Background and Video events
0,0,"hypersonic.jpg",0,0
//Break Periods
//Storyboard Layer 0 (Background)
//Storyboard Layer 1 (Fail)
//Storyboard Layer 2 (Pass)
//Storyboard Layer 3 (Foreground)
//Storyboard Layer 4 (Overlay)
//Storyboard Sound Samples

[TimingPoints]
20,342.857142857143,4,2,0,40,1,0
20,-200,4,2,0,40,0,0
2420,-133.333333333333,4,2,0,40,0,0
2762,-133.333333333333,4,2,0,40,0,0
2848,-133.333333333333,4,2,0,5,0,0
3277,-133.333333333333,4,2,0,40,0,0
3362,-133.333333333333,4,2,0,5,0,0
3791,-133.333333333333,4,2,0,40,0,0
3877,-133.333333333333,4,2,0,5,0,0
4134,-133.333333333333,4,2,0,40,0,0
4391,-100,4,2,0,40,0,0
4648,-83.3333333333333,4,2,0,40,0,0
5162,-66.6666666666667,4,2,0,40,0,0
5505,-200,4,2,0,40,0,0
9962,-133.333333333333,4,2,0,40,0,0
10305,-133.333333333333,4,2,0,55,0,0
10991,-100,4,2,0,55,0,0
15791,-66.6666666666667,4,2,0,55,0,0
16477,-100,4,2,0,55,0,0
19905,-66.6666666666667,4,2,0,55,0,0
21620,-55.5555555555556,4,2,0,55,0,0
24705,-66.6666666666667,4,2,0,60,0,0
24877,-133.333333333333,4,2,0,60,0,0
25220,-66.6666666666667,4,2,0,60,0,0
25391,-133.333333333333,4,2,0,60,0,0
25734,-66.6666666666667,4,2,0,60,0,0
26248,-133.333333333333,4,2,0,60,0,0
26591,-66.6666666666667,4,2,0,60,0,0
26762,-133.333333333333,4,2,0,60,0,0
27105,-66.6666666666667,4,2,0,60,0,0
27448,-66.6666666666667,4,2,0,65,0,0
30191,-100,4,2,0,65,0,0
30362,-83.3333333333333,4,2,0,65,0,0
30534,-71.4285714285714,4,2,0,65,0,0
30705,-62.5,4,2,0,65,0,0
30877,-55.5555555555556,4,2,0,65,0,0
31048,-50,4,2,0,65,0,0
31220,-45.4545454545455,4,2,0,65,0,0
32591,-100,4,2,0,65,0,0
32934,-58.8235294117647,4,1,0,70,0,0
33277,-133.333333333333,4,1,0,70,0,0
33534,-58.8235294117647,4,1,0,70,0,0
34648,-100,4,1,0,70,0,0
34905,-58.8235294117647,4,1,0,70,0,0
35677,-100,4,1,0,70,0,0
36020,-55.5555555555556,4,1,0,70,0,0
36362,-62.5,4,1,0,70,0,0
36705,-52.6315789473684,4,1,0,70,0,0
37048,-100,4,1,0,70,0,0
37391,-66.6666666666667,4,1,0,70,0,0
37905,-58.8235294117647,4,1,0,70,0,0
38762,-100,4,1,0,70,0,0
39020,-58.8235294117647,4,1,0,70,0,0
40134,-100,4,1,0,70,0,0
40391,-58.8235294117647,4,1,0,70,0,0
41334,-50,4,1,0,70,0,0
41505,-45.4545454545455,4,1,0,70,0,0
41848,-58.8235294117647,4,1,0,70,0,0
42705,-50,4,1,0,70,0,0
42877,-45.4545454545455,4,1,0,70,0,0
43048,-66.6666666666667,4,1,0,70,0,0
43220,-55.5555555555556,4,1,0,70,0,0
43562,-50,4,1,0,70,0,0
43905,-58.8235294117647,4,1,0,70,0,0
44248,-100,4,1,0,70,0,0
44505,-58.8235294117647,4,1,0,70,0,0
45620,-100,4,1,0,70,0,0
45877,-58.8235294117647,4,1,0,70,0,0
46648,-100,4,1,0,70,0,0
46991,-55.5555555555556,4,1,0,70,0,0
47334,-62.5,4,1,0,70,0,0
47677,-52.6315789473684,4,1,0,70,0,0
48020,-100,4,1,0,70,0,0
48362,-66.6666666666667,4,1,0,70,0,0
49391,-58.8235294117647,4,1,0,70,0,0
49734,-100,4,1,0,70,0,0
49991,-58.8235294117647,4,1,0,70,0,0
51105,-100,4,1,0,70,0,0
51362,-58.8235294117647,4,1,0,70,0,0
52134,-100,4,2,0,70,0,0
52820,-50,4,2,0,70,0,0
52991,-66.6666666666667,4,2,0,70,0,0
53162,-100,4,2,0,70,0,0
53334,-133.333333333333,4,2,0,70,0,0
53505,-100,4,2,0,70,0,0
54191,-200,4,2,0,70,0,0
54877,-55.5555555555556,4,1,0,70,0,0
55562,-50,4,1,0,70,0,0
57620,-100,4,1,0,70,0,0
57962,-133.333333333333,4,1,0,70,0,0
58305,-40,4,1,0,70,0,0
58991,-133.333333333333,4,1,0,70,0,0
59334,-200,4,1,0,70,0,0
59677,-50,4,1,0,70,0,0
60020,-40,4,1,0,70,0,0
60362,-55.5555555555556,4,1,0,70,0,0
61048,-50,4,1,0,70,0,0
63105,-100,4,1,0,70,0,0
63448,-133.333333333333,4,1,0,70,0,0
63791,-40,4,1,0,70,0,0
64477,-50,4,1,0,70,0,0
65505,-100,4,1,0,70,0,0
66191,-50,4,1,0,70,0,0
68591,-100,4,1,0,70,0,0
68934,-133.333333333333,4,1,0,70,0,0
69620,-40,4,1,0,70,0,0
69962,-133.333333333333,4,1,0,70,0,0
70305,-200,4,1,0,70,0,0
70991,-41.6666666666667,4,1,0,70,0,0
71334,-50,4,1,0,70,0,0
74077,-133.333333333333,4,1,0,70,0,0
74762,-66.6666666666667,4,1,0,70,0,0
74934,-133.333333333333,4,1,0,70,0,0
76562,-200,4,1,0,70,0,0
76905,-200,4,2,0,40,0,0
79562,-133.333333333333,4,2,0,40,0,0
81962,-66.6666666666667,4,2,0,40,0,0
82305,-133.333333333333,4,2,0,45,0,0
84705,-66.6666666666667,4,2,0,45,0,0
85048,-133.333333333333,4,2,0,45,0,0
87791,-100,4,2,0,50,0,0
90534,-100,4,2,0,55,0,0
91905,-100,4,2,0,60,0,0
93277,-100,4,2,0,65,0,0
94648,-100,4,2,0,70,0,0
96020,-45.4545454545455,4,2,0,75,0,0
96191,-50,4,2,0,75,0,0
96362,-55.5555555555556,4,2,0,75,0,0
96534,-62.5,4,2,0,75,0,0
96705,-71.4285714285714,4,2,0,75,0,0
96877,-83.3333333333333,4,2,0,75,0,0
97048,-100,4,2,0,75,0,0
97391,-50,4,2,0,75,0,0
98762,-45.4545454545455,4,1,0,80,0,0
107334,-50,4,1,0,80,0,0
107591,-55.5555555555556,4,1,0,80,0,0
107934,-62.5,4,1,0,80,0,0
108362,-41.6666666666667,4,1,0,80,0,0
109134,-71.4285714285714,4,1,0,80,0,0
109905,-200,4,1,0,80,0,0
110077,-50,4,1,0,80,0,0
110762,-400,4,1,0,80,0,0
111105,-45.4545454545455,4,1,0,80,0,0
112648,-200,4,1,0,80,0,0
112820,-50,4,1,0,80,0,0
113505,-400,4,1,0,80,0,0
113848,-45.4545454545455,4,1,0,80,0,0
115391,-200,4,1,0,80,0,0
115562,-50,4,1,0,80,0,0
116248,-400,4,1,0,80,0,0
116591,-45.4545454545455,4,1,0,80,0,0
117620,-100,4,1,0,80,0,0
117962,-45.4545454545455,4,1,0,80,0,0
119677,-55.5555555555556,4,1,0,80,0,0
120362,-62.5,4,1,0,80,0,0
120791,-62.5,4,1,0,5,0,0

[Colours]
Combo1 : 21,251,141
Combo2 : 159,64,255
Combo3 : 255,106,255
Combo4 : 255,140,85

[HitObjects]
139,346,20,5,4,1:0:0:0:
143,246,362,2,0,L|138:354,1,100,0|0,1:0|3:0,0:0:0:0:
138,345,2420,6,0,B|157:328|157:328|93:324,1,75.0000028610231,0|0,3:0|3:0,0:0:0:0:
100,322,2677,1,0,0:0:0:0:
92,318,2762,6,0,L|98:371,1,37.5000014305115,0|0,3:0|0:0,0:0:0:0:
244,258,3277,6,0,L|250:311,1,37.5000014305115,0|0,3:0|0:0,0:0:0:0:
397,198,3791,6,0,L|403:251,1,37.5000014305115,0|0,3:0|0:0,0:0:0:0:
401,235,4134,2,0,P|359:234|375:196,1,75.0000028610231
364,201,4391,6,0,P|424:231|394:277,1,100
418,261,4648,6,0,P|344:267|369:181,1,179.999994506836
368,182,4991,5,0,3:0:0:0:
495,342,5162,2,0,B|501:241|501:241|491:218|491:218|498:92,1,225.000008583069,8|0,0:0|0:0,0:0:0:0:
508,100,5505,5,4,1:0:0:0:
319,267,5848,2,0,L|431:261,1,100,0|8,1:0|1:0,0:0:0:0:
418,261,8076,5,0,3:0:0:0:
406,259,8162,1,0,3:0:0:0:
393,257,8248,1,0,3:0:0:0:
379,362,8762,5,0,3:0:0:0:
308,170,9105,1,2,3:2:0:0:
294,248,9277,5,0,3:0:0:0:
294,248,9620,6,0,B|266:243|266:243|228:262,1,50,0|0,3:0|0:0,0:0:0:0:
199,326,9962,6,0,P|152:337|86:293,1,112.500004291535,8|0,0:0|0:0,0:0:0:0:
283,371,10305,5,8,0:3:0:0:
301,369,10477,1,8,0:3:0:0:
316,369,10648,1,4,0:3:0:0:
334,367,10820,1,4,0:3:0:0:
459,267,10991,6,0,B|395:258|395:258|425:202,1,100,4|0,1:0|0:0,0:0:0:0:
448,118,11334,1,0,1:0:0:0:
448,118,11505,1,0,0:0:0:0:
425,212,11677,6,0,L|440:351,1,100,8|0,0:0|0:0,0:0:0:0:
448,118,12020,1,0,1:0:0:0:
435,311,12191,6,0,L|424:211,1,100,8|0,0:0|0:0,0:0:0:0:
471,24,12534,1,0,1:0:0:0:
448,118,12705,6,0,B|512:109|512:109|482:53,1,100,0|0,1:0|0:0,0:0:0:0:
424,211,13048,6,0,L|435:311,1,100,8|0,0:0|0:0,0:0:0:0:
286,144,13391,6,0,L|169:137,1,100,8|0,1:0|3:0,0:0:0:0:
178,132,13648,1,0,0:0:0:0:
170,125,13734,6,0,B|205:123|205:123|185:185,1,100,0|0,1:0|0:0,0:0:0:0:
104,161,14077,1,0,1:0:0:0:
104,161,14248,1,0,3:0:0:0:
186,138,14420,6,0,L|286:144,1,100,8|0,0:0|0:0,0:0:0:0:
22,179,14762,1,0,3:0:0:0:
104,161,14934,2,0,L|101:214,2,33.3333333333333,0|0|0,1:0|0:0|0:0,0:0:0:0:
185,197,15105,6,0,B|149:195|149:195|169:257,1,100,0|0,0:0|1:0,0:0:0:0:
188,267,15448,5,0,1:0:0:0:
116,265,15534,1,0,1:0:0:0:
44,262,15620,1,0,1:0:0:0:
44,262,15791,6,0,P|93:259|72:144,1,150.000005722046,8|0,0:0|0:0,0:0:0:0:
148,331,16048,2,0,B|207:352|207:352|178:223,1,150.000005722046,8|0,0:0|0:0,0:0:0:0:
296,293,16305,1,8,0:0:0:0:
328,295,16391,1,8,0:0:0:0:
357,285,16477,6,0,B|355:324|355:324|358:337|358:337|356:388,1,100,4|0,1:2|0:0,0:0:0:0:
475,234,16820,1,0,1:0:0:0:
404,218,16991,1,0,0:0:0:0:
332,199,17162,6,0,L|198:210,1,100,8|0,0:0|0:0,0:0:0:0:
475,234,17505,1,0,1:0:0:0:
232,207,17677,6,0,L|332:199,1,100,8|0,0:0|0:0,0:0:0:0:
404,218,18020,1,0,1:0:0:0:
345,378,18191,6,0,B|346:330|346:330|343:317|343:317|345:278,1,100,0|0,1:0|0:0,0:0:0:0:
273,330,18534,6,0,P|256:340|225:336,1,50,8|0,1:0|0:0,0:0:0:0:
404,218,18791,2,0,P|421:227|433:256,1,50,8|0,0:0|0:0,0:0:0:0:
263,154,19048,2,0,P|262:134|281:109,1,50,0|0,3:0|0:0,0:0:0:0:
270,54,19220,6,0,L|260:187,1,100,0|0,1:0|0:0,0:0:0:0:
249,230,19562,2,0,L|242:330,1,100,0|0,1:0|0:0,0:0:0:0:
283,143,19905,6,0,L|370:136,1,75.0000028610231,12|0,1:2|0:0,0:0:0:0:
154,247,20077,1,0,1:0:0:0:
229,241,20248,6,0,L|142:248,1,75.0000028610231,8|0,1:2|0:0,0:0:0:0:
357,136,20420,1,0,1:0:0:0:
349,209,20505,1,0,1:0:0:0:
335,283,20591,5,0,0:0:0:0:
349,281,20648,1,0,0:0:0:0:
362,279,20705,1,0,0:0:0:0:
374,277,20762,6,0,P|365:335|324:350,1,75.0000028610231,12|0,1:2|0:0,0:0:0:0:
229,241,20934,2,0,L|219:66,1,150.000005722046,0|0,1:0|1:0,0:0:0:0:
294,65,21191,1,0,1:0:0:0:
228,21,21277,6,0,B|211:56|211:56|234:150,1,75.0000028610231,12|0,1:2|0:0,0:0:0:0:
335,283,21448,1,0,0:0:0:0:
341,277,21505,1,0,0:0:0:0:
347,272,21562,1,0,0:0:0:0:
353,267,21620,6,0,B|193:228|241:342|81:291,1,269.999991760254,8|0,1:0|0:0,0:0:0:0:
80,283,21962,5,4,1:0:0:0:
256,192,23334,12,0,24620,0:0:0:0:
478,269,24705,6,0,B|504:296|504:296|517:351,1,75.0000028610231,8|0,0:0|0:0,0:0:0:0:
324,256,24877,6,0,L|379:262,1,37.5000014305115,0|0,1:0|0:0,0:0:0:0:
286,251,25048,2,0,L|341:257,1,37.5000014305115,0|0,1:0|0:0,0:0:0:0:
311,157,25220,6,0,B|321:120|321:120|362:82,1,75.0000028610231,8|0,0:0|0:0,0:0:0:0:
375,295,25392,6,0,L|352:244,1,37.5000014305115,0|0,1:0|0:0,0:0:0:0:
390,329,25563,2,0,L|367:278,1,37.5000014305115,0|0,1:0|0:0,0:0:0:0:
298,357,25734,6,0,B|261:366|261:366|207:349,1,75.0000028610231,8|0,0:0|0:0,0:0:0:0:
405,200,25905,2,0,L|355:266,1,75.0000028610231,0|0,1:0|0:0,0:0:0:0:
34,269,26077,6,0,B|8:296|8:296|0:333,1,75.0000028610231,8|0,0:0|0:0,0:0:0:0:
188,258,26249,6,0,L|150:263,1,37.5000014305115,0|0,1:0|0:0,0:0:0:0:
225,254,26420,2,0,L|187:259,1,37.5000014305115,0|0,1:0|0:0,0:0:0:0:
201,157,26592,6,0,B|191:120|191:120|164:96,1,75.0000028610231,8|0,0:0|0:0,0:0:0:0:
136,296,26762,6,0,L|151:262,1,37.5000014305115,0|0,1:0|0:0,0:0:0:0:
120,331,26935,2,0,L|135:297,1,37.5000014305115,0|0,1:0|0:0,0:0:0:0:
214,357,27106,6,0,B|251:366|251:366|286:355,1,75.0000028610231,8|0,0:0|0:0,0:0:0:0:
106,203,27277,2,0,L|151:263,1,75.0000028610231,0|0,1:0|0:0,0:0:0:0:
499,273,27448,5,12,1:2:0:0:
472,364,27620,1,0,1:0:0:0:
428,198,27791,5,8,1:2:0:0:
402,348,27962,1,0,1:0:0:0:
326,164,28134,5,8,1:2:0:0:
329,342,28305,1,0,1:0:0:0:
216,153,28477,5,8,1:2:0:0:
256,360,28648,1,0,1:0:0:0:
40,20,28820,5,8,1:2:0:0:
13,111,28992,1,0,1:0:0:0:
110,36,29163,5,8,1:2:0:0:
84,186,29334,1,0,1:0:0:0:
183,42,29506,5,8,1:2:0:0:
186,220,29677,1,0,1:0:0:0:
256,24,29849,5,8,1:2:0:0:
296,231,30020,1,0,1:0:0:0:
508,136,30191,6,0,P|486:186|491:213,1,50,12|0,1:2|1:0,0:0:0:0:
465,240,30362,6,0,P|441:187|449:161,1,59.9999981689454,0|0,1:0|1:0,0:0:0:0:
431,87,30534,6,0,P|387:129|385:166,1,69.9999978637696,8|0,1:2|1:0,0:0:0:0:
389,289,30705,6,0,P|345:247|343:202,1,80,0|0,1:0|1:0,0:0:0:0:
365,16,30877,6,0,P|306:53|293:106,1,89.9999972534181,8|0,1:2|1:0,0:0:0:0:
322,360,31048,6,0,P|263:323|250:268,1,100,0|0,1:0|1:0,0:0:0:0:
129,206,31220,5,8,1:2:0:0:
194,218,31305,1,0,1:0:0:0:
261,196,31391,1,0,1:0:0:0:
304,138,31477,1,0,1:0:0:0:
297,69,31562,6,0,B|260:44|260:44|289:162,1,110.000003356934,4|0,1:2|0:0,0:0:0:0:
322,360,31734,2,0,B|412:303|420:154|290:121|294:290|428:337,1,330.000010070801
393,320,32077,2,0,B|438:316|438:316|453:320|453:320|525:310,1,110.000003356934
215,315,32248,6,0,B|252:340|252:340|223:222,1,110.000003356934,4|0,1:2|0:0,0:0:0:0:
127,70,32420,2,0,B|72:89|72:89|60:166,1,110.000003356934
123,364,32591,6,0,B|132:303|132:303|123:277|123:277|132:189,1,150,8|0,1:0|0:0,0:0:0:0:
64,140,32934,6,0,B|10:195|10:195|221:165,1,255.000004863739,6|0,0:0|0:0,0:0:0:0:
244,93,33277,6,0,B|274:91|274:91|284:95|284:95|335:91,1,75.0000028610231,8|0,0:0|0:0,0:0:0:0:
33,9,33534,6,0,P|91:2|127:121,1,170.000003242493,2|0,0:0|0:0,0:0:0:0:
65,217,33791,2,0,B|47:178|47:178|69:125,1,85.0000016212464,2|0,0:0|0:0,0:0:0:0:
220,364,33962,6,0,P|125:325|34:329,1,170.000003242493,8|0,0:0|0:0,0:0:0:0:
244,93,34220,1,0,0:0:0:0:
243,77,34305,6,0,B|313:107|311:201|274:260|158:204|213:134,1,255.000004863739,2|0,0:0|0:0,0:0:0:0:
220,364,34648,6,0,P|295:339|351:347,1,100,8|0,0:0|0:0,0:0:0:0:
512,235,34905,6,0,B|444:230|444:230|414:249|414:249|316:240,1,170.000003242493,2|0,0:0|0:0,0:0:0:0:
290,189,35162,2,0,B|270:208|270:208|258:305,1,85.0000016212464,2|0,0:0|0:0,0:0:0:0:
246,22,35334,6,0,B|280:37|280:37|297:192,1,170.000003242493,8|0,0:0|0:0,0:0:0:0:
310,362,35591,1,0,0:0:0:0:
314,339,35677,6,0,B|212:331|212:331|269:369,1,150,4|0,3:0|0:0,0:0:0:0:
349,111,36020,6,2,P|357:214|222:206,1,269.999991760254,10|0,0:0|0:0,0:0:0:0:
213,208,36362,6,0,B|181:206|181:206|165:214|165:214|104:209,1,80,4|0,3:0|0:0,0:0:0:0:
19,50,36534,5,2,0:0:0:0:
91,68,36620,1,2,0:0:0:0:
161,85,36705,6,2,B|183:33|183:33|79:6|79:6|71:16|71:16|91:181,1,284.999992389679,10|0,0:0|0:0,0:0:0:0:
43,309,37048,6,0,B|145:301|145:301|88:339,1,150,4|0,3:0|0:0,0:0:0:0:
16,168,37391,6,0,L|225:149,1,150.000005722046,8|4,0:0|3:0,0:0:0:0:
230,127,37648,1,4,3:0:0:0:
174,176,37734,5,2,0:0:0:0:
93,174,37820,1,2,0:0:0:0:
16,168,37905,6,0,B|-13:148|-13:148|11:223,1,85.0000016212464,2|0,3:0|0:0,0:0:0:0:
105,327,38077,2,0,B|76:347|76:347|100:272,1,85.0000016212464,8|0,0:0|0:0,0:0:0:0:
230,127,38248,2,0,B|201:107|201:107|225:182,1,85.0000016212464,2|0,3:0|0:0,0:0:0:0:
431,357,38420,6,0,P|313:341|146:334,1,255.000004863739,4|0,0:0|0:0,0:0:0:0:
272,57,38762,6,0,B|302:74|302:74|310:151,1,100,8|0,0:0|0:0,0:0:0:0:
381,132,39020,6,0,P|343:205|240:172,1,170.000003242493,2|0,0:0|0:0,0:0:0:0:
185,209,39277,2,0,B|83:221,1,85.0000016212464,2|0,0:0|0:0,0:0:0:0:
178,334,39448,6,0,B|250:367|250:367|230:254,1,170.000003242493,8|0,0:0|0:0,0:0:0:0:
209,91,39705,1,0,0:0:0:0:
198,79,39791,6,0,L|176:350,1,255.000004863739,2|0,0:0|0:0,0:0:0:0:
49,273,40134,6,0,B|17:231|17:231|49:148,1,100,8|0,0:0|0:0,0:0:0:0:
177,333,40391,6,0,B|70:322|117:405|-64:350,1,170.000003242493,2|0,0:0|0:0,0:0:0:0:
239,379,40648,2,0,P|255:344|237:290,1,85.0000016212464,2|0,0:0|0:0,0:0:0:0:
135,135,40820,6,0,B|242:124|195:207|376:152,1,170.000003242493,8|0,0:0|0:0,0:0:0:0:
355,120,41077,1,0,0:0:0:0:
282,95,41162,5,4,3:0:0:0:
429,0,41334,2,0,B|427:39|427:39|434:53|434:53|429:138,1,100,2|0,3:0|0:0,0:0:0:0:
495,321,41505,6,0,B|385:378|385:378|417:139,1,330.000010070801,8|4,0:0|3:0,0:0:0:0:
426,104,41848,6,0,B|453:116|453:116|529:108,1,85.0000016212464,2|0,3:0|0:0,0:0:0:0:
319,254,42020,2,0,B|346:242|346:242|422:250,1,85.0000016212464,2|0,3:0|0:0,0:0:0:0:
233,133,42191,6,0,B|260:145|260:145|336:137,1,85.0000016212464,8|0,0:0|0:0,0:0:0:0:
116,216,42362,2,0,B|143:204|143:204|219:212,1,85.0000016212464,2|0,3:0|0:0,0:0:0:0:
24,192,42534,5,4,3:0:0:0:
83,384,42705,2,0,B|85:345|85:345|78:331|78:331|83:246,1,100,2|0,3:0|0:0,0:0:0:0:
22,92,42877,6,0,P|92:62|141:92,1,110.000003356934,8|0,0:0|0:0,0:0:0:0:
156,133,43048,6,0,P|137:85|110:67,1,75.0000028610231,4|4,3:0|3:0,0:0:0:0:
22,92,43220,6,0,P|94:91|124:-15,1,179.999994506836,8|8,3:0|3:0,0:0:0:0:
57,21,43477,1,4,3:0:0:0:
22,92,43562,6,0,B|226:69|226:69|136:151,1,300,8|0,0:0|0:0,0:0:0:0:
15,330,43905,6,0,B|77:270|71:168|71:168|85:249|165:274,1,255.000004863739,4|0,0:0|0:0,0:0:0:0:
210,364,44248,6,0,B|172:360|172:360|151:368|151:368|75:360,1,100,8|0,0:0|0:0,0:0:0:0:
14,75,44505,6,0,B|136:89|136:89|173:173,1,170.000003242493,2|0,0:0|0:0,0:0:0:0:
254,264,44762,2,0,B|204:248|220:294|149:266,1,85.0000016212464,2|0,0:0|0:0,0:0:0:0:
228,10,44934,6,0,B|221:56|254:89|254:89|220:122|235:198,1,170.000003242493,8|0,0:0|0:0,0:0:0:0:
172,273,45191,1,0,0:0:0:0:
103,237,45277,6,0,B|216:232|216:232|244:239|244:239|401:227,1,255.000004863739,2|0,0:0|0:0,0:0:0:0:
228,10,45620,6,0,B|170:15|170:15|192:50,1,100,8|0,0:0|0:0,0:0:0:0:
408,112,45877,6,0,P|330:137|272:81,1,170.000003242493,2|0,0:0|0:0,0:0:0:0:
107,56,46134,2,0,L|233:46,1,85.0000016212464,2|0,0:0|0:0,0:0:0:0:
275,175,46305,6,0,B|370:131|319:25|319:25|301:83|205:107,1,255.000004863739,8|0,0:0|0:0,0:0:0:0:
175,197,46648,6,0,B|180:261|180:261|173:281|173:281|179:362,1,150,4|0,3:0|0:0,0:0:0:0:
279,324,46991,6,2,B|296:362|296:362|282:379|282:379|21:360,1,269.999991760254,10|0,0:0|0:0,0:0:0:0:
6,244,47334,6,0,B|-8:281|-8:281|21:340,1,80,2|0,0:2|0:0,0:0:0:0:
175,197,47505,1,2,0:2:0:0:
175,197,47591,1,2,0:2:0:0:
175,197,47677,6,2,B|242:220|242:293|242:293|43:277,1,284.999992389679,10|0,0:0|0:0,0:0:0:0:
9,236,48020,6,0,B|14:172|14:172|7:152|7:152|13:71,1,150,4|0,3:0|0:0,0:0:0:0:
174,196,48362,6,0,P|207:179|223:146,1,75.0000028610231,8|0,0:0|0:0,0:0:0:0:
113,43,48534,2,0,P|125:84|95:129,1,75.0000028610231,4|4,3:0|3:0,0:0:0:0:
8,245,48705,5,8,0:0:0:0:
92,223,48791,1,8,0:0:0:0:
174,196,48877,6,0,B|169:209|169:209|178:293,1,75.0000028610231,4|0,3:0|0:0,0:0:0:0:
306,103,49048,2,0,B|311:116|311:116|302:200,1,75.0000028610231,8|0,0:0|0:0,0:0:0:0:
203,0,49220,2,0,B|198:13|198:13|207:97,1,75.0000028610231,4|0,3:0|0:0,0:0:0:0:
456,235,49391,6,0,P|481:325|351:273,1,255.000004863739,4|0,0:0|0:0,0:0:0:0:
344,330,49734,6,0,B|362:284|362:284|338:206,1,100,8|0,0:0|0:0,0:0:0:0:
270,384,49991,6,0,B|292:284|218:329|261:169,1,170.000003242493,2|0,0:0|0:0,0:0:0:0:
254,84,50248,2,0,B|271:65|261:36|261:36|235:55|257:94,1,85.0000016212464,2|0,0:0|0:0,0:0:0:0:
260,210,50420,6,0,L|258:415,1,170.000003242493,8|0,0:0|0:0,0:0:0:0:
72,245,50677,1,0,0:0:0:0:
56,235,50762,6,0,P|31:325|161:273,1,255.000004863739,2|0,0:0|0:0,0:0:0:0:
134,129,51105,6,0,B|157:162|157:162|145:256,1,100,8|0,0:0|0:0,0:0:0:0:
225,245,51362,6,0,L|-9:231,1,170.000003242493,2|0,0:0|0:0,0:0:0:0:
114,60,51620,2,0,P|181:73|198:99,1,85.0000016212464,2|0,0:0|0:0,0:0:0:0:
155,328,51791,5,8,0:0:0:0:
155,328,51962,2,0,P|88:315|71:289,1,85.0000016212464
244,136,52134,6,0,L|306:128,3,50,4|0|0|0,1:0|0:0|0:0|0:0,0:0:0:0:
373,80,52477,5,8,3:0:0:0:
372,89,52562,1,8,3:0:0:0:
371,98,52648,1,4,3:0:0:0:
370,107,52734,1,4,3:0:0:0:
369,115,52820,6,0,L|481:99,1,100,8|0,1:0|0:0,0:0:0:0:
458,186,52991,6,0,L|379:180,1,75.0000028610231,0|0,1:0|0:0,0:0:0:0:
402,287,53162,6,0,L|448:243,1,50,0|0,1:0|0:0,0:0:0:0:
457,381,53334,6,0,L|431:334,1,37.5000014305115,0|0,1:0|0:0,0:0:0:0:
306,0,53505,6,0,P|309:90|195:68,1,200,0|2,1:0|0:0,0:0:0:0:
217,99,54191,6,0,L|214:75,1,25,8|0,0:0|0:0,0:0:0:0:
244,46,54362,5,2,0:0:0:0:
240,87,54448,1,2,0:0:0:0:
238,117,54534,1,2,0:0:0:0:
255,67,54705,5,2,0:0:0:0:
259,138,54791,1,2,0:0:0:0:
190,183,54877,6,0,P|193:293|333:245,1,269.999991760254,4|0,0:0|0:0,0:0:0:0:
322,82,55220,6,0,B|360:150|360:150|214:132,1,179.999994506836,8|2,0:0|0:2,0:0:0:0:
392,384,55562,6,0,P|474:343|392:246,1,200,2|0,0:0|0:0,0:0:0:0:
322,82,55820,1,0,0:0:0:0:
250,53,55905,2,0,B|234:-4|234:-4|272:10,1,100,8|0,0:0|0:0,0:0:0:0:
408,312,56077,6,0,P|267:280|163:278,2,200,2|2|2,0:0|0:2|0:0,0:0:0:0:
272,9,56591,6,0,P|252:98|138:42,1,200,8|2,0:0|0:0,0:0:0:0:
48,303,56848,2,0,B|34:185|34:185|123:249,1,200,2|0,0:2|0:0,0:0:0:0:
212,276,57105,2,0,B|211:315|211:315|216:334|216:334|211:400,1,100,2|0,0:0|0:0,0:0:0:0:
101,40,57277,6,0,B|9:15|9:15|39:67|39:67|87:52,1,200,8|2,0:0|0:0,0:0:0:0:
172,174,57534,1,0,0:0:0:0:
99,232,57620,6,0,B|104:195|104:195|93:170|93:170|99:143|99:143|95:209,1,150,2|0,0:2|0:0,0:0:0:0:
88,224,57962,6,0,B|86:268|86:268|89:287|89:287|85:342,1,112.500004291535,8|2,0:0|0:2,0:0:0:0:
161,298,58305,6,2,P|69:310|47:201,1,166.666666666667
190,225,58534,1,2,0:0:0:0:
86,337,58648,6,2,B|189:355|234:236|152:175|152:175|93:197|110:302,1,333.333333333333,10|0,0:0|0:0,0:0:0:0:
345,321,58991,6,0,B|354:335|354:335|340:351|340:351|358:367|358:367|367:346|367:346|347:336|347:336|357:302,1,112.500004291535,2|0,0:2|0:0,0:0:0:0:
428,244,59334,6,0,B|427:264|427:264|430:271|430:271|421:278|421:278|417:268|417:268|422:263|422:263|432:246,1,75,8|0,0:0|0:0,0:0:0:0:
237,108,59677,6,2,B|250:137|250:137|234:205|234:205|302:249|302:249|315:172|315:172|274:145,1,300,2|0,0:0|0:0,0:0:0:0:
512,36,60020,6,0,B|465:53|465:53|466:97|466:97|400:162|400:162|426:69|426:69|463:51|463:51|460:-5,1,375,8|0,0:0|0:0,0:0:0:0:
164,242,60362,6,0,B|147:277|147:277|156:293|156:293|367:273,1,269.999991760254,4|0,0:0|0:0,0:0:0:0:
382,88,60705,2,0,P|331:62|308:174,1,179.999994506836,8|2,0:0|0:2,0:0:0:0:
433,335,60962,1,2,0:2:0:0:
433,335,61048,6,0,B|386:282|386:282|418:142,1,200,2|0,0:0|0:0,0:0:0:0:
460,0,61305,1,2,0:2:0:0:
512,41,61391,2,0,B|510:83|510:83|438:64,1,100,8|0,0:0|0:0,0:0:0:0:
281,149,61562,6,0,B|171:169|208:67|38:119,2,200,2|2|2,0:0|0:2|0:0,0:0:0:0:
18,193,62077,6,0,B|-12:134|21:61|21:61|2:106|26:165,1,200,8|2,0:0|0:0,0:0:0:0:
128,243,62334,2,0,B|139:301|139:301|-51:335,1,200,2|0,0:2|0:0,0:0:0:0:
280,371,62591,2,0,B|260:359|260:359|245:283,1,100,2|0,0:0|0:0,0:0:0:0:
134,16,62762,6,0,B|162:-5|162:-5|149:27|149:27|179:183,1,200,8|2,0:0|0:0,0:0:0:0:
94,176,63020,1,0,0:0:0:0:
161,154,63105,6,0,B|191:160|216:151|216:151|248:169|248:169|271:160|306:166,1,150,2|0,0:2|0:0,0:0:0:0:
149,157,63448,6,0,B|108:163|71:152|71:152|79:177|107:178,1,112.500004291535,8|2,0:0|0:2,0:0:0:0:
315,165,63791,6,2,B|370:154|419:176|419:176|377:139|347:145,1,166.666666666667
239,46,64020,1,2,0:0:0:0:
228,269,64134,6,2,P|279:367|326:219,1,333.333333333333,10|0,0:0|0:0,0:0:0:0:
228,269,64477,6,0,P|257:305|302:292,1,100,2|0,0:2|0:0,0:0:0:0:
288,160,64648,2,0,P|325:211|377:250,1,100,2|0,0:2|0:0,0:0:0:0:
373,67,64820,6,0,L|407:194,1,100,8|0,0:0|0:0,0:0:0:0:
481,0,64991,1,2,0:2:0:0:
481,96,65077,1,0,0:0:0:0:
478,195,65162,5,2,0:2:0:0:
478,195,65248,2,2,B|488:116|488:116|472:77|472:77|481:0,1,200,2|0,0:0|0:0,0:0:0:0:
440,268,65505,6,0,B|423:309|423:309|486:294,1,100,8|2,0:0|0:2,0:0:0:0:
477,296,65848,6,0,L|290:286,1,150,4|0,3:0|0:0,0:0:0:0:
201,90,66191,6,0,B|219:137|219:137|201:202,1,100,12|0,0:0|0:0,0:0:0:0:
255,340,66362,2,0,B|241:292|241:292|259:245,1,100,2|0,0:2|0:0,0:0:0:0:
347,24,66534,6,0,B|274:-11|274:-11|293:128,1,200,2|0,0:0|0:0,0:0:0:0:
398,290,66791,1,2,0:2:0:0:
456,218,66877,2,0,B|411:214|411:214|403:216|403:216|340:210,1,100,8|0,0:0|0:0,0:0:0:0:
126,341,67048,6,0,P|229:348|352:372,2,200,2|2|2,0:0|0:2|0:0,0:0:0:0:
28,96,67562,6,0,P|50:211|135:153,1,200,8|2,0:0|0:0,0:0:0:0:
148,6,67820,2,0,B|131:123|131:123|204:88,1,200,2|0,0:2|0:0,0:0:0:0:
245,251,68077,2,0,B|186:238|204:292|110:257,1,100,2|0,0:0|0:0,0:0:0:0:
289,169,68248,6,0,P|387:151|487:144,1,200,8|2,0:0|0:0,0:0:0:0:
366,0,68505,1,2,0:2:0:0:
366,0,68591,6,0,B|417:38|388:115|313:85|341:16,1,150,2|0,0:2|0:0,0:0:0:0:
400,226,68934,6,0,B|395:293|427:270|424:349,1,112.500004291535,8|2,0:0|0:2,0:0:0:0:
424,348,69277,5,2,0:0:0:0:
476,159,69391,1,2,0:0:0:0:
303,185,69505,1,2,0:0:0:0:
424,348,69620,6,2,B|446:411|530:376|556:299|417:188|298:281,1,333.333333333333,10|0,0:0|0:0,0:0:0:0:
201,321,69962,6,0,B|143:327|143:327|91:292,1,112.500004291535,2|0,0:2|0:0,0:0:0:0:
281,344,70305,6,0,B|317:340|317:340|359:362,1,75,8|2,0:0|0:2,0:0:0:0:
97,313,70648,6,0,L|57:318,1,33.3333333333333
359,341,70877,1,0,0:0:0:0:
139,104,70991,6,2,B|182:132|254:117|254:117|226:209|226:209|175:241|175:241|216:289|190:379,1,359.999989013672,10|0,0:0|0:0,0:0:0:0:
464,41,71334,6,0,B|277:4|277:4|380:63,1,300,4|0,0:0|0:0,0:0:0:0:
445,281,71677,2,0,P|484:239|469:182,1,100,8|0,0:0|0:0,0:0:0:0:
384,70,71848,1,2,0:2:0:0:
512,335,72020,6,0,P|381:298|254:310,1,200,2|0,0:0|0:0,0:0:0:0:
73,315,72277,1,2,0:2:0:0:
138,359,72362,2,0,B|160:315|160:315|132:251,1,100,8|0,0:0|0:0,0:0:0:0:
250,95,72534,6,0,B|243:190|243:190|246:198|246:198|233:334,2,200,2|2|2,0:0|0:2|0:0,0:0:0:0:
443,160,73048,2,0,P|432:250|318:214,1,200,8|2,0:0|0:0,0:0:0:0:
220,372,73305,2,0,L|491:357,1,200,2|0,0:2|0:0,0:0:0:0:
394,96,73562,2,0,L|382:217,1,100,2|0,0:0|0:0,0:0:0:0:
512,57,73734,6,0,L|481:341,1,200,8|0,0:0|0:0,0:0:0:0:
502,277,73991,1,0,0:0:0:0:
402,280,74077,6,0,P|359:272|337:245,1,75.0000028610231,8|0,3:0|0:0,0:0:0:0:
388,26,74334,2,0,P|402:67|390:99,1,75.0000028610231,8|0,3:0|0:0,0:0:0:0:
176,166,74591,1,8,3:0:0:0:
176,166,74762,6,0,P|204:132|238:127,1,75.0000028610231,8|0,0:0|0:0,0:0:0:0:
262,321,74934,6,0,B|224:353|224:353|246:200,1,187.500007152558,2|0,0:2|0:0,0:0:0:0:
300,27,75448,5,8,3:0:0:0:
233,126,75620,1,8,3:0:0:0:
228,102,75705,5,8,3:0:0:0:
134,92,75877,1,8,3:0:0:0:
129,68,75962,5,4,3:0:0:0:
42,168,76134,6,0,B|126:177|126:177|51:204,1,150.000005722046,8|0,0:0|2:0,0:2:0:0:
101,336,76562,6,0,P|73:332|62:289,1,75,2|4,0:2|0:0,0:2:0:0:
256,192,76905,12,0,79562,1:0:0:0:
80,332,79905,6,0,P|135:348|211:362,2,112.500004291535,8|0|0,0:0|1:0|1:0,0:0:0:0:
25,281,80591,1,8,0:0:0:0:
443,262,80934,5,0,1:0:0:0:
443,262,81277,2,0,P|388:278|312:292,1,112.500004291535,8|0,0:0|1:0,0:0:0:0:
249,257,81620,1,0,1:0:0:0:
364,174,81791,1,0,1:0:0:0:
498,211,81962,6,0,P|390:246|219:258,1,225.000008583069,8|0,0:0|0:0,0:0:0:0:
249,257,82305,5,0,1:0:0:0:
249,257,82648,2,0,P|194:241|118:227,2,112.500004291535,8|0|0,0:0|1:0|1:0,0:0:0:0:
304,308,83334,1,8,0:0:0:0:
159,139,83677,5,0,1:0:0:0:
159,139,84020,2,0,P|104:155|28:169,2,112.500004291535,8|0|0,0:0|1:0|1:0,0:0:0:0:
81,323,84705,6,0,P|149:341|111:230,1,225.000008583069,8|0,1:0|0:0,0:0:0:0:
196,318,85048,5,0,1:0:0:0:
196,318,85391,2,0,P|253:316|313:324,1,112.500004291535,8|0,0:0|1:0,0:0:0:0:
375,286,85734,1,0,0:0:0:0:
259,205,85905,1,0,1:0:0:0:
473,156,86077,2,0,P|388:158|310:143,1,150.000005722046,8|0,0:0|1:0,0:0:0:0:
315,143,86477,5,0,0:0:0:0:
308,138,86534,1,0,0:0:0:0:
301,132,86591,1,0,0:0:0:0:
163,119,86762,5,2,3:0:0:0:
190,112,86848,1,2,3:0:0:0:
211,94,86934,2,0,P|242:76|259:71,1,37.5000014305115,8|0,3:0|0:0,0:0:0:0:
299,28,87105,5,2,3:0:0:0:
228,4,87277,1,8,3:0:0:0:
228,4,87362,1,8,3:0:0:0:
228,4,87448,5,2,3:0:0:0:
256,192,87620,1,2,3:0:0:0:
48,319,87791,5,4,1:0:0:0:
77,184,88134,2,0,L|69:354,1,150,8|0,0:0|1:0,0:0:0:0:
48,319,88477,1,0,0:0:0:0:
145,357,88648,1,0,1:0:0:0:
137,375,88734,1,0,0:0:0:0:
230,371,88820,6,0,L|313:363,2,50,8|0|0,0:0|0:0|0:0,0:0:0:0:
478,246,89162,5,0,1:0:0:0:
449,111,89505,2,0,L|457:281,1,150,8|0,0:0|1:0,0:0:0:0:
478,246,89848,1,0,0:0:0:0:
381,284,90019,1,0,1:0:0:0:
389,302,90105,1,0,0:0:0:0:
296,298,90191,6,0,L|213:290,2,50,8|0|0,1:0|0:0|0:0,0:0:0:0:
163,245,90534,6,0,P|126:237|104:139,1,150,0|0,1:0|0:0,0:0:0:0:
122,131,90877,1,8,0:0:0:0:
91,243,91048,2,0,P|67:272|32:290,2,50,0|0|0,0:0|1:0|0:0,0:0:0:0:
189,161,91305,2,0,P|213:132|248:114,2,50,0|0|0,0:0|1:0|0:0,0:0:0:0:
223,224,91562,6,0,L|306:216,2,50,8|0|0,0:0|0:0|0:0,0:0:0:0:
350,171,91905,6,0,P|387:163|409:65,1,150,0|0,1:0|0:0,0:0:0:0:
391,57,92248,1,8,0:0:0:0:
422,169,92419,2,0,P|446:198|481:216,2,50,0|0|0,1:0|1:0|0:0,0:0:0:0:
324,87,92676,2,0,P|300:58|265:40,2,50,0|0|0,0:0|1:0|0:0,0:0:0:0:
290,150,92933,6,0,L|207:142,2,50,8|0|0,0:0|0:0|0:0,0:0:0:0:
155,361,93277,5,12,0:0:0:0:
145,364,93362,1,0,1:0:0:0:
136,361,93448,1,0,1:0:0:0:
132,351,93534,1,0,1:0:0:0:
136,342,93620,1,8,0:0:0:0:
145,338,93705,1,0,1:0:0:0:
155,342,93791,1,0,1:0:0:0:
158,351,93877,1,0,1:0:0:0:
144,351,93962,5,8,0:0:0:0:
179,354,94047,1,0,1:0:0:0:
215,353,94133,1,0,1:0:0:0:
250,349,94219,1,0,1:0:0:0:
285,340,94304,1,8,0:0:0:0:
318,328,94390,1,0,1:0:0:0:
350,312,94476,1,0,1:0:0:0:
380,292,94562,1,0,1:0:0:0:
427,233,94648,5,12,1:2:0:0:
441,236,94733,1,0,1:0:0:0:
455,233,94819,1,0,1:0:0:0:
461,217,94905,1,0,1:0:0:0:
455,203,94991,1,8,0:0:0:0:
441,197,95076,1,0,1:0:0:0:
427,203,95162,1,0,1:0:0:0:
422,217,95248,1,0,1:0:0:0:
442,217,95333,5,8,0:0:0:0:
390,222,95420,1,0,1:0:0:0:
335,219,95504,1,0,1:0:0:0:
282,213,95591,1,0,1:0:0:0:
230,200,95677,1,8,0:0:0:0:
180,182,95761,1,0,1:0:0:0:
131,157,95847,1,0,1:0:0:0:
86,128,95933,1,0,1:0:0:0:
86,41,96020,6,4,P|60:14|38:70,1,110.000003356934,12|0,1:2|0:0,1:2:0:0:
110,360,96191,6,0,P|75:360|86:299,1,100,8|0,1:2|0:0,0:0:0:0:
178,109,96362,6,0,P|138:113|141:168,1,89.9999972534181,8|0,1:2|0:0,0:0:0:0:
252,319,96534,6,0,P|222:331|183:282,1,80,8|0,1:2|0:0,0:0:0:0:
308,152,96705,6,0,P|283:182|289:230,1,69.9999978637696,8|0,1:2|0:0,0:0:0:0:
401,246,96877,6,0,P|384:273|326:268,1,59.9999981689454,8|0,1:2|0:0,0:0:0:0:
403,74,97048,6,0,P|415:132|453:162,1,100,8|8,1:2|1:2,0:0:0:0:
462,154,97305,1,0,0:0:0:0:
478,141,97391,6,0,P|485:171|460:250,1,100,4|0,1:2|0:0,0:0:0:0:
359,351,97562,6,0,B|375:170|375:170|386:215|386:215|342:319,1,300
252,319,97905,2,0,B|236:336|236:336|108:367,1,100
42,146,98077,6,0,P|27:193|34:243,1,100,4|0,1:2|0:0,0:0:0:0:
161,354,98248,2,0,P|176:306|169:257,1,100
27,53,98420,6,0,B|156:94|116:224|116:224|149:238|149:238|140:240|140:240|162:253|162:253|234:297,1,300,8|0,1:0|0:0,0:0:0:0:
428,26,98762,6,0,B|220:49|220:49|362:79,1,330.000010070801,6|2,0:0|0:0,0:0:0:0:
424,202,99105,2,0,P|478:172|483:113,1,110.000003356934,8|0,0:0|0:0,0:0:0:0:
226,284,99277,1,2,0:0:0:0:
296,255,99362,6,0,P|442:226|552:235,2,220.000006713867,2|2|2,0:0|0:0|0:0,0:0:0:0:
342,343,99791,2,0,P|414:365|378:240,1,220.000006713867,10|2,0:0|0:0,0:0:0:0:
213,60,100048,1,0,0:0:0:0:
258,0,100134,6,0,L|240:233,1,220.000006713867,2|0,0:0|0:0,0:0:0:0:
140,345,100391,2,0,P|80:309|82:249,1,110.000003356934,2|8,0:0|0:0,0:0:0:0:
73,93,100562,2,0,P|133:129|131:189,1,110.000003356934,0|2,0:0|0:0,0:0:0:0:
216,350,100734,6,0,P|70:379|-40:370,2,220.000006713867,2|2|2,0:0|0:0|0:0,0:0:0:0:
333,262,101162,1,8,0:0:0:0:
398,299,101248,2,0,P|344:305|292:323,2,110.000003356934,2|2|2,0:0|0:0|0:0,0:0:0:0:
436,377,101505,6,0,B|401:311|425:208|491:243|549:167|492:59,1,330.000010070801,2|2,0:0|0:0,0:0:0:0:
375,123,101848,2,0,P|428:209|466:217,1,110.000003356934,8|0,0:0|0:0,0:0:0:0:
419,51,102020,1,2,0:0:0:0:
430,210,102105,6,0,B|334:246|282:153|282:153|315:35,2,220.000006713867,2|2|2,0:0|0:0|0:0,0:0:0:0:
375,123,102534,2,0,B|311:86|253:121|253:121|229:193|118:179,1,220.000006713867,8|2,0:0|0:0,0:0:0:0:
180,101,102791,1,0,0:0:0:0:
164,26,102877,6,0,B|158:117|158:117|166:149|166:149|156:291,1,220.000006713867,2|0,0:0|0:0,0:0:0:0:
125,318,103134,2,0,B|102:333|102:333|11:340,1,110.000003356934,2|8,0:0|0:0,0:0:0:0:
342,250,103305,2,0,B|319:235|319:235|236:228,1,110.000003356934,0|2,0:0|0:0,0:0:0:0:
79,245,103477,6,0,P|181:256|200:358,2,220.000006713867,2|2|2,0:0|0:0|0:0,0:0:0:0:
89,64,103905,1,8,0:0:0:0:
28,109,103991,2,0,B|-3:140|-3:140|88:127,1,110.000003356934,0|2,0:0|0:0,0:0:0:0:
121,0,104162,1,0,0:0:0:0:
89,64,104248,6,0,B|116:-20|234:-46|351:-6|267:126|184:54,1,330.000010070801,6|2,0:0|0:0,0:0:0:0:
145,235,104591,2,0,P|126:175|173:111,1,110.000003356934,8|0,0:0|0:0,0:0:0:0:
236,228,104762,1,2,0:0:0:0:
51,291,104848,6,0,B|178:274|178:274|230:322|286:285,2,220.000006713867,2|2|2,0:0|0:0|0:0,0:0:0:0:
297,367,105277,2,0,B|274:197|274:197|344:84,1,220.000006713867,10|2,0:0|0:0,0:0:0:0:
405,17,105534,1,0,0:0:0:0:
405,17,105620,6,0,B|428:187|428:187|358:300,1,220.000006713867,2|0,0:0|0:0,0:0:0:0:
190,152,105877,2,0,B|239:156|239:156|253:152|253:152|300:155,1,110.000003356934,2|8,0:0|0:0,0:0:0:0:
512,231,106048,2,0,B|463:227|463:227|449:231|449:231|402:228,1,110.000003356934,0|2,0:0|0:0,0:0:0:0:
152,307,106220,6,0,B|284:280|236:387|401:331,2,220.000006713867,2|2|2,0:0|0:0|0:0,0:0:0:0:
92,167,106648,2,0,P|115:311|107:425,1,220.000006713867,8|2,0:0|0:0,0:0:0:0:
103,377,106905,1,0,0:0:0:0:
93,369,106991,6,0,P|142:277|253:298,1,220.000006713867,6|0,0:0|0:0,0:0:0:0:
103,46,107248,1,2,0:0:0:0:
103,46,107334,6,0,P|193:60|156:171,1,200,10|0,0:0|0:0,0:0:0:0:
384,192,107591,1,2,0:0:0:0:
384,192,107677,6,0,P|288:211|292:132,1,179.999994506836,2|0,0:0|0:0,0:0:0:0:
174,308,107934,1,2,0:0:0:0:
174,308,108020,6,0,P|204:242|243:290,1,160,10|0,0:0|0:0,0:0:0:0:
504,195,108277,1,2,0:0:0:0:
504,195,108362,6,0,B|516:201|538:206|538:206|501:209|501:209|478:194|434:198,1,119.999996337891,6|0,0:0|0:0,0:0:0:0:
414,58,108534,2,0,B|420:46|425:24|425:24|428:61|428:61|413:84|417:128,1,119.999996337891,2|0,0:0|0:0,0:0:0:0:
277,152,108705,2,0,B|265:146|243:141|243:141|280:138|280:138|303:153|347:149,1,119.999996337891,10|0,0:0|0:0,0:0:0:0:
367,289,108877,2,0,B|361:301|356:323|356:323|353:286|353:286|368:263|364:219,1,119.999996337891,2|0,0:0|0:0,0:0:0:0:
368,226,109048,1,0,0:0:0:0:
422,360,109134,6,0,P|319:327|255:325,1,139.999995727539,2|0,0:2|0:0,0:0:0:0:
48,322,109391,5,8,0:0:0:0:
126,319,109477,5,2,0:2:0:0:
179,282,109562,5,8,0:0:0:0:
201,247,109648,5,2,0:2:0:0:
203,214,109734,5,2,0:2:0:0:
20,22,109905,2,0,L|51:22,1,25,2|0,2:0|2:0,2:0:0:0:
66,23,110077,6,0,B|123:-19|123:-19|97:165,1,200,4|0,0:0|0:0,0:0:0:0:
58,188,110334,1,2,0:2:0:0:
9,110,110420,6,0,P|56:96|142:152,1,100,2|0,0:0|0:0,0:0:0:0:
201,247,110591,2,0,P|248:259|296:245,1,100,2|0,0:2|0:0,0:0:0:0:
436,156,110762,6,0,L|405:156,1,25,8|0,0:0|0:0,0:0:0:0:
411,156,111105,6,0,L|398:404,1,220.000006713867,2|0,0:0|0:0,0:0:0:0:
294,370,111362,2,0,B|344:389|344:389|424:369,1,110.000003356934,2|8,0:0|0:0,0:0:0:0:
405,264,111534,2,0,B|460:251|460:251|510:270,1,110.000003356934,0|2,0:0|0:0,0:0:0:0:
292,60,111705,6,0,P|275:161|173:171,2,220.000006713867,2|2|2,0:0|0:0|0:0,0:0:0:0:
292,60,112134,5,10,0:0:0:0:
258,129,112220,1,2,3:0:0:0:
270,201,112305,1,2,0:0:0:0:
329,254,112391,1,2,3:0:0:0:
405,264,112477,5,2,0:0:0:0:
405,264,112648,2,0,L|405:307,1,25,2|0,2:0|2:0,2:0:0:0:
471,345,112820,6,0,B|333:334|333:334|432:372,1,200,8|0,0:0|0:0,0:0:0:0:
484,211,113077,1,2,0:2:0:0:
401,168,113162,6,0,P|394:239|417:280,1,100,2|0,0:0|0:0,0:0:0:0:
456,0,113334,2,0,P|470:47|459:95,1,100,2|0,0:2|0:0,0:0:0:0:
471,345,113505,6,0,L|471:370,1,25,8|0,0:0|0:0,0:0:0:0:
471,370,113848,6,0,P|406:303|231:302,1,220.000006713867,2|0,0:0|0:0,0:0:0:0:
339,120,114105,2,0,P|270:147|249:201,1,110.000003356934,2|8,0:0|0:0,0:0:0:0:
183,56,114277,2,0,P|153:123|176:176,1,110.000003356934,0|2,0:0|0:0,0:0:0:0:
284,282,114448,6,0,B|218:275|218:275|179:252|179:252|136:267|136:267|73:261,2,220.000006713867,2|2|2,0:0|0:0|0:0,0:0:0:0:
5,307,114877,2,0,B|62:345|62:345|45:182,1,220.000006713867,10|2,0:0|0:0,0:0:0:0:
39,13,115134,1,0,0:0:0:0:
39,13,115220,5,4,0:0:0:0:
145,51,115391,2,0,L|125:36,1,25,2|0,2:0|2:0,2:0:0:0:
96,105,115562,6,0,B|7:82|7:82|30:127|30:127|85:113,1,200,8|0,0:0|0:0,0:0:0:0:
225,125,115820,1,2,0:2:0:0:
162,152,115905,6,0,B|159:191|159:191|165:207|165:207|159:293,1,100,2|0,0:0|0:0,0:0:0:0:
290,0,116077,2,0,B|287:39|287:39|293:55|293:55|287:141,1,100,2|0,0:2|0:0,0:0:0:0:
347,207,116248,6,0,L|327:192,1,25,8|0,0:0|0:0,0:0:0:0:
327,192,116591,6,0,P|416:228|395:122,1,220.000006713867,2|0,0:0|0:0,0:0:0:0:
452,321,116848,2,0,P|397:323|343:331,1,110.000003356934,2|8,0:0|0:0,0:0:0:0:
342,52,117020,2,0,P|397:60|452:62,1,110.000003356934,0|2,0:0|0:0,0:0:0:0:
256,192,117191,6,0,B|121:169|177:254|-8:204,2,220.000006713867,2|2|2,0:0|0:0|0:0,0:0:0:0:
255,139,117620,6,0,L|258:110,1,25,10|0,0:0|0:0,0:0:0:0:
264,193,117705,2,0,L|267:164,1,25,2|0,3:0|0:0,0:0:0:0:
272,244,117791,2,0,L|275:215,1,25,2|0,0:0|0:0,0:0:0:0:
282,299,117876,2,0,L|285:270,1,25,2|0,3:0|0:0,0:0:0:0:
293,358,117962,6,0,B|72:336|72:336|182:292,1,330.000010070801,6|2,0:0|0:0,0:0:0:0:
276,0,118305,2,0,P|243:107|130:51,1,220.000006713867,8|2,0:0|0:0,0:0:0:0:
104,208,118562,2,0,P|237:207|394:233,2,220.000006713867,2|2|2,0:0|0:0|0:0,0:0:0:0:
62,70,118991,6,0,B|22:55|22:55|41:140,1,110.000003356934,10|0,0:0|0:0,0:0:0:0:
198,348,119162,2,0,B|158:363|158:363|177:278,1,110.000003356934,2|2,0:0|0:0,0:0:0:0:
285,128,119334,6,0,L|403:116,1,110.000003356934,6|0,0:0|0:0,0:0:0:0:
493,297,119505,2,0,L|384:286,1,110.000003356934,0|2,0:0|0:0,0:0:0:0:
201,133,119677,6,0,L|298:144,1,89.9999972534181,10|0,0:0|0:0,0:0:0:0:
376,289,119848,2,0,L|287:299,1,89.9999972534181,0|2,0:0|0:0,0:0:0:0:
36,120,120020,5,8,0:0:0:0:
72,121,120105,1,2,0:0:0:0:
108,108,120191,1,8,0:0:0:0:
133,77,120277,1,2,0:0:0:0:
195,41,120362,6,0,P|143:56|135:108,1,80,8|0,0:0|0:0,0:0:0:0:
229,50,120534,5,10,0:0:0:0:
316,57,120620,5,0,0:0:0:0:
421,7,120705,5,4,0:0:0:0:
256,192,120791,12,0,123448,0:0:0:0:
