osu file format v14

[General]
AudioFilename: audio.mp3
AudioLeadIn: 0
PreviewTime: 98677
Countdown: 0
SampleSet: Soft
StackLeniency: 0.2
Mode: 0
LetterboxInBreaks: 0
WidescreenStoryboard: 1

[Editor]
Bookmarks: 10991,12191,21962,27105,32934,43905,54877,65848,76820,87791,109734
DistanceSpacing: 1.1
BeatDivisor: 8
GridSize: 32
TimelineZoom: 2.999999

[Metadata]
Title:Hypersonik
TitleUnicode:Hypersonik
Artist:Eagle
ArtistUnicode:Eagle
Creator:Ascended
Version:NeilPerry's Extra
Source:beatmania IIDX 21 SPADA
Tags:kors k korsk BEMANI electronic instrumental neurofunk drum and bass drumandbass dnb drum&bass beatmania iidx infinitas Flask zhuxiaoyan frostwich frostwhich stwi synderes jas CraEZy Otosaka-Yu OtosakaYu Suzuki_1112 Suzuki1112 Jounzan Natteke_desu Natteke desu Nattekedesu EvilElvisV2 Aistre Alphabet Venax NeilPerry Mir Frey dahkjdas Seolv Lukas [_L_u_k_a_s_] [Lukas] -ascended- -_ascended_- Deppyforce jascended
BeatmapID:3783722
BeatmapSetID:1834293

[Difficulty]
HPDrainRate:5
CircleSize:4
OverallDifficulty:9
ApproachRate:9.6
SliderMultiplier:1.92
SliderTickRate:1

[Events]
//Background and Video events
0,0,"hypersonic.jpg",0,0
//Break Periods
2,77020,85911
//Storyboard Layer 0 (Background)
//Storyboard Layer 1 (Fail)
//Storyboard Layer 2 (Pass)
//Storyboard Layer 3 (Foreground)
//Storyboard Layer 4 (Overlay)
//Storyboard Sound Samples

[TimingPoints]
20,342.857142857143,4,2,1,30,1,0
2420,-100,4,2,0,30,0,0
2505,-100,4,2,1,30,0,0
4134,-100,4,2,0,30,0,0
5420,-100,4,2,1,30,0,0
6191,-71.4285714285714,4,2,1,30,0,0
8077,-71.4285714285714,4,2,1,25,0,0
8248,-71.4285714285714,4,2,1,30,0,0
9620,-142.857142857143,4,2,1,30,0,0
9962,-142.857142857143,4,2,0,30,0,0
10134,-142.857142857143,4,2,1,30,0,0
10305,-142.857142857143,4,2,1,45,0,0
10991,-100,4,2,1,50,0,0
13048,-71.4285714285714,4,2,1,50,0,0
13391,-125,4,2,0,50,0,0
13477,-125,4,2,0,5,0,0
13562,-125,4,2,1,50,0,0
14248,-125,4,2,1,50,0,0
14333,-125,4,2,1,5,0,0
14420,-71.4285714285714,4,2,1,50,0,0
14762,-100,4,2,1,50,0,0
14847,-100,4,2,1,5,0,0
14934,-100,4,2,1,20,0,0
15105,-100,4,2,1,50,0,0
15190,-100,4,2,1,5,0,0
15277,-100,4,2,1,50,0,0
15876,-100,4,2,1,5,0,0
15962,-100,4,2,1,50,0,0
16477,-71.4285714285714,4,2,1,50,0,0
16820,-125,4,2,1,50,0,0
17077,-125,4,2,1,5,0,0
17162,-71.4285714285714,4,2,1,50,0,0
17677,-62.5,4,2,1,50,0,0
18534,-71.4285714285714,4,2,1,50,0,0
18791,-71.4285714285714,4,2,1,5,0,0
18877,-71.4285714285714,4,2,1,50,0,0
19048,-100,4,2,1,50,0,0
19905,-71.4285714285714,4,2,1,50,0,0
20162,-71.4285714285714,4,2,1,5,0,0
20248,-62.5,4,2,1,50,0,0
20333,-62.5,4,2,1,5,0,0
20420,-62.5,4,2,1,50,0,0
20591,-62.5,4,2,100,50,0,0
20762,-83.3333333333333,4,2,100,50,0,0
20847,-83.3333333333333,4,2,100,5,0,0
20934,-83.3333333333333,4,2,100,50,0,0
21019,-83.3333333333333,4,2,100,5,0,0
21105,-71.4285714285714,4,2,1,50,0,0
21448,-71.4285714285714,4,2,100,50,0,0
21620,-125,4,2,100,50,0,0
21791,-125,4,2,1,50,0,0
21962,-125,4,2,1,50,0,0
22047,-125,4,2,1,5,0,0
22134,-125,4,2,1,70,0,0
22219,-125,4,2,1,5,0,0
22305,-125,4,2,1,70,0,0
22390,-125,4,2,1,5,0,0
22477,-125,4,2,1,70,0,0
22562,-125,4,2,1,5,0,0
22648,-125,4,2,1,70,0,0
22733,-125,4,2,1,5,0,0
22820,-125,4,2,1,70,0,0
22905,-125,4,2,1,5,0,0
22991,-125,4,2,1,70,0,0
23076,-125,4,2,1,5,0,0
23163,-125,4,2,1,70,0,0
23248,-125,4,2,1,5,0,0
23334,-125,4,2,1,70,0,0
23419,-125,4,2,1,5,0,0
23506,-125,4,2,1,70,0,0
23591,-125,4,2,1,5,0,0
23677,-125,4,2,1,70,0,0
23762,-125,4,2,1,5,0,0
23849,-125,4,2,1,70,0,0
23934,-125,4,2,1,5,0,0
24020,-125,4,2,1,70,0,0
24105,-125,4,2,1,5,0,0
24192,-125,4,2,1,70,0,0
24277,-125,4,2,1,5,0,0
24363,-125,4,2,1,70,0,0
24448,-125,4,2,1,5,0,0
24535,-125,4,2,1,70,0,0
24620,-125,4,2,1,5,0,0
24705,-100,4,2,1,50,0,0
24790,-100,4,2,1,5,0,0
24877,-100,4,2,1,70,0,0
24962,-100,4,2,1,5,0,0
25048,-100,4,2,1,70,0,0
25133,-100,4,2,1,5,0,0
25220,-100,4,2,1,50,0,0
25305,-100,4,2,1,5,0,0
25391,-100,4,2,1,70,0,0
25476,-100,4,2,1,5,0,0
25563,-100,4,2,1,70,0,0
25648,-100,4,2,1,5,0,0
25734,-100,4,2,1,50,0,0
25819,-100,4,2,1,5,0,0
25906,-100,4,2,1,70,0,0
25991,-100,4,2,1,5,0,0
26077,-100,4,2,1,50,0,0
26162,-100,4,2,1,5,0,0
26249,-100,4,2,1,70,0,0
26334,-100,4,2,1,5,0,0
26420,-100,4,2,1,70,0,0
26505,-100,4,2,1,5,0,0
26592,-100,4,2,1,50,0,0
26677,-100,4,2,1,5,0,0
26762,-100,4,2,1,70,0,0
26847,-100,4,2,1,5,0,0
26934,-100,4,2,1,70,0,0
27019,-100,4,2,1,5,0,0
27105,-100,4,2,1,50,0,0
27190,-100,4,2,1,5,0,0
27277,-100,4,2,1,70,0,0
27362,-100,4,2,1,5,0,0
27448,-83.3333333333333,4,2,1,50,0,0
27533,-83.3333333333333,4,2,1,5,0,0
27620,-83.3333333333333,4,2,1,50,0,0
27705,-83.3333333333333,4,2,1,5,0,0
27791,-83.3333333333333,4,2,1,50,0,0
27876,-83.3333333333333,4,2,1,5,0,0
27963,-83.3333333333333,4,2,1,50,0,0
28048,-83.3333333333333,4,2,1,5,0,0
28134,-83.3333333333333,4,2,1,50,0,0
28219,-83.3333333333333,4,2,1,5,0,0
28305,-83.3333333333333,4,2,1,50,0,0
28390,-83.3333333333333,4,2,1,5,0,0
28477,-83.3333333333333,4,2,1,50,0,0
28562,-83.3333333333333,4,2,1,5,0,0
28648,-83.3333333333333,4,2,1,50,0,0
28733,-83.3333333333333,4,2,1,5,0,0
28820,-83.3333333333333,4,2,1,60,0,0
28905,-83.3333333333333,4,2,1,5,0,0
28991,-83.3333333333333,4,2,1,60,0,0
29076,-83.3333333333333,4,2,1,5,0,0
29162,-83.3333333333333,4,2,1,60,0,0
29247,-83.3333333333333,4,2,1,5,0,0
29333,-83.3333333333333,4,2,1,60,0,0
29418,-83.3333333333333,4,2,1,5,0,0
29505,-83.3333333333333,4,2,1,60,0,0
29590,-83.3333333333333,4,2,1,5,0,0
29677,-83.3333333333333,4,2,1,60,0,0
29762,-83.3333333333333,4,2,1,5,0,0
29848,-83.3333333333333,4,2,1,60,0,0
29933,-83.3333333333333,4,2,1,5,0,0
30020,-83.3333333333333,4,2,1,60,0,0
30105,-83.3333333333333,4,2,1,5,0,0
30191,-83.3333333333333,4,2,1,70,0,0
31562,-83.3333333333333,4,2,1,80,0,0
31734,-83.3333333333333,4,2,1,80,0,0
32248,-83.3333333333333,4,2,1,80,0,0
32591,-125,4,2,1,80,0,0
32848,-125,4,2,1,5,0,0
32934,-71.4285714285714,4,2,5,70,0,0
33191,-71.4285714285714,4,2,5,5,0,0
33277,-71.4285714285714,4,2,1,70,0,0
33362,-71.4285714285714,4,2,1,5,0,0
33448,-71.4285714285714,4,2,1,70,0,0
33705,-71.4285714285714,4,2,1,5,0,0
33791,-71.4285714285714,4,2,1,70,0,0
33876,-71.4285714285714,4,2,1,5,0,0
33962,-71.4285714285714,4,2,1,70,0,0
34390,-71.4285714285714,4,2,1,5,0,0
34477,-71.4285714285714,4,2,1,70,0,0
34733,-71.4285714285714,4,2,1,5,0,0
34820,-71.4285714285714,4,2,1,70,0,0
35247,-71.4285714285714,4,2,1,5,0,0
35334,-58.8235294117647,4,2,1,70,0,0
36020,-71.4285714285714,4,2,1,70,0,0
36105,-71.4285714285714,4,2,1,5,0,0
36191,-71.4285714285714,4,2,1,70,0,0
36277,-58.8235294117647,4,2,1,70,0,0
37133,-58.8235294117647,4,2,1,5,0,0
37220,-58.8235294117647,4,2,1,70,0,0
37476,-58.8235294117647,4,2,1,5,0,0
37562,-58.8235294117647,4,2,1,70,0,0
37905,-52.6315789473684,4,2,1,70,0,0
37990,-52.6315789473684,4,2,1,5,0,0
38077,-52.6315789473684,4,2,1,70,0,0
38162,-52.6315789473684,4,2,1,5,0,0
38248,-52.6315789473684,4,2,1,70,0,0
38333,-52.6315789473684,4,2,1,5,0,0
38420,-62.5,4,2,1,70,0,0
38677,-62.5,4,2,1,5,0,0
38762,-125,4,2,1,70,0,0
39105,-71.4285714285714,4,2,1,70,0,0
39190,-71.4285714285714,4,2,1,5,0,0
39277,-71.4285714285714,4,2,1,70,0,0
39362,-71.4285714285714,4,2,1,5,0,0
39448,-62.5,4,2,1,70,0,0
40048,-62.5,4,2,1,5,0,0
40134,-125,4,2,1,70,0,0
40391,-71.4285714285714,4,2,1,70,0,0
40733,-71.4285714285714,4,2,1,5,0,0
40820,-125,4,2,1,70,0,0
40905,-125,4,2,1,5,0,0
40991,-125,4,2,1,70,0,0
41162,-71.4285714285714,4,2,1,70,0,0
41247,-71.4285714285714,4,2,1,5,0,0
41334,-71.4285714285714,4,2,1,70,0,0
41419,-71.4285714285714,4,2,1,5,0,0
41505,-50,4,2,1,70,0,0
41590,-50,4,2,1,5,0,0
41677,-50,4,2,1,70,0,0
41848,-100,4,2,0,70,0,0
41934,-100,4,2,0,5,0,0
42020,-100,4,2,0,70,0,0
42105,-100,4,2,0,5,0,0
42191,-100,4,2,1,70,0,0
42276,-100,4,2,1,5,0,0
42362,-100,4,2,1,70,0,0
42447,-100,4,2,1,5,0,0
42534,-71.4285714285714,4,2,1,70,0,0
42962,-71.4285714285714,4,2,1,5,0,0
43048,-71.4285714285714,4,2,1,70,0,0
43220,-62.5,4,2,1,70,0,0
43305,-62.5,4,2,1,5,0,0
43391,-62.5,4,2,1,70,0,0
43562,-71.4285714285714,4,2,1,70,0,0
43647,-71.4285714285714,4,2,1,5,0,0
43734,-71.4285714285714,4,2,1,70,0,0
43819,-71.4285714285714,4,2,1,5,0,0
43905,-71.4285714285714,4,2,1,70,0,0
44162,-71.4285714285714,4,2,1,5,0,0
44248,-58.8235294117647,4,2,1,70,0,0
44676,-58.8235294117647,4,2,1,5,0,0
44762,-58.8235294117647,4,2,1,70,0,0
44847,-58.8235294117647,4,2,1,5,0,0
44934,-58.8235294117647,4,2,1,70,0,0
45277,-66.6666666666667,4,2,1,70,0,0
45534,-66.6666666666667,4,2,1,5,0,0
45620,-66.6666666666667,4,2,1,70,0,0
46219,-66.6666666666667,4,2,1,5,0,0
46305,-66.6666666666667,4,2,1,70,0,0
46991,-76.9230769230769,4,2,1,70,0,0
47076,-76.9230769230769,4,2,1,5,0,0
47162,-76.9230769230769,4,2,1,70,0,0
48020,-62.5,4,2,1,70,0,0
48447,-62.5,4,2,1,5,0,0
48534,-62.5,4,2,1,70,0,0
48877,-100,4,2,1,70,0,0
48962,-100,4,2,1,5,0,0
49048,-100,4,2,1,70,0,0
49133,-100,4,2,1,5,0,0
49220,-100,4,2,1,70,0,0
49305,-100,4,2,1,5,0,0
49391,-71.4285714285714,4,2,1,70,0,0
49648,-71.4285714285714,4,2,1,5,0,0
49734,-58.8235294117647,4,2,1,70,0,0
50162,-58.8235294117647,4,2,1,5,0,0
50248,-58.8235294117647,4,2,1,70,0,0
50333,-58.8235294117647,4,2,1,5,0,0
50420,-58.8235294117647,4,2,1,70,0,0
50762,-66.6666666666667,4,2,1,70,0,0
51019,-66.6666666666667,4,2,1,5,0,0
51105,-58.8235294117647,4,2,1,70,0,0
51705,-58.8235294117647,4,2,1,5,0,0
51791,-58.8235294117647,4,2,1,70,0,0
52134,-100,4,2,1,70,0,0
52220,-100,4,2,0,70,0,0
52305,-100,4,2,1,70,0,0
52391,-100,4,2,0,70,0,0
52477,-100,4,2,1,70,0,0
52820,-66.6666666666667,4,2,1,70,0,0
52905,-66.6666666666667,4,2,1,5,0,0
52991,-125,4,2,1,70,0,0
53076,-125,4,2,1,5,0,0
53162,-125,4,2,1,70,0,0
53247,-125,4,2,1,5,0,0
53334,-125,4,2,1,70,0,0
53419,-125,4,2,1,5,0,0
53505,-125,4,2,63,70,0,0
53591,-125,4,2,1,60,0,0
54362,-125,4,2,0,60,0,0
54534,-125,4,2,1,60,0,0
54705,-125,4,2,0,60,0,0
54877,-83.3333333333333,4,2,1,68,0,0
55134,-83.3333333333333,4,2,1,5,0,0
55220,-62.5,4,2,1,68,0,0
55305,-62.5,4,2,1,5,0,0
55391,-62.5,4,2,1,68,0,0
55562,-71.4285714285714,4,2,1,68,0,0
55990,-71.4285714285714,4,2,1,5,0,0
56077,-71.4285714285714,4,2,1,68,0,0
56333,-71.4285714285714,4,2,1,5,0,0
56420,-71.4285714285714,4,2,1,68,0,0
56505,-71.4285714285714,4,2,1,5,0,0
56591,-62.5,4,2,1,68,0,0
57190,-62.5,4,2,1,5,0,0
57277,-62.5,4,2,1,68,0,0
57533,-62.5,4,2,1,5,0,0
57620,-100,4,2,1,58,0,0
57877,-100,4,2,1,5,0,0
57962,-62.5,4,2,1,58,0,0
58305,-55.5555555555556,4,2,1,58,0,0
58648,-142.857142857143,4,2,1,58,0,0
58991,-71.4285714285714,4,2,1,58,0,0
59334,-100,4,2,1,58,0,0
59677,-71.4285714285714,4,2,1,58,0,0
59762,-71.4285714285714,4,2,1,5,0,0
59848,-71.4285714285714,4,2,1,58,0,0
59933,-71.4285714285714,4,2,1,5,0,0
60020,-58.8235294117647,4,2,1,58,0,0
60362,-71.4285714285714,4,2,1,68,0,0
60619,-71.4285714285714,4,2,1,5,0,0
60705,-71.4285714285714,4,2,1,68,0,0
60790,-71.4285714285714,4,2,1,5,0,0
60877,-71.4285714285714,4,2,1,68,0,0
61476,-71.4285714285714,4,2,1,5,0,0
61562,-71.4285714285714,4,2,1,68,0,0
61734,-83.3333333333333,4,2,1,68,0,0
61819,-83.3333333333333,4,2,1,5,0,0
61905,-83.3333333333333,4,2,1,68,0,0
61990,-83.3333333333333,4,2,1,5,0,0
62077,-62.5,4,2,1,68,0,0
62676,-62.5,4,2,1,5,0,0
62762,-62.5,4,2,1,68,0,0
63019,-62.5,4,2,1,5,0,0
63105,-100,4,2,1,58,0,0
63362,-100,4,2,1,5,0,0
63448,-62.5,4,2,1,58,0,0
63791,-55.5555555555556,4,2,1,58,0,0
64134,-83.3333333333333,4,2,1,58,0,0
64820,-66.6666666666667,4,2,1,58,0,0
64905,-66.6666666666667,4,2,1,5,0,0
64991,-66.6666666666667,4,2,1,58,0,0
65248,-200,4,2,1,58,0,0
65419,-200,4,2,1,5,0,0
65505,-62.5,4,2,1,58,0,0
65762,-62.5,4,2,1,5,0,0
65848,-71.4285714285714,4,2,1,58,0,0
66105,-71.4285714285714,4,2,1,5,0,0
66191,-71.4285714285714,4,2,1,78,0,0
66277,-71.4285714285714,4,2,1,5,0,0
66363,-71.4285714285714,4,2,1,68,0,0
66962,-71.4285714285714,4,2,1,5,0,0
67048,-71.4285714285714,4,2,1,68,0,0
67220,-83.3333333333333,4,2,1,68,0,0
67305,-83.3333333333333,4,2,1,5,0,0
67391,-83.3333333333333,4,2,1,68,0,0
67562,-66.6666666666667,4,2,1,68,0,0
67905,-83.3333333333333,4,2,1,68,0,0
67990,-83.3333333333333,4,2,1,5,0,0
68077,-83.3333333333333,4,2,1,68,0,0
68591,-142.857142857143,4,2,1,68,0,0
68848,-142.857142857143,4,2,1,5,0,0
68934,-66.6666666666667,4,2,1,68,0,0
69277,-55.5555555555556,4,2,1,68,0,0
69620,-142.857142857143,4,2,1,68,0,0
69962,-71.4285714285714,4,2,1,68,0,0
70305,-100,4,2,1,68,0,0
70562,-62.5,4,2,1,68,0,0
70734,-62.5,4,2,0,68,0,0
70820,-62.5,4,2,1,68,0,0
70862,-62.5,4,2,0,68,0,0
70905,-62.5,4,2,1,68,0,0
70991,-83.3333333333333,4,2,1,68,0,0
71334,-66.6666666666667,4,2,1,68,0,0
71591,-66.6666666666667,4,2,1,5,0,0
71677,-71.4285714285714,4,2,1,68,0,0
71762,-71.4285714285714,4,2,1,5,0,0
71848,-71.4285714285714,4,2,1,68,0,0
72447,-71.4285714285714,4,2,1,5,0,0
72534,-71.4285714285714,4,2,1,68,0,0
72790,-71.4285714285714,4,2,1,5,0,0
72877,-71.4285714285714,4,2,1,68,0,0
73647,-71.4285714285714,4,2,1,5,0,0
73734,-71.4285714285714,4,2,1,68,0,0
73990,-71.4285714285714,4,2,1,5,0,0
74077,-83.3333333333333,4,2,1,50,0,0
74420,-100,4,2,1,50,0,0
74677,-100,4,2,1,5,0,0
74762,-142.857142857143,4,2,2,70,0,0
74848,-142.857142857143,4,2,2,50,0,0
75448,-142.857142857143,4,2,1,50,0,0
75533,-142.857142857143,4,2,1,5,0,0
75620,-142.857142857143,4,2,1,50,0,0
76047,-142.857142857143,4,2,1,5,0,0
76134,-142.857142857143,4,2,2,70,0,0
76562,-200,4,2,1,70,0,0
76733,-200,4,2,1,5,0,0
76820,-200,4,2,1,60,0,0
79220,-200,4,2,0,40,0,0
79562,-200,4,2,1,40,0,0
80762,-200,4,2,100,20,0,0
80934,-200,4,2,1,40,0,0
81620,-200,4,2,100,40,0,0
81791,-200,4,2,1,40,0,0
82134,-200,4,2,50,30,0,0
82305,-200,4,2,1,45,0,0
85048,-200,4,2,1,50,0,0
86420,-100,4,2,100,50,0,0
86762,-100,4,2,1,50,0,0
86848,-100,4,2,50,50,0,0
87105,-100,4,2,2,50,0,0
87277,-100,4,2,100,50,0,0
87448,-100,4,2,1,50,0,0
87791,-100,4,2,1,55,0,0
88562,-100,4,2,1,5,0,0
88648,-100,4,2,1,55,0,0
88733,-100,4,2,1,5,0,0
88820,-100,4,2,1,55,0,0
89077,-100,4,2,1,5,0,0
89162,-100,4,2,1,55,0,0
89419,-100,4,2,1,5,0,0
89505,-100,4,2,1,55,0,0
89933,-100,4,2,1,5,0,0
90020,-100,4,2,1,55,0,0
90105,-100,4,2,1,5,0,0
90191,-100,4,2,1,30,0,0
90362,-100,4,2,1,55,0,0
90448,-100,4,2,1,5,0,0
90534,-100,4,2,1,57,0,0
90791,-100,4,2,1,5,0,0
90877,-100,4,2,1,57,0,0
91134,-100,4,2,1,37,0,0
91391,-100,4,2,1,57,0,0
91477,-100,4,2,1,37,0,0
91562,-100,4,2,1,57,0,0
91819,-100,4,2,1,5,0,0
91905,-100,4,2,1,57,0,0
92162,-100,4,2,1,5,0,0
92248,-100,4,2,1,57,0,0
92676,-100,4,2,1,5,0,0
92762,-100,4,2,1,57,0,0
92847,-100,4,2,1,5,0,0
92934,-83.3333333333333,4,2,1,57,0,0
93191,-83.3333333333333,4,2,1,5,0,0
93277,-83.3333333333333,4,2,1,25,0,0
93620,-125,4,2,1,25,0,0
93962,-125,4,2,1,30,0,0
94648,-125,4,2,1,35,0,0
95334,-125,4,2,1,40,0,0
95677,-83.3333333333333,4,2,1,40,0,0
96020,-83.3333333333333,4,2,1,70,0,0
97391,-83.3333333333333,4,2,1,80,0,0
98420,-200,4,2,1,60,0,0
98677,-200,4,2,1,5,0,0
98762,-50,4,2,4,70,0,1
98848,-50,4,2,100,70,0,1
99105,-66.6666666666667,4,2,100,70,0,1
99190,-66.6666666666667,4,2,100,5,0,1
99277,-66.6666666666667,4,2,100,70,0,1
99876,-66.6666666666667,4,2,100,5,0,1
99962,-66.6666666666667,4,2,100,70,0,1
100047,-66.6666666666667,4,2,100,5,0,1
100134,-66.6666666666667,4,2,100,70,0,1
100477,-66.6666666666667,4,2,100,70,0,1
100562,-66.6666666666667,4,2,100,5,0,1
100648,-66.6666666666667,4,2,100,70,0,1
101505,-50,4,2,100,70,0,1
101848,-66.6666666666667,4,2,100,70,0,1
101933,-66.6666666666667,4,2,100,5,0,1
102020,-66.6666666666667,4,2,100,70,0,1
102619,-66.6666666666667,4,2,100,5,0,1
102705,-66.6666666666667,4,2,100,70,0,1
102790,-66.6666666666667,4,2,100,5,0,1
102877,-50,4,2,100,70,0,1
103220,-66.6666666666667,4,2,100,70,0,1
103305,-66.6666666666667,4,2,100,5,0,1
103391,-66.6666666666667,4,2,100,70,0,1
104162,-66.6666666666667,4,2,100,5,0,1
104248,-50,4,2,100,70,0,1
104591,-66.6666666666667,4,2,100,70,0,1
104676,-66.6666666666667,4,2,100,5,0,1
104762,-66.6666666666667,4,2,100,70,0,1
105362,-66.6666666666667,4,2,100,5,0,1
105448,-66.6666666666667,4,2,100,70,0,1
105533,-66.6666666666667,4,2,100,5,0,1
105620,-50,4,2,100,70,0,1
105962,-66.6666666666667,4,2,100,70,0,1
106047,-66.6666666666667,4,2,100,5,0,1
106134,-66.6666666666667,4,2,100,70,0,1
107419,-66.6666666666667,4,2,100,5,0,1
107505,-66.6666666666667,4,2,100,70,0,1
107677,-62.5,4,2,100,70,0,1
107762,-62.5,4,2,100,5,0,1
107848,-62.5,4,2,100,70,0,1
108018,-55.5555555555556,4,2,100,70,0,1
108361,-50,4,2,100,70,0,1
108447,-50,4,2,100,5,0,1
108534,-50,4,2,100,70,0,1
108790,-50,4,2,100,5,0,1
108877,-50,4,2,100,70,0,1
108962,-50,4,2,100,5,0,1
109048,-50,4,2,100,70,0,1
109734,-50,4,2,100,40,0,1
109820,-50,4,2,100,70,0,1
109905,-83.3333333333333,4,2,100,70,0,1
109990,-83.3333333333333,4,2,100,5,0,1
110077,-55.5555555555556,4,2,5,70,0,1
110162,-55.5555555555556,4,2,100,70,0,1
110505,-55.5555555555556,4,2,100,5,0,1
110591,-71.4285714285714,4,2,100,70,0,1
110676,-71.4285714285714,4,2,100,5,0,1
110762,-100,4,2,100,70,0,1
111019,-100,4,2,100,5,0,1
111105,-50,4,2,100,70,0,1
111448,-66.6666666666667,4,2,100,70,0,1
111533,-66.6666666666667,4,2,100,5,0,1
111620,-66.6666666666667,4,2,100,70,0,1
112134,-66.6666666666667,4,2,50,60,0,1
112477,-66.6666666666667,4,2,100,70,0,1
112734,-66.6666666666667,4,2,100,5,0,1
112820,-55.5555555555556,4,2,100,70,0,1
113247,-55.5555555555556,4,2,100,5,0,1
113334,-71.4285714285714,4,2,100,70,0,1
113419,-71.4285714285714,4,2,100,5,0,1
113505,-100,4,2,100,70,0,1
113762,-100,4,2,100,5,0,1
113848,-100,4,2,100,70,0,1
114534,-58.8235294117647,4,2,100,70,0,1
115048,-142.857142857143,4,2,100,70,0,1
115220,-58.8235294117647,4,2,100,70,0,1
115477,-58.8235294117647,4,2,100,5,0,1
115562,-58.8235294117647,4,2,100,70,0,1
115990,-58.8235294117647,4,2,100,5,0,1
116077,-66.6666666666667,4,2,100,70,0,1
116162,-66.6666666666667,4,2,100,5,0,1
116248,-100,4,2,100,70,0,1
116505,-100,4,2,100,5,0,1
116591,-100,4,2,100,70,0,1
117962,-55.5555555555556,4,2,100,70,0,1
118991,-55.5555555555556,4,2,1,70,0,1
119076,-55.5555555555556,4,2,1,5,0,1
119162,-55.5555555555556,4,2,100,70,0,1
119247,-55.5555555555556,4,2,100,5,0,1
119334,-55.5555555555556,4,2,100,70,0,1
119591,-55.5555555555556,4,2,100,5,0,1
119677,-55.5555555555556,4,2,100,70,0,1
120705,-55.5555555555556,4,2,100,70,0,0

[Colours]
Combo1 : 21,251,141
Combo2 : 159,64,255
Combo3 : 255,106,255
Combo4 : 255,140,85

[HitObjects]
117,130,20,6,0,L|246:125,1,96,0|0,3:0|0:0,0:0:0:0:
452,63,362,2,0,L|323:68,1,96,0|0,3:0|0:0,0:0:0:0:
212,126,705,1,0,0:0:0:0:
253,286,2591,5,0,0:0:0:0:
253,273,2762,1,0,1:0:0:0:
253,273,3277,5,0,1:0:0:0:
253,273,3791,5,0,1:0:0:0:
256,192,4134,12,0,5334,0:0:0:0:
185,79,5505,6,0,B|157:112|157:112|162:191,1,96,0|0,3:0|0:0,0:0:0:0:
268,362,5848,2,0,B|296:329|296:329|291:250,1,96,0|0,3:0|0:0,0:0:0:0:
105,218,6191,2,0,B|143:230|143:230|167:208|167:208|196:218|196:218|215:209|241:213,1,134.399995898438,8|0,2:0|0:0,0:0:0:0:
391,104,8077,5,2,2:0:0:0:
391,117,8162,1,2,2:0:0:0:
391,130,8248,1,0,1:0:0:0:
391,130,8762,5,0,1:0:0:0:
284,88,9105,5,0,0:0:0:0:
465,74,9277,1,0,1:0:0:0:
462,52,9620,6,0,B|419:17|419:17|317:29|317:29|283:78,1,201.599993847656,0|0,3:0|0:0,0:0:0:0:
338,226,10305,1,0,3:0:0:0:
380,106,10477,1,8,2:3:0:0:
225,222,10648,1,8,3:0:0:0:
183,102,10820,1,8,3:0:0:0:
268,27,10991,6,0,B|292:62|292:62|285:151,1,96,4|0,3:2|0:0,0:0:0:0:
263,313,11334,1,0,3:0:0:0:
269,312,11677,6,0,L|400:305,1,96,8|0,2:0|0:0,0:0:0:0:
463,264,12020,1,0,0:0:0:0:
375,216,12191,2,0,P|357:258|376:325,1,96,8|0,2:0|0:0,0:0:0:0:
468,253,12534,1,0,0:0:0:0:
367,90,12705,1,0,3:0:0:0:
367,90,13048,6,0,P|390:144|367:227,1,134.399995898438,8|0,2:0|0:0,0:0:0:0:
263,361,13391,2,0,L|257:313,1,38.4,8|0,2:0|2:0,0:0:0:0:
242,195,13562,1,0,3:0:0:0:
150,289,13734,1,0,3:0:0:0:
150,289,14077,5,0,3:0:0:0:
263,361,14248,2,0,L|257:313,1,38.4,0|0,0:0|2:0,0:0:0:0:
283,134,14420,2,0,B|252:104|252:104|238:225,1,134.399995898438,8|0,2:0|0:0,0:0:0:0:
376,286,14762,6,0,P|414:261|423:243,1,48,0|0,0:0|2:0,0:0:0:0:
405,119,14934,1,2,3:2:0:0:
226,26,15105,6,0,P|188:51|179:69,1,48,0|0,0:0|2:0,0:0:0:0:
241,194,15277,1,0,3:0:0:0:
320,40,15448,1,0,3:0:0:0:
272,32,15533,1,0,3:0:0:0:
225,25,15619,1,0,3:0:0:0:
44,88,15791,6,0,L|124:85,1,48,8|0,2:0|2:0,0:0:0:0:
273,116,15962,1,0,3:0:0:0:
189,131,16048,2,0,P|168:163|162:200,1,48,8|0,2:0|0:0,0:0:0:0:
271,361,16305,1,0,1:0:0:0:
297,290,16390,1,0,1:0:0:0:
234,249,16477,2,0,P|203:291|277:325,1,134.399995898438,4|0,3:2|0:0,0:0:0:0:
473,232,16820,6,0,L|351:211,1,115.2,0|0,3:0|2:0,0:0:0:0:
164,187,17162,2,0,P|162:236|248:225,1,134.399995898438,8|0,2:0|0:0,0:0:0:0:
340,44,17505,1,0,0:0:0:0:
145,217,17677,6,0,P|143:266|233:250,1,153.6,8|0,2:0|0:0,0:0:0:0:
341,36,18020,1,0,0:0:0:0:
343,28,18191,1,0,3:0:0:0:
460,259,18534,6,0,B|418:255|395:275|395:275|355:254|355:254|322:280|322:280|287:276|245:296,1,201.599993847656,8|0,2:0|2:0,0:0:0:0:
174,303,18877,1,2,2:0:0:0:
436,381,19048,2,0,L|445:322,1,48,0|0,3:0|3:0,0:0:0:0:
357,161,19220,2,0,P|411:187|436:170,1,96,0|0,3:0|0:0,0:0:0:0:
294,86,19562,2,0,P|289:26|262:13,1,96,0|0,3:0|0:0,0:0:0:0:
167,190,19905,6,0,B|248:126|261:233|374:149,1,201.599993847656,10|0,2:0|2:0,0:0:0:0:
406,105,20248,2,0,P|373:151|324:166,1,76.8,14|0,2:0|2:0,0:0:0:0:
240,71,20420,1,8,2:3:0:0:
304,101,20505,1,8,2:3:0:0:
347,45,20591,1,0,0:0:0:0:
360,256,20762,6,0,P|359:287|374:325,1,57.5999982421876,8|0,2:0|2:0,0:0:0:0:
469,224,20934,2,0,P|440:196|401:180,1,57.5999982421876,0|0,3:0|2:0,0:0:0:0:
305,171,21105,2,0,P|278:198|260:249,1,67.1999979492188,0|2,0:0|2:1,0:0:0:0:
355,348,21277,2,0,P|411:332|428:313,1,67.1999979492188,8|2,2:0|2:1,0:0:0:0:
385,0,21448,1,0,0:0:0:0:
379,68,21533,1,0,0:0:0:0:
370,136,21620,2,0,B|350:100|350:100|307:86|307:86|261:107,1,115.2,0|2,0:0|2:3,0:0:0:0:
137,190,21962,6,0,P|170:188|183:183,1,38.4,4|0,2:0|2:0,0:0:0:0:
209,171,22134,2,0,P|178:183|160:198,1,38.4,0|0,0:0|2:0,0:0:0:0:
143,204,22305,2,0,P|176:202|189:197,1,38.4,0|0,0:0|2:0,0:0:0:0:
215,185,22477,2,0,P|184:197|166:212,1,38.4,0|0,0:0|2:0,0:0:0:0:
195,344,22648,6,0,P|162:342|149:337,1,38.4,0|0,0:0|2:0,0:0:0:0:
123,325,22820,2,0,P|154:337|172:352,1,38.4,0|0,0:0|2:0,0:0:0:0:
189,358,22991,2,0,P|156:356|143:351,1,38.4,0|0,0:0|2:0,0:0:0:0:
117,339,23163,2,0,P|148:351|166:366,1,38.4,0|0,0:0|2:0,0:0:0:0:
262,269,23334,6,0,P|295:267|308:262,1,38.4,0|0,0:0|2:0,0:0:0:0:
334,250,23506,2,0,P|303:262|285:277,1,38.4,0|0,0:0|2:0,0:0:0:0:
268,283,23677,2,0,P|301:281|314:276,1,38.4,0|0,0:0|2:0,0:0:0:0:
340,264,23849,2,0,P|309:276|291:291,1,38.4,0|0,0:0|2:0,0:0:0:0:
372,149,24020,6,0,P|339:147|326:142,1,38.4,0|0,0:0|2:0,0:0:0:0:
300,130,24192,2,0,P|331:142|349:157,1,38.4,0|0,0:0|2:0,0:0:0:0:
366,163,24363,2,0,P|333:161|320:156,1,38.4,0|0,0:0|2:0,0:0:0:0:
294,144,24535,2,0,P|325:156|343:171,1,38.4,0|0,0:0|2:0,0:0:0:0:
128,144,24705,6,0,P|164:142|182:137,1,48,0|0,3:0|2:0,0:0:0:0:
207,123,24877,2,0,P|173:137|147:155,1,48,0|0,0:0|2:0,0:0:0:0:
135,160,25048,2,0,P|171:157|190:150,1,48,0|0,0:0|2:0,0:0:0:0:
214,139,25220,2,0,P|180:152|160:170,1,48,0|0,3:0|2:0,0:0:0:0:
313,257,25391,6,0,P|276:254|259:249,1,48,0|0,0:0|2:0,0:0:0:0:
234,236,25563,2,0,P|268:249|294:267,1,48,0|0,0:0|2:0,0:0:0:0:
307,272,25734,2,0,P|270:269|252:262,1,48,0|0,3:0|2:0,0:0:0:0:
227,251,25906,2,0,P|261:264|280:281,1,48,0|0,0:0|2:0,0:0:0:0:
107,348,26077,6,0,P|144:345|161:340,1,48,0|0,3:0|2:0,0:0:0:0:
186,327,26249,2,0,P|152:340|126:358,1,48,0|0,0:0|2:0,0:0:0:0:
113,363,26420,2,0,P|150:360|168:353,1,48,0|0,0:0|2:0,0:0:0:0:
193,342,26592,2,0,P|159:355|140:372,1,48,0|0,3:0|2:0,0:0:0:0:
401,345,26762,6,0,P|364:342|347:337,1,48,0|0,0:0|2:0,0:0:0:0:
322,324,26934,2,0,P|356:337|382:355,1,48,0|0,0:0|2:0,0:0:0:0:
395,360,27105,2,0,P|358:357|340:350,1,48,0|0,3:0|2:0,0:0:0:0:
315,339,27277,2,0,P|349:352|368:369,1,48,0|0,0:0|2:0,0:0:0:0:
201,234,27448,6,0,P|247:233|269:219,1,57.5999982421876,4|0,2:0|2:0,0:0:0:0:
389,137,27620,2,0,P|343:138|321:152,1,57.5999982421876,0|0,3:0|2:0,0:0:0:0:
207,248,27791,2,0,P|253:247|275:233,1,57.5999982421876,0|0,1:0|2:0,0:0:0:0:
395,151,27963,2,0,P|349:152|327:166,1,57.5999982421876,0|0,0:0|2:0,0:0:0:0:
404,306,28134,6,0,P|428:277|433:238,1,57.5999982421876,0|0,1:0|2:0,0:0:0:0:
424,103,28305,2,0,P|404:123|394:150,1,57.5999982421876,0|0,3:0|2:0,0:0:0:0:
389,301,28477,2,0,P|413:272|418:233,1,57.5999982421876,0|0,1:0|2:0,0:0:0:0:
409,98,28648,2,0,P|389:118|379:145,1,57.5999982421876,0|0,0:0|2:0,0:0:0:0:
298,232,28820,6,0,P|254:238|222:252,1,57.5999982421876,0|0,1:0|2:0,0:0:0:0:
125,369,28991,2,0,P|153:366|181:358,1,57.5999982421876,0|0,3:0|2:0,0:0:0:0:
293,220,29162,2,0,P|249:226|217:240,1,57.5999982421876,0|0,1:0|2:0,0:0:0:0:
120,357,29333,2,0,P|148:354|176:346,1,57.5999982421876,0|0,0:0|2:0,0:0:0:0:
137,243,29505,6,0,P|134:196|141:167,1,57.5999982421876,0|0,1:0|2:0,0:0:0:0:
215,27,29677,2,0,P|218:74|211:103,1,57.5999982421876,0|0,3:0|2:0,0:0:0:0:
150,246,29848,2,0,P|147:199|154:170,1,57.5999982421876,0|0,1:0|2:0,0:0:0:0:
228,30,30020,2,0,P|231:77|224:106,1,57.5999982421876,0|0,0:0|2:0,0:0:0:0:
244,204,30191,5,4,2:0:0:0:
278,202,30276,1,0,3:0:0:0:
309,187,30362,1,0,3:0:0:0:
330,161,30448,1,0,3:0:0:0:
342,82,30534,5,8,2:0:0:0:
375,87,30619,1,2,2:3:0:0:
404,106,30705,1,0,1:0:0:0:
422,136,30791,1,2,2:3:0:0:
430,215,30877,5,8,2:0:0:0:
396,222,30962,1,0,3:0:0:0:
362,218,31048,1,0,3:0:0:0:
331,203,31134,1,0,3:0:0:0:
263,130,31220,5,8,2:0:0:0:
257,187,31305,1,2,1:0:0:0:
251,244,31391,1,0,1:0:0:0:
245,301,31477,1,2,1:0:0:0:
237,362,31562,5,4,1:2:0:0:
107,303,31734,2,0,P|98:317|89:343,10,28.7999991210938
237,362,32248,1,4,1:2:0:0:
396,216,32420,1,0,0:0:0:0:
274,195,32591,2,0,B|318:205|318:205|335:195|335:195|350:209|350:209|408:219,1,115.2,8|0,2:0|2:0,0:0:0:0:
402,324,32934,6,0,B|455:297|455:297|487:220|487:220|465:145,1,201.599993847656,4|0,1:2|2:0,0:0:0:0:
422,23,33277,2,0,L|409:121,1,67.1999979492188,10|0,2:1|2:0,0:0:0:0:
379,214,33448,1,0,0:0:0:0:
379,214,33534,1,2,2:1:0:0:
379,214,33620,2,0,L|309:254,1,67.1999979492188,2|0,2:0|2:0,0:0:0:0:
182,312,33791,2,0,L|252:352,1,67.1999979492188,2|0,3:1|2:0,0:0:0:0:
195,224,33962,2,0,B|87:214|110:305|-5:304,1,201.599993847656,10|2,2:1|2:0,0:0:0:0:
32,173,34305,6,0,P|46:137|71:111,1,67.1999979492188,0|0,1:0|2:0,0:0:0:0:
206,29,34477,1,0,0:0:0:0:
206,29,34562,1,0,0:0:0:0:
206,29,34648,2,0,P|217:80|200:120,1,67.1999979492188,10|0,2:1|2:0,0:0:0:0:
195,224,34820,1,0,0:0:0:0:
195,224,34905,2,0,P|258:239|287:312,1,134.399995898438,2|2,2:1|2:3,0:0:0:0:
199,363,35162,2,0,P|154:334|144:299,1,67.1999979492188,2|0,3:1|2:0,0:0:0:0:
64,102,35334,2,0,P|24:183|135:151,1,244.80000466919,10|2,2:1|2:0,0:0:0:0:
274,253,35677,6,0,B|221:260|195:223|195:223|172:263|131:290|86:299|35:290,1,244.80000466919,0|2,3:0|2:0,0:0:0:0:
3,270,36020,2,0,P|45:292|84:287,1,67.1999979492188,8|0,2:0|2:0,0:0:0:0:
241,141,36191,1,0,0:0:0:0:
301,83,36277,2,0,B|270:61|270:61|248:95|248:95|263:135|263:135|253:204,1,163.200003112793,2|0,3:1|3:0,0:0:0:0:
438,222,36534,1,2,3:1:0:0:
438,222,36620,1,2,2:0:0:0:
438,222,36705,2,0,B|398:215|366:243|366:243|316:223|316:223|277:254|277:254|238:246|178:275,1,244.80000466919,8|2,1:0|2:0,0:0:0:0:
124,363,37048,6,0,P|93:325|86:287,1,81.6000015563965,0|0,3:0|2:0,0:0:0:0:
133,30,37220,1,2,2:0:0:0:
133,30,37305,1,2,2:0:0:0:
133,30,37391,2,0,P|164:75|161:122,1,81.6000015563965,8|0,2:0|2:0,0:0:0:0:
97,172,37562,1,0,3:0:0:0:
97,189,37648,1,0,3:0:0:0:
98,205,37734,2,0,L|218:197,1,81.6000015563965,0|0,3:0|1:0,0:0:0:0:
317,24,37905,6,0,B|282:58|282:58|311:111,1,91.1999975646973,2|0,3:1|2:0,0:0:0:0:
465,245,38077,2,0,B|500:211|500:211|471:158,1,91.1999975646973,10|0,2:1|2:0,0:0:0:0:
402,93,38248,2,0,L|386:224,1,91.1999975646973,2|0,1:0|2:0,0:0:0:0:
251,297,38420,6,0,B|359:207|359:324|477:236,1,230.4,4|0,1:2|2:0,0:0:0:0:
404,291,38762,2,0,L|311:283,1,76.8,10|0,2:1|0:0,0:0:0:0:
104,241,39020,1,2,2:1:0:0:
112,262,39105,2,0,L|212:271,1,67.1999979492188,2|0,2:0|2:0,0:0:0:0:
349,190,39277,2,0,L|249:199,1,67.1999979492188,2|0,3:1|2:0,0:0:0:0:
155,74,39448,2,0,B|209:30|209:30|189:206,1,230.4,10|2,2:1|2:0,0:0:0:0:
346,228,39791,6,0,B|261:234|261:234|215:272|215:272|123:293,1,230.4,0|0,1:0|2:0,0:0:0:0:
226,308,40134,2,0,L|338:301,1,76.8,10|0,2:1|0:0,0:0:0:0:
438,177,40391,2,0,B|464:217|464:217|444:323,1,134.399995898438,2|2,2:1|2:3,0:0:0:0:
346,228,40648,2,0,L|352:152,1,67.1999979492188,2|0,3:1|2:0,0:0:0:0:
295,19,40820,2,0,L|290:89,1,38.4,10|0,2:1|2:0,0:0:0:0:
188,140,40991,1,2,2:0:0:0:
188,140,41077,1,2,2:0:0:0:
188,140,41162,6,0,P|156:92|156:57,1,67.1999979492188,0|0,3:0|2:0,0:0:0:0:
258,201,41334,2,0,P|241:229|188:254,1,67.1999979492188,2|0,1:3|2:0,0:0:0:0:
25,216,41505,2,0,B|75:198|75:198|124:226,1,96,10|0,2:1|2:0,0:0:0:0:
74,312,41677,5,2,2:1:0:0:
73,297,41762,1,0,1:0:0:0:
70,283,41848,2,0,L|58:344,1,48,2|0,1:2|2:0,0:0:0:0:
197,325,42020,2,0,L|209:386,1,48,2|0,1:2|2:0,0:0:0:0:
315,325,42191,2,0,L|305:372,1,48,8|0,2:0|2:0,0:0:0:0:
442,283,42362,2,0,L|451:330,1,48,0|0,3:0|2:0,0:0:0:0:
256,223,42534,6,0,B|380:211|353:296|454:281,1,201.599993847656,0|0,3:0|3:0,0:0:0:0:
450,168,42877,2,0,P|455:137|444:85,1,67.1999979492188,8|0,2:0|2:0,0:0:0:0:
299,91,43048,5,2,3:1:0:0:
298,105,43134,1,8,3:0:0:0:
227,82,43220,2,0,L|140:73,1,76.8,8|0,2:3|2:0,0:0:0:0:
57,156,43391,5,0,0:0:0:0:
54,172,43477,1,2,2:0:0:0:
131,165,43562,2,0,L|235:176,1,67.1999979492188,8|0,2:0|2:0,0:0:0:0:
254,303,43734,2,0,P|217:324|171:326,1,67.1999979492188,0|0,3:0|2:0,0:0:0:0:
11,269,43905,6,0,B|125:247|92:355|219:324,1,201.599993847656,4|0,1:2|2:0,0:0:0:0:
188,179,44248,2,0,P|153:200|222:224,1,163.200003112793,10|0,2:1|0:0,0:0:0:0:
412,134,44505,1,2,2:1:0:0:
433,162,44591,2,0,L|337:151,1,81.6000015563965,2|0,2:0|2:0,0:0:0:0:
106,188,44762,2,0,L|202:177,1,81.6000015563965,2|0,3:1|2:0,0:0:0:0:
296,48,44934,2,0,B|256:14|256:14|276:215,1,244.80000466919,10|2,2:1|2:0,0:0:0:0:
339,337,45277,6,0,B|307:328|293:303|293:303|238:311|238:311|209:265|209:265|175:270|130:253,1,216.000008239746,0|0,1:0|2:0,0:0:0:0:
162,262,45620,1,10,2:1:0:0:
215,99,45791,5,0,0:0:0:0:
215,99,45877,2,0,B|321:132|321:132|290:152,1,144.000005493164,2|2,2:1|2:3,0:0:0:0:
269,267,46134,2,0,L|347:308,1,72.0000027465821,2|0,3:1|2:0,0:0:0:0:
457,231,46305,2,0,B|398:247|398:247|308:200|308:200|291:144,1,216.000008239746,10|2,2:1|2:0,0:0:0:0:
407,162,46648,6,0,B|495:209|495:209|450:234,1,144.000005493164,0|2,3:0|2:0,0:0:0:0:
269,267,46991,2,0,L|254:341,1,62.3999971435548,10|0,2:1|2:0,0:0:0:0:
128,360,47162,1,0,0:0:0:0:
128,360,47248,1,0,3:0:0:0:
128,360,47334,2,0,L|113:286,1,62.3999971435548,0|2,0:0|2:0,0:0:0:0:
210,144,47505,1,0,3:0:0:0:
209,159,47591,1,0,3:0:0:0:
250,232,47677,2,0,P|176:189|123:264,1,187.199991430664,8|2,1:0|2:0,0:0:0:0:
122,256,48020,6,0,B|138:141|91:79|91:79|88:124|75:150,1,230.4,0|2,3:0|2:0,0:0:0:0:
15,95,48362,2,0,L|95:79,1,76.8,8|0,2:0|2:0,0:0:0:0:
254,26,48534,1,0,3:0:0:0:
254,26,48620,1,0,3:0:0:0:
254,26,48705,1,0,3:0:0:0:
251,283,48877,6,0,P|291:279|312:272,1,48,2|0,3:1|2:0,0:0:0:0:
387,153,49048,2,0,P|363:120|346:105,1,48,10|0,2:1|2:0,0:0:0:0:
167,106,49220,2,0,P|150:142|146:164,1,48,2|0,1:0|2:0,0:0:0:0:
240,360,49391,6,0,L|268:129,1,201.599993847656,4|0,1:2|2:0,0:0:0:0:
379,23,49734,2,0,B|418:50|418:50|417:125|417:125|373:165,1,163.200003112793,10|0,2:1|0:0,0:0:0:0:
192,224,49991,2,0,B|230:201|265:159|265:159|258:190|277:225,1,163.200003112793,2|0,2:1|2:0,0:0:0:0:
494,83,50248,2,0,B|451:69|451:69|393:83,1,81.6000015563965,2|0,3:1|2:0,0:0:0:0:
209,78,50420,1,10,2:1:0:0:
197,124,50505,1,0,0:0:0:0:
160,156,50591,1,2,2:0:0:0:
112,159,50677,1,2,2:0:0:0:
100,77,50762,6,0,B|87:120|118:162|118:162|84:158|84:158|107:212|75:268,1,216.000008239746,0|0,1:0|2:0,0:0:0:0:
17,217,51105,2,0,B|101:205|79:289|187:270,1,163.200003112793,10|0,2:1|0:0,0:0:0:0:
255,328,51362,2,0,P|195:295|137:360,1,163.200003112793,2|2,2:1|2:3,0:0:0:0:
356,360,51620,2,0,P|375:324|370:260,1,81.6000015563965,2|0,3:1|2:0,0:0:0:0:
273,171,51791,1,10,2:1:0:0:
318,183,51876,1,0,0:0:0:0:
363,166,51962,1,2,2:0:0:0:
389,125,52048,1,2,2:0:0:0:
311,104,52134,6,0,B|249:82|249:82|163:105,1,144,0|2,3:0|2:0,0:0:0:0:
50,228,52477,5,8,1:0:0:0:
66,231,52562,1,8,2:3:0:0:
76,160,52648,5,0,1:0:0:0:
91,162,52734,1,8,2:3:0:0:
102,92,52820,6,0,L|179:102,1,72.0000027465821,2|0,1:2|2:0,0:0:0:0:
175,200,52991,6,0,L|176:253,1,38.4,10|0,1:2|2:0,0:0:0:0:
374,186,53162,2,0,L|354:248,1,38.4,8|0,2:0|2:0,0:0:0:0:
266,310,53334,2,0,L|262:362,1,38.4,8|0,3:1|2:0,0:0:0:0:
99,321,53505,5,0,0:0:0:0:
430,269,53848,1,2,2:0:0:0:
245,53,54191,1,8,0:0:0:0:
204,131,54362,5,2,2:0:0:0:
241,138,54447,1,2,2:0:0:0:
279,134,54533,1,2,2:0:0:0:
180,150,54705,5,0,3:0:0:0:
239,172,54790,1,2,2:0:0:0:
300,150,54877,2,0,B|260:149|252:129|252:129|238:135|238:135|229:125|229:125|215:132|215:132|174:154|110:117,1,172.799994726563,4|0,3:2|2:0,0:0:0:0:
68,79,55220,2,0,B|40:111|40:111|61:167,1,76.8,8|0,2:0|2:0,0:0:0:0:
184,321,55391,5,0,3:0:0:0:
184,321,55477,1,0,0:0:0:0:
184,321,55562,2,0,B|140:292|140:292|46:304,1,134.399995898438,2|0,3:1|0:0,0:0:0:0:
297,240,55820,1,2,2:1:0:0:
297,318,55905,2,0,P|320:345|358:358,1,67.1999979492188,8|0,2:0|2:0,0:0:0:0:
431,257,56077,1,2,3:1:0:0:
431,257,56162,1,0,3:0:0:0:
431,257,56248,6,0,L|343:283,1,67.1999979492188,0|0,3:0|2:0,0:0:0:0:
282,135,56420,2,0,L|367:111,1,67.1999979492188,0|0,3:0|2:0,0:0:0:0:
483,147,56591,2,0,B|426:159|426:159|397:184|397:184|301:210,1,153.6,8|2,2:0|2:0,0:0:0:0:
212,175,56848,2,0,P|204:117|220:83,1,76.8,0|0,3:0|0:0,0:0:0:0:
474,70,57105,6,0,L|484:163,1,76.8,0|0,3:0|2:0,0:0:0:0:
404,275,57277,1,8,2:0:0:0:
431,102,57448,2,0,L|422:19,1,76.8,2|0,2:0|2:0,0:0:0:0:
270,270,57620,6,0,B|287:281|318:271|318:271|345:289|345:289|371:277|371:277|391:268|432:281,1,144,0|0,3:0|2:0,0:0:0:0:
394,184,57962,2,0,B|370:161|353:130|353:130|337:209|337:209|352:245|343:309,1,230.4,8|0,2:0|3:0,0:0:0:0:
172,260,58305,2,0,B|203:261|215:280|215:280|237:280|246:259|246:259|263:277|301:263,2,115.199996484375,2|2|0,1:0|2:1|0:0,0:0:0:0:
96,233,58648,2,0,P|29:189|15:156,1,100.799996923828,10|2,2:1|2:0,0:0:0:0:
119,72,58991,6,0,P|88:122|172:92,1,201.599993847656,0|2,3:0|2:0,0:0:0:0:
183,84,59334,2,0,P|153:102|171:52,1,96,8|0,2:0|3:0,0:0:0:0:
309,52,59591,1,0,3:0:0:0:
302,126,59677,2,0,L|292:221,1,67.1999979492188,0|0,1:0|2:0,0:0:0:0:
228,341,59848,2,0,P|199:324|178:291,1,67.1999979492188,0|0,0:0|2:0,0:0:0:0:
483,210,60020,2,0,B|369:176|377:287|256:269,1,244.80000466919,8|2,2:0|2:3,0:0:0:0:
138,241,60362,6,0,P|114:247|180:275,1,201.599993847656,4|0,3:2|2:0,0:0:0:0:
219,170,60705,2,0,P|223:142|217:89,1,67.1999979492188,8|0,2:0|2:0,0:0:0:0:
18,135,60877,1,0,3:0:0:0:
18,135,60962,1,0,0:0:0:0:
18,135,61048,2,0,B|77:117|77:117|163:139,1,134.399995898438,2|0,3:1|0:0,0:0:0:0:
346,75,61305,1,2,2:1:0:0:
285,121,61391,2,0,L|190:95,1,67.1999979492188,8|0,2:0|2:0,0:0:0:0:
72,225,61562,2,0,L|159:246,1,67.1999979492188,2|0,3:1|3:0,0:0:0:0:
299,286,61734,6,0,P|308:322|297:365,1,57.5999982421876,0|0,3:0|2:0,0:0:0:0:
140,297,61905,2,0,P|134:269|143:224,1,57.5999982421876,0|0,3:0|2:0,0:0:0:0:
220,103,62077,2,0,B|267:69|267:69|229:256,1,230.4,8|0,2:0|3:0,0:0:0:0:
208,355,62420,1,0,0:0:0:0:
330,168,62591,6,0,L|351:65,1,76.8,0|0,3:0|2:0,0:0:0:0:
125,48,62762,2,0,B|65:62|65:62|166:115|166:115|231:100,1,230.4,8|0,2:0|2:0,0:0:0:0:
349,73,63105,6,0,B|294:72|294:72|261:105|261:105|194:100,1,144,0|0,3:0|2:0,0:0:0:0:
168,227,63448,2,0,P|197:185|244:287,1,230.4,8|0,2:0|3:0,0:0:0:0:
151,313,63791,2,0,B|176:307|176:307|193:349|239:361|239:361|257:383,2,115.199996484375,2|2|0,1:0|2:1|0:0,0:0:0:0:
81,370,64134,2,0,B|57:321|75:278|75:278|92:236|73:186,1,172.799994726563,10|2,2:1|2:0,0:0:0:0:
27,104,64477,5,0,3:0:0:0:
168,227,64648,1,0,3:0:0:0:
185,27,64820,2,0,L|172:139,1,72.0000027465821,8|0,2:0|2:0,0:0:0:0:
168,227,64991,1,0,0:0:0:0:
168,227,65077,2,0,P|230:213|254:202,1,72.0000027465821,0|2,3:0|2:0,0:0:0:0:
405,123,65248,6,0,P|370:114|351:114,1,48,0|0,3:0|2:0,0:0:0:0:
266,129,65505,2,0,B|381:98|356:223|504:204,1,230.4,12|0,2:0|2:0,0:0:0:0:
445,278,65848,6,0,B|440:239|471:206|471:206|386:230|379:310,1,201.599993847656,0|0,0:0|2:0,0:0:0:0:
295,384,66191,2,0,L|315:306,1,67.1999979492188,4|0,3:2|2:0,0:0:0:0:
266,129,66363,1,0,3:2:0:0:
266,129,66448,1,0,0:0:0:0:
266,129,66534,2,0,B|285:171|285:171|262:274,1,134.399995898438,2|0,3:1|0:0,0:0:0:0:
176,206,66791,1,2,2:1:0:0:
98,224,66877,2,0,L|3:250,1,67.1999979492188,8|0,2:0|2:0,0:0:0:0:
136,324,67048,2,0,L|223:345,1,67.1999979492188,2|0,3:1|3:0,0:0:0:0:
363,342,67220,6,0,P|380:312|387:272,1,57.5999982421876,0|0,3:0|2:0,0:0:0:0:
265,128,67391,1,0,3:0:0:0:
397,134,67562,2,0,B|360:134|337:109|337:109|305:139|244:123,1,144.000005493164,8|2,2:0|2:0,0:0:0:0:
143,83,67820,1,0,3:0:0:0:
143,83,67905,2,0,P|137:123|149:160,1,57.5999982421876,0|0,0:0|2:0,0:0:0:0:
223,280,68077,1,0,3:0:0:0:
279,48,68248,1,8,2:0:0:0:
452,208,68420,1,2,2:0:0:0:
236,133,68591,6,0,P|184:191|186:242,1,100.799996923828,0|0,3:0|2:0,0:0:0:0:
258,206,68934,2,0,B|216:192|184:210|184:210|189:185|189:185|144:208|106:207|71:186,1,216.000008239746,8|0,2:0|3:0,0:0:0:0:
88,88,69277,2,0,P|136:126|165:69,2,115.199996484375,2|2|0,1:0|2:1|0:0,0:0:0:0:
23,128,69620,2,0,B|-5:165|-5:165|1:246,1,100.799996923828,10|2,2:1|2:0,0:0:0:0:
134,296,69962,6,0,P|165:346|81:316,1,201.599993847656,0|2,3:0|2:0,0:0:0:0:
70,308,70305,2,0,P|100:326|82:276,1,96,8|0,2:0|3:0,0:0:0:0:
79,190,70562,2,0,L|187:182,1,76.8,0|0,3:0|1:0,0:0:0:0:
343,120,70762,5,2,2:0:0:0:
262,66,70877,5,2,2:0:0:0:
264,174,70991,6,0,P|233:133|171:203,1,172.799994726563,8|2,2:0|2:0,0:0:0:0:
336,229,71334,6,0,B|298:239|272:274|272:274|235:256|235:256|209:283|209:283|165:265|133:299,1,216.000008239746,4|0,3:2|2:0,0:0:0:0:
244,372,71677,2,0,P|248:344|242:291,1,67.1999979492188,8|0,2:0|2:0,0:0:0:0:
100,215,71848,1,0,3:0:0:0:
100,215,71934,1,0,0:0:0:0:
100,215,72020,2,0,B|70:240|70:240|60:300|60:300|87:341,1,134.399995898438,2|0,3:1|0:0,0:0:0:0:
299,300,72277,1,2,2:1:0:0:
220,290,72362,2,0,L|139:281,1,67.1999979492188,8|0,2:0|2:0,0:0:0:0:
1,363,72534,2,0,L|82:354,1,67.1999979492188,2|0,3:1|3:0,0:0:0:0:
237,379,72705,6,0,P|239:346|229:297,1,67.1999979492188,0|0,3:0|2:0,0:0:0:0:
102,206,72877,1,0,3:0:0:0:
315,208,73048,2,0,B|261:180|261:180|149:200,1,134.399995898438,8|2,2:0|2:0,0:0:0:0:
90,124,73305,2,0,L|243:98,1,134.399995898438,0|2,3:0|2:3,0:0:0:0:
387,160,73562,6,0,P|399:197|397:253,1,67.1999979492188,0|0,3:0|2:0,0:0:0:0:
354,356,73734,1,8,2:0:0:0:
385,145,73905,2,0,P|394:107|419:67,1,67.1999979492188,2|0,2:0|2:0,0:0:0:0:
481,228,74077,2,0,B|380:217|404:282|276:269,1,172.799994726563,0|0,3:0|3:0,0:0:0:0:
240,210,74420,2,0,B|192:268|192:268|235:328,1,144,0|0,0:0|2:0,0:0:0:0:
332,193,74762,2,0,L|329:168,14,16.7999994873047,8|0|0|0|0|0|0|0|0|0|0|0|0|0|0,2:0|0:0|0:0|0:0|0:0|0:0|0:0|0:0|0:0|0:0|0:0|0:0|0:0|0:0|0:0,0:0:0:0:
221,93,75448,6,0,L|284:90,1,33.5999989746094,0|0,3:0|2:0,0:0:0:0:
374,88,75620,1,0,3:0:0:0:
374,88,75705,1,0,3:0:0:0:
333,208,75877,1,0,3:0:0:0:
333,208,75962,2,0,L|322:261,1,33.5999989746094,0|0,3:0|2:0,0:0:0:0:
272,348,76134,2,0,L|267:327,9,16.7999994873047,8|0|0|0|0|0|0|0|0|0,2:0|0:0|0:0|0:0|0:0|0:0|0:0|0:0|0:0|0:0,0:0:0:0:
358,316,76562,2,0,P|395:281|402:271,1,48,0|0,3:0|2:0,0:0:0:0:
444,207,76820,5,4,2:0:0:0:
150,157,86420,6,0,L|275:154,1,96,0|0,1:0|0:0,0:0:0:0:
399,84,86762,1,0,0:0:0:0:
372,64,86847,1,2,2:3:0:0:
339,68,86933,1,0,3:0:0:0:
318,92,87019,1,0,3:0:0:0:
318,125,87104,1,2,2:0:0:0:
409,213,87277,1,0,0:0:0:0:
409,231,87362,1,0,0:0:0:0:
408,248,87448,1,8,2:0:0:0:
481,350,87620,1,2,2:3:0:0:
355,345,87791,6,0,L|247:338,1,96,4|0,1:2|0:0,0:0:0:0:
137,289,88134,1,0,3:0:0:0:
151,289,88391,2,0,L|138:396,1,96,0|0,3:0|2:0,0:0:0:0:
54,383,88648,2,0,L|63:318,1,48,0|0,3:0|2:0,0:0:0:0:
0,225,88820,2,0,B|58:214|97:225|97:225|79:236|66:264,1,144,0|0,1:0|2:0,0:0:0:0:
237,162,89162,6,0,B|179:151|140:162|140:162|158:173|171:201,1,144,0|0,1:0|2:0,0:0:0:0:
98,226,89505,1,0,3:0:0:0:
352,226,89762,2,0,L|481:223,1,96,0|0,3:0|2:0,0:0:0:0:
496,128,90020,2,0,L|442:129,1,48,0|0,3:0|2:0,0:0:0:0:
361,125,90191,2,0,P|316:159|369:227,1,144,8|0,1:2|2:0,0:0:0:0:
351,225,90534,6,0,L|342:372,1,144,0|0,1:0|2:0,0:0:0:0:
257,331,90877,1,0,3:0:0:0:
257,316,91134,2,0,L|156:309,1,96,2|2,3:1|2:1,0:0:0:0:
97,265,91391,2,0,P|125:241|148:229,1,48,0|2,0:0|2:1,0:0:0:0:
231,95,91562,2,0,B|204:138|204:138|216:261,1,144,0|0,1:0|2:0,0:0:0:0:
318,383,91905,6,0,B|345:340|345:340|333:217,1,144,0|0,1:0|2:0,0:0:0:0:
416,149,92248,1,0,3:0:0:0:
418,132,92505,2,0,P|370:138|339:193,1,96,2|0,3:1|2:0,0:0:0:0:
447,226,92762,2,0,P|478:198|487:181,1,48,0|0,3:0|2:0,0:0:0:0:
324,188,92934,2,0,B|239:169|243:236|159:234,1,172.799994726563,8|0,1:2|2:0,0:0:0:0:
59,217,93277,5,0,1:0:0:0:
62,200,93362,1,0,3:0:0:0:
66,183,93448,1,0,3:0:0:0:
69,166,93534,1,0,3:0:0:0:
51,118,93620,2,0,L|39:185,1,38.4,0|0,3:0|3:0,0:0:0:0:
167,117,93791,2,0,L|179:184,1,38.4,0|0,3:0|3:0,0:0:0:0:
211,292,93962,5,0,3:0:0:0:
211,309,94048,1,0,3:0:0:0:
211,326,94134,1,0,3:0:0:0:
212,344,94219,1,0,3:0:0:0:
183,367,94305,2,0,P|164:345|155:322,1,38.4,0|0,3:0|3:0,0:0:0:0:
286,255,94477,2,0,P|307:259|340:278,1,38.4,0|0,3:0|3:0,0:0:0:0:
424,354,94648,5,0,3:0:0:0:
424,336,94733,1,0,3:0:0:0:
424,319,94819,1,0,3:0:0:0:
424,302,94905,1,0,3:0:0:0:
456,273,94991,2,0,P|468:244|473:225,1,38.4,0|0,3:0|3:0,0:0:0:0:
434,110,95162,2,0,P|423:138|418:164,1,38.4,0|0,3:0|3:0,0:0:0:0:
327,200,95334,5,0,3:0:0:0:
296,191,95419,1,0,3:0:0:0:
269,183,95505,1,0,3:0:0:0:
240,176,95591,1,0,3:0:0:0:
170,144,95677,2,0,P|212:139|240:141,1,57.5999982421876,8|0,3:2|3:0,0:0:0:0:
367,278,95848,2,0,P|325:283|297:281,1,57.5999982421876,0|0,3:0|3:0,0:0:0:0:
115,253,96020,5,4,3:2:0:0:
207,50,96191,1,10,2:1:0:0:
194,291,96362,5,8,3:2:0:0:
121,71,96534,1,10,2:1:0:0:
271,329,96705,5,8,3:2:0:0:
36,92,96876,1,10,2:1:0:0:
46,207,97048,5,8,3:2:0:0:
284,32,97219,1,10,2:1:0:0:
384,263,97391,6,0,L|236:248,1,115.199996484375,4|0,1:2|0:0,0:0:0:0:
379,282,98077,6,0,L|231:267,1,115.199996484375,4|0,1:2|0:0,0:0:0:0:
15,205,98420,2,0,L|108:214,1,72,8|0,2:0|2:0,0:0:0:0:
167,226,98762,6,0,B|133:181|133:181|137:224|117:268|117:268|124:291|114:336,1,192,14|0,3:2|0:0,0:0:0:0:
202,378,99020,1,0,0:0:0:0:
202,378,99105,2,0,L|205:299,1,72.0000027465821,8|0,2:0|2:0,0:0:0:0:
211,90,99277,1,2,2:1:0:0:
211,90,99362,2,0,P|262:121|285:153,1,72.0000027465821,0|0,3:0|0:0,0:0:0:0:
133,182,99534,1,2,1:0:0:0:
133,182,99620,2,0,P|90:177|59:158,1,72.0000027465821,0|2,0:0|2:1,0:0:0:0:
135,17,99791,6,0,L|117:116,1,72.0000027465821,8|0,2:0|2:0,0:0:0:0:
211,214,99962,2,0,L|229:313,1,72.0000027465821,2|0,2:0|2:0,0:0:0:0:
208,364,100134,6,0,B|260:368|285:335|285:335|318:338|342:365,1,144.000005493164,0|0,3:0|0:0,0:0:0:0:
492,354,100391,1,0,0:0:0:0:
492,354,100477,2,0,L|390:366,1,72.0000027465821,8|0,2:0|2:0,0:0:0:0:
383,263,100648,1,2,2:1:0:0:
383,263,100734,2,0,P|395:213|422:172,1,72.0000027465821,0|0,3:0|0:0,0:0:0:0:
458,48,100905,1,2,3:1:0:0:
458,48,100991,2,0,P|466:92|464:144,1,72.0000027465821,0|2,0:0|3:1,0:0:0:0:
304,120,101162,5,8,2:0:0:0:
300,138,101248,1,2,3:1:0:0:
237,228,101334,5,2,3:0:0:0:
232,210,101419,1,0,0:0:0:0:
202,117,101505,6,0,B|70:99|70:99|104:122|122:151,1,192,0|0,3:0|0:0,0:0:0:0:
60,253,101762,1,0,0:0:0:0:
60,253,101848,2,0,P|43:214|43:181,1,72.0000027465821,8|0,2:0|2:0,0:0:0:0:
176,290,102020,1,2,2:1:0:0:
176,290,102106,2,0,P|193:329|193:362,1,72.0000027465821,0|0,3:0|0:0,0:0:0:0:
31,348,102277,1,2,1:0:0:0:
31,348,102362,2,0,P|95:346|114:331,1,72.0000027465821,0|2,3:0|2:1,0:0:0:0:
344,234,102534,6,0,L|260:225,1,72.0000027465821,8|0,2:0|2:0,0:0:0:0:
73,102,102705,2,0,L|157:111,1,72.0000027465821,2|0,2:0|2:0,0:0:0:0:
315,120,102877,6,0,B|269:100|228:133|228:133|204:187|123:197,1,192,0|0,3:0|0:0,0:0:0:0:
29,243,103134,1,0,0:0:0:0:
29,243,103220,2,0,P|74:263|87:290,1,72.0000027465821,8|0,2:0|2:0,0:0:0:0:
160,379,103391,1,2,2:1:0:0:
160,379,103477,2,0,P|180:334|207:321,1,72.0000027465821,0|0,3:0|0:0,0:0:0:0:
344,234,103648,1,2,3:1:0:0:
344,234,103734,6,0,L|243:218,1,72.0000027465821,0|2,0:0|3:1,0:0:0:0:
81,180,103905,2,0,L|182:196,1,72.0000027465821,8|2,2:0|3:1,0:0:0:0:
262,46,104077,2,0,B|236:67|236:67|231:120,1,72.0000027465821,2|0,3:0|2:0,0:0:0:0:
392,315,104248,6,0,B|436:283|436:283|442:193|442:193|400:155,1,192,4|0,3:2|0:0,0:0:0:0:
272,229,104505,1,0,0:0:0:0:
272,229,104591,2,0,L|367:235,1,72.0000027465821,8|0,2:0|2:0,0:0:0:0:
261,349,104762,1,2,2:1:0:0:
261,349,104848,2,0,L|166:355,1,72.0000027465821,0|0,3:0|0:0,0:0:0:0:
79,248,105020,1,2,1:0:0:0:
79,248,105106,2,0,L|174:254,1,72.0000027465821,0|2,0:0|2:1,0:0:0:0:
286,223,105277,6,0,P|285:176|265:135,1,72.0000027465821,8|0,2:0|2:0,0:0:0:0:
180,30,105448,2,0,P|145:67|134:104,1,72.0000027465821,2|0,2:0|2:0,0:0:0:0:
164,255,105620,6,0,P|206:221|118:209,1,192,0|0,3:0|0:0,0:0:0:0:
92,333,105877,1,0,0:0:0:0:
92,333,105962,2,0,B|56:335|56:335|19:362,1,72.0000027465821,8|0,2:0|2:0,0:0:0:0:
252,375,106134,1,2,2:1:0:0:
252,375,106220,1,0,3:0:0:0:
252,375,106305,2,0,B|250:339|250:339|223:302,1,72.0000027465821,0|2,0:0|3:1,0:0:0:0:
121,189,106477,2,0,L|224:177,1,72.0000027465821,0|2,0:0|3:1,0:0:0:0:
448,159,106648,5,8,2:0:0:0:
448,174,106734,1,2,3:1:0:0:
364,228,106820,5,2,3:0:0:0:
356,215,106905,1,0,0:0:0:0:
353,121,106991,6,0,B|325:170|325:170|321:296,1,144.000005493164,4|0,3:2|3:0,0:0:0:0:
424,361,107248,1,0,0:0:0:0:
424,361,107334,2,0,P|383:336|346:329,1,72.0000027465821,8|0,2:0|2:0,0:0:0:0:
123,337,107505,5,0,0:0:0:0:
123,337,107591,1,0,1:0:0:0:
123,337,107677,2,0,P|165:313|218:314,1,76.8,0|0,0:0|2:0,0:0:0:0:
407,207,107848,5,0,1:0:0:0:
407,207,107933,1,0,0:0:0:0:
407,207,108020,2,0,P|354:193|303:204,1,86.3999973632813,8|2,2:0|2:3,0:0:0:0:
146,18,108191,5,0,0:0:0:0:
146,18,108277,1,2,2:3:0:0:
146,18,108362,2,0,B|118:53|118:53|134:101,1,96,4|0,3:2|2:0,0:0:0:0:
250,19,108534,2,0,B|278:54|278:54|257:114,1,96,0|2,0:0|3:0,0:0:0:0:
85,176,108705,6,0,B|57:211|57:211|73:259,1,96,8|0,2:0|2:0,0:0:0:0:
300,188,108877,2,0,B|328:223|328:223|307:283,1,96,2|0,3:1|2:0,0:0:0:0:
116,356,109048,1,0,0:0:0:0:
116,356,109134,2,0,B|196:298|196:298|276:368,1,192,2|0,3:1|1:0,0:0:0:0:
374,228,109391,5,8,3:2:0:0:
297,221,109476,1,0,3:0:0:0:
220,215,109562,1,0,3:0:0:0:
144,208,109648,1,0,3:0:0:0:
67,202,109733,1,0,1:0:0:0:
205,89,109905,6,0,L|286:85,1,57.5999982421876,2|0,2:1|2:0,0:0:0:0:
385,47,110077,6,0,B|355:23|355:23|341:46|341:46|357:85|341:124|341:124|340:176,1,172.799994726563,4|0,1:2|0:0,0:0:0:0:
443,258,110334,1,0,3:0:0:0:
458,262,110420,2,0,P|411:284|393:332,1,86.3999973632813,0|0,0:0|2:0,0:0:0:0:
155,284,110591,2,0,P|202:306|215:347,1,67.1999979492188,0|0,3:0|2:0,0:0:0:0:
296,370,110762,2,0,B|289:344|303:318|303:318|289:276|289:276|302:253|298:210,1,144,8|0,2:0|2:0,0:0:0:0:
217,167,111105,6,0,B|266:132|266:132|338:135|338:135|405:184,1,192,0|2,1:0|2:1,0:0:0:0:
364,54,111362,1,0,3:0:0:0:
364,54,111448,2,0,L|265:50,1,72.0000027465821,8|0,2:0|2:0,0:0:0:0:
50,144,111620,1,2,2:1:0:0:
50,144,111705,1,0,3:0:0:0:
50,144,111791,2,0,B|120:143|160:107|160:107|126:147|142:200,1,216.000008239746,0|0,0:0|1:0,0:0:0:0:
231,355,112134,5,0,3:0:0:0:
230,339,112220,1,2,2:3:0:0:
279,283,112305,5,2,2:3:0:0:
278,268,112391,1,2,2:3:0:0:
328,212,112477,6,0,B|372:82|372:82|284:152,1,216.000008239746,0|0,1:0|2:0,0:0:0:0:
132,89,112820,2,0,B|153:48|153:48|233:29|233:29|273:52,1,172.799994726563,12|0,1:2|0:0,0:0:0:0:
198,216,113077,1,0,3:0:0:0:
198,216,113162,2,0,L|214:115,1,86.3999973632813,0|0,0:0|2:0,0:0:0:0:
82,243,113334,2,0,L|68:339,1,67.1999979492188,0|0,3:0|2:0,0:0:0:0:
288,330,113505,2,0,B|236:295|236:295|202:304|202:304|120:290,1,144,8|0,2:0|2:0,0:0:0:0:
135,166,113848,5,0,1:0:0:0:
151,149,113933,1,0,0:0:0:0:
173,137,114019,1,2,2:1:0:0:
196,133,114105,1,0,3:0:0:0:
220,136,114190,1,8,2:0:0:0:
241,146,114276,1,0,0:0:0:0:
298,204,114362,5,2,2:1:0:0:
293,281,114448,1,0,3:0:0:0:
287,364,114534,2,0,B|246:353|246:353|209:384,1,81.6000015563965,0|2,0:0|2:1,0:0:0:0:
379,309,114705,2,0,B|411:299|411:299|445:343,1,81.6000015563965,0|0,3:0|1:0,0:0:0:0:
197,258,114877,2,0,B|165:248|165:248|131:292,1,81.6000015563965,0|2,3:0|2:3,0:0:0:0:
288,351,115048,2,0,L|284:405,1,33.5999989746094,2|2,2:3|2:3,0:0:0:0:
404,218,115220,6,0,B|275:236|302:336|184:352,1,244.80000466919,4|0,1:2|2:0,0:0:0:0:
17,279,115562,2,0,P|75:283|49:369,1,163.200003112793,8|0,1:2|0:0,0:0:0:0:
162,247,115820,1,0,3:0:0:0:
162,247,115905,2,0,P|166:264|204:236,1,81.6000015563965,0|0,0:0|2:0,0:0:0:0:
314,101,116077,2,0,P|310:84|274:107,1,72.0000027465821,0|0,3:0|2:0,0:0:0:0:
118,134,116248,2,0,B|167:115|196:130|196:130|220:176|278:186,1,144,8|0,2:0|2:0,0:0:0:0:
400,195,116591,5,0,1:0:0:0:
376,194,116676,1,0,0:0:0:0:
353,203,116762,1,2,2:1:0:0:
336,220,116848,1,0,3:0:0:0:
327,241,116933,1,8,2:0:0:0:
326,265,117019,1,0,0:0:0:0:
334,288,117105,1,2,2:1:0:0:
350,305,117191,1,0,3:0:0:0:
371,315,117276,5,0,0:0:0:0:
344,266,117362,1,2,2:1:0:0:
290,248,117448,1,0,0:0:0:0:
239,271,117534,1,0,1:0:0:0:
171,254,117619,5,0,3:0:0:0:
144,190,117705,1,2,1:0:0:0:
180,130,117791,1,2,1:0:0:0:
250,121,117877,1,2,1:0:0:0:
223,195,117962,6,0,P|216:147|77:133,1,172.799994726563,4|0,1:2|0:0,0:0:0:0:
77,245,118220,1,0,0:0:0:0:
77,245,118305,2,0,P|53:270|118:379,1,172.799994726563,8|0,1:2|0:0,0:0:0:0:
285,339,118562,1,2,3:1:0:0:
285,339,118648,2,0,P|249:289|131:318,1,172.799994726563
363,258,118905,1,0,3:0:0:0:
363,258,118991,6,0,P|385:228|447:210,1,86.3999973632813,10|0,2:1|2:0,0:0:0:0:
254,171,119162,2,0,P|232:141|170:123,1,86.3999973632813,2|0,2:1|2:0,0:0:0:0:
488,79,119334,6,0,B|367:70|361:189|236:170,1,259.199992089844,0|0,1:0|2:0,0:0:0:0:
102,238,119677,5,8,2:0:0:0:
108,251,119762,1,0,0:0:0:0:
124,252,119848,1,0,1:0:0:0:
127,233,119934,1,0,3:0:0:0:
94,225,120020,5,8,3:2:0:0:
103,245,120105,1,0,3:0:0:0:
129,247,120191,1,0,3:0:0:0:
133,217,120277,1,0,3:0:0:0:
80,205,120362,5,8,3:2:0:0:
93,234,120447,1,0,3:0:0:0:
132,238,120533,1,0,3:0:0:0:
138,193,120619,1,0,3:0:0:0:
92,163,120705,5,4,2:0:0:0:
