osu file format v14

[General]
AudioFilename: audio.mp3
AudioLeadIn: 0
PreviewTime: 98677
Countdown: 0
SampleSet: Soft
StackLeniency: 0.2
Mode: 0
LetterboxInBreaks: 0
WidescreenStoryboard: 1

[Editor]
Bookmarks: 10991,12191,21962,27105,32934,43905,54877,65848,76820,87791,109734
DistanceSpacing: 1.1
BeatDivisor: 8
GridSize: 32
TimelineZoom: 2.999999

[Metadata]
Title:Hypersonik
TitleUnicode:Hypersonik
Artist:Eagle
ArtistUnicode:Eagle
Creator:Ascended
Version:Mir's Extra
Source:beatmania IIDX 21 SPADA
Tags:kors k korsk BEMANI electronic instrumental neurofunk drum and bass drumandbass dnb drum&bass beatmania iidx infinitas Flask zhuxiaoyan frostwich frostwhich stwi synderes jas CraEZy Otosaka-Yu OtosakaYu Suzuki_1112 Suzuki1112 Jounzan Natteke_desu Natteke desu Nattekedesu EvilElvisV2 Aistre Alphabet Venax NeilPerry Mir Frey dahkjdas Seolv Lukas [_L_u_k_a_s_] [Lukas] -ascended- -_ascended_- Deppyforce jascended
BeatmapID:3783721
BeatmapSetID:1834293

[Difficulty]
HPDrainRate:5
CircleSize:4
OverallDifficulty:8.5
ApproachRate:9.3
SliderMultiplier:2
SliderTickRate:1

[Events]
//Background and Video events
0,0,"speed.jpg",0,0
//Break Periods
2,77020,85866
//Storyboard Layer 0 (Background)
//Storyboard Layer 1 (Fail)
//Storyboard Layer 2 (Pass)
//Storyboard Layer 3 (Foreground)
//Storyboard Layer 4 (Overlay)
//Storyboard Sound Samples

[TimingPoints]
20,342.857142857143,4,2,7,40,1,0
3277,-333.333333333333,4,2,7,40,0,0
5162,-133.333333333333,4,2,7,40,0,0
5505,-100,4,2,7,60,0,0
10991,-133.333333333333,4,2,7,60,0,0
15791,-66.6666666666667,4,2,7,60,0,0
16477,-133.333333333333,4,2,7,60,0,0
21620,-66.6666666666667,4,2,7,60,0,0
30877,-133.333333333333,4,2,7,60,0,0
31220,-66.6666666666667,4,2,7,60,0,0
31905,-133.333333333333,4,2,7,60,0,0
32420,-66.6666666666667,4,2,7,60,0,0
32591,-333.333333333333,4,2,7,60,0,0
32934,-50,4,2,7,85,0,0
33962,-100,4,2,7,85,0,0
34305,-50,4,2,7,85,0,0
35334,-100,4,2,7,85,0,0
35677,-50,4,2,7,85,0,0
36705,-133.333333333333,4,2,7,85,0,0
37048,-50,4,2,7,85,0,0
37391,-100,4,2,7,85,0,0
37905,-50,4,2,7,85,0,0
39448,-100,4,2,7,85,0,0
39791,-50,4,2,7,85,0,0
42020,-133.333333333333,4,2,7,85,0,0
42705,-50,4,2,7,85,0,0
43562,-100,4,2,7,85,0,0
43905,-50,4,2,7,85,0,0
44934,-100,4,2,7,85,0,0
45277,-50,4,2,7,85,0,0
46305,-100,4,2,7,85,0,0
46648,-50,4,2,7,85,0,0
47677,-100,4,2,7,85,0,0
48020,-50,4,2,7,85,0,0
48362,-100,4,2,7,85,0,0
48877,-50,4,2,7,85,0,0
50420,-100,4,2,7,85,0,0
50762,-50,4,2,7,85,0,0
52134,-133.333333333333,4,2,7,85,0,0
54877,-50,4,2,7,85,0,0
57962,-100,4,2,7,85,0,0
58991,-50,4,2,7,85,0,0
59334,-133.333333333333,4,2,7,85,0,0
59677,-66.6666666666667,4,2,7,85,0,0
60020,-50,4,2,7,85,0,0
63448,-100,4,2,7,85,0,0
64134,-50,4,2,7,85,0,0
64477,-100,4,2,7,85,0,0
64820,-50,4,2,7,85,0,0
65848,-333.333333333333,4,2,7,85,0,0
66191,-50,4,2,7,85,0,0
68934,-100,4,2,7,85,0,0
69620,-50,4,2,7,85,0,0
70305,-133.333333333333,4,2,7,85,0,0
70991,-100,4,2,7,85,0,0
71334,-50,4,2,7,85,0,0
74420,-100,4,2,7,85,0,0
76305,-200,4,2,7,85,0,0
76819,-200,4,2,7,50,0,0
86934,-133.333333333333,4,2,7,50,0,0
87791,-100,4,2,7,50,0,0
93277,-100,4,2,7,60,0,0
97734,-133.333333333333,4,2,7,60,0,0
98248,-100,4,2,7,60,0,0
98420,-333.333333333333,4,2,7,60,0,0
98762,-66.6666666666667,4,2,7,85,0,1
107334,-57.1428571428571,4,2,7,85,0,1
107677,-50,4,2,7,85,0,1
108020,-44.4444444444445,4,2,7,85,0,1
108705,-40,4,2,7,85,0,1
109734,-40,4,2,7,85,0,0
109905,-200,4,2,7,85,0,0
110077,-50,4,2,7,85,0,0
111105,-50,4,2,7,85,0,1
112477,-50,4,2,7,85,0,0
112648,-200,4,2,7,85,0,0
112820,-50,4,2,7,85,0,0
113848,-50,4,2,7,85,0,1
115220,-200,4,2,7,85,0,0
115905,-50,4,2,7,85,0,0
116591,-50,4,2,7,85,0,1
117962,-50,4,2,7,85,0,0

[Colours]
Combo1 : 239,187,135
Combo2 : 239,118,130
Combo3 : 190,109,146
Combo4 : 237,155,135

[HitObjects]
257,343,20,5,0,3:0:0:0:
257,343,362,1,0,3:0:0:0:
256,256,705,1,2,2:0:0:0:
123,153,2420,5,8,2:1:0:0:
216,138,2591,1,2,2:0:0:0:
216,138,2762,1,2,2:0:0:0:
216,138,3277,6,0,L|280:130,1,59.9999981689454,2|0,2:0|2:0,2:0:0:0:
203,61,3791,2,0,L|262:53,1,59.9999981689454,2|0,2:0|2:0,2:0:0:0:
262,53,4991,1,2,2:0:0:0:
67,30,5162,6,0,B|44:62|44:62|83:143,1,112.500004291535,2|0,2:0|2:0,2:0:0:0:
98,131,5505,6,0,L|0:150,1,100,0|0,3:0|2:0,2:0:0:0:
100,353,5848,2,0,L|1:333,1,100,0|0,3:0|2:0,2:0:0:0:
367,246,6191,1,8,2:0:0:0:
367,246,8077,5,2,2:0:0:0:
366,235,8248,1,2,2:0:0:0:
304,181,8762,1,2,2:0:0:0:
390,148,9105,1,2,2:0:0:0:
381,154,9277,1,2,2:0:0:0:
381,154,9620,6,0,L|495:134,2,100,2|2|8,2:0|2:0|2:1,2:0:0:0:
292,25,10305,5,8,2:3:0:0:
194,113,10477,1,8,2:3:0:0:
281,227,10648,1,4,2:3:0:0:
246,306,10820,1,4,2:3:0:0:
37,268,10991,6,0,L|117:247,1,75.0000028610231,6|0,3:2|2:0,2:0:0:0:
239,327,11334,2,0,L|311:346,1,75.0000028610231,2|0,3:2|2:0,2:0:0:0:
211,147,11677,2,0,L|197:236,1,75.0000028610231,10|0,2:0|2:0,2:0:0:0:
209,232,12020,1,0,2:0:0:0:
98,81,12191,2,0,L|112:170,1,75.0000028610231,10|0,2:0|2:0,2:0:0:0:
100,166,12534,1,0,2:0:0:0:
203,51,12705,1,0,3:2:0:0:
203,51,13048,5,10,2:0:0:0:
302,89,13220,1,0,2:0:0:0:
369,30,13391,1,0,2:0:0:0:
410,41,13562,1,0,2:0:0:0:
428,34,13648,1,0,2:0:0:0:
445,27,13734,6,0,L|426:125,1,75.0000028610231,2|0,3:2|2:0,2:0:0:0:
294,103,14077,2,0,L|313:201,1,75.0000028610231,2|0,3:2|2:0,2:0:0:0:
512,234,14420,2,0,B|490:255|490:255|403:239|403:239|374:290,1,150.000005722046,10|0,2:0|2:0,2:0:0:0:
305,364,14934,5,2,3:2:0:0:
302,351,14991,1,2,2:0:0:0:
299,338,15048,1,2,2:0:0:0:
295,325,15105,6,0,L|213:308,1,75.0000028610231,2|0,2:0|3:2,2:0:0:0:
86,290,15448,1,2,3:2:0:0:
86,290,15534,1,0,3:2:0:0:
86,290,15620,1,0,3:2:0:0:
279,224,15791,6,0,B|305:196|305:196|263:53,1,150.000005722046,10|0,2:0|3:2,2:0:0:0:
196,0,16048,2,0,B|164:107|164:107|190:135,1,150.000005722046,10|0,2:0|3:2,2:0:0:0:
375,90,16305,1,8,2:0:0:0:
375,90,16391,1,8,2:0:0:0:
375,90,16477,6,0,L|461:78,1,75.0000028610231,2|0,3:2|2:0,2:0:0:0:
391,210,16820,2,0,L|477:222,1,75.0000028610231,2|0,3:2|2:0,2:0:0:0:
279,224,17162,2,0,B|310:257|310:257|288:365,1,150.000005722046,10|0,2:0|2:0,2:0:0:0:
48,317,17677,2,0,L|222:295,1,150.000005722046,10|0,2:0|2:0,2:0:0:0:
196,298,18191,1,0,3:2:0:0:
40,192,18534,2,0,L|165:207,2,112.500004291535,10|2|0,2:0|2:0|2:0,2:0:0:0:
40,192,19220,6,0,L|28:108,1,75.0000028610231,0|0,3:2|2:0,2:0:0:0:
124,115,19562,2,0,L|134:30,1,75.0000028610231,0|0,3:2|2:0,2:0:0:0:
229,90,19905,5,10,2:0:0:0:
259,9,20077,1,2,3:2:0:0:
345,127,20248,1,10,2:0:0:0:
384,45,20420,1,2,1:2:0:0:
402,42,20505,1,2,1:2:0:0:
420,38,20591,2,0,L|463:29,2,25.0000009536744,0|2|2,3:2|2:0|2:0,2:0:0:0:
345,127,20762,1,10,2:0:0:0:
229,90,20934,6,0,L|215:149,1,37.5000014305115,2|0,3:2|2:0,2:0:0:0:
469,161,21105,2,0,L|483:220,1,37.5000014305115,2|0,3:2|2:0,2:0:0:0:
244,206,21277,1,10,2:0:0:0:
437,271,21448,5,2,2:0:0:0:
439,283,21505,1,2,2:0:0:0:
441,295,21562,1,2,2:0:0:0:
443,307,21620,2,0,B|316:361|356:233|180:321,1,225.000008583069,2|0,3:2|2:0,2:0:0:0:
164,357,21962,5,6,3:2:0:0:
117,275,22134,1,0,2:0:0:0:
23,275,22305,1,0,2:0:0:0:
186,234,22477,5,2,2:0:0:0:
163,193,22648,1,0,2:0:0:0:
116,193,22820,1,0,2:0:0:0:
270,253,22991,5,2,2:0:0:0:
317,171,23162,1,0,2:0:0:0:
411,171,23334,1,0,2:0:0:0:
248,130,23505,5,2,2:0:0:0:
271,89,23677,1,0,2:0:0:0:
318,89,23848,1,0,2:0:0:0:
464,319,24020,5,2,2:0:0:0:
409,195,24191,1,0,2:0:0:0:
286,250,24362,1,0,2:0:0:0:
341,374,24534,1,0,2:0:0:0:
371,296,24705,5,10,2:0:0:0:
373,288,24877,1,0,2:0:0:0:
375,280,25048,1,0,2:0:0:0:
377,272,25220,1,8,2:0:0:0:
146,250,25391,5,2,2:0:0:0:
144,242,25562,1,0,2:0:0:0:
142,234,25734,1,8,2:0:0:0:
140,226,25905,1,0,2:0:0:0:
393,182,26077,5,10,2:0:0:0:
395,174,26248,1,0,2:0:0:0:
397,166,26420,1,0,2:0:0:0:
399,158,26591,1,8,2:0:0:0:
168,136,26762,5,2,2:0:0:0:
166,128,26934,1,0,2:0:0:0:
164,120,27105,1,8,2:0:0:0:
162,112,27277,1,0,2:0:0:0:
425,60,27448,5,10,2:0:0:0:
317,37,27620,1,0,3:2:0:0:
416,81,27791,1,8,2:0:0:0:
311,59,27962,1,0,3:2:0:0:
60,159,28134,5,10,2:0:0:0:
183,135,28305,1,0,3:2:0:0:
69,180,28477,1,8,2:0:0:0:
189,157,28648,1,0,3:2:0:0:
427,209,28820,5,10,2:0:0:0:
286,178,28991,1,0,3:2:0:0:
418,230,29162,1,8,2:0:0:0:
280,200,29334,1,0,3:2:0:0:
60,303,29505,5,10,2:0:0:0:
238,274,29677,1,0,3:2:0:0:
69,324,29848,1,8,2:0:0:0:
244,296,30020,1,0,3:2:0:0:
33,204,30191,5,10,2:0:0:0:
41,202,30277,1,0,3:2:0:0:
49,200,30362,1,0,3:2:0:0:
57,198,30448,1,0,3:2:0:0:
76,207,30534,5,8,2:0:0:0:
93,212,30620,1,0,3:2:0:0:
108,216,30705,1,0,3:2:0:0:
125,220,30791,1,0,3:2:0:0:
148,206,30877,6,0,L|206:196,1,37.5000014305115,8|0,2:0|3:2,2:0:0:0:
245,116,31048,2,0,L|208:123,1,37.5000014305115,0|0,3:2|3:2,2:0:0:0:
44,109,31220,6,0,L|119:122,1,75.0000028610231,8|0,2:0|3:2,2:0:0:0:
341,211,31391,2,0,L|267:198,1,75.0000028610231,0|0,3:2|3:2,2:0:0:0:
16,338,31562,5,2,3:1:0:0:
16,338,31734,2,0,B|49:331|49:331|62:334|62:334|106:324,1,75.0000028610231,0|0,2:0|2:0,2:0:0:0:
171,282,31905,2,0,B|194:314|194:314|169:383,1,112.500004291535,0|0,2:0|2:0,2:0:0:0:
74,216,32248,5,2,3:1:0:0:
74,216,32420,2,0,B|106:209|106:209|120:212|120:212|164:202,1,75.0000028610231,0|0,2:0|2:0,2:0:0:0:
337,321,32591,2,0,P|306:322|284:337,1,44.999998626709,10|0,2:0|2:0,2:0:0:0:
294,354,32934,6,0,P|345:259|369:47,1,300,6|0,3:2|2:0,2:0:0:0:
316,7,33277,1,8,2:0:0:0:
74,168,33448,1,0,2:0:0:0:
70,192,33534,2,0,B|203:220|203:220|275:130,1,200,2|0,3:2|2:0,2:0:0:0:
234,88,33791,2,0,B|219:34|219:34|208:112,1,100,2|0,3:2|2:0,2:0:0:0:
170,325,33962,2,0,P|78:360|38:328,1,150,8|0,2:0|2:0,2:0:0:0:
41,306,34305,6,0,B|109:275|202:295|156:383|259:392|346:339,1,300,2|0,3:2|2:0,2:0:0:0:
379,295,34648,1,8,2:0:0:0:
222,71,34820,1,0,2:0:0:0:
234,88,34905,2,0,B|120:74|181:171|17:138,1,200,2|0,3:2|2:0,2:0:0:0:
55,50,35162,2,0,P|76:21|62:56,1,100,2|0,3:2|2:0,2:0:0:0:
41,306,35334,2,0,P|119:300|109:218,1,150,8|0,2:0|2:0,2:0:0:0:
123,341,35677,6,0,L|446:287,1,300,2|0,3:2|2:0,2:0:0:0:
463,131,36020,2,0,B|517:34|517:34|375:23|375:23|383:68,1,300,10|0,2:0|3:2,2:0:0:0:
382,162,36362,2,0,B|341:164|341:164|331:183|331:183|254:184,1,100,2|0,2:0|2:0,2:0:0:0:
31,105,36534,1,2,3:2:0:0:
31,105,36620,1,2,2:0:0:0:
101,140,36705,6,0,B|123:120|123:120|93:30,1,112.500004291535,10|0,2:0|2:0,2:0:0:0:
7,213,37048,6,0,B|207:164|207:164|185:309,1,300,2|0,3:2|2:0,2:0:0:0:
92,381,37391,2,0,B|57:367|57:367|74:289|74:289|114:280,1,150,10|0,2:0|3:2,2:0:0:0:
376,265,37734,5,2,2:0:0:0:
376,265,37820,1,2,2:0:0:0:
340,337,37905,6,0,B|333:389|333:389|360:341,1,100,2|0,3:2|2:0,2:0:0:0:
319,203,38077,2,0,B|278:171|278:171|306:218,1,100,10|0,2:0|2:0,2:0:0:0:
462,249,38248,2,0,B|511:229|511:229|456:229,1,100,2|0,2:0|2:0,2:0:0:0:
242,294,38420,6,0,B|179:321|179:321|101:175|101:175|22:207|22:207,1,300,6|0,3:2|2:0,2:0:0:0:
7,274,38762,1,8,2:0:0:0:
151,62,38934,1,0,2:0:0:0:
142,83,39020,2,0,L|357:54,1,200,2|0,3:2|2:0,2:0:0:0:
448,71,39277,2,0,B|479:29|479:29|422:64,1,100,2|0,3:2|2:0,2:0:0:0:
266,239,39448,2,0,P|198:236|195:150,1,150,8|0,2:0|2:0,2:0:0:0:
201,167,39791,6,0,P|224:345|105:377,1,300,2|0,3:2|2:0,2:0:0:0:
66,332,40134,1,8,2:0:0:0:
346,279,40305,1,0,2:0:0:0:
355,294,40391,2,0,P|472:285|491:191,1,200,2|0,3:2|2:0,2:0:0:0:
459,142,40648,2,0,P|427:116|450:149,1,100,2|0,3:2|2:0,2:0:0:0:
512,357,40820,1,8,2:0:0:0:
350,188,40991,2,0,L|213:159,1,100,0|0,2:0|2:0,2:0:0:0:
37,128,41162,5,2,3:2:0:0:
208,346,41334,2,0,B|229:300|229:300|179:199,1,100,2|0,2:0|2:0,2:0:0:0:
37,128,41505,2,0,B|0:245|0:245|130:292|130:292|106:243,1,300,10|0,2:0|3:2,2:0:0:0:
112,256,41848,2,0,B|91:302|91:302|141:403,1,100,2|0,2:0|2:0,2:0:0:0:
299,219,42020,6,0,P|317:213|332:201,1,37.5000014305115,2|0,3:2|2:0,2:0:0:0:
235,166,42191,2,0,P|244:149|246:130,1,37.5000014305115,10|0,2:0|2:0,2:0:0:0:
153,174,42362,2,0,P|147:155|135:140,1,37.5000014305115,2|0,3:2|2:0,2:0:0:0:
208,249,42534,5,2,3:2:0:0:
499,136,42705,2,0,L|468:21,1,100,2|0,2:0|3:2,2:0:0:0:
235,166,42877,2,0,B|295:161|295:161|333:228|333:228|395:221,1,200,10|0,2:0|3:2,2:0:0:0:
480,331,43134,1,0,3:2:0:0:
495,319,43220,2,0,B|461:295|461:295|363:333,1,100,8|0,2:3|2:0,2:0:0:0:
227,373,43391,1,4,2:3:0:0:
269,365,43477,1,4,2:3:0:0:
308,360,43562,6,0,L|319:287,1,50,10|0,2:0|2:0,2:0:0:0:
332,228,43734,2,0,L|343:155,1,50,0|0,3:2|2:0,2:0:0:0:
9,210,43905,6,0,B|189:179|9:23|273:20,1,300,6|0,3:2|2:0,2:0:0:0:
300,51,44248,1,8,2:0:0:0:
118,371,44420,1,0,2:0:0:0:
96,361,44505,2,0,P|129:253|207:277,1,200,2|0,3:2|2:0,2:0:0:0:
216,361,44762,2,0,P|267:347|262:270,1,100,2|0,3:2|2:0,2:0:0:0:
209,135,44934,2,0,B|230:182|230:182|335:168,1,150,8|0,2:0|2:0,2:0:0:0:
345,157,45277,6,0,L|22:131,1,300,2|0,3:2|2:0,2:0:0:0:
0,203,45620,1,8,2:0:0:0:
229,12,45791,1,0,2:0:0:0:
219,26,45877,2,0,B|255:36|280:66|280:66|330:32|330:32|344:65|378:73,1,200,2|0,3:2|2:0,2:0:0:0:
469,125,46134,2,0,B|492:102|468:75|468:75|465:113|423:146,1,100,2|0,3:2|2:0,2:0:0:0:
362,305,46305,2,0,L|341:131,1,150,8|0,2:0|2:0,2:0:0:0:
385,315,46648,6,0,B|382:336|382:336|378:339|378:339|375:362,6,50,2|0|0|0|0|0|0,3:2|2:0|2:0|2:0|2:0|2:0|2:0,2:0:0:0:
393,230,46991,2,0,L|508:238,1,100,10|0,2:0|2:0,2:0:0:0:
277,384,47162,1,0,2:0:0:0:
293,365,47248,2,0,B|266:301|266:301|78:314,1,200,2|0,3:2|2:0,2:0:0:0:
0,307,47505,1,2,3:2:0:0:
0,307,47591,1,2,2:0:0:0:
51,373,47677,6,0,B|96:359|96:359|69:248,1,150,10|0,2:0|2:0,2:0:0:0:
293,365,48020,6,0,B|332:319|332:319|276:58,1,300,2|0,3:2|2:0,2:0:0:0:
219,16,48362,2,0,B|217:39|217:39|118:71|118:71|113:96,1,150,10|0,2:0|3:2,2:0:0:0:
87,270,48705,5,2,2:0:0:0:
87,270,48791,1,2,2:0:0:0:
168,289,48877,6,0,B|193:303|217:291|217:291|191:272|170:281,1,100,2|0,3:2|2:0,2:0:0:0:
46,189,49048,2,0,B|29:175|32:143|32:143|55:157|55:184,1,100,10|0,2:0|2:0,2:0:0:0:
27,342,49220,2,0,B|25:365|-3:378|-3:378|-2:351|20:336,1,100,2|0,2:0|2:0,2:0:0:0:
110,36,49391,6,0,P|135:140|327:180,1,300,6|0,3:2|2:0,2:0:0:0:
373,145,49734,1,8,2:0:0:0:
213,374,49905,1,0,2:0:0:0:
196,362,49991,2,0,P|295:305|385:308,1,200,2|0,3:2|2:0,2:0:0:0:
459,339,50248,2,0,P|466:336|450:355,1,100,2|0,3:2|2:0,2:0:0:0:
283,106,50420,2,0,P|332:52|405:57,1,150,8|0,2:0|2:0,2:0:0:0:
406,58,50762,6,0,B|354:109|248:82|292:24|201:-6|118:45,1,300,2|0,3:2|2:0,2:0:0:0:
70,100,51105,1,8,2:0:0:0:
283,295,51277,1,0,2:0:0:0:
302,287,51362,2,0,P|239:194|155:278,1,200,2|0,3:2|2:0,2:0:0:0:
120,286,51620,2,0,B|97:308|99:329|99:329|122:316|124:288,1,100,2|0,3:2|2:0,2:0:0:0:
191,117,51791,1,8,2:0:0:0:
205,329,51962,2,0,B|221:356|214:375|214:375|195:357|200:329,1,100,2|0,2:0|2:0,2:0:0:0:
446,214,52134,6,0,L|507:231,3,37.5000014305115,2|2|2|2,3:2|2:0|2:0|2:0,2:0:0:0:
444,131,52477,5,8,2:3:0:0:
373,171,52562,1,8,2:3:0:0:
319,162,52648,1,0,3:2:0:0:
300,147,52734,1,0,3:2:0:0:
294,135,52820,5,8,2:0:0:0:
372,37,52991,6,0,L|351:103,1,37.5000014305115,2|0,3:2|2:0,2:0:0:0:
264,17,53162,2,0,L|278:84,1,37.5000014305115,2|0,3:2|2:0,2:0:0:0:
184,85,53334,2,0,L|230:136,1,37.5000014305115,2|0,3:2|2:0,2:0:0:0:
309,241,53505,6,0,L|289:126,1,112.500004291535,2|0,3:2|2:0,2:0:0:0:
303,345,53848,2,0,L|283:230,1,112.500004291535,2|0,3:2|2:0,2:0:0:0:
0,356,54191,1,10,2:0:0:0:
64,208,54362,5,2,2:0:0:0:
66,215,54448,1,2,2:0:0:0:
68,222,54534,1,2,2:0:0:0:
149,196,54705,5,2,2:0:0:0:
156,228,54791,1,2,2:0:0:0:
208,294,54877,6,0,B|287:265|287:265|386:322|386:322|481:283,1,300,6|0,3:2|2:0,2:0:0:0:
451,196,55220,2,0,P|458:159|409:88,1,100,10|0,2:0|2:0,2:0:0:0:
346,120,55391,2,0,P|339:157|388:228,1,100,2|0,3:2|2:0,2:0:0:0:
377,14,55562,6,0,P|287:37|143:49,1,200,2|0,3:2|2:0,2:0:0:0:
33,65,55820,1,2,3:2:0:0:
44,57,55905,2,0,P|87:73|104:131,1,100,8|0,2:0|2:0,2:0:0:0:
212,134,56077,2,0,P|195:177|138:194,1,100,2|0,3:2|2:0,2:0:0:0:
0,220,56248,6,0,B|119:221|44:321|167:322,1,200,2|0,3:2|3:2,2:0:0:0:
402,384,56591,2,0,L|418:170,1,200,8|0,2:0|2:0,2:0:0:0:
512,74,56848,2,0,B|499:115|499:115|322:85,1,200,2|0,3:2|2:0,2:0:0:0:
256,21,57105,2,0,L|372:-5,1,100,2|0,3:2|2:0,2:0:0:0:
416,184,57277,1,10,2:0:0:0:
154,8,57448,1,2,2:0:0:0:
154,8,57534,1,2,2:0:0:0:
154,8,57620,6,0,B|157:81|209:156|253:89|304:171|269:265,1,300,2|0,3:2|2:0,2:0:0:0:
76,248,57962,6,0,P|147:236|197:288,1,150,10|0,2:0|3:2,2:0:0:0:
182,373,58305,1,2,2:0:0:0:
362,282,58477,1,2,3:2:0:0:
362,282,58562,1,2,2:0:0:0:
362,282,58648,2,0,L|424:288,1,50,10|0,2:0|2:0,2:0:0:0:
402,369,58820,2,0,L|464:375,1,50,0|0,2:0|2:0,2:0:0:0:
481,53,58991,6,0,L|130:105,1,300,2|0,3:2|2:0,2:0:0:0:
26,157,59334,2,0,B|70:201|70:201|134:171,1,112.500004291535,10|0,2:0|3:2,2:0:0:0:
174,380,59677,6,0,B|195:342|195:342|160:299|160:299|196:232,1,150.000005722046,2|0,2:0|3:2,2:0:0:0:
477,354,60020,2,0,P|425:214|283:261,1,300,10|0,2:0|2:0,2:0:0:0:
0,287,60362,6,0,B|130:361|130:361|208:302|208:302|177:237,1,300,6|0,3:2|2:0,2:0:0:0:
112,209,60705,2,0,L|128:110,1,100,10|0,2:0|2:0,2:0:0:0:
283,137,60877,2,0,L|300:236,1,100,2|0,3:2|2:0,2:0:0:0:
309,352,61048,6,0,P|414:323|396:231,1,200,2|0,3:2|2:0,2:0:0:0:
300,236,61305,1,2,3:2:0:0:
284,244,61391,2,0,P|238:223|192:204,1,100,8|0,2:0|2:0,2:0:0:0:
127,110,61562,2,0,P|239:62|296:43,1,100,2|0,3:2|2:0,2:0:0:0:
465,120,61734,6,0,B|414:89|414:89|196:168,1,200,2|0,3:2|3:2,2:0:0:0:
192,204,62077,1,8,2:0:0:0:
21,37,62248,1,0,2:0:0:0:
38,21,62334,6,0,B|90:47|90:47|49:250,1,200,2|0,3:2|2:0,2:0:0:0:
77,372,62591,2,0,P|131:355|209:313,1,100,2|0,3:2|2:0,2:0:0:0:
138,223,62762,2,0,P|183:243|231:258,1,100,10|0,2:0|2:0,2:0:0:0:
402,362,62934,1,2,2:0:0:0:
402,362,63020,1,2,2:0:0:0:
402,362,63105,6,0,B|450:305|414:256|414:256|465:224|465:224|418:151|484:83,1,300,2|0,3:2|2:0,2:0:0:0:
484,10,63448,2,0,B|389:0|443:58|339:39,1,150,10|0,2:0|3:2,2:0:0:0:
219,0,63791,5,2,2:0:0:0:
239,72,63905,1,2,2:0:0:0:
259,144,64020,1,2,2:0:0:0:
283,223,64134,6,0,B|355:280|453:256|472:180|472:180|384:141,1,300,10|0,2:0|2:0,2:0:0:0:
194,323,64477,2,0,P|192:356|198:374,1,50,2|0,3:2|2:0,2:0:0:0:
279,365,64648,2,0,P|280:331|274:313,1,50,2|0,3:2|2:0,2:0:0:0:
293,125,64820,6,0,L|17:157,1,200,10|0,2:0|2:0,2:0:0:0:
15,58,65077,2,0,B|64:33|64:33|131:79,1,100,2|0,3:2|2:0,2:0:0:0:
63,234,65248,2,0,B|48:280|48:280|-41:244|10:133,1,200,2|0,3:2|2:0,2:0:0:0:
112,138,65505,6,0,L|294:116,1,100,14|0,2:0|2:0,2:0:0:0:
300,117,65677,2,0,L|482:95,1,100,10|0,2:0|2:0,2:0:0:0:
496,103,65848,6,0,L|504:54,1,44.999998626709,2|0,3:2|2:0,2:0:0:0:
432,18,66191,6,0,P|400:56|398:104,1,100,14|0,2:0|2:0,2:0:0:0:
300,117,66362,2,0,P|304:166|337:201,1,100,2|0,3:2|2:0,2:0:0:0:
470,366,66534,2,0,P|492:254|370:194,1,200,2|0,3:2|2:0,2:0:0:0:
349,288,66791,1,2,3:2:0:0:
336,306,66877,2,0,P|286:304|249:272,1,100,8|0,2:0|2:0,2:0:0:0:
190,350,67048,2,0,P|156:314|151:265,1,100,2|0,3:2|2:0,2:0:0:0:
206,0,67220,6,0,L|198:138,1,100,2|0,3:2|2:0,2:0:0:0:
116,102,67391,2,0,L|121:2,1,100,2|0,3:2|2:0,2:0:0:0:
157,180,67562,1,8,2:0:0:0:
456,97,67734,1,0,2:0:0:0:
469,80,67820,6,0,B|395:77|395:77|388:84|388:84|313:78|313:78|283:164,1,200,2|0,3:2|2:0,2:0:0:0:
486,274,68077,2,0,B|508:246|508:246|470:161,1,100,2|0,3:2|2:0,2:0:0:0:
299,116,68248,2,0,B|277:144|277:144|315:229,1,100,10|0,2:0|2:0,2:0:0:0:
382,369,68420,1,2,2:0:0:0:
382,369,68505,1,2,2:0:0:0:
382,369,68591,6,0,B|372:298|233:243|236:342|179:370|59:303,1,300,2|0,3:2|2:0,2:0:0:0:
24,324,68934,2,0,P|28:255|123:276,1,150,10|0,2:0|3:2,2:0:0:0:
186,235,69277,5,2,2:0:0:0:
241,174,69391,1,2,2:0:0:0:
186,113,69505,1,2,2:0:0:0:
240,51,69620,6,0,B|352:33|352:33|414:80|414:80|531:57,1,300,10|0,2:0|2:0,2:0:0:0:
438,308,69962,6,0,B|350:376|350:376|290:280|290:280|376:214,1,300,2|0,3:2|2:0,2:0:0:0:
470,188,70305,2,0,B|495:234|495:234|421:194,1,112.500004291535,10|0,2:0|3:2,2:0:0:0:
373,152,70648,2,0,L|384:97,2,50.0000019073487,2|2|2,2:0|2:0|2:0,2:0:0:0:
305,355,70991,2,0,P|364:305|465:316,1,150,10|0,2:0|2:0,2:0:0:0:
434,303,71334,6,0,L|87:265,1,300,6|0,3:2|2:0,2:0:0:0:
7,322,71677,2,0,P|47:357|105:305,1,100,10|0,2:0|2:0,2:0:0:0:
81,194,71848,2,0,P|34:183|0:217,1,100,2|0,3:2|2:0,2:0:0:0:
135,270,72020,6,0,P|183:172|200:71,1,200,2|0,3:2|2:0,2:0:0:0:
261,0,72277,1,2,3:2:0:0:
268,13,72362,2,0,P|313:26|376:43,1,100,8|0,2:0|2:0,2:0:0:0:
403,130,72534,2,0,P|448:117|511:100,1,100,2|0,3:2|2:0,2:0:0:0:
315,220,72705,6,0,L|287:100,1,100,2|0,3:2|2:0,2:0:0:0:
485,291,72877,2,0,L|513:171,1,100,2|0,3:2|2:0,2:0:0:0:
381,312,73048,1,8,2:0:0:0:
57,106,73220,1,0,2:0:0:0:
58,85,73305,6,0,B|183:57|183:57|159:168,1,200,2|0,3:2|2:0,2:0:0:0:
90,208,73562,2,0,B|64:228|64:228|-36:177,1,100,2|0,3:2|2:0,2:0:0:0:
229,209,73734,2,0,B|255:189|255:189|355:240,1,100,10|0,2:0|2:0,2:0:0:0:
107,337,73905,1,2,2:0:0:0:
107,337,73991,1,2,2:0:0:0:
107,337,74077,6,0,B|160:284|263:300|215:360|312:399|381:343,1,300,2|0,3:2|3:2,2:0:0:0:
451,274,74420,2,0,P|449:242|436:278,1,100,2|0,2:0|3:2,2:0:0:0:
89,210,74762,5,10,2:0:0:0:
89,210,74934,2,0,B|47:166|47:166|84:30,1,200,2|0,3:2|2:0,2:0:0:0:
92,48,75448,6,0,L|181:37,1,50,2|0,3:2|2:0,2:0:0:0:
236,28,75620,1,0,3:2:0:0:
245,27,75705,1,0,3:2:0:0:
259,113,75877,1,0,3:2:0:0:
268,112,75962,1,0,3:2:0:0:
99,134,76134,5,10,2:0:0:0:
99,134,76305,2,0,L|193:123,2,75,0|0|6,3:2|3:2|3:2,2:0:0:0:
36,346,86420,6,0,L|34:319,2,16.6666666666667,2|2|2,2:0|2:0|2:0,2:0:0:0:
112,333,86591,2,0,L|104:290,1,25,2|0,2:0|2:0,2:0:0:0:
153,235,86762,1,2,1:2:0:0:
153,235,86848,1,0,1:2:0:0:
153,235,86934,2,0,L|210:241,1,37.5000014305115,2|0,3:2|3:2,2:0:0:0:
268,242,87105,2,0,L|325:248,1,37.5000014305115,2|0,2:0|2:0,2:0:0:0:
375,358,87277,5,2,3:2:0:0:
377,351,87334,1,2,1:2:0:0:
379,344,87391,1,2,2:0:0:0:
380,336,87448,6,0,L|388:293,1,37.5000014305115,10|0,2:0|2:0,2:0:0:0:
462,376,87620,2,0,L|470:333,1,37.5000014305115,2|0,2:0|2:0,2:0:0:0:
305,245,87791,6,0,L|298:126,1,100,2|0,3:2|2:0,2:0:0:0:
363,56,88134,2,0,P|489:36|536:29,2,150,8|0|0,2:0|3:2|3:2,2:0:0:0:
203,129,88820,2,0,L|210:10,1,100,8|0,2:0|2:0,2:0:0:0:
310,147,89162,5,2,3:2:0:0:
310,147,89334,1,0,2:0:0:0:
105,54,89505,2,0,P|18:95|-20:149,2,150,8|0|0,2:0|3:2|3:2,2:0:0:0:
203,129,90191,1,10,2:0:0:0:
141,195,90362,1,2,2:0:0:0:
239,373,90534,6,0,P|262:298|279:248,1,100,2|0,3:2|2:0,2:0:0:0:
50,312,90877,2,0,P|27:237|-4:163,2,150,10|0|0,2:0|3:2|3:2,2:0:0:0:
153,300,91562,2,0,P|155:221|159:168,1,100,8|0,2:0|2:0,2:0:0:0:
238,142,91905,5,2,3:2:0:0:
238,142,92077,1,2,2:0:0:0:
268,277,92248,2,0,P|364:250|381:242,1,100,10|0,2:0|2:0,2:0:0:0:
451,223,92505,2,0,P|452:283|440:385,1,150,2|0,3:2|3:2,2:0:0:0:
356,345,92934,1,10,2:0:0:0:
373,159,93105,1,2,2:0:0:0:
148,304,93277,5,12,3:2:0:0:
133,300,93362,1,0,3:2:0:0:
118,296,93448,1,0,3:2:0:0:
103,292,93534,1,0,3:2:0:0:
92,247,93620,5,8,3:2:0:0:
72,252,93705,1,0,3:2:0:0:
52,257,93791,1,0,3:2:0:0:
33,262,93877,1,0,3:2:0:0:
7,281,93962,6,0,L|-4:358,1,50,8|0,3:2|3:2,3:2:0:0:
41,175,94134,2,0,L|30:98,1,50,0|0,3:2|3:2,3:2:0:0:
103,292,94305,2,0,L|92:369,1,50,8|0,3:2|3:2,3:2:0:0:
137,186,94477,2,0,L|126:109,1,50,0|0,3:2|3:2,3:2:0:0:
307,270,94648,5,8,3:2:0:0:
329,263,94734,1,0,3:2:0:0:
352,257,94820,1,0,3:2:0:0:
375,251,94905,1,0,3:2:0:0:
392,183,94991,5,8,3:2:0:0:
422,190,95077,1,0,3:2:0:0:
453,198,95162,1,0,3:2:0:0:
482,206,95248,1,0,3:2:0:0:
504,211,95334,6,0,L|515:288,1,50,8|0,3:2|3:2,3:2:0:0:
470,105,95505,2,0,L|481:28,1,50,0|0,3:2|3:2,3:2:0:0:
375,251,95677,2,0,L|386:328,1,50,8|0,3:2|3:2,3:2:0:0:
322,121,95848,2,0,L|333:44,1,50,0|0,3:2|3:2,3:2:0:0:
10,144,96020,5,8,2:0:0:0:
296,208,96191,1,8,2:0:0:0:
26,271,96362,1,8,2:0:0:0:
312,207,96534,1,8,2:0:0:0:
166,33,96705,5,8,2:0:0:0:
134,306,96877,1,8,2:0:0:0:
167,19,97048,1,8,2:0:0:0:
218,300,97220,1,8,2:0:0:0:
173,165,97391,5,2,3:1:0:0:
173,165,97562,2,0,L|261:147,1,50,0|0,2:0|2:0,2:0:0:0:
304,202,97734,2,0,L|323:78,1,112.500004291535,0|0,2:0|2:0,2:0:0:0:
455,31,98077,5,2,3:1:0:0:
455,31,98248,2,0,L|367:49,1,50,0|0,2:0|2:0,2:0:0:0:
373,280,98420,2,0,L|421:269,1,44.999998626709,8|0,2:0|2:0,2:0:0:0:
416,269,98762,6,0,B|393:301|393:301|250:286,1,150.000005722046,6|0,3:2|2:0,2:0:0:0:
258,366,99020,2,0,L|240:276,1,75.0000028610231,2|8,2:0|2:0,2:0:0:0:
151,83,99277,5,2,2:0:0:0:
159,94,99362,2,0,L|144:167,1,75.0000028610231,2|0,3:2|2:0,2:0:0:0:
39,136,99534,2,0,L|53:209,1,75.0000028610231,2|0,2:0|3:2,2:0:0:0:
13,347,99705,1,2,2:0:0:0:
18,328,99791,2,0,P|57:307|101:293,1,75.0000028610231,10|0,2:0|2:0,2:0:0:0:
314,186,99962,2,0,P|282:167|247:155,1,75.0000028610231,2|0,2:0|2:0,2:0:0:0:
120,19,100134,6,0,L|152:222,1,150.000005722046,2|0,3:2|2:0,2:0:0:0:
163,257,100391,2,0,L|176:183,1,75.0000028610231,2|8,2:0|2:0,2:0:0:0:
412,72,100648,5,2,2:0:0:0:
425,61,100734,2,0,L|542:89,1,75.0000028610231,2|0,3:2|2:0,2:0:0:0:
463,165,100905,2,0,L|293:189,1,150.000005722046,2|2,2:0|2:0,2:0:0:0:
350,347,101162,1,10,2:0:0:0:
350,347,101248,1,2,2:0:0:0:
350,347,101334,2,0,L|368:231,1,75.0000028610231,2|0,2:0|2:0,2:0:0:0:
306,94,101505,6,0,B|210:89|261:151|147:134,1,150.000005722046,2|0,3:2|2:0,2:0:0:0:
145,135,101762,2,0,P|130:100|155:41,1,75.0000028610231,2|8,2:0|2:0,2:0:0:0:
28,361,102020,5,2,2:0:0:0:
29,337,102105,2,0,P|124:301|151:313,1,75.0000028610231,2|0,3:2|2:0,2:0:0:0:
128,224,102277,2,0,P|220:265|231:293,1,75.0000028610231,2|0,2:0|3:2,2:0:0:0:
262,348,102448,1,2,2:0:0:0:
279,364,102534,2,0,P|371:322|382:294,1,75.0000028610231,10|0,2:0|2:0,2:0:0:0:
429,374,102705,2,0,P|465:279|452:252,1,75.0000028610231,2|0,2:0|2:0,2:0:0:0:
420,109,102877,6,0,L|393:311,1,150.000005722046,2|0,3:2|2:0,2:0:0:0:
394,276,103134,2,0,L|315:253,1,75.0000028610231,2|8,2:0|2:0,2:0:0:0:
65,102,103391,5,2,3:2:0:0:
73,84,103477,2,0,L|152:61,1,75.0000028610231,2|0,3:2|2:0,2:0:0:0:
303,90,103648,2,0,L|230:110,1,75.0000028610231,2|0,2:0|3:2,2:0:0:0:
128,224,103820,2,0,L|200:203,1,75.0000028610231,2|8,2:0|2:0,2:0:0:0:
321,255,103991,1,0,2:0:0:0:
338,265,104077,2,0,L|327:351,1,75.0000028610231,2|0,2:0|2:0,2:0:0:0:
191,366,104248,6,0,B|140:351|140:351|108:367|108:367|-2:338,1,150.000005722046,6|0,3:2|2:0,2:0:0:0:
28,262,104505,2,0,B|4:296|4:296|27:353,1,75.0000028610231,2|8,2:0|2:0,2:0:0:0:
200,203,104762,5,0,2:0:0:0:
215,189,104848,2,0,B|239:155|239:155|216:98,1,75.0000028610231,2|0,3:2|2:0,2:0:0:0:
307,94,105020,2,0,B|299:52|299:52|243:28,1,75.0000028610231,2|0,2:0|3:2,2:0:0:0:
29,3,105191,1,2,2:0:0:0:
11,14,105277,2,0,B|18:55|18:55|74:79,1,75.0000028610231,10|0,2:0|2:0,2:0:0:0:
27,146,105448,2,0,B|60:170|60:170|118:147,1,75.0000028610231,2|0,2:0|2:0,2:0:0:0:
269,39,105620,6,0,B|316:22|316:22|455:46,1,150.000005722046,2|0,3:2|2:0,2:0:0:0:
464,127,105877,2,0,L|436:21,1,75.0000028610231,2|8,2:0|2:0,2:0:0:0:
268,368,106134,5,2,2:0:0:0:
282,359,106220,2,0,L|310:253,1,75.0000028610231,2|0,3:2|2:0,2:0:0:0:
365,192,106391,2,0,B|411:219|411:219|378:356,1,150.000005722046,2|2,2:0|2:0,2:0:0:0:
218,258,106648,1,10,2:0:0:0:
218,258,106734,1,2,2:0:0:0:
218,258,106820,2,0,L|113:271,1,75.0000028610231,2|0,2:0|2:0,2:0:0:0:
9,65,106991,6,0,L|114:78,1,75.0000028610231,6|0,3:2|2:0,2:0:0:0:
58,203,107162,1,0,3:2:0:0:
60,187,107248,1,0,2:0:0:0:
62,167,107334,6,0,L|155:155,1,87.500000834465,10|0,2:0|2:0,2:0:0:0:
171,0,107505,1,0,2:0:0:0:
173,16,107591,1,0,3:2:0:0:
175,36,107677,6,0,L|281:49,1,100,2|0,2:0|2:0,2:0:0:0:
218,258,107848,1,0,3:2:0:0:
220,240,107934,1,0,2:0:0:0:
222,218,108020,6,0,L|338:202,1,112.500004291535,10|0,2:0|2:0,2:0:0:0:
474,62,108191,1,0,2:0:0:0:
462,84,108277,1,0,2:0:0:0:
454,103,108362,6,0,B|470:152|470:152|461:171|461:171|486:247,1,112.500004291535,2|0,3:2|2:0,2:0:0:0:
421,322,108534,2,0,B|437:273|437:273|428:254|428:254|453:178,1,112.500004291535,2|0,2:0|3:2,2:0:0:0:
330,2,108705,6,0,B|346:51|346:51|337:70|337:70|362:146,1,125,10|0,2:0|2:0,2:0:0:0:
310,321,108877,2,0,B|326:272|326:272|317:253|317:253|342:177,1,125,2|0,3:2|2:0,2:0:0:0:
146,35,109048,6,0,B|191:58|191:58|199:78|199:78|270:114,1,125,2|0,2:0|3:2,2:0:0:0:
122,285,109220,2,0,B|167:261|167:261|175:241|175:241|246:205,1,125,2|0,2:0|2:0,2:0:0:0:
71,110,109391,5,10,3:2:0:0:
70,126,109477,1,8,3:2:0:0:
98,159,109562,5,6,3:2:0:0:
97,175,109648,1,4,3:2:0:0:
69,206,109734,5,0,3:2:0:0:
71,110,109905,2,0,L|68:72,1,25,2|0,2:0|2:0,2:0:0:0:
39,320,110077,6,0,B|243:370|118:192|365:257,1,300,12|0,2:0|3:2,2:0:0:0:
409,384,110420,2,0,B|445:364|445:364|426:247,1,100,2|0,2:0|2:0,2:0:0:0:
302,147,110591,2,0,B|266:167|266:167|285:284,1,100,2|0,3:2|2:0,2:0:0:0:
437,224,110762,2,0,P|478:124|346:-14,1,300,10|0,2:0|2:0,2:0:0:0:
254,46,111105,5,2,3:2:0:0:
232,51,111191,1,2,2:0:0:0:
188,60,111277,5,2,2:0:0:0:
166,65,111362,1,2,2:0:0:0:
126,132,111448,5,10,2:0:0:0:
104,127,111534,1,2,2:0:0:0:
60,118,111620,5,2,2:0:0:0:
38,113,111705,1,2,3:2:0:0:
7,151,111791,6,0,L|-14:28,1,100,2|0,2:0|2:0,2:0:0:0:
98,324,111962,2,0,L|114:225,1,100,2|0,3:2|2:0,2:0:0:0:
248,145,112134,5,10,2:0:0:0:
296,161,112220,1,2,2:0:0:0:
296,211,112305,1,2,2:0:0:0:
248,226,112391,1,2,2:0:0:0:
219,186,112477,1,2,3:2:0:0:
297,297,112648,2,0,L|310:343,1,25,2|0,2:0|2:0,2:0:0:0:
219,186,112820,6,0,B|259:161|259:161|455:209|455:209|516:171,1,300,8|0,2:0|3:2,2:0:0:0:
469,47,113162,2,0,B|428:70|428:70|442:146,1,100,2|0,2:0|2:0,2:0:0:0:
467,361,113334,2,0,B|508:338|508:338|494:262,1,100,2|0,3:2|2:0,2:0:0:0:
369,232,113505,2,0,B|317:256|317:256|288:250|288:250|48:329,1,300,10|0,2:0|2:0,2:0:0:0:
8,242,113848,5,2,3:2:0:0:
25,229,113934,1,2,2:0:0:0:
1,173,114020,5,2,2:0:0:0:
22,175,114105,1,2,2:0:0:0:
44,120,114191,5,10,2:0:0:0:
58,135,114277,1,2,2:0:0:0:
111,113,114362,5,2,2:0:0:0:
111,133,114448,1,2,3:2:0:0:
131,221,114534,6,0,B|114:239|108:263|108:263|114:240|102:198,1,100,2|0,3:2|2:0,2:0:0:0:
150,30,114705,2,0,B|167:12|173:-12|173:-12|167:11|179:53,1,100,2|0,3:2|2:0,2:0:0:0:
44,120,114877,2,0,B|26:103|2:97|2:97|25:103|67:91,1,100,10|0,2:0|2:0,2:0:0:0:
227,135,115048,2,0,B|245:152|269:158|269:158|246:152|204:164,1,100,2|0,3:2|2:0,2:0:0:0:
135,134,115220,6,0,P|134:115|144:134,1,50,4|0,3:2|2:0,2:0:0:0:
149,368,115562,1,8,2:0:0:0:
334,66,115820,1,0,3:2:0:0:
342,50,115905,6,0,B|371:29|371:29|461:42,1,100,2|0,2:0|2:0,2:0:0:0:
512,178,116077,2,0,B|483:199|483:199|393:186,1,100,2|0,3:2|2:0,2:0:0:0:
227,135,116248,2,0,B|372:157|372:157|396:237|396:237|303:280,1,300,10|0,2:0|2:0,2:0:0:0:
41,348,116591,5,2,3:2:0:0:
47,318,116677,1,2,2:0:0:0:
13,292,116762,5,2,2:0:0:0:
38,275,116848,1,2,2:0:0:0:
117,271,116934,5,10,2:0:0:0:
111,241,117020,1,2,2:0:0:0:
145,215,117105,5,2,2:0:0:0:
120,198,117191,1,2,3:2:0:0:
37,188,117277,5,2,2:0:0:0:
36,178,117362,1,2,2:0:0:0:
35,167,117448,1,2,3:2:0:0:
34,156,117534,1,2,2:0:0:0:
105,118,117620,5,10,2:0:0:0:
106,108,117705,1,2,2:0:0:0:
35,75,117791,5,2,2:0:0:0:
34,64,117877,1,2,2:0:0:0:
112,18,117962,6,0,L|343:51,1,200,6|0,3:2|2:0,2:0:0:0:
459,138,118220,1,2,3:2:0:0:
471,130,118305,2,0,B|493:107|493:107|481:31|481:31|408:42|408:42|402:66,1,200,8|0,2:0|2:0,2:0:0:0:
354,134,118562,6,0,B|333:171|333:171|375:261,1,100,2|0,2:0|3:2,2:0:0:0:
452,319,118734,2,0,B|473:282|473:282|431:192,1,100,2|0,2:0|2:0,2:0:0:0:
231,162,118905,1,2,3:2:0:0:
220,177,118991,2,0,L|97:194,1,100,10|0,2:0|2:0,2:0:0:0:
99,288,119162,2,0,L|-24:271,1,100,2|0,2:0|2:0,2:0:0:0:
57,113,119334,5,2,3:2:0:0:
204,283,119505,1,2,3:2:0:0:
353,70,119677,5,10,3:2:0:0:
356,60,119762,1,0,3:2:0:0:
359,50,119848,2,0,B|404:70|404:70|409:120,1,100,0|0,3:2|3:2,3:2:0:0:
204,283,120020,5,10,3:2:0:0:
193,285,120105,1,0,3:2:0:0:
183,287,120191,2,0,B|177:237|177:237|218:208,1,100,0|0,3:2|3:2,3:2:0:0:
473,326,120362,5,10,3:2:0:0:
480,333,120448,1,0,3:2:0:0:
487,341,120534,2,0,B|446:370|446:370|401:349,1,100,0|0,3:2|3:2,3:2:0:0:
354,226,120705,5,6,3:2:0:0:
