osu file format v14

[General]
AudioFilename: audio.mp3
AudioLeadIn: 0
PreviewTime:98677
Countdown: 0
SampleSet: Soft
StackLeniency: 0.2
Mode: 0
LetterboxInBreaks: 0
WidescreenStoryboard: 1

[Editor]
Bookmarks: 10991,12191,21962,27105,32934,43905,54877,65848,76820,87791,109734
DistanceSpacing: 1.1
BeatDivisor: 3
GridSize: 32
TimelineZoom: 2.999999

[Metadata]
Title:Hypersonik
TitleUnicode:Hypersonik
Artist:Eagle
ArtistUnicode:Eagle
Creator:Ascended
Version:Jounzan's Extra
Source:beatmania IIDX 21 SPADA
Tags:kors k korsk BEMANI electronic instrumental neurofunk drum and bass drumandbass dnb drum&bass beatmania iidx infinitas Flask zhuxiaoyan frostwich frostwhich stwi synderes jas CraEZy Otosaka-Yu OtosakaYu Suzuki_1112 Suzuki1112 Jounzan Natteke_desu Natteke desu Nattekedesu EvilElvisV2 Aistre Alphabet Venax NeilPerry Mir Frey dahkjdas Seolv Lukas [_L_u_k_a_s_] [Lukas] -ascended- -_ascended_- Deppyforce jascended
BeatmapID:3783720
BeatmapSetID:1834293

[Difficulty]
HPDrainRate:5
CircleSize:4
OverallDifficulty:9
ApproachRate:9.6
SliderMultiplier:1.6
SliderTickRate:1

[Events]
//Background and Video events
0,0,"hypersonic.jpg",0,0
//Break Periods
//Storyboard Layer 0 (Background)
//Storyboard Layer 1 (Fail)
//Storyboard Layer 2 (Pass)
//Storyboard Layer 3 (Foreground)
//Storyboard Layer 4 (Overlay)
//Storyboard Sound Samples

[TimingPoints]
20,342.857142857143,4,2,1,30,1,0
2420,-100,4,2,0,30,0,0
2505,-100,4,2,1,30,0,0
2591,-100,4,2,0,30,0,0
2762,-100,4,2,1,30,0,0
4134,-100,4,2,0,30,0,0
5420,-100,4,2,1,30,0,0
8077,-100,4,2,1,25,0,0
8248,-100,4,2,1,30,0,0
9962,-100,4,2,0,30,0,0
10305,-100,4,2,1,45,0,0
10991,-76.9230769230769,4,2,1,50,0,0
13391,-76.9230769230769,4,2,0,50,0,0
13477,-76.9230769230769,4,2,1,50,0,0
14248,-76.9230769230769,4,2,1,50,0,0
14420,-76.9230769230769,4,2,1,50,0,0
14934,-76.9230769230769,4,2,1,20,0,0
15105,-76.9230769230769,4,2,1,50,0,0
16048,-66.6666666666667,4,2,1,50,0,0
16219,-66.6666666666667,4,2,1,5,0,0
16305,-50,4,2,1,50,0,0
16347,-50,4,2,1,5,0,0
16391,-50,4,2,1,50,0,0
16433,-50,4,2,1,5,0,0
16477,-50,4,2,1,50,0,0
16820,-76.9230769230769,4,2,1,50,0,0
20333,-76.9230769230769,4,2,1,5,0,0
20420,-76.9230769230769,4,2,1,50,0,0
20591,-76.9230769230769,4,2,100,50,0,0
20847,-76.9230769230769,4,2,100,5,0,0
20934,-76.9230769230769,4,2,100,50,0,0
21019,-76.9230769230769,4,2,100,5,0,0
21105,-76.9230769230769,4,2,1,50,0,0
21448,-76.9230769230769,4,2,100,50,0,0
21620,-50,4,2,100,50,0,0
21791,-50,4,2,1,50,0,0
21962,-50,4,2,1,50,0,0
22991,-1000,4,2,1,70,0,0
23419,-1000,4,2,1,5,0,0
23505,-1000,4,2,1,70,0,0
23590,-1000,4,2,1,5,0,0
23634,-1000,4,2,1,5,0,0
23677,-1000,4,2,1,70,0,0
23762,-1000,4,2,1,5,0,0
23849,-1000,4,2,1,70,0,0
23934,-1000,4,2,1,5,0,0
23977,-1000,4,2,1,5,0,0
24020,-500,4,2,1,70,0,0
24105,-500,4,2,1,5,0,0
24192,-500,4,2,1,70,0,0
24277,-500,4,2,1,5,0,0
24320,-500,4,2,1,5,0,0
24363,-500,4,2,1,70,0,0
24448,-500,4,2,1,5,0,0
24535,-500,4,2,1,70,0,0
24620,-500,4,2,1,5,0,0
24705,-333.333333333333,4,2,1,50,0,0
24791,-333.333333333333,4,2,1,5,0,0
24878,-333.333333333333,4,2,1,70,0,0
24963,-333.333333333333,4,2,1,5,0,0
25006,-333.333333333333,4,2,1,5,0,0
25049,-333.333333333333,4,2,1,70,0,0
25134,-333.333333333333,4,2,1,5,0,0
25220,-333.333333333333,4,2,1,50,0,0
25305,-333.333333333333,4,2,1,5,0,0
25348,-333.333333333333,4,2,1,5,0,0
25391,-250,4,2,1,70,0,0
25476,-250,4,2,1,5,0,0
25563,-250,4,2,1,70,0,0
25648,-250,4,2,1,5,0,0
25691,-250,4,2,1,5,0,0
25734,-250,4,2,1,50,0,0
25819,-250,4,2,1,5,0,0
25905,-250,4,2,1,70,0,0
25990,-250,4,2,1,5,0,0
26033,-250,4,2,1,5,0,0
26077,-200,4,2,1,50,0,0
26162,-200,4,2,1,5,0,0
26249,-200,4,2,1,70,0,0
26334,-200,4,2,1,5,0,0
26377,-200,4,2,1,5,0,0
26420,-200,4,2,1,70,0,0
26505,-200,4,2,1,5,0,0
26591,-200,4,2,1,50,0,0
26676,-200,4,2,1,5,0,0
26719,-200,4,2,1,5,0,0
26762,-166.666666666667,4,2,1,70,0,0
26847,-166.666666666667,4,2,1,5,0,0
26934,-166.666666666667,4,2,1,70,0,0
27019,-166.666666666667,4,2,1,5,0,0
27062,-166.666666666667,4,2,1,5,0,0
27105,-166.666666666667,4,2,1,50,0,0
27190,-166.666666666667,4,2,1,5,0,0
27276,-166.666666666667,4,2,1,70,0,0
27361,-166.666666666667,4,2,1,5,0,0
27404,-166.666666666667,4,2,1,5,0,0
27448,-100,4,2,1,50,0,0
27533,-100,4,2,1,5,0,0
27576,-100,4,2,1,5,0,0
27620,-100,4,2,1,50,0,0
27705,-100,4,2,1,5,0,0
27748,-100,4,2,1,5,0,0
27791,-100,4,2,1,50,0,0
27876,-100,4,2,1,5,0,0
27919,-100,4,2,1,5,0,0
27962,-100,4,2,1,50,0,0
28047,-100,4,2,1,5,0,0
28090,-100,4,2,1,5,0,0
28134,-83.3333333333333,4,2,1,50,0,0
28219,-83.3333333333333,4,2,1,5,0,0
28305,-83.3333333333333,4,2,1,50,0,0
28390,-83.3333333333333,4,2,1,5,0,0
28477,-83.3333333333333,4,2,1,50,0,0
28562,-83.3333333333333,4,2,1,5,0,0
28648,-83.3333333333333,4,2,1,50,0,0
28733,-83.3333333333333,4,2,1,5,0,0
28820,-71.4285714285714,4,2,1,60,0,0
28905,-71.4285714285714,4,2,1,5,0,0
28991,-71.4285714285714,4,2,1,60,0,0
29076,-71.4285714285714,4,2,1,5,0,0
29162,-71.4285714285714,4,2,1,60,0,0
29247,-71.4285714285714,4,2,1,5,0,0
29334,-71.4285714285714,4,2,1,60,0,0
29419,-71.4285714285714,4,2,1,5,0,0
29505,-62.5,4,2,1,60,0,0
29590,-62.5,4,2,1,5,0,0
29677,-62.5,4,2,1,60,0,0
29762,-62.5,4,2,1,5,0,0
29848,-62.5,4,2,1,60,0,0
29933,-62.5,4,2,1,5,0,0
30020,-62.5,4,2,1,60,0,0
30105,-62.5,4,2,1,5,0,0
30191,-62.5,4,2,1,70,0,0
30877,-33.3333333333333,4,2,1,70,0,0
31220,-25,4,2,1,70,0,0
31562,-62.5,4,2,1,80,0,0
31647,-62.5,4,2,1,5,0,0
31734,-50,4,2,1,80,0,0
32248,-37.037037037037,4,2,1,80,0,0
32505,-37.037037037037,4,2,1,5,0,0
32591,-333.333333333333,4,2,1,80,0,0
32848,-333.333333333333,4,2,1,5,0,0
32934,-62.5,4,2,5,70,0,0
33191,-62.5,4,2,5,5,0,0
33277,-33.3333333333333,4,2,1,70,0,0
33362,-33.3333333333333,4,2,1,5,0,0
33448,-100,4,2,1,70,0,0
33705,-100,4,2,1,5,0,0
33791,-66.6666666666667,4,2,1,70,0,0
33876,-66.6666666666667,4,2,1,5,0,0
33962,-33.3333333333333,4,2,1,70,0,0
34305,-62.5,4,2,1,70,0,0
34562,-62.5,4,2,1,5,0,0
34648,-33.3333333333333,4,2,1,70,0,0
34733,-33.3333333333333,4,2,1,5,0,0
34820,-133.333333333333,4,2,1,70,0,0
35033,-133.333333333333,4,2,1,5,0,0
35077,-133.333333333333,4,2,1,70,0,0
35290,-133.333333333333,4,2,1,5,0,0
35334,-33.3333333333333,4,2,1,70,0,0
35677,-250,4,2,1,70,0,0
35977,-250,4,2,1,5,0,0
36020,-25,4,2,1,70,0,0
36705,-25,4,2,1,70,0,0
36962,-62.5,4,2,1,70,0,0
37391,-20,4,2,1,70,0,0
37476,-20,4,2,1,5,0,0
37562,-20,4,2,1,70,0,0
37905,-100,4,2,1,70,0,0
37990,-100,4,2,1,5,0,0
38077,-76.9230769230769,4,2,1,70,0,0
38205,-76.9230769230769,4,2,1,5,0,0
38248,-52.6315789473684,4,2,1,70,0,0
38333,-52.6315789473684,4,2,1,5,0,0
38420,-62.5,4,2,1,70,0,0
38677,-62.5,4,2,1,5,0,0
38762,-33.3333333333333,4,2,1,70,0,0
38847,-33.3333333333333,4,2,1,5,0,0
38934,-100,4,2,1,70,0,0
39234,-100,4,2,1,5,0,0
39277,-66.6666666666667,4,2,1,70,0,0
39362,-66.6666666666667,4,2,1,5,0,0
39448,-33.3333333333333,4,2,1,70,0,0
39705,-62.5,4,2,1,70,0,0
40048,-62.5,4,2,1,5,0,0
40134,-33.3333333333333,4,2,1,70,0,0
40219,-33.3333333333333,4,2,1,5,0,0
40305,-133.333333333333,4,2,1,70,0,0
40733,-133.333333333333,4,2,1,5,0,0
40820,-33.3333333333333,4,2,1,70,0,0
41162,-50,4,2,1,70,0,0
41247,-50,4,2,1,5,0,0
41334,-50,4,2,1,70,0,0
41419,-50,4,2,1,5,0,0
41505,-333.333333333333,4,2,1,70,0,0
41804,-333.333333333333,4,2,1,5,0,0
41848,-33.3333333333333,4,2,0,70,0,0
41890,-33.3333333333333,4,2,0,5,0,0
41934,-33.3333333333333,4,2,1,70,0,0
42020,-33.3333333333333,4,2,0,70,0,0
42062,-33.3333333333333,4,2,0,5,0,0
42105,-33.3333333333333,4,2,1,70,0,0
42233,-33.3333333333333,4,2,1,5,0,0
42362,-33.3333333333333,4,2,1,70,0,0
42404,-33.3333333333333,4,2,1,5,0,0
42534,-62.5,4,2,1,70,0,0
42619,-62.5,4,2,1,5,0,0
42705,-62.5,4,2,1,70,0,0
42877,-33.3333333333333,4,2,1,70,0,0
43220,-333.333333333333,4,2,1,70,0,0
43305,-333.333333333333,4,2,1,5,0,0
43391,-333.333333333333,4,2,1,70,0,0
43562,-33.3333333333333,4,2,1,70,0,0
43819,-33.3333333333333,4,2,1,5,0,0
43905,-62.5,4,2,1,70,0,0
44162,-62.5,4,2,1,5,0,0
44248,-33.3333333333333,4,2,1,70,0,0
44333,-33.3333333333333,4,2,1,5,0,0
44420,-100,4,2,1,70,0,0
44676,-100,4,2,1,5,0,0
44762,-66.6666666666667,4,2,1,70,0,0
44847,-66.6666666666667,4,2,1,5,0,0
44934,-33.3333333333333,4,2,1,70,0,0
45105,-62.5,4,2,1,70,0,0
45534,-62.5,4,2,1,5,0,0
45620,-33.3333333333333,4,2,1,70,0,0
45877,-133.333333333333,4,2,1,70,0,0
46090,-133.333333333333,4,2,1,5,0,0
46134,-133.333333333333,4,2,1,70,0,0
46262,-133.333333333333,4,2,1,5,0,0
46305,-33.3333333333333,4,2,1,70,0,0
46648,-250,4,2,1,70,0,0
46991,-25,4,2,1,70,0,0
47848,-62.5,4,2,1,70,0,0
48362,-20,4,2,1,70,0,0
48447,-20,4,2,1,5,0,0
48534,-20,4,2,1,70,0,0
48877,-100,4,2,1,70,0,0
48962,-100,4,2,1,5,0,0
49048,-76.9230769230769,4,2,1,70,0,0
49133,-76.9230769230769,4,2,1,5,0,0
49220,-52.6315789473684,4,2,1,70,0,0
49305,-52.6315789473684,4,2,1,5,0,0
49391,-62.5,4,2,1,70,0,0
49648,-62.5,4,2,1,5,0,0
49734,-33.3333333333333,4,2,1,70,0,0
49819,-33.3333333333333,4,2,1,5,0,0
49834,-33.3333333333333,4,2,1,70,0,0
49905,-100,4,2,1,70,0,0
50162,-100,4,2,1,5,0,0
50248,-66.6666666666667,4,2,1,70,0,0
50333,-66.6666666666667,4,2,1,5,0,0
50420,-33.3333333333333,4,2,1,70,0,0
50762,-62.5,4,2,1,70,0,0
51062,-62.5,4,2,1,5,0,0
51105,-33.3333333333333,4,2,1,70,0,0
51190,-33.3333333333333,4,2,1,5,0,0
51277,-133.333333333333,4,2,1,70,0,0
51490,-133.333333333333,4,2,1,5,0,0
51534,-133.333333333333,4,2,1,70,0,0
51747,-133.333333333333,4,2,1,5,0,0
51791,-33.3333333333333,4,2,1,70,0,0
52134,-333.333333333333,4,2,1,70,0,0
52220,-333.333333333333,4,2,0,70,0,0
52305,-333.333333333333,4,2,1,70,0,0
52391,-333.333333333333,4,2,0,70,0,0
52433,-333.333333333333,4,2,1,5,0,0
52477,-333.333333333333,4,2,1,70,0,0
52820,-33.3333333333333,4,2,1,70,0,0
52905,-33.3333333333333,4,2,1,5,0,0
52991,-33.3333333333333,4,2,1,70,0,0
53076,-33.3333333333333,4,2,1,5,0,0
53162,-33.3333333333333,4,2,1,70,0,0
53204,-33.3333333333333,4,2,1,5,0,0
53334,-33.3333333333333,4,2,1,70,0,0
53376,-33.3333333333333,4,2,1,5,0,0
53505,-33.3333333333333,4,2,63,70,0,0
53591,-33.3333333333333,4,2,1,60,0,0
54362,-33.3333333333333,4,2,0,60,0,0
54534,-33.3333333333333,4,2,1,60,0,0
54705,-33.3333333333333,4,2,0,60,0,0
54877,-33.3333333333333,4,2,1,68,0,0
55134,-33.3333333333333,4,2,1,5,0,0
55220,-33.3333333333333,4,2,1,68,0,0
55305,-33.3333333333333,4,2,1,5,0,0
55391,-33.3333333333333,4,2,1,68,0,0
55476,-33.3333333333333,4,2,1,5,0,0
55562,-100,4,2,1,68,0,0
55990,-100,4,2,1,5,0,0
56077,-100,4,2,1,68,0,0
56248,-33.3333333333333,4,2,1,68,0,0
56333,-33.3333333333333,4,2,1,5,0,0
56420,-33.3333333333333,4,2,1,68,0,0
56505,-33.3333333333333,4,2,1,5,0,0
56591,-33.3333333333333,4,2,1,68,0,0
56676,-33.3333333333333,4,2,1,5,0,0
56762,-33.3333333333333,4,2,1,68,0,0
57190,-33.3333333333333,4,2,1,5,0,0
57277,-33.3333333333333,4,2,1,68,0,0
57362,-33.3333333333333,4,2,1,5,0,0
57448,-33.3333333333333,4,2,1,68,0,0
57533,-33.3333333333333,4,2,1,5,0,0
57620,-333.333333333333,4,2,1,58,0,0
57877,-333.333333333333,4,2,1,5,0,0
57962,-100,4,2,1,58,0,0
58305,-14.4927536231884,4,2,1,58,0,0
58648,-333.333333333333,4,2,1,58,0,0
58947,-333.333333333333,4,2,1,5,0,0
58991,-100,4,2,1,58,0,0
59205,-100,4,2,1,5,0,0
59248,-100,4,2,1,58,0,0
59548,-100,4,2,1,5,0,0
59591,-100,4,2,1,58,0,0
59677,-25,4,2,1,58,0,0
59934,-25,4,2,1,5,0,0
60020,-333.333333333333,4,2,1,58,0,0
60362,-33.3333333333333,4,2,1,68,0,0
60619,-33.3333333333333,4,2,1,5,0,0
60705,-33.3333333333333,4,2,1,68,0,0
60790,-33.3333333333333,4,2,1,5,0,0
60877,-33.3333333333333,4,2,1,68,0,0
60962,-33.3333333333333,4,2,1,5,0,0
61048,-100,4,2,1,68,0,0
61262,-100,4,2,1,5,0,0
61305,-100,4,2,1,68,0,0
61476,-100,4,2,1,5,0,0
61562,-100,4,2,1,68,0,0
61734,-33.3333333333333,4,2,1,68,0,0
61819,-33.3333333333333,4,2,1,5,0,0
61905,-33.3333333333333,4,2,1,68,0,0
61990,-33.3333333333333,4,2,1,5,0,0
62077,-33.3333333333333,4,2,1,68,0,0
62162,-33.3333333333333,4,2,1,5,0,0
62248,-33.3333333333333,4,2,1,68,0,0
62676,-33.3333333333333,4,2,1,5,0,0
62762,-33.3333333333333,4,2,1,68,0,0
62847,-33.3333333333333,4,2,1,5,0,0
62934,-33.3333333333333,4,2,1,68,0,0
63019,-33.3333333333333,4,2,1,5,0,0
63105,-333.333333333333,4,2,1,58,0,0
63404,-333.333333333333,4,2,1,5,0,0
63448,-100,4,2,1,58,0,0
63620,-333.333333333333,4,2,1,58,0,0
64134,-28.5714285714286,4,2,1,58,0,0
64477,-100,4,2,1,58,0,0
64605,-100,4,2,1,5,0,0
64648,-100,4,2,1,58,0,0
64820,-33.3333333333333,4,2,1,58,0,0
64991,-1000,4,2,1,58,0,0
65462,-1000,4,2,1,5,0,0
65505,-33.3333333333333,4,2,1,58,0,0
65590,-33.3333333333333,4,2,1,5,0,0
65677,-33.3333333333333,4,2,1,58,0,0
65762,-33.3333333333333,4,2,1,5,0,0
65848,-33.3333333333333,4,2,1,58,0,0
66105,-33.3333333333333,4,2,1,5,0,0
66191,-33.3333333333333,4,2,1,78,0,0
66277,-33.3333333333333,4,2,1,5,0,0
66362,-33.3333333333333,4,2,1,68,0,0
66447,-33.3333333333333,4,2,1,5,0,0
66534,-100,4,2,1,68,0,0
66962,-100,4,2,1,5,0,0
67048,-100,4,2,1,68,0,0
67220,-33.3333333333333,4,2,1,68,0,0
67305,-33.3333333333333,4,2,1,5,0,0
67391,-33.3333333333333,4,2,1,68,0,0
67476,-33.3333333333333,4,2,1,5,0,0
67562,-33.3333333333333,4,2,1,68,0,0
67647,-33.3333333333333,4,2,1,5,0,0
67734,-33.3333333333333,4,2,1,68,0,0
67991,-33.3333333333333,4,2,1,5,0,0
68077,-33.3333333333333,4,2,1,68,0,0
68162,-33.3333333333333,4,2,1,5,0,0
68248,-33.3333333333333,4,2,1,68,0,0
68333,-33.3333333333333,4,2,1,5,0,0
68420,-33.3333333333333,4,2,1,68,0,0
68505,-33.3333333333333,4,2,1,5,0,0
68591,-333.333333333333,4,2,1,68,0,0
68890,-333.333333333333,4,2,1,5,0,0
68934,-100,4,2,1,68,0,0
69105,-14.4927536231884,4,2,1,68,0,0
69620,-333.333333333333,4,2,1,68,0,0
69919,-333.333333333333,4,2,1,5,0,0
69962,-100,4,2,1,68,0,0
70734,-100,4,2,0,68,0,0
70776,-100,4,2,1,5,0,0
70820,-100,4,2,1,68,0,0
70862,-100,4,2,0,68,0,0
70905,-100,4,2,1,68,0,0
70991,-28.5714285714286,4,2,1,68,0,0
71334,-333.333333333333,4,2,1,68,0,0
71591,-333.333333333333,4,2,1,5,0,0
71677,-33.3333333333333,4,2,1,68,0,0
71762,-33.3333333333333,4,2,1,5,0,0
71848,-33.3333333333333,4,2,1,68,0,0
71933,-33.3333333333333,4,2,1,5,0,0
72020,-100,4,2,1,68,0,0
72447,-100,4,2,1,5,0,0
72534,-100,4,2,1,68,0,0
72705,-33.3333333333333,4,2,1,68,0,0
72790,-33.3333333333333,4,2,1,5,0,0
72877,-33.3333333333333,4,2,1,68,0,0
72962,-33.3333333333333,4,2,1,5,0,0
73048,-33.3333333333333,4,2,1,68,0,0
73133,-33.3333333333333,4,2,1,5,0,0
73220,-33.3333333333333,4,2,1,68,0,0
73647,-33.3333333333333,4,2,1,5,0,0
73734,-33.3333333333333,4,2,1,68,0,0
73819,-33.3333333333333,4,2,1,5,0,0
73905,-33.3333333333333,4,2,1,68,0,0
73990,-33.3333333333333,4,2,1,5,0,0
74077,-333.333333333333,4,2,1,50,0,0
74376,-333.333333333333,4,2,1,5,0,0
74420,-333.333333333333,4,2,1,50,0,0
74762,-333.333333333333,4,2,2,70,0,0
74848,-333.333333333333,4,2,1,50,0,0
74877,-333.333333333333,4,2,2,50,0,0
75448,-333.333333333333,4,2,1,50,0,0
75662,-333.333333333333,4,2,1,5,0,0
75705,-333.333333333333,4,2,1,50,0,0
76134,-333.333333333333,4,2,2,70,0,0
76562,-333.333333333333,4,2,1,70,0,0
76820,-100,4,2,1,60,0,0
79220,-100,4,2,0,40,0,0
79562,-100,4,2,1,40,0,0
80762,-100,4,2,100,20,0,0
80934,-100,4,2,1,40,0,0
81620,-100,4,2,100,40,0,0
81791,-100,4,2,1,40,0,0
82134,-100,4,2,50,30,0,0
82305,-100,4,2,1,45,0,0
85048,-100,4,2,1,50,0,0
86420,-100,4,2,100,50,0,0
86762,-100,4,2,1,50,0,0
86848,-100,4,2,50,50,0,0
87105,-100,4,2,2,50,0,0
87277,-100,4,2,100,50,0,0
87448,-100,4,2,1,50,0,0
87791,-100,4,2,1,55,0,0
90191,-100,4,2,1,30,0,0
90362,-100,4,2,1,55,0,0
90534,-100,4,2,1,57,0,0
91134,-100,4,2,1,37,0,0
91391,-100,4,2,1,57,0,0
91477,-100,4,2,1,37,0,0
91562,-100,4,2,1,57,0,0
93277,-1000,4,2,1,25,0,0
93962,-500,4,2,1,30,0,0
94648,-333.333333333333,4,2,1,35,0,0
94776,-333.333333333333,4,2,1,5,0,0
94820,-333.333333333333,4,2,1,35,0,0
94948,-333.333333333333,4,2,1,5,0,0
94991,-333.333333333333,4,2,1,35,0,0
95119,-333.333333333333,4,2,1,5,0,0
95163,-333.333333333333,4,2,1,35,0,0
95291,-333.333333333333,4,2,1,5,0,0
95334,-250,4,2,1,40,0,0
96020,-33.3333333333333,4,2,1,70,0,0
96105,-33.3333333333333,4,2,1,5,0,0
96191,-33.3333333333333,4,2,1,70,0,0
96276,-33.3333333333333,4,2,1,5,0,0
96362,-33.3333333333333,4,2,1,70,0,0
96447,-33.3333333333333,4,2,1,5,0,0
96534,-33.3333333333333,4,2,1,70,0,0
96619,-33.3333333333333,4,2,1,5,0,0
96705,-33.3333333333333,4,2,1,70,0,0
96790,-33.3333333333333,4,2,1,5,0,0
96877,-33.3333333333333,4,2,1,70,0,0
96962,-33.3333333333333,4,2,1,5,0,0
97048,-33.3333333333333,4,2,1,70,0,0
97133,-33.3333333333333,4,2,1,5,0,0
97220,-33.3333333333333,4,2,1,70,0,0
97305,-33.3333333333333,4,2,1,5,0,0
97391,-62.5,4,2,1,80,0,0
97476,-62.5,4,2,1,5,0,0
97562,-50,4,2,1,80,0,0
98077,-37.7358490566038,4,2,1,80,0,0
98334,-37.7358490566038,4,2,1,5,0,0
98420,-333.333333333333,4,2,1,60,0,0
98719,-333.333333333333,4,2,1,5,0,0
98762,-33.3333333333333,4,2,4,70,0,1
98848,-33.3333333333333,4,2,100,70,0,1
99190,-33.3333333333333,4,2,100,5,0,1
99277,-62.5,4,2,100,70,0,1
99791,-33.3333333333333,4,2,100,70,0,1
99876,-33.3333333333333,4,2,100,5,0,1
99962,-33.3333333333333,4,2,100,70,0,1
100047,-33.3333333333333,4,2,100,5,0,1
100134,-33.3333333333333,4,2,100,70,0,1
100562,-33.3333333333333,4,2,100,5,0,1
100648,-62.5,4,2,100,70,0,1
101419,-62.5,4,2,100,5,0,1
101505,-33.3333333333333,4,2,100,70,0,1
101762,-33.3333333333333,4,2,100,5,0,1
101848,-33.3333333333333,4,2,100,70,0,1
101933,-33.3333333333333,4,2,100,5,0,1
102020,-62.5,4,2,100,70,0,1
102534,-33.3333333333333,4,2,100,70,0,1
102619,-33.3333333333333,4,2,100,5,0,1
102705,-33.3333333333333,4,2,100,70,0,1
102790,-33.3333333333333,4,2,100,5,0,1
102877,-33.3333333333333,4,2,100,70,0,1
103305,-33.3333333333333,4,2,100,5,0,1
103391,-62.5,4,2,100,70,0,1
103820,-33.3333333333333,4,2,100,70,0,1
104248,-333.333333333333,4,2,100,70,0,1
104505,-333.333333333333,4,2,100,5,0,1
104591,-33.3333333333333,4,2,100,70,0,1
104676,-33.3333333333333,4,2,100,5,0,1
104762,-62.5,4,2,100,70,0,1
105277,-33.3333333333333,4,2,100,70,0,1
105362,-33.3333333333333,4,2,100,5,0,1
105448,-33.3333333333333,4,2,100,70,0,1
105533,-33.3333333333333,4,2,100,5,0,1
105620,-33.3333333333333,4,2,100,70,0,1
106047,-33.3333333333333,4,2,100,5,0,1
106134,-62.5,4,2,100,70,0,1
106905,-62.5,4,2,100,5,0,1
106991,-33.3333333333333,4,2,100,70,0,1
107076,-33.3333333333333,4,2,100,5,0,1
107162,-200,4,2,100,70,0,1
107462,-200,4,2,100,5,0,1
107505,-142.857142857143,4,2,100,70,0,1
107762,-142.857142857143,4,2,100,5,0,1
107848,-90.9090909090909,4,2,100,70,0,1
108189,-52.6315789473684,4,2,100,70,0,1
108448,-52.6315789473684,4,2,100,5,0,1
108534,-40,4,2,100,70,0,1
108705,-33.3333333333333,4,2,100,70,0,1
108790,-33.3333333333333,4,2,100,5,0,1
108877,-33.3333333333333,4,2,100,70,0,1
109734,-62.5,4,2,100,40,0,1
109820,-62.5,4,2,100,70,0,1
109905,-333.333333333333,4,2,100,70,0,1
110033,-333.333333333333,4,2,100,5,0,1
110077,-33.3333333333333,4,2,5,70,0,1
110162,-33.3333333333333,4,2,100,70,0,1
110505,-33.3333333333333,4,2,100,5,0,1
110591,-33.3333333333333,4,2,100,70,0,1
110676,-33.3333333333333,4,2,100,5,0,1
110762,-333.333333333333,4,2,100,70,0,1
111061,-333.333333333333,4,2,100,5,0,1
111105,-33.3333333333333,4,2,100,70,0,1
111533,-33.3333333333333,4,2,100,5,0,1
111620,-33.3333333333333,4,2,100,70,0,1
112134,-33.3333333333333,4,2,50,60,0,1
112477,-333.333333333333,4,2,100,70,0,1
112776,-333.333333333333,4,2,100,5,0,1
112820,-33.3333333333333,4,2,100,70,0,1
113247,-33.3333333333333,4,2,100,5,0,1
113334,-33.3333333333333,4,2,100,70,0,1
113419,-33.3333333333333,4,2,100,5,0,1
113505,-333.333333333333,4,2,100,70,0,1
113762,-333.333333333333,4,2,100,5,0,1
113848,-33.3333333333333,4,2,100,70,0,1
114276,-33.3333333333333,4,2,100,5,0,1
114362,-33.3333333333333,4,2,100,70,0,1
114534,-333.333333333333,4,2,100,70,0,1
114662,-333.333333333333,4,2,100,5,0,1
114705,-333.333333333333,4,2,100,70,0,1
114919,-333.333333333333,4,2,100,5,0,1
114962,-333.333333333333,4,2,100,70,0,1
115176,-333.333333333333,4,2,100,5,0,1
115220,-333.333333333333,4,2,100,70,0,1
115519,-333.333333333333,4,2,100,5,0,1
115562,-33.3333333333333,4,2,100,70,0,1
115990,-33.3333333333333,4,2,100,5,0,1
116077,-33.3333333333333,4,2,100,70,0,1
116162,-33.3333333333333,4,2,100,5,0,1
116248,-333.333333333333,4,2,100,70,0,1
116547,-333.333333333333,4,2,100,5,0,1
116591,-33.3333333333333,4,2,100,70,0,1
117019,-33.3333333333333,4,2,100,5,0,1
117105,-33.3333333333333,4,2,100,70,0,1
118305,-35.7142857142857,4,2,100,70,0,1
118562,-38.4615384615385,4,2,100,70,0,1
118820,-41.6666666666667,4,2,100,70,0,1
118991,-41.6666666666667,4,2,1,70,0,1
119076,-41.6666666666667,4,2,1,5,0,1
119162,-41.6666666666667,4,2,100,70,0,1
119247,-41.6666666666667,4,2,100,5,0,1
119334,-45.4545454545455,4,2,100,70,0,1
119419,-45.4545454545455,4,2,100,5,0,1
119505,-45.4545454545455,4,2,100,70,0,1
119590,-45.4545454545455,4,2,100,5,0,1
119677,-45.4545454545455,4,2,100,70,0,1
120705,-45.4545454545455,4,2,100,70,0,0
124648,-1000,4,2,100,70,0,0
124734,-10,4,2,100,70,0,0

[Colours]
Combo1 : 21,251,141
Combo2 : 159,64,255
Combo3 : 255,106,255
Combo4 : 255,140,85

[HitObjects]
94,110,20,5,0,3:0:0:0:
94,110,362,1,0,3:0:0:0:
94,110,2420,5,8,2:0:0:0:
172,126,2591,1,0,0:0:0:0:
172,126,2677,1,0,0:0:0:0:
172,126,2762,1,0,1:0:0:0:
172,126,3277,1,0,1:0:0:0:
172,126,3791,1,0,1:0:0:0:
471,36,5505,5,0,3:0:0:0:
471,36,5848,1,0,3:0:0:0:
257,92,6191,1,8,2:0:0:0:
257,92,8077,5,2,2:0:0:0:
257,92,8162,1,2,2:0:0:0:
257,92,8248,1,0,1:0:0:0:
257,92,8762,1,0,1:0:0:0:
257,92,9105,1,0,0:0:0:0:
185,115,9277,1,0,1:0:0:0:
185,115,9620,5,0,3:0:0:0:
111,136,9791,1,0,0:0:0:0:
293,167,9962,1,8,2:0:0:0:
293,167,10048,1,0,0:0:0:0:
467,192,10220,1,8,2:0:0:0:
467,192,10305,5,0,3:0:0:0:
388,200,10477,1,8,2:3:0:0:
405,276,10648,1,8,3:0:0:0:
482,267,10820,1,8,3:0:0:0:
236,229,10991,5,4,3:2:0:0:
201,292,11162,1,0,0:0:0:0:
227,359,11334,1,0,3:0:0:0:
299,362,11505,1,0,0:0:0:0:
396,127,11677,6,0,B|407:77|407:77|385:8,1,103.999995239258,8|0,2:0|0:0,0:0:0:0:
268,90,12020,1,0,0:0:0:0:
396,127,12191,2,0,B|407:77|407:77|385:8,1,103.999995239258,8|0,2:0|0:0,0:0:0:0:
484,122,12534,5,0,0:0:0:0:
469,195,12705,1,0,3:0:0:0:
398,222,12877,1,0,0:0:0:0:
108,211,13048,6,0,B|97:161|97:161|119:92,1,103.999995239258,8|0,2:0|0:0,0:0:0:0:
167,61,13391,5,8,2:0:0:0:
239,54,13562,1,0,3:0:0:0:
300,93,13734,1,0,3:0:0:0:
307,165,13905,1,0,0:0:0:0:
270,228,14077,1,0,3:0:0:0:
198,240,14248,1,0,0:0:0:0:
398,110,14420,6,0,B|415:161|415:161|404:211,1,103.999995239258,8|0,2:0|0:0,0:0:0:0:
372,281,14762,5,0,0:0:0:0:
312,327,14934,1,2,3:2:0:0:
312,327,14991,1,0,0:0:0:0:
312,327,15048,1,0,0:0:0:0:
312,327,15105,1,0,0:0:0:0:
233,333,15277,1,0,3:0:0:0:
160,314,15448,1,0,3:0:0:0:
139,308,15534,1,0,3:0:0:0:
118,309,15620,1,0,3:0:0:0:
40,31,15791,6,0,B|23:81|23:81|34:131,1,103.999995239258,8|0,2:0|3:0,0:0:0:0:
54,22,16048,6,0,B|31:81|31:81|46:142,1,120.000004577637,8|0,2:0|2:0,0:0:0:0:
123,148,16305,6,0,L|176:142,1,40,0|0,1:0|2:0,0:0:0:0:
202,148,16391,2,0,L|162:143,1,40,0|0,1:0|2:0,0:0:0:0:
165,221,16477,5,4,3:2:0:0:
243,216,16648,1,0,0:0:0:0:
287,153,16820,1,0,3:0:0:0:
260,81,16991,1,0,0:0:0:0:
38,247,17162,6,0,B|21:297|21:297|32:347,1,103.999995239258,8|0,2:0|0:0,0:0:0:0:
128,293,17505,1,0,0:0:0:0:
38,247,17677,2,0,B|21:297|21:297|32:347,1,103.999995239258,8|0,2:0|0:0,0:0:0:0:
101,370,18020,5,0,0:0:0:0:
172,365,18191,1,0,3:0:0:0:
208,301,18362,1,0,0:0:0:0:
407,242,18534,6,0,B|418:192|418:192|401:141,1,103.999995239258,8|0,2:0|0:0,0:0:0:0:
465,89,18877,5,2,2:0:0:0:
407,38,19048,1,0,3:0:0:0:
331,35,19220,1,0,3:0:0:0:
272,79,19391,1,0,0:0:0:0:
261,151,19562,1,0,3:0:0:0:
301,220,19734,1,0,0:0:0:0:
150,371,19905,6,0,B|161:321|161:321|144:270,1,103.999995239258,10|2,2:0|3:2,0:0:0:0:
196,67,20248,2,0,L|135:71,1,51.999997619629,14|0,2:0|2:0,0:0:0:0:
129,76,20420,2,0,L|190:80,1,51.999997619629,8|8,2:3|2:3,0:0:0:0:
83,136,20591,5,0,0:0:0:0:
70,159,20677,1,0,0:0:0:0:
73,184,20762,2,0,B|69:213|69:213|78:245,1,51.999997619629,8|0,2:0|2:0,0:0:0:0:
216,185,20934,6,0,L|163:191,1,51.999997619629,0|0,3:0|2:0,0:0:0:0:
309,237,21105,1,0,0:0:0:0:
323,209,21191,1,2,2:1:0:0:
303,184,21277,1,8,2:0:0:0:
317,156,21362,1,2,2:1:0:0:
289,140,21448,6,0,B|292:121|292:121|288:97,2,25.9999988098145
204,97,21620,6,0,P|286:27|375:124,1,240,0|2,0:0|2:3,0:0:0:0:
153,190,21962,5,4,2:0:0:0:
153,190,23334,6,0,L|151:186,1,4,0|0,0:0|2:0,0:0:0:0:
89,155,23505,2,0,L|83:157,1,4,0|0,0:0|2:0,0:0:0:0:
56,221,23677,2,0,L|57:225,1,4,0|0,0:0|2:0,0:0:0:0:
120,260,23849,2,0,L|126:258,1,4,0|0,0:0|2:0,0:0:0:0:
152,187,24020,6,0,L|147:180,1,8,0|0,0:0|2:0,0:0:0:0:
81,152,24192,2,0,L|70:156,1,8,0|0,0:0|2:0,0:0:0:0:
54,230,24363,2,0,L|57:238,1,8,0|0,0:0|2:0,0:0:0:0:
130,260,24535,2,0,L|138:257,1,8,0|0,0:0|2:0,0:0:0:0:
157,179,24706,6,0,L|149:168,1,11.9999996337891,0|0,3:0|2:0,0:0:0:0:
70,149,24878,2,0,L|54:156,1,11.9999996337891,0|0,0:0|2:0,0:0:0:0:
48,241,25049,2,0,L|54:254,1,11.9999996337891,0|0,0:0|2:0,0:0:0:0:
137,263,25220,2,0,L|157:253,1,11.9999996337891,0|0,3:0|2:0,0:0:0:0:
160,170,25391,6,0,L|148:154,1,16,0|0,0:0|2:0,0:0:0:0:
59,144,25563,2,0,L|36:157,1,16,0|0,0:0|2:0,0:0:0:0:
45,250,25734,2,0,L|57:267,1,16,0|0,3:0|2:0,0:0:0:0:
145,268,25905,2,0,L|169:252,1,16,0|0,0:0|2:0,0:0:0:0:
162,162,26077,6,0,L|147:143,1,20,0|0,3:0|2:0,0:0:0:0:
53,138,26249,2,0,L|21:156,1,20,0|0,0:0|2:0,0:0:0:0:
36,257,26420,2,0,L|53:278,1,20,0|0,0:0|2:0,0:0:0:0:
156,275,26591,2,0,L|183:255,1,20,0|0,3:0|2:0,0:0:0:0:
163,155,26762,6,0,L|142:134,1,23.9999992675781,0|0,0:0|2:0,0:0:0:0:
44,136,26934,2,0,L|6:158,1,23.9999992675781,0|0,0:0|2:0,0:0:0:0:
32,265,27105,2,0,L|54:288,1,23.9999992675781,0|0,3:0|2:0,0:0:0:0:
165,283,27276,2,0,L|197:252,1,23.9999992675781,0|0,0:0|2:0,0:0:0:0:
328,232,27448,6,0,L|268:221,1,40,4|0,2:0|2:0,0:0:0:0:
367,239,27620,2,0,L|307:228,1,40,0|0,3:0|2:0,0:0:0:0:
406,246,27791,2,0,L|346:235,1,40,0|0,1:0|2:0,0:0:0:0:
445,253,27962,2,0,L|385:242,1,40,0|0,0:0|2:0,0:0:0:0:
185,183,28134,6,0,L|254:170,1,47.9999985351563,0|0,1:0|2:0,0:0:0:0:
137,191,28305,2,0,L|206:178,1,47.9999985351563,0|0,3:0|2:0,0:0:0:0:
89,199,28477,2,0,L|158:186,1,47.9999985351563,0|0,1:0|2:0,0:0:0:0:
41,207,28648,2,0,L|110:194,1,47.9999985351563,0|0,0:0|2:0,0:0:0:0:
333,128,28820,6,0,L|262:115,1,55.9999982910156,0|0,1:0|2:0,0:0:0:0:
388,138,28991,2,0,L|317:125,1,55.9999982910156,0|0,3:0|2:0,0:0:0:0:
443,148,29162,2,0,L|372:135,1,55.9999982910156,0|0,1:0|2:0,0:0:0:0:
498,158,29334,2,0,L|427:145,1,55.9999982910156,0|0,0:0|2:0,0:0:0:0:
202,57,29505,6,0,L|275:43,1,64,0|0,1:0|2:0,0:0:0:0:
139,69,29677,2,0,L|212:55,1,64,0|0,3:0|2:0,0:0:0:0:
76,81,29848,2,0,L|149:67,1,64,0|0,1:0|2:0,0:0:0:0:
13,93,30020,2,0,L|86:79,1,64,0|0,0:0|2:0,0:0:0:0:
291,193,30191,5,4,2:0:0:0:
310,218,30277,1,0,3:0:0:0:
340,290,30362,5,0,3:0:0:0:
306,314,30448,1,0,3:0:0:0:
237,341,30534,5,8,2:0:0:0:
201,312,30620,1,2,2:3:0:0:
174,237,30705,5,0,1:0:0:0:
217,204,30791,1,2,2:3:0:0:
420,305,30877,6,0,B|429:329|462:351|462:351|425:338|397:343,1,120.000004577637,8|0,2:0|3:0,0:0:0:0:
90,218,31048,6,0,B|81:194|48:172|48:172|85:185|113:180,1,120.000004577637,0|0,3:0|3:0,0:0:0:0:
259,29,31220,6,0,B|299:42|299:42|332:27|332:27|350:64|350:64|399:83,1,160,8|2,2:0|1:0,0:0:0:0:
221,114,31391,5,0,1:0:0:0:
302,121,31477,5,2,1:0:0:0:
371,172,31562,6,0,P|384:197|390:235,1,64,4|0,1:2|2:0,0:0:0:0:
371,172,31734,2,0,P|391:230|195:319,1,320
210,331,32248,6,0,P|359:319|369:169,1,324.000001235962,4|0,1:2|2:0,0:0:0:0:
29,29,32591,6,0,B|16:35|16:35|21:59,1,35.9999989013672,8|0,2:0|2:0,0:0:0:0:
167,27,32934,6,0,B|274:9|235:90|367:70,1,192,4|0,1:2|2:0,0:0:0:0:
462,75,33277,6,0,B|401:57|401:57|337:75,1,120.000004577637,10|0,2:1|2:0,0:0:0:0:
405,157,33448,5,0,0:0:0:0:
405,157,33534,2,0,P|369:181|356:225,1,79.9999999999999,2|0,2:1|2:0,0:0:0:0:
479,255,33791,6,0,P|483:221|467:178,1,60.0000022888184,2|0,3:1|2:0,0:0:0:0:
339,293,33962,6,0,B|160:325|160:325|229:345,1,240.000009155274,10|2,2:1|2:0,0:0:0:0:
246,154,34220,5,2,2:0:0:0:
246,154,34305,2,0,P|199:66|98:94,1,192,0|0,1:0|2:0,0:0:0:0:
246,154,34648,6,0,P|227:217|179:240,1,120.000004577637,10|0,2:1|2:0,0:0:0:0:
131,153,34820,5,0,0:0:0:0:
131,153,34905,2,0,L|187:155,1,45.0000017166138,2|0,2:1|2:0,0:0:0:0:
164,343,35077,1,2,2:3:0:0:
164,343,35162,2,0,L|115:347,1,45.0000017166138,2|0,3:1|2:0,0:0:0:0:
512,260,35334,6,0,B|452:232|381:317|306:239|306:239|382:172|452:237,1,360.00001373291,10|2,2:1|2:0,0:0:0:0:
234,265,35677,6,0,L|179:267,1,56,0|0,3:0|2:0,0:0:0:0:
106,233,36020,6,0,B|20:187|24:81|117:13|117:13|210:26|262:100|242:173,1,480,8|2,2:0|3:1,0:0:0:0:
134,345,36362,5,2,2:0:0:0:
161,357,36448,5,0,3:0:0:0:
136,354,36534,5,2,3:1:0:0:
161,348,36620,5,2,2:0:0:0:
228,352,36705,6,0,B|223:350|223:350|223:355|223:355|219:350|219:350|219:355|219:355|215:350|215:350|215:355|215:355|211:350|211:350|211:355|211:355|207:350|207:350|207:355|207:355|203:350|203:350|203:355|203:355|199:350|199:350|199:355|199:355|195:350|195:350|195:355|195:355|191:350|191:350|191:355|191:355|187:350|187:350|187:355|187:355|183:350|183:350|183:355|183:355|179:350|179:350|179:355|179:355|175:350|175:350|175:355|175:355|171:350|171:350|171:355|171:355|167:350|167:350|167:355|167:355|163:350|163:350|163:355|163:355|159:350|159:350|159:355|159:355|155:350|155:350|155:355|155:355|151:350|151:350|151:355|151:355|147:350|147:350|147:355|147:355|143:350|143:350|143:355|143:355|137:352|137:352|132:354|132:354|127:352|127:352|122:354|122:354|114:351|114:351|105:354|105:354|91:352|91:352|58:356,1,320,8|0,1:0|0:0,0:0:0:0:
307,281,36962,5,2,2:0:0:0:
311,285,37048,2,0,B|383:258|446:286|446:286|420:304|366:294,1,192,0|2,3:0|2:0,0:0:0:0:
317,177,37391,6,0,B|308:144|308:144|192:170|192:170|181:121,1,200,8|0,2:0|2:0,0:0:0:0:
278,44,37562,5,0,3:0:0:0:
316,49,37648,1,0,3:0:0:0:
294,64,37734,1,0,3:0:0:0:
258,65,37820,1,0,1:0:0:0:
385,22,37905,6,0,B|392:42|392:42|386:79,1,40,2|0,3:1|2:0,0:0:0:0:
464,149,38077,6,0,B|464:177|464:177|426:213,1,77.9999964294435,10|0,2:1|2:0,0:0:0:0:
478,320,38248,6,0,B|448:340|448:340|391:329,1,75.999997970581,2|0,1:0|2:0,0:0:0:0:
128,265,38420,6,0,L|334:246,1,192,4|0,1:2|2:0,0:0:0:0:
212,117,38762,6,0,P|186:158|105:165,1,120.000004577637,10|0,2:1|2:0,0:0:0:0:
128,368,38934,5,0,0:0:0:0:
128,368,39020,2,0,P|75:333|37:337,1,99.9999999999999,2|0,2:1|2:0,0:0:0:0:
128,265,39277,6,0,L|213:260,1,60.0000022888184,2|0,3:1|2:0,0:0:0:0:
133,86,39448,6,0,P|26:137|57:255,1,240.000009155274,10|2,2:1|2:0,0:0:0:0:
368,112,39705,5,2,2:0:0:0:
368,112,39791,2,0,P|334:53|215:80,1,192,0|0,1:0|2:0,0:0:0:0:
367,199,40134,6,0,B|422:180|422:180|487:206,1,120.000004577637,10|0,2:1|2:0,0:0:0:0:
418,305,40305,5,0,0:0:0:0:
418,305,40391,2,0,P|420:324|415:346,1,30.0000011444092,2|0,2:1|0:0,0:0:0:0:
275,233,40562,1,2,2:3:0:0:
275,233,40648,2,0,P|273:214|278:192,1,30.0000011444092,2|0,3:1|2:0,0:0:0:0:
314,296,40820,6,0,P|321:128|504:131,1,360.00001373291,10|2,2:1|2:0,0:0:0:0:
269,376,41162,6,0,P|235:338|221:284,1,79.9999999999999,0|0,3:0|2:0,0:0:0:0:
372,228,41334,2,0,P|406:266|420:320,1,79.9999999999999,2|0,1:3|2:0,0:0:0:0:
205,91,41505,6,0,L|213:49,1,41.9999987182617,10|0,2:1|2:0,0:0:0:0:
132,119,41848,6,0,B|114:128|114:128|132:68,1,60.0000022888184,2|0,1:2|2:0,0:0:0:0:
169,185,42020,6,0,B|178:205|178:205|196:145,1,60.0000022888184,2|0,1:2|2:0,0:0:0:0:
102,231,42191,6,0,B|84:240|84:240|102:180,1,60.0000022888184,8|0,2:0|2:0,0:0:0:0:
144,299,42362,6,0,B|153:319|153:319|171:259,1,60.0000022888184,0|0,3:0|2:0,0:0:0:0:
368,26,42534,6,0,L|382:105,1,64,0|0,3:0|2:0,0:0:0:0:
358,90,42705,2,0,L|372:7,1,64,2|0,3:1|3:0,0:0:0:0:
471,149,42877,6,0,B|372:217|372:217|255:130,1,240.000009155274,8|2,2:0|3:1,0:0:0:0:
277,106,43134,1,8,3:0:0:0:
279,68,43220,6,0,L|281:52,1,11.9999996337891,8|0,2:3|2:0,0:0:0:0:
195,61,43391,5,0,0:0:0:0:
209,134,43477,1,2,2:0:0:0:
156,189,43562,2,0,P|156:256|387:296,1,360.00001373291,8|0,2:0|2:0,0:0:0:0:
335,295,43905,6,0,P|251:318|181:237,1,192,4|0,1:2|2:0,0:0:0:0:
37,29,44248,6,0,L|48:182,1,120.000004577637,10|0,2:1|2:0,0:0:0:0:
44,302,44420,5,0,0:0:0:0:
39,321,44505,2,0,B|25:280|25:280|39:239,1,79.9999999999999,2|0,2:1|2:0,0:0:0:0:
120,324,44762,6,0,B|147:339|147:339|111:349,1,60.0000022888184,2|0,3:1|2:0,0:0:0:0:
226,346,44934,6,0,L|479:363,1,240.000009155274,10|2,2:1|2:0,0:0:0:0:
288,235,45191,5,2,2:0:0:0:
288,235,45277,2,0,B|288:255|288:255|422:270|422:270|426:224,1,192,0|0,1:0|2:0,0:0:0:0:
111,130,45620,6,0,B|62:158|-4:160|-4:160|71:171|133:204,1,240.000009155274,10|0,2:1|0:0,0:0:0:0:
274,95,45877,5,2,2:1:0:0:
274,95,45962,2,0,L|276:38,1,45.0000017166138,0|0,0:0|2:0,0:0:0:0:
174,255,46134,2,0,L|172:312,1,45.0000017166138,2|0,3:1|2:0,0:0:0:0:
191,19,46305,6,0,B|137:210|331:171|273:377,1,360.00001373291,10|2,2:1|2:0,0:0:0:0:
266,368,46648,6,0,P|262:343|266:317,1,48,0|2,3:0|2:0,0:0:0:0:
258,383,46991,6,0,P|252:298|504:353,1,480,10|0,2:1|3:0,0:0:0:0:
408,325,47334,5,0,0:0:0:0:
368,319,47420,1,2,2:0:0:0:
404,365,47505,1,0,3:0:0:0:
372,363,47591,1,0,3:0:0:0:
385,341,47677,6,0,B|380:58|380:58|394:113,1,320,8|0,1:0|0:0,0:0:0:0:
505,137,47934,5,2,2:0:0:0:
505,137,48020,2,0,B|508:70|478:14|478:14|472:79,1,192,0|2,3:0|2:0,0:0:0:0:
209,236,48362,6,0,B|162:255|162:255|121:228|121:228|164:207|164:207|217:235,1,200,8|0,2:0|2:0,0:0:0:0:
280,204,48534,5,0,3:0:0:0:
298,239,48620,1,0,3:0:0:0:
292,278,48705,1,0,3:0:0:0:
260,301,48791,1,0,1:0:0:0:
224,147,48877,6,0,L|227:91,1,40,2|0,3:1|2:0,0:0:0:0:
108,363,49048,6,0,L|104:292,1,51.999997619629,10|0,2:1|2:0,0:0:0:0:
30,122,49220,6,0,L|22:39,1,75.999997970581,2|0,1:0|2:0,0:0:0:0:
108,363,49391,6,0,L|123:167,1,192,4|0,1:2|2:0,0:0:0:0:
125,57,49734,6,0,B|105:119|105:119|130:194,1,120.000004577637,10|0,2:1|2:0,0:0:0:0:
335,48,49905,5,0,0:0:0:0:
335,48,49991,2,0,B|300:24|300:24|245:20,1,79.9999999999999,2|0,2:1|2:0,0:0:0:0:
282,244,50248,6,0,B|312:251|312:251|314:216,1,60.0000022888184,2|0,3:1|2:0,0:0:0:0:
317,140,50420,6,0,P|248:152|333:336,1,360.00001373291,10|2,2:1|2:0,0:0:0:0:
399,261,50762,6,0,P|407:179|278:135,1,224,0|0,1:0|2:0,0:0:0:0:
129,212,51105,6,0,B|110:270|110:270|135:342,1,120.000004577637,10|0,2:1|2:0,0:0:0:0:
51,176,51277,5,0,0:0:0:0:
51,176,51362,2,0,L|46:127,1,45.0000017166138,2|0,2:1|2:0,0:0:0:0:
29,33,51534,1,2,2:3:0:0:
29,33,51619,2,0,L|34:82,1,45.0000017166138,2|0,3:1|2:0,0:0:0:0:
200,32,51791,6,0,B|248:38|248:38|231:255,1,240.000009155274,10|2,2:1|2:0,0:0:0:0:
462,187,52048,5,2,2:0:0:0:
462,187,52134,2,0,P|440:179|421:180,1,41.9999987182617,0|0,3:0|2:0,0:0:0:0:
394,115,52477,1,8,1:0:0:0:
371,123,52562,1,8,2:3:0:0:
356,141,52648,1,0,1:0:0:0:
353,164,52734,1,8,2:3:0:0:
328,245,52820,6,0,B|347:275|334:338|334:338|355:283,1,120.000004577637,2|0,1:2|2:0,0:0:0:0:
178,216,52991,2,0,B|159:246|172:309|172:309|151:254,1,120.000004577637,10|0,1:2|2:0,0:0:0:0:
253,139,53162,6,0,B|259:107|259:107|250:72,1,60.0000022888184,8|0,2:0|2:0,0:0:0:0:
251,22,53334,2,0,B|244:48|244:48|252:80,1,60.0000022888184,8|0,3:1|2:0,0:0:0:0:
256,351,53505,5,0,0:0:0:0:
256,351,53848,1,2,2:0:0:0:
256,351,54191,1,8,0:0:0:0:
255,277,54362,1,2,2:0:0:0:
253,265,54448,1,2,2:0:0:0:
251,253,54534,1,2,2:0:0:0:
275,277,54705,5,0,3:0:0:0:
271,240,54791,1,2,2:0:0:0:
265,199,54877,2,0,P|262:159|442:215,1,360.00001373291,4|0,3:2|2:0,0:0:0:0:
176,204,55220,2,0,B|120:221|120:221|43:195,1,120.000004577637,8|0,2:0|2:0,0:0:0:0:
65,187,55391,2,0,B|123:206|123:206|179:189,1,120.000004577637,0|0,3:0|2:0,0:0:0:0:
6,19,55562,6,0,L|44:103,1,79.9999999999999,2|0,3:1|0:0,0:0:0:0:
310,56,55820,1,2,2:1:0:0:
310,56,55905,2,0,L|332:103,1,40,8|0,2:0|2:0,0:0:0:0:
379,191,56077,2,0,L|360:153,1,40,2|0,3:1|3:0,0:0:0:0:
396,26,56248,6,0,P|440:59|438:120,1,120.000004577637,0|0,3:0|2:0,0:0:0:0:
272,183,56420,2,0,P|228:150|230:89,1,120.000004577637,0|0,3:0|2:0,0:0:0:0:
408,271,56591,2,0,B|427:303|414:327|414:327|390:315|383:277,1,120.000004577637,8|0,2:0|2:0,0:0:0:0:
379,191,56762,5,2,2:0:0:0:
379,191,56848,2,0,P|487:234|488:353,1,240.000009155274,0|2,3:0|2:3,0:0:0:0:
311,344,57105,2,0,P|292:281|331:227,1,120.000004577637,0|0,3:0|2:0,0:0:0:0:
212,291,57277,2,0,B|155:274|155:274|79:301,1,120.000004577637,8|0,2:0|2:0,0:0:0:0:
97,273,57448,2,0,B|154:256|154:256|230:283,1,120.000004577637,2|0,2:0|2:0,0:0:0:0:
25,372,57620,6,0,L|21:336,1,35.9999989013672,0|0,3:0|2:0,0:0:0:0:
111,179,57962,6,0,L|17:187,1,79.9999999999999,8|0,2:0|3:0,0:0:0:0:
244,36,58220,5,0,3:0:0:0:
244,36,58305,2,0,B|256:61|256:61|314:45|341:71|355:94|350:136|320:168|282:180|231:162|204:135|205:69|260:28|290:112|290:112|287:132,2,367.999990875244,2|2|0,1:0|2:1|3:0,0:0:0:0:
225,173,58648,6,0,B|223:189|223:189|228:216,1,41.9999987182617,10|0,2:1|2:0,0:0:0:0:
503,212,58991,6,0,L|395:213,1,99.9999999999999,0|0,3:0|2:0,0:0:0:0:
276,366,59248,1,2,2:0:0:0:
276,366,59334,2,0,L|177:365,1,99.9999999999999,8|0,2:0|2:0,0:0:0:0:
502,294,59591,5,0,3:0:0:0:
502,294,59677,2,0,B|401:294|401:294|372:345|372:345|330:280|330:280|271:280|271:280|236:212|236:212|210:257|210:257|129:257,1,480,0|0,1:0|2:0,0:0:0:0:
271,89,60020,6,0,L|269:128,1,35.9999989013672,8|2,2:0|2:3,0:0:0:0:
130,358,60362,6,0,P|43:297|185:162,1,360.00001373291,4|0,3:2|2:0,0:0:0:0:
358,58,60705,2,0,B|346:117|346:117|367:193,1,120.000004577637,8|0,2:0|2:0,0:0:0:0:
345,174,60877,2,0,B|357:115|357:115|341:57,1,120.000004577637,0|0,3:0|2:0,0:0:0:0:
231,255,61048,6,0,L|237:364,1,99.9999999999999,2|0,3:1|2:0,0:0:0:0:
464,254,61305,1,2,2:1:0:0:
464,254,61391,2,0,L|460:305,1,40,8|0,2:0|2:0,0:0:0:0:
463,333,61562,2,0,L|459:279,1,40,2|0,3:1|3:0,0:0:0:0:
153,29,61734,6,0,P|175:87|229:120,1,120.000004577637,0|0,3:0|2:0,0:0:0:0:
443,148,61905,2,0,P|378:128|308:154,1,120.000004577637,0|0,3:0|2:0,0:0:0:0:
241,331,62077,2,0,P|234:253|255:201,1,120.000004577637,8|0,2:0|2:0,0:0:0:0:
24,184,62248,5,2,2:0:0:0:
24,184,62334,2,0,P|27:295|144:316,1,240.000009155274,0|2,3:0|2:3,0:0:0:0:
106,127,62591,2,0,P|56:127|8:178,1,120.000004577637,0|0,3:0|2:0,0:0:0:0:
223,46,62762,2,0,B|283:60|283:60|341:49,1,120.000004577637,8|0,2:0|2:0,0:0:0:0:
338,64,62934,2,0,B|281:50|281:50|217:64,1,120.000004577637,2|0,2:0|2:0,0:0:0:0:
445,189,63105,6,0,P|416:183|402:188,1,41.9999987182617,0|0,3:0|2:0,0:0:0:0:
463,277,63448,6,0,P|429:263|371:275,1,79.9999999999999,8|0,2:0|3:0,0:0:0:0:
224,148,63705,5,0,3:0:0:0:
224,148,63791,2,0,L|194:155,2,15.9999995117188,2|2|0,1:0|2:1|0:0,0:0:0:0:
321,158,64134,6,0,B|47:195|47:195|186:281,1,420.000004005432,10|2,2:1|2:0,0:0:0:0:
348,269,64477,6,0,B|368:269|368:269|407:280,1,60,0|0,3:0|2:0,0:0:0:0:
499,266,64648,2,0,B|473:273|473:273|454:291,1,40,0|0,3:0|1:0,0:0:0:0:
421,360,64820,6,0,L|432:116,1,240.000009155274,8|0,2:0|0:0,0:0:0:0:
270,30,65077,5,0,3:0:0:0:
270,30,65162,2,0,L|273:43,1,14,2|0,2:0|2:0,0:0:0:0:
211,96,65505,6,0,B|156:76|156:76|78:96,1,120.000004577637,12|0,2:0|2:0,0:0:0:0:
214,83,65677,2,0,B|156:62|156:62|99:79,1,120.000004577637,0|0,3:0|2:0,0:0:0:0:
94,346,65848,6,0,P|277:296|256:152,1,360.00001373291,0|0,0:0|2:0,0:0:0:0:
92,245,66191,2,0,B|153:264|153:264|227:240,1,120.000004577637,4|0,3:2|2:0,0:0:0:0:
207,225,66362,2,0,B|153:207|153:207|92:226,1,120.000004577637,0|0,3:2|2:0,0:0:0:0:
364,238,66534,6,0,L|457:234,1,79.9999999999999,2|0,3:1|0:0,0:0:0:0:
369,319,66791,1,2,2:1:0:0:
369,319,66877,2,0,L|419:323,1,40,8|0,2:0|2:0,0:0:0:0:
356,157,67048,2,0,L|395:153,1,40,2|0,3:1|3:0,0:0:0:0:
305,43,67220,6,0,P|238:99|183:89,1,120.000004577637,0|0,3:0|2:0,0:0:0:0:
109,99,67391,2,0,P|66:85|25:18,1,120.000004577637,0|0,3:0|2:0,0:0:0:0:
216,127,67562,2,0,B|160:111|160:111|85:127,1,120.000004577637,8|0,2:0|2:0,0:0:0:0:
243,236,67734,5,2,2:0:0:0:
243,236,67820,2,0,P|138:167|65:258,1,240.000009155274,0|0,3:0|2:0,0:0:0:0:
273,336,68077,2,0,P|281:278|259:210,1,120.000004577637,0|0,3:0|2:0,0:0:0:0:
39,335,68248,2,0,P|31:276|48:219,1,120.000004577637,8|0,2:0|2:0,0:0:0:0:
184,302,68420,2,0,B|186:342|157:351|157:351|123:338|130:282,1,120.000004577637,2|0,2:0|2:0,0:0:0:0:
347,163,68591,6,0,L|352:206,1,41.9999987182617,0|0,3:0|2:0,0:0:0:0:
388,361,68934,6,0,L|389:268,1,79.9999999999999,8|0,2:0|3:0,0:0:0:0:
506,100,69191,5,0,3:0:0:0:
506,100,69276,2,0,B|478:93|478:93|481:33|450:13|420:12|381:22|360:55|357:95|386:141|420:150|482:145|510:82|420:73|420:73|402:79,2,367.999990875244,2|2|0,1:0|2:1|3:0,0:0:0:0:
308,104,69620,6,0,B|264:104,1,41.9999987182617,10|0,2:1|2:0,0:0:0:0:
205,200,69962,6,0,P|243:206|289:201,1,79.9999999999999,0|0,3:0|0:0,0:0:0:0:
279,14,70220,1,2,2:0:0:0:
279,14,70305,2,0,P|239:10|199:16,1,79.9999999999999,8|0,2:0|3:0,0:0:0:0:
56,208,70562,5,0,3:0:0:0:
56,208,70648,2,0,L|65:285,1,60,0|0,1:0|2:0,0:0:0:0:
44,129,70877,1,2,2:0:0:0:
66,340,70991,6,0,B|-1:302|-1:302|124:81|124:81|13:19,1,420.000004005432,8|2,2:0|2:0,0:0:0:0:
149,216,71334,6,0,L|184:234,1,35.9999989013672,4|0,3:2|2:0,0:0:0:0:
215,153,71677,6,0,P|264:168|301:229,1,120.000004577637,8|0,2:0|2:0,0:0:0:0:
155,310,71848,2,0,P|206:338|264:326,1,120.000004577637,0|0,3:0|2:0,0:0:0:0:
428,140,72020,6,0,L|338:147,1,79.9999999999999,2|0,3:1|0:0,0:0:0:0:
439,58,72277,1,2,2:1:0:0:
439,58,72362,2,0,L|381:53,1,40,8|0,2:0|2:0,0:0:0:0:
293,36,72534,2,0,L|351:31,1,40,2|0,3:1|3:0,0:0:0:0:
498,240,72705,6,0,P|434:242|362:200,1,120.000004577637,0|0,3:0|2:0,0:0:0:0:
271,206,72877,2,0,P|330:202|385:225,1,120.000004577637,0|0,3:0|2:0,0:0:0:0:
116,355,73048,2,0,B|99:305|99:305|114:240,1,120.000004577637,8|0,2:0|2:0,0:0:0:0:
263,189,73220,5,2,2:0:0:0:
263,189,73305,2,0,B|347:155|411:265|508:216,1,240.000009155274,0|2,3:0|2:3,0:0:0:0:
280,95,73562,2,0,B|222:77|222:77|157:97,1,120.000004577637,0|0,3:0|2:0,0:0:0:0:
180,295,73734,2,0,B|236:312|236:312|294:294,1,120.000004577637,8|0,2:0|2:0,0:0:0:0:
124,195,73905,2,0,B|66:186|26:207|26:207|71:215,1,120.000004577637,2|0,2:0|2:0,0:0:0:0:
363,112,74077,6,0,P|389:111|407:114,1,41.9999987182617,0|0,3:0|2:0,0:0:0:0:
398,112,74420,1,0,0:0:0:0:
479,135,74591,1,0,3:0:0:0:
306,34,74762,5,8,2:0:0:0:
291,35,74877,1,0,0:0:0:0:
304,30,74991,5,0,0:0:0:0:
292,38,75106,1,0,0:0:0:0:
305,37,75220,5,0,0:0:0:0:
291,31,75335,1,0,0:0:0:0:
243,111,75448,6,0,P|242:134|243:142,1,29.9999990844727,0|0,3:0|2:0,0:0:0:0:
242,134,75705,1,0,3:0:0:0:
262,213,75877,1,0,3:0:0:0:
262,213,75962,1,0,3:0:0:0:
325,259,76134,1,8,2:0:0:0:
325,259,76477,1,0,0:0:0:0:
325,259,76820,5,4,2:0:0:0:
395,274,76991,1,0,0:0:0:0:
460,245,77162,1,0,0:0:0:0:
473,174,77334,1,0,0:0:0:0:
435,112,77505,1,0,0:0:0:0:
435,112,77677,1,0,0:0:0:0:
367,30,77848,5,0,0:0:0:0:
349,38,78020,1,0,0:0:0:0:
255,31,78191,5,0,0:0:0:0:
185,42,78362,1,0,0:0:0:0:
158,111,78534,1,0,0:0:0:0:
198,170,78705,1,0,0:0:0:0:
265,194,78877,1,0,0:0:0:0:
318,241,79048,1,0,0:0:0:0:
318,313,79220,1,8,2:0:0:0:
251,340,79391,1,0,0:0:0:0:
194,295,79562,5,0,1:0:0:0:
205,282,79734,1,0,0:0:0:0:
111,189,79905,5,0,3:0:0:0:
102,117,80077,1,0,0:0:0:0:
159,73,80248,1,0,0:0:0:0:
230,82,80420,1,0,3:0:0:0:
267,143,80591,1,0,1:0:0:0:
248,212,80762,1,0,0:0:0:0:
248,212,80820,1,0,0:0:0:0:
248,212,80877,1,0,0:0:0:0:
248,212,80934,1,0,1:0:0:0:
173,230,81105,5,0,0:0:0:0:
109,264,81277,1,0,3:0:0:0:
112,335,81448,1,0,0:0:0:0:
186,382,81620,1,0,0:0:0:0:
186,382,81677,1,0,0:0:0:0:
186,382,81734,1,0,0:0:0:0:
186,382,81791,1,0,3:0:0:0:
249,335,81962,1,0,1:0:0:0:
249,335,82134,1,2,2:3:0:0:
322,185,82305,5,0,1:0:0:0:
341,199,82477,1,0,0:0:0:0:
275,83,82648,5,0,3:0:0:0:
205,101,82820,1,0,0:0:0:0:
194,172,82991,1,0,0:0:0:0:
239,227,83162,1,0,3:0:0:0:
433,164,83334,5,0,1:0:0:0:
486,116,83505,1,0,0:0:0:0:
465,47,83676,1,0,1:0:0:0:
394,30,83848,1,0,0:0:0:0:
336,73,84020,1,0,3:0:0:0:
360,140,84191,1,0,0:0:0:0:
433,164,84362,1,0,0:0:0:0:
486,116,84534,1,0,3:0:0:0:
465,47,84705,1,8,1:2:0:0:
465,47,84877,1,2,2:3:0:0:
258,163,85048,5,0,1:0:0:0:
269,184,85220,1,0,0:0:0:0:
52,265,85391,5,0,3:0:0:0:
37,195,85562,1,0,0:0:0:0:
94,151,85733,1,0,0:0:0:0:
162,179,85905,1,0,3:0:0:0:
183,248,86077,1,0,1:0:0:0:
237,295,86248,1,0,0:0:0:0:
318,279,86420,5,0,1:0:0:0:
318,279,86477,1,0,0:0:0:0:
318,279,86534,1,0,0:0:0:0:
318,279,86591,1,0,0:0:0:0:
345,203,86762,1,0,0:0:0:0:
368,200,86848,1,2,2:3:0:0:
391,197,86934,1,0,3:0:0:0:
414,192,87020,1,0,3:0:0:0:
437,189,87105,1,2,2:0:0:0:
485,128,87277,1,0,0:0:0:0:
485,128,87334,1,0,0:0:0:0:
485,128,87391,1,0,0:0:0:0:
485,128,87448,1,8,2:0:0:0:
431,64,87620,1,2,2:3:0:0:
253,193,87791,5,4,1:2:0:0:
253,193,88134,1,0,3:0:0:0:
253,193,88648,1,0,3:0:0:0:
253,193,88820,1,0,1:0:0:0:
253,193,89162,1,0,1:0:0:0:
253,193,89505,1,0,3:0:0:0:
333,188,89677,5,0,0:0:0:0:
333,188,89762,1,0,3:0:0:0:
333,188,89848,1,0,0:0:0:0:
408,178,90020,1,0,3:0:0:0:
408,178,90105,1,0,0:0:0:0:
483,166,90277,1,0,0:0:0:0:
483,166,90362,1,0,0:0:0:0:
253,193,90534,5,0,1:0:0:0:
253,193,90791,1,0,0:0:0:0:
253,193,91048,5,0,0:0:0:0:
253,193,91134,1,2,3:1:0:0:
174,199,91305,1,2,2:1:0:0:
100,209,91477,1,2,2:1:0:0:
100,209,91562,1,0,1:0:0:0:
25,216,91734,1,2,2:1:0:0:
253,193,91905,5,0,1:0:0:0:
253,193,92162,1,0,0:0:0:0:
253,193,92420,5,0,0:0:0:0:
253,193,92505,1,2,3:1:0:0:
331,180,92677,1,0,0:0:0:0:
406,168,92848,1,0,0:0:0:0:
406,168,92934,1,8,1:2:0:0:
481,153,93105,1,2,2:1:0:0:
33,34,93277,6,0,L|36:36,1,4,0|0,1:0|3:0,0:0:0:0:
56,52,93448,2,0,L|59:54,1,4,0|0,3:0|3:0,0:0:0:0:
82,69,93620,2,0,L|85:71,1,4,0|0,3:0|3:0,0:0:0:0:
104,85,93791,2,0,L|107:87,1,4,0|0,3:0|3:0,0:0:0:0:
38,127,93962,6,0,L|46:132,1,7.99999999999999,0|0,3:0|3:0,0:0:0:0:
65,146,94134,2,0,L|73:151,1,7.99999999999999,0|0,3:0|3:0,0:0:0:0:
90,162,94305,2,0,L|98:167,1,7.99999999999999,0|0,3:0|3:0,0:0:0:0:
117,181,94477,2,0,L|125:186,1,7.99999999999999,0|0,3:0|3:0,0:0:0:0:
33,212,94648,6,0,L|50:222,1,17.9999994506836,0|0,3:0|2:0,0:0:0:0:
57,227,94820,2,0,L|74:237,1,17.9999994506836,0|0,3:0|2:0,0:0:0:0:
82,243,94991,2,0,L|99:253,1,17.9999994506836,0|0,3:0|2:0,0:0:0:0:
106,258,95163,2,0,L|123:268,1,17.9999994506836,0|0,3:0|2:0,0:0:0:0:
31,297,95334,6,0,L|49:311,1,16,0|0,3:0|3:0,0:0:0:0:
58,319,95505,2,0,L|76:333,1,16,0|0,3:0|3:0,0:0:0:0:
84,336,95677,2,0,L|102:350,1,16,8|0,3:2|3:0,0:0:0:0:
114,356,95848,2,0,L|132:370,1,16,0|0,3:0|3:0,0:0:0:0:
306,233,96020,6,0,L|180:178,1,120.000004577637,4|0,3:2|2:0,0:0:0:0:
201,177,96191,2,0,L|327:232,1,120.000004577637,10|0,2:1|2:0,0:0:0:0:
313,215,96362,2,0,L|187:160,1,120.000004577637,8|0,3:2|2:0,0:0:0:0:
208,157,96534,2,0,L|334:212,1,120.000004577637,10|0,2:1|2:0,0:0:0:0:
118,191,96705,6,0,P|117:124|157:89,1,120.000004577637,8|0,3:2|2:0,0:0:0:0:
394,193,96877,6,0,P|395:260|355:295,1,120.000004577637,10|0,2:1|2:0,0:0:0:0:
243,62,97048,6,0,B|302:64|302:64|355:116,1,120.000004577637,8|0,3:2|2:0,0:0:0:0:
269,322,97220,6,0,B|210:320|210:320|157:268,1,120.000004577637,10|0,2:1|2:0,0:0:0:0:
467,36,97391,6,0,L|478:116,1,64,4|0,1:2|2:0,0:0:0:0:
467,36,97562,2,0,L|506:366,1,320
504,353,98077,6,0,L|467:19,1,318.000013343811,4|0,1:2|2:0,0:0:0:0:
414,288,98420,6,0,L|407:332,1,41.9999987182617,8|0,2:0|2:0,0:0:0:0:
408,323,98762,6,0,L|376:71,1,240.000009155274,14|0,3:2|0:0,0:0:0:0:
309,313,99020,1,0,0:0:0:0:
309,313,99105,2,0,B|292:259|292:259|305:192,1,120.000004577637,8|0,2:0|2:0,0:0:0:0:
303,60,99277,5,2,2:1:0:0:
303,60,99362,2,0,L|293:145,1,64,0|0,3:0|0:0,0:0:0:0:
176,32,99534,1,2,1:0:0:0:
176,32,99620,2,0,L|238:8,1,64,0|2,0:0|2:1,0:0:0:0:
231,180,99791,6,0,L|109:93,1,120.000004577637,8|0,2:0|2:0,0:0:0:0:
133,249,99962,2,0,L|242:171,1,120.000004577637,2|0,2:0|2:0,0:0:0:0:
58,85,100134,6,0,B|2:185|2:185|66:304,1,240.000009155274,0|0,3:0|0:0,0:0:0:0:
315,163,100391,1,0,0:0:0:0:
315,163,100477,2,0,L|306:302,1,120.000004577637,8|0,2:0|2:0,0:0:0:0:
426,105,100648,5,2,2:1:0:0:
426,105,100734,2,0,B|391:111|391:111|356:97,1,64,0|0,3:0|0:0,0:0:0:0:
241,64,100905,1,2,3:1:0:0:
241,64,100991,2,0,B|276:70|276:70|311:56,1,64,0|2,0:0|3:1,0:0:0:0:
179,117,101162,1,8,2:0:0:0:
152,144,101248,1,2,3:1:0:0:
161,181,101334,2,0,L|228:190,1,64,2|0,3:0|2:0,0:0:0:0:
428,189,101505,6,0,P|487:244|318:346,1,360.00001373291,0|0,3:0|2:0,0:0:0:0:
435,172,101848,2,0,P|484:208|501:281,1,120.000004577637,8|0,2:0|2:0,0:0:0:0:
337,156,102020,5,2,2:1:0:0:
337,156,102105,2,0,L|344:84,1,64,0|0,3:0|0:0,0:0:0:0:
337,28,102277,1,2,1:0:0:0:
337,28,102362,2,0,L|344:100,1,64,0|2,3:0|2:1,0:0:0:0:
263,184,102534,6,0,P|235:201|230:296,1,120.000004577637,8|0,2:0|2:0,0:0:0:0:
346,357,102705,2,0,P|346:298|303:259,1,120.000004577637,2|0,2:0|2:0,0:0:0:0:
79,281,102877,6,0,P|115:350|263:351,1,240.000009155274,0|0,3:0|0:0,0:0:0:0:
148,181,103134,1,0,0:0:0:0:
148,181,103220,2,0,L|14:192,1,120.000004577637,8|0,2:0|2:0,0:0:0:0:
248,44,103391,5,2,2:1:0:0:
248,44,103477,2,0,B|214:36|214:36|182:45,1,64,0|0,3:0|0:0,0:0:0:0:
276,109,103648,2,0,B|310:101|310:101|342:110,1,64,2|0,3:1|0:0,0:0:0:0:
255,185,103820,5,2,3:1:0:0:
255,185,103905,2,0,P|227:239|265:313,1,120.000004577637,8|2,2:0|3:1,0:0:0:0:
366,322,104077,1,2,3:0:0:0:
374,286,104162,1,0,0:0:0:0:
357,252,104248,6,0,L|321:257,1,35.9999989013672,4|0,3:2|2:0,0:0:0:0:
321,257,104591,6,0,L|451:262,1,120.000004577637,8|0,2:0|2:0,0:0:0:0:
373,70,104762,5,2,2:1:0:0:
373,70,104848,2,0,L|451:79,1,64,0|0,3:0|0:0,0:0:0:0:
283,77,105020,1,2,1:0:0:0:
283,77,105106,2,0,L|205:86,1,64,0|2,0:0|2:1,0:0:0:0:
98,166,105277,6,0,P|165:195|226:172,1,120.000004577637,8|0,2:0|2:0,0:0:0:0:
288,187,105448,2,0,P|346:196|398:168,1,120.000004577637,2|0,2:0|2:0,0:0:0:0:
254,291,105620,6,0,B|126:263|145:365|28:336,1,240.000009155274,0|0,3:0|0:0,0:0:0:0:
300,360,105877,1,0,0:0:0:0:
300,360,105962,2,0,B|354:343|354:343|427:372,1,120.000004577637,8|0,2:0|2:0,0:0:0:0:
288,187,106134,5,2,2:1:0:0:
288,187,106220,2,0,L|281:119,1,64,0|0,3:0|0:0,0:0:0:0:
367,33,106391,1,2,3:1:0:0:
367,33,106477,2,0,L|360:96,1,64,0|2,0:0|3:1,0:0:0:0:
229,36,106648,1,8,2:0:0:0:
184,60,106734,1,2,3:1:0:0:
176,105,106820,2,0,B|171:138|171:138|180:176,1,64,2|0,3:0|2:0,0:0:0:0:
439,298,106991,6,0,B|451:243|451:243|431:162,1,120.000004577637,4|0,3:2|2:0,0:0:0:0:
321,310,107162,5,0,3:0:0:0:
357,279,107248,1,0,0:0:0:0:
318,260,107334,6,0,L|285:258,1,30,8|0,2:0|2:0,0:0:0:0:
190,274,107505,5,0,0:0:0:0:
154,243,107591,1,0,1:0:0:0:
193,224,107677,6,0,L|231:220,1,27.9999991455078,0|0,0:0|2:0,0:0:0:0:
304,185,107848,5,0,1:0:0:0:
340,154,107934,1,0,0:0:0:0:
301,135,108020,6,0,L|251:130,1,44.0000013427734,8|2,2:0|2:3,0:0:0:0:
173,98,108191,5,0,0:0:0:0:
137,67,108277,1,2,2:3:0:0:
176,48,108363,6,0,L|255:38,1,75.999997970581,4|0,3:2|2:0,0:0:0:0:
251,38,108534,6,0,B|358:25,1,99.9999999999999,0|2,0:0|3:0,0:0:0:0:
505,93,108705,6,0,B|445:76|445:76|384:98,1,120.000004577637,8|0,2:0|2:0,0:0:0:0:
159,217,108877,1,2,3:1:0:0:
159,217,108962,2,0,B|240:226|240:226|278:300|278:300|383:315,1,240.000009155274,0|2,0:0|3:1,0:0:0:0:
184,306,109220,6,0,B|111:301|111:301|126:353,1,120.000004577637,0|0,0:0|1:0,0:0:0:0:
343,212,109391,2,0,B|416:207|416:207|401:259,1,120.000004577637,8|0,3:2|3:0,0:0:0:0:
231,146,109562,1,0,3:0:0:0:
224,98,109648,1,0,3:0:0:0:
215,53,109734,5,0,1:0:0:0:
283,32,109905,2,0,L|280:15,1,17.9999994506836,2|0,2:1|2:0,0:0:0:0:
280,20,110077,6,0,L|251:272,1,240.000009155274,4|0,1:2|0:0,0:0:0:0:
150,165,110334,1,0,3:0:0:0:
150,165,110420,2,0,P|87:145|22:155,1,120.000004577637,0|0,0:0|2:0,0:0:0:0:
375,126,110591,2,0,P|440:132|496:166,1,120.000004577637,0|0,3:0|2:0,0:0:0:0:
493,189,110762,6,0,P|470:170|456:165,1,41.9999987182617,8|0,2:0|2:0,0:0:0:0:
238,331,111105,6,0,L|510:292,1,240.000009155274,0|2,1:0|2:1,0:0:0:0:
215,218,111362,1,0,3:0:0:0:
215,218,111448,2,0,P|154:257|133:306,1,120.000004577637,8|0,2:0|2:0,0:0:0:0:
316,229,111620,1,2,2:1:0:0:
316,229,111705,2,0,L|281:86,1,120.000004577637,0|0,3:0|0:0,0:0:0:0:
310,108,111877,2,0,L|287:239,1,120.000004577637,2|0,2:1|0:0,0:0:0:0:
258,39,112048,1,0,1:0:0:0:
258,39,112134,2,0,B|317:25|317:25|369:56,1,120.000004577637,0|2,3:0|2:3,0:0:0:0:
164,40,112305,5,2,2:3:0:0:
128,63,112391,5,2,2:3:0:0:
136,107,112477,5,0,1:0:0:0:
83,164,112648,2,0,L|81:181,1,17.9999994506836,2|0,2:1|2:0,0:0:0:0:
81,175,112820,6,0,B|221:220|191:116|332:145,1,240.000009155274,12|0,1:2|0:0,0:0:0:0:
99,261,113077,1,0,3:0:0:0:
99,261,113162,2,0,B|79:320|79:320|95:382,1,120.000004577637,0|0,0:0|2:0,0:0:0:0:
8,131,113334,2,0,B|22:75|22:75|2:16,1,120.000004577637,0|0,3:0|2:0,0:0:0:0:
56,73,113505,6,0,P|77:76|93:74,1,35.9999989013672,8|0,2:0|2:0,0:0:0:0:
225,43,113848,6,0,P|324:68|339:204,1,240.000009155274,0|2,1:0|2:1,0:0:0:0:
229,321,114105,1,0,3:0:0:0:
229,321,114191,2,0,B|213:263|213:263|232:194,1,120.000004577637,8|0,2:0|2:0,0:0:0:0:
458,248,114362,1,2,2:1:0:0:
483,300,114448,1,0,3:0:0:0:
452,349,114534,6,0,L|432:344,1,17.9999994506836,0|0,0:0|2:0,0:0:0:0:
359,360,114705,1,0,3:0:0:0:
359,360,114791,2,0,L|371:345,1,17.9999994506836,0|0,1:0|2:0,0:0:0:0:
384,267,114962,1,2,2:3:0:0:
384,267,115048,2,0,L|388:287,1,17.9999994506836,2|0,2:3|2:0,0:0:0:0:
139,305,115220,5,4,1:2:0:0:
63,321,115391,2,0,L|61:339,1,17.9999994506836,2|0,2:1|2:0,0:0:0:0:
61,332,115562,6,0,B|21:200|124:245|65:77,1,240.000009155274,8|0,1:2|0:0,0:0:0:0:
193,17,115820,1,0,3:0:0:0:
193,17,115905,2,0,P|177:75|202:150,1,120.000004577637,0|0,0:0|2:0,0:0:0:0:
428,86,116077,2,0,P|443:143|430:201,1,120.000004577637,0|0,3:0|2:0,0:0:0:0:
441,217,116248,6,0,P|450:193|452:173,1,41.9999987182617,8|0,2:0|2:0,0:0:0:0:
209,237,116591,6,0,B|320:211|320:211|437:317,1,240.000009155274,0|2,1:0|2:1,0:0:0:0:
146,293,116848,1,0,3:0:0:0:
146,293,116934,2,0,B|89:269|89:269|15:290,1,120.000004577637,8|0,2:0|2:0,0:0:0:0:
217,336,117105,1,2,2:1:0:0:
269,329,117191,1,0,3:0:0:0:
313,354,117277,6,0,L|193:367,1,120.000004577637,0|2,0:0|2:1,0:0:0:0:
125,114,117448,1,0,0:0:0:0:
74,108,117534,1,0,1:0:0:0:
35,136,117620,2,0,L|154:149,1,120.000004577637,0|2,3:0|1:0,0:0:0:0:
283,45,117791,2,0,L|153:31,1,120.000004577637,2|2,1:0|1:0,0:0:0:0:
365,53,117962,6,0,P|466:86|474:208,1,240.000009155274,4|0,1:2|0:0,0:0:0:0:
353,154,118220,5,0,0:0:0:0:
353,154,118305,2,0,P|351:248|223:264,1,223.999993164063,8|0,1:2|0:0,0:0:0:0:
43,219,118562,5,2,3:1:0:0:
43,219,118648,2,0,P|81:337|173:323,1,207.999990478516
228,159,118905,5,0,3:0:0:0:
228,159,118991,2,0,B|234:109|234:109|218:48,1,95.9999970703125,10|0,2:1|2:0,0:0:0:0:
103,62,119162,2,0,B|91:106|91:106|97:156,1,95.9999970703125,2|0,2:1|2:0,0:0:0:0:
324,248,119334,6,0,L|328:140,1,88.0000026855469,0|0,1:0|2:0,0:0:0:0:
312,81,119505,2,0,L|315:168,1,88.0000026855469,0|0,1:0|2:0,0:0:0:0:
213,243,119677,5,8,2:0:0:0:
204,285,119762,1,0,0:0:0:0:
225,323,119848,1,0,1:0:0:0:
268,328,119934,1,0,3:0:0:0:
458,239,120020,5,8,3:2:0:0:
471,197,120106,1,0,3:0:0:0:
446,162,120192,1,0,3:0:0:0:
404,153,120277,1,0,3:0:0:0:
392,299,120362,6,0,B|380:331|396:372|396:372|413:354,1,88.0000026855469,8|0,3:2|3:0,0:0:0:0:
358,221,120534,5,0,3:0:0:0:
303,168,120620,5,0,3:0:0:0:
218,151,120705,5,4,2:0:0:0:
