osu file format v14

[General]
AudioFilename: audio.mp3
AudioLeadIn: 0
PreviewTime: 98677
Countdown: 0
SampleSet: Soft
StackLeniency: 0
Mode: 0
LetterboxInBreaks: 0
WidescreenStoryboard: 1

[Editor]
Bookmarks: 21958,32930,43901,54873,65844,98758,104244,109730,115216
DistanceSpacing: 0.16
BeatDivisor: 8
GridSize: 32
TimelineZoom: 3.499999

[Metadata]
Title:Hypersonik
TitleUnicode:Hypersonik
Artist:Eagle
ArtistUnicode:Eagle
Creator:Ascended
Version:Jason^2's Ultra
Source:beatmania IIDX 21 SPADA
Tags:kors k korsk BEMANI electronic instrumental neurofunk drum and bass drumandbass dnb drum&bass beatmania iidx infinitas Flask zhuxiaoyan frostwich frostwhich stwi synderes jas CraEZy Otosaka-Yu OtosakaYu Suzuki_1112 Suzuki1112 Jounzan Natteke_desu Natteke desu Nattekedesu EvilElvisV2 Aistre Alphabet Venax NeilPerry Mir Frey dahkjdas Seolv Lukas [_L_u_k_a_s_] [Lukas] -ascended- -_ascended_- Deppyforce jascended
BeatmapID:3832950
BeatmapSetID:1834293

[Difficulty]
HPDrainRate:5
CircleSize:4.2
OverallDifficulty:8.5
ApproachRate:9.5
SliderMultiplier:2.8
SliderTickRate:1

[Events]
//Background and Video events
0,0,"speed.jpg",0,0
//Break Periods
2,22162,26923
//Storyboard Layer 0 (Background)
//Storyboard Layer 1 (Fail)
//Storyboard Layer 2 (Pass)
//Storyboard Layer 3 (Foreground)
//Storyboard Layer 4 (Overlay)
//Storyboard Sound Samples

[TimingPoints]
20,342.857142857143,4,2,1,30,1,0
20,-1000,4,2,1,30,0,0
2420,-33.3333333333333,4,2,0,30,0,0
2548,-33.3333333333333,4,2,0,5,0,0
2591,-400,4,2,0,30,0,0
2676,-400,4,2,0,5,0,0
2762,-400,4,2,1,30,0,0
2847,-400,4,2,1,5,0,0
3277,-300.0300030003,4,2,1,30,0,0
3362,-300.0300030003,4,2,1,5,0,0
3791,-300.0300030003,4,2,1,30,0,0
3876,-300.0300030003,4,2,1,5,0,0
4991,-100,4,2,0,30,0,0
5076,-100,4,2,0,5,0,0
5162,-66.6666666666667,4,2,0,30,0,0
5419,-66.6666666666667,4,2,1,30,0,0
5505,-114.285714285714,4,2,1,30,0,0
6191,-100,4,2,1,30,0,0
6705,-133.333333333333,4,2,1,30,0,0
7220,-200,4,2,1,30,0,0
7734,-400,4,2,1,30,0,0
8077,-400,4,2,1,25,0,0
8248,-300.000030000003,4,2,1,30,0,0
9190,-300.000030000003,4,2,1,5,0,0
9276,-300.000030000003,4,2,1,30,0,0
9962,-133.333333333333,4,2,0,30,0,0
10305,-133.333333333333,4,2,1,45,0,0
10390,-133.333333333333,4,2,1,5,0,0
10477,-160,4,2,1,45,0,0
10562,-160,4,2,1,5,0,0
10648,-200,4,2,1,45,0,0
10733,-200,4,2,1,5,0,0
10820,-266.666666666667,4,2,1,45,0,0
10905,-266.666666666667,4,2,1,5,0,0
10991,-100,4,2,1,50,0,0
11677,-200,4,2,1,50,0,0
13048,-100,4,2,1,50,0,0
13391,-66.6666666666667,4,2,0,50,0,0
13476,-66.6666666666667,4,2,0,5,0,0
13562,-57.1428571428571,4,2,1,50,0,0
13647,-57.1428571428571,4,2,1,5,0,0
13734,-160,4,2,1,50,0,0
14934,-160,4,2,1,20,0,0
15105,-160,4,2,1,50,0,0
15791,-50,4,2,1,50,0,0
15876,-50,4,2,1,5,0,0
15962,-50,4,2,1,50,0,0
16305,-50,4,2,1,50,0,0
16477,-100,4,2,1,50,0,0
16820,-133.333333333333,4,2,1,50,0,0
17162,-200,4,2,1,50,0,0
18534,-133.333333333333,4,2,1,50,0,0
18791,-133.333333333333,4,2,1,5,0,0
18877,-66.6666666666667,4,2,1,50,0,0
18962,-66.6666666666667,4,2,1,5,0,0
19048,-66.6666666666667,4,2,1,50,0,0
19220,-160,4,2,1,50,0,0
19905,-66.6666666666667,4,2,1,50,0,0
19990,-66.6666666666667,4,2,1,5,0,0
20077,-66.6666666666667,4,2,1,50,0,0
20420,-66.6666666666667,4,2,1,50,0,0
20762,-66.6666666666667,4,2,100,50,0,0
20847,-66.6666666666667,4,2,1,5,0,0
20934,-66.6666666666667,4,2,1,50,0,0
21019,-66.6666666666667,4,2,1,5,0,0
21105,-66.6666666666667,4,2,1,50,0,0
21620,-80,4,2,1,50,0,0
21705,-80,4,2,1,5,0,0
21791,-80,4,2,1,50,0,0
27620,-200,4,2,1,50,0,0
27705,-200,4,2,1,5,0,0
27791,-200,4,2,1,50,0,0
28134,-160,4,2,1,50,0,0
28219,-160,4,2,1,5,0,0
28305,-160,4,2,1,50,0,0
28733,-160,4,2,1,5,0,0
28820,-160,4,2,1,60,0,0
29334,-133.333333333333,4,2,1,60,0,0
29419,-133.333333333333,4,2,1,5,0,0
29505,-133.333333333333,4,2,1,60,0,0
29848,-114.285714285714,4,2,1,60,0,0
29933,-114.285714285714,4,2,1,5,0,0
30020,-114.285714285714,4,2,1,60,0,0
30105,-114.285714285714,4,2,1,5,0,0
30191,-114.285714285714,4,2,1,70,0,0
31562,-114.285714285714,4,2,1,80,0,0
31777,-114.285714285714,4,2,1,50,0,0
31905,-114.285714285714,4,2,1,50,0,0
32248,-114.285714285714,4,2,1,80,0,0
32420,-200,4,2,1,80,0,0
32505,-200,4,2,1,5,0,0
32591,-54.054054054054,4,2,1,80,0,0
32848,-54.054054054054,4,2,1,5,0,0
32934,-40,4,2,5,70,0,0
33277,-100,4,2,1,70,0,0
33534,-66.6666666666667,4,2,1,70,0,0
33705,-66.6666666666667,4,2,1,5,0,0
33791,-66.6666666666667,4,2,1,70,0,0
33876,-66.6666666666667,4,2,1,5,0,0
33962,-66.6666666666667,4,2,1,70,0,0
34305,-100,4,2,1,70,0,0
34390,-100,4,2,1,5,0,0
34477,-100,4,2,1,70,0,0
34648,-200,4,2,1,70,0,0
34905,-66.6666666666667,4,2,1,70,0,0
35247,-66.6666666666667,4,2,1,5,0,0
35334,-57.1428571428571,4,2,1,70,0,0
35677,-400,4,2,1,70,0,0
36020,-100,4,2,1,70,0,0
36705,-80,4,2,1,70,0,0
37048,-66.6666666666667,4,2,1,70,0,0
37476,-66.6666666666667,4,2,1,5,0,0
37562,-66.6666666666667,4,2,1,70,0,0
37905,-50,4,2,1,70,0,0
38762,-66.6666666666667,4,2,1,70,0,0
39020,-57.1428571428571,4,2,1,70,0,0
39191,-57.1428571428571,4,2,1,5,0,0
39277,-66.6666666666667,4,2,1,70,0,0
39362,-66.6666666666667,4,2,1,5,0,0
39448,-66.6666666666667,4,2,1,70,0,0
39791,-80,4,2,1,70,0,0
39876,-80,4,2,1,5,0,0
39962,-80,4,2,1,70,0,0
40134,-200,4,2,1,70,0,0
40391,-66.6666666666667,4,2,1,70,0,0
40733,-66.6666666666667,4,2,1,5,0,0
40820,-57.1428571428571,4,2,1,70,0,0
40948,-57.1428571428571,4,2,1,5,0,0
40991,-133.333333333333,4,2,1,70,0,0
41334,-66.6666666666667,4,2,1,70,0,0
41462,-66.6666666666667,4,2,1,5,0,0
41505,-57.1428571428571,4,2,1,70,0,0
41848,-133.333333333333,4,2,0,70,0,0
41933,-133.333333333333,4,2,0,5,0,0
42020,-133.333333333333,4,2,0,70,0,0
42105,-133.333333333333,4,2,0,5,0,0
42191,-133.333333333333,4,2,1,70,0,0
42276,-133.333333333333,4,2,1,5,0,0
42362,-133.333333333333,4,2,1,70,0,0
42447,-133.333333333333,4,2,1,5,0,0
42534,-133.333333333333,4,2,1,70,0,0
43220,-66.6666666666667,4,2,1,70,0,0
43562,-80,4,2,1,70,0,0
43647,-80,4,2,1,5,0,0
43734,-80,4,2,1,70,0,0
43819,-80,4,2,1,5,0,0
43905,-40,4,2,1,70,0,0
44248,-100,4,2,1,70,0,0
44505,-83.3333333333333,4,2,1,70,0,0
44676,-83.3333333333333,4,2,1,5,0,0
44762,-66.6666666666667,4,2,1,70,0,0
44847,-66.6666666666667,4,2,1,5,0,0
44933,-66.6666666666667,4,2,1,70,0,0
45276,-100,4,2,1,70,0,0
45361,-100,4,2,1,5,0,0
45448,-100,4,2,1,70,0,0
45619,-200,4,2,1,70,0,0
45876,-66.6666666666667,4,2,1,70,0,0
46219,-66.6666666666667,4,2,1,5,0,0
46305,-57.1428571428571,4,2,1,70,0,0
46648,-400,4,2,1,70,0,0
46991,-100,4,2,1,70,0,0
48020,-66.6666666666667,4,2,1,70,0,0
48447,-66.6666666666667,4,2,1,5,0,0
48533,-66.6666666666667,4,2,1,70,0,0
48876,-50,4,2,1,70,0,0
49391,-55.5555555555556,4,2,1,70,0,0
49734,-66.6666666666667,4,2,1,70,0,0
49991,-57.1428571428571,4,2,1,70,0,0
50162,-57.1428571428571,4,2,1,5,0,0
50248,-66.6666666666667,4,2,1,70,0,0
50333,-66.6666666666667,4,2,1,5,0,0
50419,-66.6666666666667,4,2,1,70,0,0
50762,-80,4,2,1,70,0,0
50847,-80,4,2,1,5,0,0
50934,-80,4,2,1,70,0,0
51105,-200,4,2,1,70,0,0
51362,-66.6666666666667,4,2,1,70,0,0
51704,-66.6666666666667,4,2,1,5,0,0
51791,-57.1428571428571,4,2,1,70,0,0
51919,-57.1428571428571,4,2,1,5,0,0
51962,-133.333333333333,4,2,1,70,0,0
52219,-133.333333333333,4,2,0,70,0,0
52305,-133.333333333333,4,2,1,70,0,0
52391,-133.333333333333,4,2,0,70,0,0
52477,-133.333333333333,4,2,1,70,0,0
52991,-33.3333333333333,4,2,1,70,0,0
53033,-33.3333333333333,4,2,1,5,0,0
53162,-33.3333333333333,4,2,1,70,0,0
53204,-33.3333333333333,4,2,1,5,0,0
53334,-33.3333333333333,4,2,1,70,0,0
53376,-33.3333333333333,4,2,1,5,0,0
53505,-33.3333333333333,4,2,63,70,0,0
53848,-33.3333333333333,4,2,1,60,0,0
54362,-33.3333333333333,4,2,0,60,0,0
54534,-33.3333333333333,4,2,1,60,0,0
54705,-33.3333333333333,4,2,0,60,0,0
54877,-66.6666666666667,4,2,1,68,0,0
55134,-66.6666666666667,4,2,1,5,0,0
55220,-200,4,2,1,68,0,0
55305,-200,4,2,1,5,0,0
55391,-200,4,2,1,68,0,0
55476,-200,4,2,1,5,0,0
55562,-57.1428571428571,4,2,1,68,0,0
55905,-100,4,2,1,68,0,0
55990,-100,4,2,1,5,0,0
56077,-80,4,2,1,68,0,0
56420,-80,4,2,1,68,0,0
56505,-80,4,2,1,5,0,0
56591,-80,4,2,1,68,0,0
57105,-50,4,2,1,68,0,0
57233,-50,4,2,1,5,0,0
57277,-57.1428571428571,4,2,1,68,0,0
57405,-57.1428571428571,4,2,1,5,0,0
57448,-66.6666666666667,4,2,1,68,0,0
57576,-66.6666666666667,4,2,1,5,0,0
57620,-200,4,2,1,58,0,0
57877,-200,4,2,1,5,0,0
57962,-200,4,2,1,58,0,0
58305,-50,4,2,1,58,0,0
58648,-66.6666666666667,4,2,1,58,0,0
58948,-66.6666666666667,4,2,1,5,0,0
58991,-160,4,2,1,58,0,0
59677,-66.6666666666667,4,2,1,58,0,0
59934,-66.6666666666667,4,2,1,5,0,0
60020,-54.054054054054,4,2,1,58,0,0
60362,-66.6666666666667,4,2,1,68,0,0
60619,-66.6666666666667,4,2,1,5,0,0
60705,-200,4,2,1,68,0,0
60790,-200,4,2,1,5,0,0
60877,-200,4,2,1,68,0,0
60962,-200,4,2,1,5,0,0
61048,-57.1428571428571,4,2,1,68,0,0
61391,-100,4,2,1,68,0,0
61476,-100,4,2,1,5,0,0
61562,-80,4,2,1,68,0,0
61905,-80,4,2,1,68,0,0
61990,-80,4,2,1,5,0,0
62077,-80,4,2,1,68,0,0
62591,-50,4,2,1,68,0,0
62719,-50,4,2,1,5,0,0
62762,-50,4,2,1,68,0,0
62890,-50,4,2,1,5,0,0
62934,-66.6666666666667,4,2,1,68,0,0
63062,-66.6666666666667,4,2,1,5,0,0
63105,-200,4,2,1,58,0,0
63362,-200,4,2,1,5,0,0
63448,-200,4,2,1,58,0,0
63791,-50,4,2,1,58,0,0
64434,-50,4,2,1,5,0,0
64477,-80,4,2,1,58,0,0
64562,-80,4,2,1,5,0,0
64648,-80,4,2,1,58,0,0
64820,-66.6666666666667,4,2,1,58,0,0
65077,-200,4,2,1,58,0,0
65419,-200,4,2,1,5,0,0
65505,-100,4,2,1,58,0,0
66191,-200,4,2,1,78,0,0
66276,-200,4,2,1,5,0,0
66362,-200,4,2,1,68,0,0
66447,-200,4,2,1,5,0,0
66534,-57.1428571428571,4,2,1,68,0,0
66876,-100,4,2,1,68,0,0
66961,-100,4,2,1,5,0,0
67048,-80,4,2,1,68,0,0
67391,-80,4,2,1,68,0,0
67476,-80,4,2,1,5,0,0
67562,-80,4,2,1,68,0,0
68077,-50,4,2,1,68,0,0
68205,-50,4,2,1,5,0,0
68248,-57.1428571428571,4,2,1,68,0,0
68376,-57.1428571428571,4,2,1,5,0,0
68420,-66.6666666666667,4,2,1,68,0,0
68505,-66.6666666666667,4,2,1,5,0,0
68591,-250,4,2,1,68,0,0
68848,-250,4,2,1,5,0,0
68933,-250,4,2,1,68,0,0
69277,-50,4,2,1,68,0,0
69619,-58.8235294117647,4,2,1,68,0,0
69962,-160,4,2,1,68,0,0
70762,-160,4,2,0,68,0,0
70991,-54.054054054054,4,2,1,68,0,0
71333,-66.6666666666667,4,2,1,68,0,0
71590,-66.6666666666667,4,2,1,5,0,0
71677,-200,4,2,1,68,0,0
71762,-200,4,2,1,5,0,0
71848,-200,4,2,1,68,0,0
71933,-200,4,2,1,5,0,0
72020,-57.1428571428571,4,2,1,68,0,0
72362,-100,4,2,1,68,0,0
72447,-100,4,2,1,5,0,0
72533,-80,4,2,1,68,0,0
72876,-80,4,2,1,68,0,0
72961,-80,4,2,1,5,0,0
73048,-80,4,2,1,68,0,0
73562,-50,4,2,1,68,0,0
73690,-50,4,2,1,5,0,0
73733,-57.1428571428571,4,2,1,68,0,0
73861,-57.1428571428571,4,2,1,5,0,0
73905,-66.6666666666667,4,2,1,68,0,0
73990,-66.6666666666667,4,2,1,5,0,0
74077,-66.6666666666667,4,2,1,50,0,0
74762,-200,4,2,2,70,0,0
75276,-200,4,2,2,50,0,0
75448,-200,4,2,1,50,0,0
76134,-160,4,2,2,70,0,0
76562,-160,4,2,1,70,0,0
76820,-666.666666666667,4,2,1,60,0,0
79220,-163.934426229508,4,2,0,40,0,0
79262,-666.666666666667,4,2,1,5,0,0
79391,-666.666666666667,4,2,1,40,0,0
79905,-285.714285714286,4,2,1,40,0,0
80762,-285.714285714286,4,2,1,20,0,0
80933,-285.714285714286,4,2,1,40,0,0
82305,-285.714285714286,4,2,1,45,0,0
84705,-133.333333333333,4,2,1,45,0,0
85048,-133.333333333333,4,2,1,50,0,0
85391,-285.714285714286,4,2,1,50,0,0
86420,-285.714285714286,4,2,100,50,0,0
86477,-285.714285714286,4,2,1,50,0,0
86847,-285.714285714286,4,2,50,50,0,0
87448,-285.714285714286,4,2,1,50,0,0
87791,-285.714285714286,4,2,1,55,0,0
88305,-285.714285714286,4,2,1,55,0,0
90191,-285.714285714286,4,2,1,30,0,0
90362,-285.714285714286,4,2,1,55,0,0
90534,-285.714285714286,4,2,1,57,0,0
91134,-181.818181818182,4,2,1,37,0,0
91391,-181.818181818182,4,2,1,57,0,0
93019,-181.818181818182,4,2,1,5,0,0
93105,-181.818181818182,4,2,1,57,0,0
93190,-181.818181818182,4,2,1,5,0,0
93277,-181.818181818182,4,2,1,25,0,0
93962,-181.818181818182,4,2,1,30,0,0
94305,-133.333333333333,4,2,1,30,0,0
94648,-133.333333333333,4,2,1,35,0,0
94991,-100,4,2,1,35,0,0
95334,-100,4,2,1,40,0,0
95848,-83.3333333333333,4,2,1,40,0,0
96020,-83.3333333333333,4,2,1,70,0,0
96105,-83.3333333333333,4,2,1,5,0,0
96191,-83.3333333333333,4,2,1,70,0,0
96447,-83.3333333333333,4,2,1,5,0,0
96533,-83.3333333333333,4,2,1,70,0,0
96790,-83.3333333333333,4,2,1,5,0,0
96876,-83.3333333333333,4,2,1,70,0,0
97133,-83.3333333333333,4,2,1,5,0,0
97219,-83.3333333333333,4,2,1,70,0,0
97391,-83.3333333333333,4,2,1,80,0,0
98420,-83.3333333333333,4,2,1,60,0,0
98762,-50,4,2,4,70,0,0
99019,-50,4,2,4,5,0,0
99105,-66.6666666666667,4,2,100,70,0,0
99447,-66.6666666666667,4,2,1,70,0,0
99534,-66.6666666666667,4,2,100,70,0,0
99619,-66.6666666666667,4,2,1,70,0,0
99705,-66.6666666666667,4,2,100,70,0,0
99919,-66.6666666666667,4,2,1,5,0,0
99962,-100,4,2,100,70,0,0
100047,-100,4,2,1,5,0,0
100134,-50,4,2,1,70,0,0
100391,-50,4,2,1,5,0,0
100477,-66.6666666666667,4,2,100,70,0,0
100562,-66.6666666666667,4,2,1,5,0,0
100648,-66.6666666666667,4,2,100,70,0,0
100734,-133.333333333333,4,2,100,70,0,0
100819,-133.333333333333,4,2,1,70,0,0
100905,-100,4,2,100,70,0,0
100990,-100,4,2,1,70,0,0
101077,-100,4,2,100,70,0,0
101334,-50,4,2,100,70,0,0
101462,-50,4,2,1,5,0,0
101505,-50,4,2,1,70,0,0
101762,-50,4,2,1,5,0,0
101848,-66.6666666666667,4,2,100,70,0,0
102190,-66.6666666666667,4,2,1,70,0,0
102277,-66.6666666666667,4,2,100,70,0,0
102534,-100,4,2,100,70,0,0
102619,-100,4,2,1,5,0,0
102705,-50,4,2,100,70,0,0
102790,-50,4,2,1,5,0,0
102877,-50,4,2,1,70,0,0
103134,-50,4,2,1,5,0,0
103220,-66.6666666666667,4,2,100,70,0,0
103305,-66.6666666666667,4,2,1,5,0,0
103391,-66.6666666666667,4,2,100,70,0,0
103477,-133.333333333333,4,2,100,70,0,0
103562,-133.333333333333,4,2,1,70,0,0
103648,-100,4,2,100,70,0,0
103733,-100,4,2,1,70,0,0
103820,-100,4,2,100,70,0,0
103905,-66.6666666666667,4,2,100,70,0,0
104033,-66.6666666666667,4,2,1,5,0,0
104077,-100,4,2,1,70,0,0
104162,-100,4,2,1,5,0,0
104248,-50,4,2,100,70,0,0
104505,-50,4,2,1,5,0,0
104591,-66.6666666666667,4,2,100,70,0,0
104933,-66.6666666666667,4,2,1,70,0,0
105020,-100,4,2,100,70,0,0
105105,-100,4,2,1,70,0,0
105191,-100,4,2,100,70,0,0
105277,-66.6666666666667,4,2,100,70,0,0
105405,-66.6666666666667,4,2,1,5,0,0
105448,-100,4,2,100,70,0,0
105533,-100,4,2,1,5,0,0
105620,-50,4,2,1,70,0,0
105877,-50,4,2,1,5,0,0
105962,-66.6666666666667,4,2,100,70,0,0
106047,-66.6666666666667,4,2,1,5,0,0
106134,-66.6666666666667,4,2,100,70,0,0
106220,-133.333333333333,4,2,100,70,0,0
106305,-133.333333333333,4,2,1,70,0,0
106391,-100,4,2,100,70,0,0
106476,-100,4,2,1,70,0,0
106562,-100,4,2,100,70,0,0
106820,-50,4,2,100,70,0,0
106948,-50,4,2,1,5,0,0
106991,-100,4,2,100,70,0,0
107248,-100,4,2,1,70,0,0
107334,-52.6315789473684,4,2,100,70,0,0
107505,-52.6315789473684,4,2,1,70,0,0
107591,-52.6315789473684,4,2,100,70,0,0
107677,-52.6315789473684,4,2,1,70,0,0
107848,-52.6315789473684,4,2,100,70,0,0
107934,-52.6315789473684,4,2,1,70,0,0
108020,-43.4782608695652,4,2,100,70,0,0
108191,-43.4782608695652,4,2,1,70,0,0
108277,-43.4782608695652,4,2,100,70,0,0
108533,-43.4782608695652,4,2,1,70,0,0
108704,-43.4782608695652,4,2,100,70,0,0
108877,-66.6666666666667,4,2,100,70,0,0
109048,-66.6666666666667,4,2,1,70,0,0
109134,-43.4782608695652,4,2,100,70,0,0
109734,-200,4,2,100,40,0,0
109905,-200,4,2,100,70,0,0
110077,-50,4,2,5,70,0,0
110334,-50,4,2,100,70,0,0
110420,-50,4,2,1,70,0,0
110505,-50,4,2,1,5,0,0
110591,-66.6666666666667,4,2,1,70,0,0
110676,-66.6666666666667,4,2,1,5,0,0
110762,-80,4,2,100,70,0,0
111019,-80,4,2,1,5,0,0
111105,-80,4,2,100,70,0,0
111191,-80,4,2,1,70,0,0
111277,-80,4,2,100,70,0,0
111534,-80,4,2,1,70,0,0
111620,-80,4,2,100,70,0,0
111790,-80,4,2,1,70,0,0
111877,-57.1428571428571,4,2,100,70,0,0
112134,-57.1428571428571,4,2,100,60,0,0
112220,-57.1428571428571,4,2,50,60,0,0
112477,-57.1428571428571,4,2,50,70,0,0
112648,-200,4,2,100,70,0,0
112776,-200,4,2,1,5,0,0
112820,-50,4,2,100,70,0,0
112991,-50,4,2,1,70,0,0
113247,-50,4,2,1,5,0,0
113334,-66.6666666666667,4,2,1,70,0,0
113419,-66.6666666666667,4,2,1,5,0,0
113505,-80,4,2,100,70,0,0
113762,-80,4,2,1,5,0,0
113848,-80,4,2,100,70,0,0
113934,-80,4,2,1,70,0,0
114020,-80,4,2,100,70,0,0
114277,-80,4,2,1,70,0,0
114362,-133.333333333333,4,2,100,70,0,0
114534,-44.4444444444445,4,2,1,70,0,0
114791,-44.4444444444445,4,2,100,70,0,0
114877,-38.0952380952381,4,2,100,70,0,0
115562,-50,4,2,100,70,0,0
115733,-50,4,2,1,70,0,0
115990,-50,4,2,1,5,0,0
116077,-66.6666666666667,4,2,1,70,0,0
116162,-66.6666666666667,4,2,1,5,0,0
116248,-80,4,2,100,70,0,0
116505,-80,4,2,1,5,0,0
116590,-80,4,2,100,70,0,0
116676,-80,4,2,1,70,0,0
116762,-80,4,2,100,70,0,0
117019,-80,4,2,1,70,0,0
117105,-80,4,2,100,70,0,0
117275,-80,4,2,1,70,0,0
117362,-80,4,2,100,70,0,0
117447,-80,4,2,1,70,0,0
117534,-80,4,2,100,70,0,0
118133,-105.263157894737,4,2,1,70,0,0
118218,-105.263157894737,4,2,1,5,0,0
118305,-50,4,2,100,70,0,0
118476,-50,4,2,1,70,0,0
118562,-50,4,2,100,70,0,0
118647,-50,4,2,1,70,0,0
118734,-66.6666666666667,4,2,100,70,0,0
118819,-66.6666666666667,4,2,1,70,0,0
118991,-80,4,2,1,70,0,0
119076,-80,4,2,1,5,0,0
119162,-80,4,2,100,70,0,0
119247,-80,4,2,1,5,0,0
119334,-80,4,2,100,70,0,0
119762,-80,4,2,1,70,0,0
119848,-80,4,2,100,70,0,0

[Colours]
Combo1 : 239,187,135
Combo2 : 239,118,130
Combo3 : 190,109,146
Combo4 : 237,155,135

[HitObjects]
508,358,20,6,0,L|500:384,1,28,0|0,3:0|3:0,2:0:0:0:
78,195,2420,6,0,B|62:189|62:189|8:116|8:116|17:92|17:92|65:76|65:76|85:88|85:88|86:181|86:181|78:195,1,315.000012016297,8|0,2:0|2:0,2:0:0:0:
78,195,2591,6,0,L|71:174,1,17.5,0|0,2:0|2:0,2:0:0:0:
111,284,2762,2,0,L|104:263,1,17.5,0|0,1:0|2:0,2:0:0:0:
250,111,3277,6,0,L|257:88,1,23.3310003282346,0|0,1:0|2:0,2:0:0:0:
184,321,3791,2,0,L|191:298,1,23.3310003282346,0|0,1:0|2:0,2:0:0:0:
395,269,4991,6,0,P|394:245|399:269,1,70,0|0,1:0|2:0,2:0:0:0:
458,154,5162,2,0,B|482:172|480:212|480:212|406:114|331:117|331:117|364:140|360:184,1,315.000012016297,8|2,2:0|2:0,2:0:0:0:
508,92,5505,6,0,P|402:116|262:194,1,245.000002336502,0|0,3:0|3:0,2:0:0:0:
77,93,6191,6,0,P|45:31|84:88,1,210,8|0,2:0|2:0,2:0:0:0:
181,164,6705,6,0,P|181:111|189:163,1,157.500006008148,0|0,2:0|2:0,2:0:0:0:
210,272,7220,6,0,P|226:239|219:275,1,105,0|0,2:0|2:0,2:0:0:0:
168,359,7734,6,0,P|183:347|173:363,1,52.5,0|0,2:0|2:0,2:0:0:0:
102,306,8077,5,2,2:0:0:0:
93,320,8162,1,2,2:0:0:0:
79,326,8248,2,0,P|100:265|122:191,1,139.999985758465,0|0,1:0|1:0,2:0:0:0:
29,230,9105,6,0,L|-3:216,1,23.3333309597442,0|0,2:0|2:0,2:0:0:0:
177,285,9276,1,0,1:0:0:0:
74,81,9620,5,0,3:0:0:0:
146,59,9791,1,0,2:0:0:0:
291,10,9962,6,0,B|250:136|250:136|275:184,1,157.500006008148,8|8,2:0|2:0,2:0:0:0:
237,85,10305,6,0,L|219:36,1,52.5000020027161,0|0,3:0|2:0,2:0:0:0:
339,186,10477,6,0,L|337:133,1,43.75,8|0,2:3|2:0,2:0:0:0:
381,286,10648,6,0,L|396:237,1,35,8|0,3:0|2:0,2:0:0:0:
389,382,10820,6,0,L|419:341,1,26.2500010013581,8|0,3:0|2:0,2:0:0:0:
414,87,10991,6,0,P|385:179|284:345,1,280,4|0,3:2|3:0,2:0:0:0:
291,336,11677,6,0,P|301:277|232:265,1,140,8|0,2:0|2:0,2:0:0:0:
160,276,12191,2,0,P|101:301|124:361,1,140,8|0,2:0|2:0,2:0:0:0:
185,202,12705,1,0,3:0:0:0:
41,68,13048,6,0,B|43:81|43:81|165:126,1,140,8|0,2:0|2:0,2:0:0:0:
326,63,13391,2,0,B|341:23|341:23|358:36|358:36|318:69,1,105.000004005432,8|0,2:0|2:0,2:0:0:0:
262,103,13562,6,0,B|203:58|203:58|254:69,1,122.500001168251,0|0,3:0|2:0,2:0:0:0:
448,25,13734,6,0,L|415:117,1,87.5,0|0,3:0|2:0,2:0:0:0:
481,290,14077,2,0,L|510:207,1,87.5,0|0,3:0|2:0,2:0:0:0:
348,134,14420,5,8,2:0:0:0:
369,204,14591,1,0,2:0:0:0:
439,183,14762,1,0,2:0:0:0:
289,190,14934,6,0,L|278:226,3,29.1666666666667,2|0|0|0,3:2|2:0|2:0|2:0,2:0:0:0:
234,384,15277,5,0,3:0:0:0:
158,135,15448,1,0,3:0:0:0:
191,166,15534,1,0,3:0:0:0:
147,179,15620,1,0,3:0:0:0:
226,95,15791,6,0,B|326:68|225:-16|226:126,1,140,8|0,2:0|2:0,2:0:0:0:
186,243,15962,1,0,3:0:0:0:
190,247,16048,2,0,B|162:346|286:302|162:231,1,140,8|0,2:0|2:0,2:0:0:0:
75,135,16220,1,0,2:0:0:0:
79,139,16305,2,0,B|6:65|-17:194|105:123,1,140,0|0,1:0|1:0,3:0:0:0:
297,256,16477,6,0,B|322:134|322:134|359:110,1,140,4|0,3:2|2:0,2:0:0:0:
453,268,16820,2,0,L|351:309,1,105.000004005432,0|0,3:0|2:0,2:0:0:0:
488,163,17162,6,0,P|432:182|437:112,1,140,8|0,2:0|2:0,2:0:0:0:
375,58,17677,2,0,P|386:0|444:39,1,140,8|0,2:0|2:0,2:0:0:0:
499,83,18191,1,0,3:0:0:0:
262,7,18534,6,0,P|286:60|317:166,1,157.500006008148,8|0,2:0|2:0,2:0:0:0:
314,154,18877,2,0,P|342:176|320:147,1,105.000004005432,2|0,2:0|2:0,2:0:0:0:
170,108,19048,1,0,3:0:0:0:
24,69,19220,6,0,P|11:119|-6:166,1,87.5,0|0,3:0|2:0,2:0:0:0:
169,269,19562,2,0,P|182:219|199:172,1,87.5,0|0,3:0|2:0,2:0:0:0:
6,256,19905,6,0,B|38:269|38:269|39:276|39:276|110:305,1,105.000004005432,10|0,2:0|2:0,2:0:0:0:
201,340,20077,1,2,3:2:0:0:
360,103,20248,5,14,2:0:0:0:
347,119,20334,1,0,2:0:0:0:
360,136,20420,1,8,2:3:0:0:
379,130,20505,1,8,2:3:0:0:
379,109,20591,1,0,2:0:0:0:
270,107,20762,6,0,B|263:128|263:128|283:184|283:184|305:189,1,105.000004005432,8|0,2:0|2:0,2:0:0:0:
457,121,20934,2,0,B|464:100|464:100|444:44|444:44|421:38,1,105.000004005432,0|0,3:0|2:0,2:0:0:0:
222,6,21105,5,0,2:0:0:0:
158,45,21191,1,2,2:1:0:0:
178,103,21277,1,8,2:0:0:0:
129,134,21362,1,2,2:1:0:0:
150,170,21448,1,0,2:0:0:0:
129,207,21534,1,0,2:0:0:0:
136,231,21620,6,0,P|216:262|251:283,1,87.5,0|0,2:0|2:0,2:0:0:0:
83,69,21791,2,0,P|2:37|-32:16,1,87.5,0|2,2:0|2:3,2:0:0:0:
239,343,21962,5,4,2:0:0:0:
15,384,27448,5,4,2:0:0:0:
134,245,27620,2,0,L|121:199,1,35,0|0,3:0|2:0,2:0:0:0:
104,135,27791,1,0,1:0:0:0:
104,135,27962,1,0,2:0:0:0:
0,178,28134,6,0,L|43:190,1,43.75,0|0,1:0|2:0,2:0:0:0:
218,238,28305,1,0,3:0:0:0:
218,238,28391,1,0,2:0:0:0:
218,238,28477,1,0,1:0:0:0:
41,312,28648,2,0,L|53:269,1,43.75,0|0,1:0|2:0,2:0:0:0:
86,49,28820,5,0,1:0:0:0:
167,17,28991,1,0,3:0:0:0:
244,54,29162,1,0,1:0:0:0:
268,133,29334,2,0,L|282:185,1,52.5000020027161,0|0,1:0|2:0,2:0:0:0:
241,323,29505,5,0,1:0:0:0:
355,134,29677,1,0,3:0:0:0:
158,224,29848,6,0,L|218:238,1,61.2500005841255,0|0,1:0|2:0,2:0:0:0:
388,274,30020,2,0,L|448:287,1,61.2500005841255,0|0,1:0|2:0,2:0:0:0:
484,65,30191,5,4,2:0:0:0:
433,37,30276,1,0,3:0:0:0:
381,50,30362,1,0,3:0:0:0:
343,97,30448,1,0,3:0:0:0:
355,134,30534,5,8,2:0:0:0:
357,66,30619,1,2,2:3:0:0:
314,15,30705,1,0,1:0:0:0:
245,12,30791,1,2,2:3:0:0:
193,47,30877,5,8,2:0:0:0:
257,86,30963,1,0,3:0:0:0:
237,144,31049,1,0,3:0:0:0:
286,175,31134,1,0,3:0:0:0:
265,211,31220,1,8,2:0:0:0:
286,248,31306,1,2,1:0:0:0:
281,266,31391,1,0,1:0:0:0:
288,278,31477,1,2,1:0:0:0:
222,326,31562,5,4,1:2:0:0:
358,218,31734,2,0,B|369:221|374:229|374:229|370:216,10,30.6250002920628,0|0|0|0|0|0|0|0|0|0|0,2:0|2:0|2:0|2:0|2:0|2:0|2:0|2:0|2:0|2:0|2:0,2:0:0:0:
303,359,32248,5,4,1:2:0:0:
111,81,32420,2,0,B|98:84|92:93|92:93|97:78,1,35,0|0,2:0|2:0,2:0:0:0:
59,178,32591,6,0,P|96:297|64:176,1,388.49999851799,8|0,2:0|2:0,2:0:0:0:
91,382,32934,6,0,B|-1:63|-1:63|16:29,1,350,4|0,1:2|2:0,2:0:0:0:
305,158,33277,2,0,B|294:230|241:186|225:268,1,140,10|0,2:1|2:0,2:0:0:0:
304,280,33534,6,0,B|370:290|433:345|433:345|424:290|373:274,1,210.000008010865,2|0,2:1|2:0,2:0:0:0:
233,134,33791,2,0,P|245:86|295:83,1,105.000004005432,2|0,3:1|2:0,2:0:0:0:
467,90,33962,6,0,P|313:123|171:189,1,315.000012016297,10|2,2:1|2:0,2:0:0:0:
388,209,34305,6,0,L|410:140,1,70,0|0,1:0|2:0,2:0:0:0:
450,10,34477,1,0,2:0:0:0:
114,62,34648,6,0,P|124:99|161:104,1,70,10|0,2:1|2:0,2:0:0:0:
187,36,34905,6,0,P|107:132|80:213,1,210.000008010865,2|2,2:1|2:3,2:0:0:0:
75,290,35162,2,0,P|11:272|19:221,1,105.000004005432,2|0,3:1|2:0,2:0:0:0:
60,2,35334,6,0,B|73:159|188:315|188:315|172:353,1,367.500003504753,10|2,2:1|2:0,2:0:0:0:
96,380,35677,6,0,P|105:364|98:381,1,52.5,0|2,3:0|2:0,2:0:0:0:
0,168,36020,6,0,B|69:158|24:96|123:64|119:149|188:114,1,210,8|2,2:0|3:1,2:0:0:0:
254,15,36362,5,2,2:0:0:0:
235,57,36448,1,0,3:0:0:0:
260,131,36534,5,2,3:1:0:0:
300,155,36620,1,2,2:0:0:0:
371,124,36705,6,0,B|445:74|354:-8|287:105|341:200|426:225,1,262.5,8|2,1:0|2:0,2:0:0:0:
488,235,37048,6,0,B|503:191|540:183|540:183|399:181|389:331,1,315.000012016297,0|2,3:0|2:0,2:0:0:0:
380,338,37391,2,0,P|320:328|321:256,1,105.000004005432,8|0,2:0|2:0,2:0:0:0:
222,223,37562,1,0,3:0:0:0:
226,227,37648,1,0,3:0:0:0:
201,228,37734,5,0,3:0:0:0:
238,207,37820,1,0,1:0:0:0:
241,250,37905,2,0,B|212:133|86:140|86:140|69:184|23:189,2,280,2|10|2,3:1|2:1|1:0,2:0:0:0:
15,114,38420,6,0,P|11:14|131:71,1,280,4|0,1:2|2:0,2:0:0:0:
73,258,38677,1,0,2:0:0:0:
146,281,38762,2,0,B|69:268|20:347|20:347|59:341|85:378,1,210.000008010865,10|0,2:1|2:0,2:0:0:0:
151,358,39020,6,0,B|214:137|214:137|236:129,1,245.000002336502,2|0,2:1|2:0,2:0:0:0:
409,104,39277,2,0,B|433:56|433:56|361:3,1,105.000004005432,2|0,3:1|2:0,2:0:0:0:
337,79,39448,6,0,L|22:183,1,315.000012016297,10|2,2:1|2:0,2:0:0:0:
119,69,39791,6,0,B|167:34|106:2|121:85,1,87.5,0|0,1:0|2:0,2:0:0:0:
61,254,39962,1,0,2:0:0:0:
225,1,40134,6,0,B|237:7|237:7|259:58,1,70,10|0,2:1|2:0,2:0:0:0:
133,228,40391,6,0,B|171:262|159:326|159:326|189:269|238:268,1,210.000008010865,2|2,2:1|2:3,2:0:0:0:
208,194,40648,2,0,P|214:155|289:152,1,105.000004005432,2|0,3:1|2:0,2:0:0:0:
336,326,40820,6,0,P|316:247|373:145,1,183.750001752377,10|0,2:1|2:0,2:0:0:0:
364,147,40991,2,0,L|342:90,1,52.5000020027161,2|2,2:0|2:0,2:0:0:0:
387,31,41162,1,0,3:0:0:0:
462,321,41334,6,0,B|411:241|411:241|394:285|457:325,1,157.500006008148,2|0,1:3|2:0,2:0:0:0:
462,321,41505,2,0,B|304:275|304:275|282:235|282:235|212:218|212:218|173:237|173:237|110:222,1,367.500003504753,10|0,2:1|1:0,2:0:0:0:
4,49,41848,6,0,L|23:-1,1,52.5000020027161,2|0,1:2|2:0,2:0:0:0:
162,153,42020,6,0,L|181:103,1,52.5000020027161,2|0,1:2|2:0,2:0:0:0:
0,259,42191,6,0,L|19:209,1,52.5000020027161,8|0,2:0|2:0,2:0:0:0:
86,349,42362,6,0,L|105:299,1,52.5000020027161,0|0,3:0|2:0,2:0:0:0:
209,32,42534,5,0,3:0:0:0:
0,134,42705,1,2,3:1:0:0:
43,123,42791,1,0,3:0:0:0:
85,112,42877,1,8,2:0:0:0:
285,280,43048,5,2,3:1:0:0:
289,284,43134,1,8,3:0:0:0:
293,288,43220,2,0,B|333:208|229:190|261:90,1,210.000008010865,8|0,2:3|2:0,2:0:0:0:
324,45,43477,1,2,2:0:0:0:
381,97,43562,6,0,B|390:138|390:138|350:165,1,87.5,8|0,2:0|2:0,2:0:0:0:
181,98,43734,2,0,B|171:56|171:56|211:29,1,87.5,0|0,3:0|2:0,2:0:0:0:
478,160,43905,6,0,B|461:151|461:151|142:243,1,350,4|0,1:2|2:0,2:0:0:0:
455,384,44248,2,0,P|447:320|366:314,1,140,10|0,2:1|2:0,2:0:0:0:
293,288,44505,6,0,B|281:327|234:343|234:343|282:331|314:357,1,167.999994873047,2|0,2:1|2:0,2:0:0:0:
471,302,44762,2,0,P|509:292|507:228,1,105.000004005432,2|0,3:1|2:0,2:0:0:0:
455,384,44933,6,0,P|420:229|459:77,1,315.000012016297,10|2,2:1|2:0,2:0:0:0:
356,0,45276,6,0,P|361:33|397:70,1,70,0|0,1:0|2:0,2:0:0:0:
457,80,45448,1,0,2:0:0:0:
308,178,45619,6,0,P|324:147|355:136,1,70,10|0,2:1|2:0,2:0:0:0:
293,288,45876,6,0,P|280:198|175:201,1,210.000008010865,2|2,2:1|2:3,2:0:0:0:
99,237,46134,2,0,B|81:188|81:188|117:143,1,105.000004005432,2|0,3:1|2:0,2:0:0:0:
399,247,46305,6,0,B|242:260|86:375|86:375|63:365,1,367.500003504753,10|2,2:1|2:0,2:0:0:0:
19,298,46648,6,0,P|10:282|17:299,1,52.5,0|2,3:0|2:0,2:0:0:0:
64,62,46991,6,0,B|-4:-4|-4:-4|-6:-2|-6:-2|30:46|54:103,1,210,10|0,2:1|3:0,2:0:0:0:
229,140,47333,5,0,2:0:0:0:
187,121,47419,1,2,2:0:0:0:
113,146,47505,5,0,3:0:0:0:
89,186,47591,1,0,3:0:0:0:
120,256,47677,6,0,B|201:287|178:222|280:264|213:293|300:334,1,210,8|2,1:0|2:0,2:0:0:0:
180,350,48020,6,0,P|236:200|312:60,1,315.000012016297,0|2,3:0|2:0,2:0:0:0:
317,55,48362,2,0,P|367:57|391:101,1,105.000004005432,8|0,2:0|2:0,2:0:0:0:
469,271,48533,1,0,3:0:0:0:
473,275,48619,1,0,3:0:0:0:
448,276,48705,5,0,3:0:0:0:
485,255,48791,1,0,1:0:0:0:
488,298,48876,2,0,B|459:181|337:183|337:183|364:228|347:264,2,280,2|10|2,3:1|2:1|1:0,2:0:0:0:
493,43,49391,6,0,P|404:-8|393:103,1,251.999992309571,4|0,1:2|2:0,2:0:0:0:
191,168,49648,5,0,2:0:0:0:
223,92,49734,2,0,B|203:150|255:191|255:191|256:133|302:111,1,210.000008010865,10|0,2:1|2:0,2:0:0:0:
246,317,49991,6,0,P|244:251|83:220,1,245.000002336502,2|0,2:1|2:0,2:0:0:0:
22,355,50248,2,0,B|1:308|1:308|41:273,1,105.000004005432,2|0,3:1|2:0,2:0:0:0:
12,72,50419,6,0,L|110:371,1,315.000012016297,10|2,2:1|2:0,2:0:0:0:
113,112,50762,6,0,B|151:67|85:49|118:127,1,87.5,0|0,1:0|2:0,2:0:0:0:
96,208,50934,1,0,2:0:0:0:
187,14,51105,6,0,B|200:24|200:24|220:73,1,70,10|0,2:1|2:0,2:0:0:0:
204,200,51362,6,0,B|184:142|225:103|225:103|278:109|299:167,1,210.000008010865,2|2,2:1|2:3,2:0:0:0:
277,246,51619,2,0,P|290:293|339:301,1,105.000004005432,2|0,3:1|2:0,2:0:0:0:
271,384,51791,6,0,P|337:323|427:321,1,183.750001752377,10|0,2:1|2:0,2:0:0:0:
431,325,51962,2,0,L|447:269,1,52.5000020027161,2|2,2:0|2:0,2:0:0:0:
385,221,52134,5,0,3:0:0:0:
388,208,52219,1,2,2:0:0:0:
392,195,52305,1,2,1:3:0:0:
395,183,52391,1,2,2:0:0:0:
399,170,52477,5,8,1:0:0:0:
463,131,52563,1,8,2:3:0:0:
443,73,52649,1,0,1:0:0:0:
492,42,52734,1,8,2:3:0:0:
471,6,52820,1,2,1:2:0:0:
318,88,52991,6,0,B|313:75|313:75|318:88|318:88|330:83|330:83|318:88|318:88|322:100|322:100|318:88|318:88|305:92|305:92|318:88|318:88,1,105.000004005432,10|0,1:2|2:0,2:0:0:0:
201,49,53162,6,0,B|196:61|196:61|201:49|201:49|213:53|213:53|201:49|201:49|205:36|205:36|201:49|201:49|188:44|188:44|201:49|201:49,1,105.000004005432,8|0,2:0|2:0,2:0:0:0:
78,73,53334,6,0,B|73:60|73:60|78:73|78:73|90:68|90:68|78:73|78:73|82:85|82:85|78:73|78:73|65:77|65:77|78:73|78:73,1,105.000004005432,8|0,3:1|2:0,2:0:0:0:
471,6,53505,5,0,2:0:0:0:
471,6,53848,5,2,2:0:0:0:
471,6,54191,5,8,2:0:0:0:
484,87,54362,5,2,2:0:0:0:
488,91,54448,1,2,2:0:0:0:
492,95,54534,1,2,2:0:0:0:
409,134,54705,5,0,3:0:0:0:
413,138,54791,1,2,2:0:0:0:
417,142,54877,2,0,B|407:168|407:168|160:249|160:249|143:294,1,315.000012016297,4|0,3:2|2:0,2:0:0:0:
205,343,55220,6,0,L|223:297,1,35,8|0,2:0|2:0,2:0:0:0:
278,369,55391,2,0,L|296:323,1,35,0|0,3:0|2:0,2:0:0:0:
263,113,55562,6,0,B|254:139|254:139|182:162|182:162|169:206|169:206|372:286,1,367.500003504753,2|2,3:1|2:1,2:0:0:0:
449,265,55905,2,0,B|445:230|445:230|408:215,1,70,8|0,2:0|2:0,2:0:0:0:
92,77,56077,6,0,B|86:112|108:135|108:135|75:242,1,175,2|0,3:1|3:0,2:0:0:0:
98,320,56334,1,0,2:0:0:0:
39,375,56420,6,0,P|13:340|20:298,1,87.5,0|0,3:0|2:0,2:0:0:0:
168,85,56591,1,8,2:0:0:0:
8,195,56762,5,2,2:0:0:0:
4,184,56848,1,0,3:0:0:0:
0,172,56934,1,0,2:0:0:0:
226,34,57105,6,0,B|303:65|303:65|310:82|310:82|241:127|241:127|226:170,1,210,0|0,3:0|2:0,2:0:0:0:
229,164,57277,2,0,B|223:188|223:188|377:239,1,183.750001752377,8|0,2:0|2:0,2:0:0:0:
385,242,57448,2,0,B|358:145|358:145|303:179,1,157.500006008148,2|0,2:0|2:0,2:0:0:0:
221,271,57620,6,0,B|226:301|226:301|220:323|220:323|235:337|235:337|243:367,1,105,0|0,3:0|2:0,2:0:0:0:
318,349,57962,2,0,B|313:319|313:319|319:297|319:297|304:283|304:283|295:252,1,105,8|0,2:0|3:0,2:0:0:0:
453,90,58305,6,0,B|476:119|476:119|393:78,1,93.3333333333333,2|0,1:0|2:0,2:0:0:0:
477,197,58420,2,0,B|500:226|500:226|417:185,1,93.3333333333333,2|0,2:1|3:0,2:0:0:0:
501,304,58534,2,0,B|524:333|524:333|441:292,1,93.3333333333333,0|0,2:0|2:0,2:0:0:0:
416,360,58648,6,0,B|509:49|509:49|469:-2,1,367.500014019013,10|0,2:1|2:0,2:0:0:0:
288,49,58991,6,0,B|255:64|255:64|251:74|251:74|283:152,1,131.25,0|2,3:0|2:0,2:0:0:0:
361,162,59334,2,0,B|394:145|394:145|398:134|398:134|366:57,1,131.25,8|0,2:0|3:0,2:0:0:0:
227,30,59677,6,0,B|240:82|240:82|258:91|258:91|356:43|356:43|374:51|374:51|417:156,1,315.000012016297,0|0,1:0|2:0,2:0:0:0:
283,317,60020,6,0,B|242:323|242:323|223:284|223:284|284:162|284:162|329:143|329:143|349:191|349:191|289:306,1,388.49999851799,8|2,2:0|2:3,2:0:0:0:
82,320,60362,6,0,B|67:325|67:325|6:271|6:271|14:250|14:250|177:200|177:200|194:174,1,315.000012016297,4|0,3:2|2:0,2:0:0:0:
124,137,60705,6,0,L|111:100,1,35,8|0,2:0|2:0,2:0:0:0:
50,161,60877,2,0,L|37:124,1,35,0|0,3:0|2:0,2:0:0:0:
237,2,61048,6,0,B|216:34|180:41|180:41|130:256|130:256|163:278|159:322,1,367.500003504753,2|2,3:1|2:1,2:0:0:0:
46,371,61391,2,0,P|56:333|82:319,1,70,8|0,2:0|2:0,2:0:0:0:
237,155,61562,6,0,B|232:179|232:179|352:205|352:205|348:233,1,175,2|0,3:1|3:0,2:0:0:0:
320,384,61820,1,0,2:0:0:0:
257,340,61905,6,0,L|226:250,1,87.5,0|0,3:0|2:0,2:0:0:0:
267,79,62077,1,8,2:0:0:0:
430,223,62248,5,2,2:0:0:0:
427,235,62334,1,0,3:0:0:0:
424,247,62420,1,0,2:0:0:0:
173,338,62591,6,0,B|217:150|217:150|198:125,1,210,0|0,3:0|2:0,2:0:0:0:
199,128,62762,2,0,B|74:192|74:192|69:211|69:211|19:236,1,210,8|0,2:0|2:0,2:0:0:0:
13,238,62934,2,0,B|77:309|77:309|105:300|105:300|130:225,1,157.500006008148,2|0,2:0|2:0,2:0:0:0:
160,57,63105,6,0,B|156:39|156:39|95:8|95:8|77:10,1,105,0|0,3:0|2:0,2:0:0:0:
41,77,63448,2,0,B|45:95|45:95|106:126|106:126|123:123,1,105,8|0,2:0|3:0,2:0:0:0:
235,32,63791,6,0,B|264:8|264:8|249:-2|249:-2|234:32,1,93.3333333333333,2|0,1:0|2:0,2:0:0:0:
203,144,63905,2,0,B|232:120|232:120|217:109|217:109|202:144,1,93.3333333333333,2|0,2:1|3:0,2:0:0:0:
170,256,64020,2,0,B|199:232|199:232|184:221|184:221|169:256,1,93.3333333333333,0|0,2:0|2:0,2:0:0:0:
8,328,64134,6,0,B|36:307|36:307|70:312|70:312|96:290|96:290|131:295|131:295|159:272|159:272|193:277|193:277|220:254|220:254|254:258|254:258|282:235|282:235|316:241|316:241|344:222|344:222|382:225|382:225|411:206|411:206|453:214,1,490,10|0,2:1|2:0,2:0:0:0:
453,291,64477,6,0,P|395:285|388:244,1,87.5,0|0,3:0|2:0,2:0:0:0:
436,133,64648,2,0,P|494:139|501:180,1,87.5,0|0,3:0|1:0,2:0:0:0:
299,337,64820,6,0,B|279:326|279:326|343:166|343:166|301:132,1,210.000008010865,8|0,2:0|2:0,2:0:0:0:
250,17,65077,6,0,L|262:57,1,35,0|2,3:0|2:0,2:0:0:0:
234,223,65248,1,0,3:0:0:0:
231,235,65334,2,0,L|220:201,1,35,0|0,2:0|2:0,2:0:0:0:
176,0,65505,6,0,B|134:23|134:23|120:64|120:64|66:89,1,140,12|0,2:0|3:0,2:0:0:0:
0,0,65848,5,0,2:0:0:0:
0,0,66020,1,0,2:0:0:0:
0,0,66191,6,0,L|18:46,1,35,4|0,3:2|2:0,2:0:0:0:
75,84,66362,2,0,L|85:132,1,35,0|0,3:2|2:0,2:0:0:0:
82,290,66534,6,0,B|87:245|87:245|27:208|27:208|43:169|43:169|183:113|183:113|146:174,1,367.500003504753,2|2,3:1|2:1,2:0:0:0:
209,310,66876,2,0,B|205:275|205:275|168:260,1,70,8|0,2:0|2:0,2:0:0:0:
0,279,67048,6,0,L|156:372,1,175,2|0,3:1|3:0,2:0:0:0:
291,307,67305,1,0,2:0:0:0:
347,364,67391,6,0,P|373:329|366:287,1,87.5,0|0,3:0|2:0,2:0:0:0:
235,197,67562,1,8,2:0:0:0:
445,363,67733,5,2,2:0:0:0:
456,359,67819,1,0,3:0:0:0:
468,355,67905,1,0,2:0:0:0:
296,41,68077,6,0,B|416:66|416:66|420:92|420:92|357:134,1,210,0|0,3:0|2:0,2:0:0:0:
365,129,68248,2,0,B|316:164|316:164|320:187|320:187|417:213,1,183.750001752377,8|0,2:0|2:0,2:0:0:0:
418,216,68420,2,0,B|450:223|450:223|473:201|473:201|439:161,1,105.000004005432,2|0,2:0|2:0,2:0:0:0:
239,105,68591,6,0,B|214:99|214:99|198:104|198:104|186:93|186:93|161:86,1,84,0|0,3:0|2:0,2:0:0:0:
137,3,68933,2,0,B|161:8|161:8|177:3|177:3|189:14|189:14|214:21,1,84,8|0,2:0|3:0,2:0:0:0:
97,208,69277,6,0,B|135:238|135:238|92:229,1,93.3333333333333,2|0,1:0|2:0,2:0:0:0:
20,203,69391,2,0,B|-25:222|-25:222|5:189,1,93.3333333333333,2|0,2:1|3:0,2:0:0:0:
59,138,69505,2,0,B|66:90|66:90|80:133,1,93.3333333333333,0|0,2:0|2:0,2:0:0:0:
34,10,69619,6,0,B|7:43|7:43|67:275|67:275|102:301|102:301|116:345,1,357.000006809235,10|2,2:1|2:0,2:0:0:0:
243,241,69962,6,0,B|220:230|220:230|231:226|231:226|321:264,1,131.25,0|2,3:0|2:0,2:0:0:0:
270,327,70305,2,0,B|293:338|293:338|282:342|282:342|192:304,1,131.25,8|0,2:0|3:0,2:0:0:0:
30,363,70648,5,0,1:0:0:0:
30,352,70762,5,2,2:0:0:0:
20,357,70877,5,2,2:0:0:0:
111,331,70991,6,0,B|149:334|149:334|188:289|188:289|330:297|330:297|408:229|408:229|462:241,1,388.49999851799,8|2,2:0|2:0,2:0:0:0:
460,68,71333,6,0,B|505:73|505:73|516:131|516:131|466:158|466:158|340:126|340:126|322:105,1,315.000012016297,4|0,3:2|2:0,2:0:0:0:
394,20,71677,6,0,L|376:66,1,35,8|0,2:0|2:0,2:0:0:0:
324,107,71848,2,0,L|314:155,1,35,0|0,3:0|2:0,2:0:0:0:
385,358,72020,6,0,B|353:326|317:333|317:333|263:39,1,367.500003504753,2|2,3:1|2:1,2:0:0:0:
200,1,72362,2,0,P|171:19|164:52,1,70,8|0,2:0|2:0,2:0:0:0:
1,149,72533,6,0,B|16:179|16:179|121:209|121:209|137:236,1,175,2|0,3:1|3:0,2:0:0:0:
169,307,72791,1,0,2:0:0:0:
101,361,72876,6,0,L|72:278,1,87.5,0|0,3:0|2:0,2:0:0:0:
181,140,73048,1,8,2:0:0:0:
0,367,73219,5,2,2:0:0:0:
3,355,73305,1,0,3:0:0:0:
6,343,73391,1,0,2:0:0:0:
271,174,73562,6,0,B|294:167|294:167|461:202|461:202|486:183,1,210,0|0,3:0|2:0,2:0:0:0:
483,184,73733,2,0,B|443:94|443:94|406:71|406:71|365:81,1,183.750001752377,8|0,2:0|2:0,2:0:0:0:
356,84,73905,2,0,B|312:95|312:95|290:73|290:73|306:29,1,105.000004005432,2|0,2:0|2:0,2:0:0:0:
486,20,74077,5,0,3:0:0:0:
486,20,74334,1,0,3:0:0:0:
486,20,74591,1,0,3:0:0:0:
243,291,74762,6,0,P|230:186|201:84,1,210,8|0,2:0|2:0,2:0:0:0:
273,22,75448,5,0,3:0:0:0:
130,152,75620,1,0,3:0:0:0:
134,156,75705,1,0,3:0:0:0:
152,242,75877,1,0,3:0:0:0:
156,246,75962,1,0,3:0:0:0:
273,384,76134,6,0,P|285:275|312:169,1,218.75,8|0,2:0|3:0,2:0:0:0:
310,169,76820,6,0,B|157:120|167:239|74:296,1,293.999991027832,4|8,2:0|2:0,2:0:0:0:
5,338,79391,2,0,L|1:360,1,20.9999993591309,0|0,2:0|1:0,2:0:0:0:
56,210,79905,6,0,L|45:138,2,73.4999977569581,0|0|0,3:0|3:0|3:0,2:0:0:0:
141,351,80591,5,0,1:0:0:0:
141,351,80762,2,0,L|137:372,3,16.3333328348796,0|0|0|0,2:0|2:0|2:0|1:0,2:0:0:0:
226,355,81105,5,0,2:0:0:0:
226,355,81277,2,0,L|216:306,1,48.9999985046387,0|0,3:0|2:0,2:0:0:0:
313,339,81620,5,0,2:0:0:0:
316,322,81677,1,0,2:0:0:0:
319,306,81734,1,0,2:0:0:0:
322,290,81791,1,0,3:0:0:0:
408,319,81962,5,0,1:0:0:0:
456,174,82305,5,0,1:0:0:0:
456,174,82648,2,0,L|467:246,2,73.4999977569581,0|0|0,3:0|3:0|3:0,2:0:0:0:
407,104,83334,5,0,1:0:0:0:
420,32,83505,1,0,2:0:0:0:
492,45,83676,1,0,1:0:0:0:
328,127,84020,6,0,L|277:119,1,48.9999985046387,0|0,3:0|2:0,2:0:0:0:
203,113,84362,1,0,2:0:0:0:
93,158,84534,5,0,3:0:0:0:
137,40,84705,2,0,B|178:166|178:166|153:214,1,157.500006008148,8|0,1:2|3:0,2:0:0:0:
93,158,85048,5,0,1:0:0:0:
93,158,85391,2,0,L|4:133,2,73.4999977569581,0|0|0,3:0|3:0|3:0,2:0:0:0:
254,195,86077,1,0,1:0:0:0:
254,195,86248,1,0,2:0:0:0:
315,259,86420,5,0,1:0:0:0:
332,256,86477,1,0,2:0:0:0:
348,253,86534,1,0,2:0:0:0:
363,250,86591,1,0,2:0:0:0:
441,233,86762,6,0,L|449:199,1,24.4999992523194,0|2,2:0|2:3,2:0:0:0:
457,135,86934,1,0,3:0:0:0:
463,131,87020,1,0,3:0:0:0:
467,137,87105,1,2,2:0:0:0:
361,16,87277,5,0,2:0:0:0:
364,33,87334,1,0,2:0:0:0:
367,49,87391,1,0,2:0:0:0:
370,65,87448,2,0,L|380:118,1,48.9999985046387,8|2,2:0|2:3,2:0:0:0:
486,27,87791,5,4,1:2:0:0:
234,77,88134,1,0,3:0:0:0:
155,152,88305,69,0,2:0:0:0:
159,156,88391,1,0,3:0:0:0:
63,134,88562,69,0,2:0:0:0:
67,138,88648,1,0,3:0:0:0:
10,62,88820,6,0,L|20:10,1,48.9999985046387,0|0,1:0|2:0,2:0:0:0:
152,32,89162,5,0,1:0:0:0:
202,284,89505,1,0,3:0:0:0:
279,223,89677,69,0,2:0:0:0:
283,227,89763,1,0,3:0:0:0:
367,206,89934,69,0,2:0:0:0:
371,210,90020,1,0,3:0:0:0:
451,240,90191,6,0,L|439:293,1,48.9999985046387,8|0,1:2|2:0,2:0:0:0:
350,362,90534,5,0,1:0:0:0:
417,117,90705,69,0,2:0:0:0:
421,121,90791,1,0,3:0:0:0:
425,125,90877,1,0,3:0:0:0:
321,13,91048,5,0,2:0:0:0:
325,17,91134,2,0,L|345:102,1,77.0000023498536,2|2,3:1|2:1,2:0:0:0:
292,150,91391,1,0,2:0:0:0:
371,210,91562,5,0,1:0:0:0:
201,158,91734,1,2,2:1:0:0:
26,101,91905,6,0,L|106:84,1,77.0000023498536,0|0,1:0|2:0,2:0:0:0:
179,76,92162,1,0,2:0:0:0:
183,80,92248,2,0,B|207:46|207:46|200:0,1,77.0000023498536,0|0,3:0|2:0,2:0:0:0:
123,8,92505,1,2,3:1:0:0:
127,12,92591,1,0,2:0:0:0:
172,244,92762,5,0,3:0:0:0:
181,357,92934,6,0,L|191:314,1,38.5000011749268,8|0,1:2|2:0,2:0:0:0:
252,374,93105,2,0,L|262:331,1,38.5000011749268,2|0,2:1|2:0,2:0:0:0:
416,305,93277,5,0,1:0:0:0:
434,312,93362,1,0,3:0:0:0:
442,326,93448,1,0,3:0:0:0:
438,343,93534,1,0,3:0:0:0:
428,356,93620,2,0,L|388:367,1,38.5000011749268,0|0,3:0|3:0,2:0:0:0:
337,303,93791,2,0,L|347:260,1,38.5000011749268,0|0,3:0|3:0,2:0:0:0:
305,152,93962,69,0,3:0:0:0:
301,188,94047,1,0,3:0:0:0:
279,216,94133,1,0,3:0:0:0:
246,228,94219,1,0,3:0:0:0:
213,222,94305,2,0,L|201:165,1,52.5000020027161,0|0,3:0|3:0,2:0:0:0:
282,79,94477,2,0,L|225:91,1,52.5000020027161,0|0,3:0|3:0,2:0:0:0:
52,23,94648,5,0,3:0:0:0:
26,67,94733,1,0,3:0:0:0:
53,116,94819,1,0,3:0:0:0:
101,126,94905,1,0,3:0:0:0:
141,106,94991,2,0,B|153:69|153:69|122:36,1,70,0|0,3:0|3:0,2:0:0:0:
22,187,95162,2,0,L|92:209,1,70,0|0,3:0|3:0,2:0:0:0:
225,384,95334,5,0,3:0:0:0:
226,326,95419,1,0,3:0:0:0:
250,273,95505,1,0,3:0:0:0:
292,233,95591,1,0,3:0:0:0:
346,213,95676,1,8,3:2:0:0:
404,216,95762,1,0,3:0:0:0:
456,241,95848,2,0,B|466:285|466:285|432:325,1,83.9999974365235,0|0,3:0|3:0,2:0:0:0:
357,383,96020,6,0,B|346:379|346:379|331:304,1,83.9999974365235,4|0,3:2|2:0,2:0:0:0:
290,112,96191,1,10,2:1:0:0:
387,0,96362,6,0,B|395:7|395:7|380:82,1,83.9999974365235,8|0,3:2|2:0,2:0:0:0:
331,308,96533,1,10,2:1:0:0:
482,159,96705,6,0,B|509:139|509:139|436:155,1,83.9999974365235,8|0,3:2|2:0,2:0:0:0:
172,195,96876,1,10,2:1:0:0:
83,107,97048,6,0,B|56:87|56:87|129:103,1,83.9999974365235,8|0,3:2|2:0,2:0:0:0:
459,149,97219,1,10,2:1:0:0:
53,234,97391,5,4,1:2:0:0:
459,150,98077,5,4,1:2:0:0:
459,150,98420,6,0,P|481:151|475:174,6,41.9999987182618,8|0|0|0|0|0|0,2:0|2:0|2:0|2:0|2:0|2:0|2:0,2:0:0:0:
459,150,98762,6,0,B|421:71|396:115|339:116|272:72|306:32|381:-34|455:-27|519:-25|522:41|456:-45|424:53|428:87,1,420,14|0,3:2|2:0,2:0:0:0:
370,310,99105,2,0,B|377:324|377:324|418:336|435:384|435:384|423:336|447:298|447:298|440:281,1,210.000008010865,8|2,2:0|2:1,2:0:0:0:
380,235,99362,6,0,B|371:204|386:180|386:180|363:184|356:227|378:245,1,105.000004005432,0|0,3:0|2:0,2:0:0:0:
285,329,99534,2,0,P|276:365|288:330,1,105.000004005432,2|0,1:0|2:0,2:0:0:0:
112,261,99705,1,2,2:1:0:0:
55,311,99791,6,0,P|120:287|214:272,1,157.500006008148,8|0,2:0|2:0,2:0:0:0:
218,273,99962,2,0,P|236:240|229:207,1,70,2|0,2:0|2:0,2:0:0:0:
40,0,100134,6,0,B|47:54|-11:70|-9:131|-9:131|27:47|117:31|71:88|-17:254|163:91|177:139|145:214,1,420,0|0,3:0|2:0,2:0:0:0:
39,233,100477,2,0,P|17:206|41:231,1,105.000004005432,8|0,2:0|2:0,2:0:0:0:
141,74,100648,5,2,2:1:0:0:
145,78,100734,2,0,P|131:41|112:17,1,52.5000020027161,0|0,3:0|2:0,2:0:0:0:
297,182,100905,6,0,L|380:198,1,70,2|0,3:1|2:0,2:0:0:0:
118,264,101077,2,0,P|97:292|94:326,1,70,2|8,3:1|2:0,2:0:0:0:
272,100,101248,5,2,3:1:0:0:
219,45,101334,2,0,B|240:116|240:116|201:186|232:246,1,210,2|0,3:0|2:0,2:0:0:0:
424,247,101505,6,0,B|448:113|503:201|533:145|507:61|420:108|383:104|425:187|420:232|362:289|296:287,1,420,0|0,3:0|2:0,2:0:0:0:
499,271,101848,2,0,B|506:300|544:328|518:406|440:393|437:349|411:325,1,210.000008010865,8|2,2:0|2:1,2:0:0:0:
378,77,102105,6,0,B|367:51|377:25|377:25|367:50|341:60,1,105.000004005432,0|0,3:0|2:0,2:0:0:0:
209,276,102277,2,0,P|234:335|247:379,1,105.000004005432,2|0,1:0|3:0,2:0:0:0:
321,161,102448,5,2,2:1:0:0:
325,165,102534,2,0,P|330:141|322:164,1,70,8|0,2:0|2:0,2:0:0:0:
276,0,102705,6,0,L|232:152,1,140,2|0,2:0|2:0,2:0:0:0:
97,278,102877,6,0,B|27:224|101:71|212:96|220:181|122:232|74:311|154:352,1,420,0|0,3:0|2:0,2:0:0:0:
318,277,103220,2,0,P|303:245|314:278,1,105.000004005432,8|0,2:0|2:0,2:0:0:0:
3,365,103391,5,2,2:1:0:0:
7,369,103477,2,0,P|33:361|47:328,1,52.5000020027161,0|0,3:0|2:0,2:0:0:0:
231,358,103648,2,0,P|237:329|214:298,1,70,2|0,3:1|2:0,2:0:0:0:
78,84,103820,5,2,3:1:0:0:
9,115,103905,2,0,B|1:138|1:138|104:173|104:173|95:197,1,157.500006008148,8|0,2:0|2:0,2:0:0:0:
5,275,104077,2,0,B|-8:241|-8:241|25:227,1,70,2|0,3:0|2:0,2:0:0:0:
145,19,104248,6,0,B|186:19|205:46|205:46|103:201|351:283|381:152|247:176|244:126|289:64,1,420,4|0,3:2|2:0,2:0:0:0:
451,53,104591,2,0,B|388:69|362:119|362:119|360:118|360:118|346:76|412:20|466:39,1,210.000008010865,8|2,2:0|2:1,2:0:0:0:
467,138,104848,6,0,P|457:171|460:135,1,105.000004005432,0|0,3:0|2:0,2:0:0:0:
311,16,105020,6,0,B|299:-5|299:-5|318:-9|318:-9|315:16,1,70,2|0,1:0|2:0,2:0:0:0:
378,214,105191,1,2,2:1:0:0:
297,229,105277,6,0,P|374:241|442:294,1,157.500006008148,8|0,2:0|2:0,2:0:0:0:
440,291,105448,2,0,P|400:302|383:335,1,70,2|0,2:0|2:0,2:0:0:0:
213,201,105620,6,0,B|98:217|146:143|109:93|27:118|51:203|70:242|153:200|200:214|250:281|207:349,1,420,0|0,3:0|2:0,2:0:0:0:
81,374,105962,2,0,P|96:321|144:311,1,105.000004005432,8|0,2:0|2:0,2:0:0:0:
286,377,106134,5,2,2:1:0:0:
290,381,106220,2,0,L|302:327,1,52.5000020027161,0|0,3:0|2:0,2:0:0:0:
327,106,106391,6,0,P|305:139|269:144,1,70,2|0,3:1|2:0,2:0:0:0:
146,48,106562,2,0,B|157:14|157:14|196:27,1,70,2|8,3:1|2:0,2:0:0:0:
134,181,106734,5,2,3:1:0:0:
212,200,106820,2,0,P|109:216|16:264,1,210,2|0,3:0|2:0,2:0:0:0:
11,260,106991,6,0,P|1:196|65:147,1,140,4|0,3:2|3:0,2:0:0:0:
54,51,107248,5,0,2:0:0:0:
58,55,107334,2,0,B|0:125|68:141|146:136|184:113|216:197,1,265.999992897034,8|0,2:0|2:0,2:0:0:0:
236,286,107591,5,0,1:0:0:0:
240,289,107677,2,0,P|254:162|287:30,1,265.999992897034,0|0,2:0|1:0,2:0:0:0:
377,16,107934,5,0,2:0:0:0:
381,20,108020,2,0,P|363:175|323:336,1,322.000006141663,8|0,2:0|2:0,2:0:0:0:
180,364,108277,5,2,2:3:0:0:
184,368,108362,2,0,B|281:262|404:306|404:306|428:339|467:347,2,322.000006141663,4|0|8,3:2|2:0|2:0,2:0:0:0:
61,279,108877,6,0,P|35:344|66:281,1,210.000008010865,2|0,3:1|2:0,2:0:0:0:
205,126,109134,6,0,P|122:190|210:133,1,322.000006141663,2|0,3:1|1:0,2:0:0:0:
365,196,109391,5,8,3:2:0:0:
443,162,109476,1,0,3:0:0:0:
491,108,109562,1,0,3:0:0:0:
512,56,109648,1,0,3:0:0:0:
505,22,109734,2,0,P|467:22|432:51,1,70,0|2,1:0|2:1,2:0:0:0:
73,204,110077,6,0,B|100:164|147:167|147:167|112:48|5:72,1,280,4|0,1:2|2:0,2:0:0:0:
142,245,110334,1,0,3:0:0:0:
171,352,110420,6,0,P|139:293|73:284,1,140,0|0,2:0|2:0,2:0:0:0:
296,80,110591,2,0,P|309:128|278:168,1,105.000004005432,0|0,3:0|2:0,2:0:0:0:
213,210,110762,6,0,P|284:214|444:327,1,262.5,8|0,2:0|2:0,2:0:0:0:
380,371,111105,5,0,1:0:0:0:
365,295,111191,1,0,2:0:0:0:
396,226,111277,1,2,2:1:0:0:
466,194,111362,1,0,3:0:0:0:
422,188,111448,1,8,2:0:0:0:
402,146,111534,1,0,2:0:0:0:
422,104,111620,1,2,2:1:0:0:
412,57,111705,6,0,P|393:23|338:21,1,87.5,0|0,3:0|2:0,2:0:0:0:
198,137,111877,2,0,B|261:127|293:197|293:197|287:121|342:93,1,245.000002336502,2|0,2:1|1:0,2:0:0:0:
438,318,112134,5,0,3:0:0:0:
365,295,112220,1,2,2:3:0:0:
292,273,112305,1,2,2:3:0:0:
219,251,112391,1,2,2:3:0:0:
146,229,112477,5,0,1:0:0:0:
150,233,112648,2,0,B|124:226|124:226|113:252,1,52.5,2|0,2:1|2:0,2:0:0:0:
267,345,112820,6,0,B|207:152|207:152|246:125|236:75,1,280,12|0,1:2|2:0,2:0:0:0:
37,46,113077,1,0,3:0:0:0:
31,122,113162,6,0,B|87:133|98:63|159:88,1,140,0|0,2:0|2:0,2:0:0:0:
364,143,113334,2,0,P|347:185|293:156,1,105.000004005432,0|0,3:0|2:0,2:0:0:0:
125,5,113505,6,0,B|98:131|98:131|101:139|101:139|73:261,1,262.5,8|0,2:0|2:0,2:0:0:0:
52,354,113848,5,0,1:0:0:0:
65,349,113934,1,0,2:0:0:0:
78,344,114020,1,2,2:1:0:0:
91,339,114105,1,0,3:0:0:0:
104,334,114191,1,8,2:0:0:0:
117,329,114277,1,0,2:0:0:0:
128,324,114362,2,0,L|177:345,1,52.5000020027161,2|0,2:1|3:0,2:0:0:0:
296,212,114534,6,0,B|319:205|319:205|407:100|407:100|400:70|400:70|355:67|355:67|325:38|325:38|300:49|300:49|285:190|285:190|296:212,1,472.500018024445,0|0,2:0|1:0,2:0:0:0:
220,233,114877,6,0,B|238:294|238:294|398:385|398:385|454:372|454:372|455:339|455:339|345:278|345:278|301:306|301:306|261:285,1,551.25000525713,0|2,3:0|2:3,2:0:0:0:
176,344,115220,5,4,1:2:0:0:
176,344,115391,1,2,2:1:0:0:
25,70,115562,6,0,B|102:44|166:82|195:152|195:152|157:162|144:196,1,280,8|0,1:2|2:0,2:0:0:0:
237,13,115819,1,0,3:0:0:0:
322,48,115905,6,0,P|263:84|193:90,1,140,0|0,2:0|2:0,2:0:0:0:
0,193,116077,2,0,P|28:150|79:148,1,105.000004005432,0|0,3:0|2:0,2:0:0:0:
145,196,116248,6,0,P|276:211|389:283,1,262.5,8|0,2:0|2:0,2:0:0:0:
323,329,116590,5,0,1:0:0:0:
308,253,116676,1,0,2:0:0:0:
340,181,116762,1,2,2:1:0:0:
409,152,116847,1,0,3:0:0:0:
489,162,116933,1,8,2:0:0:0:
451,179,117019,1,0,2:0:0:0:
414,162,117105,1,2,2:1:0:0:
404,119,117190,6,0,P|428:87|477:87,1,87.5,0|0,3:0|2:0,2:0:0:0:
308,253,117362,2,0,P|265:252|239:218,1,87.5,2|0,2:1|2:0,2:0:0:0:
107,29,117534,5,0,1:0:0:0:
121,103,117619,1,0,3:0:0:0:
135,178,117705,1,2,1:0:0:0:
149,253,117790,1,2,1:0:0:0:
164,328,117876,1,2,1:0:0:0:
93,367,117962,5,4,1:2:0:0:
97,371,118133,2,0,B|78:346|78:346|85:312,1,66.4999982242585,0|0,2:0|2:0,2:0:0:0:
12,250,118305,6,0,L|283:336,1,280,8|0,1:2|2:0,2:0:0:0:
423,372,118562,6,0,P|362:362|392:304,1,140,2|0,3:1|2:0,2:0:0:0:
472,276,118734,2,0,B|519:271|519:271|467:298,1,105.000004005432,2|0,2:1|2:0,2:0:0:0:
415,86,118905,5,0,3:0:0:0:
379,153,118991,2,0,B|358:159|358:159|342:236,1,87.5,10|0,2:1|2:0,2:0:0:0:
273,256,119162,2,0,B|257:271|257:271|282:346,1,87.5,2|0,2:1|2:0,2:0:0:0:
458,12,119334,5,0,1:0:0:0:
458,12,119505,1,0,1:0:0:0:
63,246,119677,5,8,2:0:0:0:
27,222,119762,1,0,2:0:0:0:
20,181,119848,1,0,1:0:0:0:
47,149,119934,1,0,3:0:0:0:
80,152,120020,5,8,3:2:0:0:
89,96,120105,1,0,3:0:0:0:
136,63,120191,1,0,3:0:0:0:
192,83,120277,1,0,3:0:0:0:
197,110,120362,5,8,3:2:0:0:
126,154,120447,5,0,3:0:0:0:
50,135,120533,5,0,3:0:0:0:
1,75,120619,5,0,3:0:0:0:
12,0,120705,5,4,2:0:0:0:
