osu file format v14

[General]
AudioFilename: audio.mp3
AudioLeadIn: 0
PreviewTime:98677
Countdown: 0
SampleSet: Soft
StackLeniency: 0.3
Mode: 0
LetterboxInBreaks: 0
WidescreenStoryboard: 1

[Editor]
DistanceSpacing: 1
BeatDivisor: 4
GridSize: 4
TimelineZoom: 1.5

[Metadata]
Title:Hypersonik
TitleUnicode:Hypersonik
Artist:Eagle
ArtistUnicode:Eagle
Creator:Ascended
Version:Frey's Expert
Source:beatmania IIDX 21 SPADA
Tags:kors k korsk BEMANI electronic instrumental neurofunk drum and bass drumandbass dnb drum&bass beatmania iidx infinitas Flask zhuxiaoyan frostwich frostwhich stwi synderes jas CraEZy Otosaka-Yu OtosakaYu Suzuki_1112 Suzuki1112 Jounzan Natteke_desu Natteke desu Nattekedesu EvilElvisV2 Aistre Alphabet Venax NeilPerry Mir Frey dahkjdas Seolv Lukas [_L_u_k_a_s_] [Lukas] -ascended- -_ascended_- Deppyforce jascended
BeatmapID:3828142
BeatmapSetID:1834293

[Difficulty]
HPDrainRate:5
CircleSize:4
OverallDifficulty:8
ApproachRate:9
SliderMultiplier:1.8
SliderTickRate:1

[Events]
//Background and Video events
0,0,"hypersonic.jpg",0,0
//Break Periods
2,22162,26848
2,77020,85820
//Storyboard Layer 0 (Background)
//Storyboard Layer 1 (Fail)
//Storyboard Layer 2 (Pass)
//Storyboard Layer 3 (Foreground)
//Storyboard Layer 4 (Overlay)
//Storyboard Sound Samples

[TimingPoints]
20,342.857142857143,4,2,1,30,1,0
20,-125,4,2,1,30,0,0
2420,-125,4,2,0,30,0,0
2505,-125,4,2,1,30,0,0
2591,-125,4,2,0,30,0,0
2762,-125,4,2,1,30,0,0
4134,-125,4,2,0,30,0,0
5420,-125,4,2,1,30,0,0
8077,-125,4,2,1,25,0,0
8248,-125,4,2,1,30,0,0
9962,-125,4,2,0,30,0,0
10305,-125,4,2,1,45,0,0
10991,-100,4,2,1,50,0,0
13391,-100,4,2,0,50,0,0
13477,-100,4,2,1,50,0,0
14248,-100,4,2,1,50,0,0
14420,-100,4,2,1,50,0,0
14934,-100,4,2,1,30,0,0
14991,-100,4,2,100,30,0,0
15105,-100,4,2,1,50,0,0
20591,-100,4,2,100,50,0,0
21105,-100,4,2,1,50,0,0
21448,-100,4,2,100,50,0,0
21791,-100,4,2,1,50,0,0
21962,-100,4,2,1,70,0,0
27448,-100,4,2,1,50,0,0
28820,-100,4,2,1,60,0,0
30191,-100,4,2,1,70,0,0
31562,-62.5,4,2,1,80,0,0
32591,-125,4,2,1,80,0,0
32934,-100,4,2,5,70,0,0
33277,-100,4,2,1,70,0,0
41848,-100,4,2,0,70,0,0
42105,-100,4,2,1,70,0,0
53505,-100,4,2,63,90,0,0
53591,-100,4,2,1,60,0,0
54362,-100,4,2,0,60,0,0
54534,-100,4,2,1,60,0,0
54705,-100,4,2,0,60,0,0
54877,-100,4,2,1,68,0,0
57620,-100,4,2,1,58,0,0
60362,-100,4,2,1,68,0,0
63105,-100,4,2,1,58,0,0
66191,-100,4,2,1,78,0,0
66277,-100,4,2,1,68,0,0
70734,-100,4,2,0,68,0,0
70905,-100,4,2,1,68,0,0
74077,-100,4,2,1,50,0,0
74762,-100,4,2,2,70,0,0
74848,-100,4,2,1,50,0,0
74934,-100,4,2,2,50,0,0
75448,-100,4,2,1,50,0,0
76134,-100,4,2,2,70,0,0
76562,-100,4,2,1,70,0,0
76820,-100,4,2,1,60,0,0
86420,-100,4,2,100,50,0,0
86762,-100,4,2,1,50,0,0
86848,-100,4,2,50,50,0,0
87105,-100,4,2,2,50,0,0
87277,-100,4,2,100,50,0,0
87448,-100,4,2,1,50,0,0
87791,-100,4,2,1,55,0,0
90191,-100,4,2,1,30,0,0
90362,-100,4,2,1,55,0,0
90534,-100,4,2,1,57,0,0
91134,-100,4,2,1,37,0,0
91391,-100,4,2,1,57,0,0
93277,-100,4,2,1,25,0,0
93962,-100,4,2,1,30,0,0
94648,-100,4,2,1,35,0,0
95334,-100,4,2,1,40,0,0
96020,-100,4,2,1,70,0,0
97391,-62.5,4,2,1,80,0,0
98420,-125,4,2,1,60,0,0
98762,-100,4,2,4,70,0,1
98848,-100,4,2,100,70,0,1
109734,-100,4,2,100,40,0,1
109820,-100,4,2,100,70,0,1
110077,-100,4,2,5,70,0,1
110162,-100,4,2,100,70,0,1
112134,-100,4,2,50,60,0,1
112477,-100,4,2,100,70,0,1
118991,-100,4,2,1,70,0,1
119162,-100,4,2,100,70,0,1
120705,-100,4,2,100,70,0,0

[Colours]
Combo1 : 21,251,141
Combo2 : 159,64,255
Combo3 : 255,106,255
Combo4 : 255,140,85

[HitObjects]
256,60,20,6,0,L|96:88,1,144,0|0,3:0|3:0,0:0:0:0:
32,300,705,1,0,0:0:0:0:
32,300,2420,6,0,B|68:300|68:300|104:324,1,72,8|0,2:0|0:0,0:0:0:0:
168,368,2762,2,0,B|284:360|220:280|348:268,2,216,0|0|0,1:0|1:0|1:0,0:0:0:0:
344,16,4991,5,0,1:0:0:0:
232,44,5162,1,8,2:0:0:0:
347,268,5505,6,0,P|416:277|470:232,1,144,0|0,3:0|3:0,0:0:0:0:
256,156,6191,1,8,2:0:0:0:
256,156,8077,5,2,2:0:0:0:
256,192,8162,1,2,2:0:0:0:
256,228,8248,1,0,1:0:0:0:
44,105,8762,6,0,L|64:248,1,144,0|0,1:0|0:0,0:0:0:0:
140,141,9277,2,0,L|160:284,1,144,0|0,1:0|3:0,0:0:0:0:
256,320,9791,1,0,0:0:0:0:
352,284,9962,6,0,L|371:141,1,144,8|0,2:0|3:0,0:0:0:0:
384,52,10477,1,8,2:3:0:0:
255,0,10648,1,8,3:0:0:0:
128,52,10820,1,8,3:0:0:0:
63,175,10991,6,0,P|105:192|150:188,1,90,4|0,3:2|0:0,0:0:0:0:
292,132,11334,2,0,P|250:115|205:119,1,90,0|0,3:0|0:0,0:0:0:0:
220,252,11677,2,0,P|261:268|306:264,1,90,8|0,2:0|0:0,0:0:0:0:
448,208,12020,1,0,0:0:0:0:
380,316,12191,1,8,2:0:0:0:
368,168,12362,6,0,L|384:64,1,90
256,0,12705,2,0,L|256:100,1,90,0|0,3:0|0:0,0:0:0:0:
256,274,13048,2,0,L|256:184,1,90,8|0,2:0|0:0,0:0:0:0:
130,79,13391,2,0,L|144:168,1,90,8|0,2:0|3:0,0:0:0:0:
167,291,13734,6,0,P|125:278|80:272,1,90,0|0,3:0|0:0,0:0:0:0:
56,148,14077,2,0,P|98:161|143:167,1,90,0|0,3:0|0:0,0:0:0:0:
256,274,14420,2,0,P|300:267|343:254,1,90,8|0,2:0|0:0,0:0:0:0:
456,148,14762,1,0,0:0:0:0:
360,64,14934,5,2,3:2:0:0:
360,64,14991,1,0,0:0:0:0:
360,64,15048,1,0,0:0:0:0:
360,64,15105,2,0,L|352:160,1,90,0|0,0:0|3:0,0:0:0:0:
256,0,15448,5,0,3:0:0:0:
256,0,15534,1,0,3:0:0:0:
256,0,15620,1,0,3:0:0:0:
159,153,15791,2,0,L|152:64,1,90,8|0,2:0|3:0,0:0:0:0:
72,108,16048,2,0,L|79:197,1,90,8|0,2:0|0:0,0:0:0:0:
88,288,16305,5,0,1:0:0:0:
88,288,16391,1,0,1:0:0:0:
88,288,16477,2,0,P|128:308|196:312,1,90,4|0,3:2|0:0,0:0:0:0:
256,192,16820,2,0,P|300:185|340:165,1,90,0|0,3:0|0:0,0:0:0:0:
424,287,17162,2,0,P|383:308|339:314,1,90,8|0,2:0|0:0,0:0:0:0:
172,165,17505,1,0,0:0:0:0:
256,284,17677,5,8,2:0:0:0:
340,165,17848,2,0,L|356:53,1,90
444,52,18191,2,0,L|431:141,1,90,0|0,3:0|0:0,0:0:0:0:
362,253,18534,2,0,P|318:254|280:232,1,90,8|0,2:0|0:0,0:0:0:0:
149,130,18877,2,0,P|193:129|231:151,1,90,2|0,2:0|3:0,0:0:0:0:
212,296,19220,6,0,L|122:307,1,90,0|0,3:0|0:0,0:0:0:0:
82,226,19562,2,0,L|172:216,1,90,0|0,3:0|0:0,0:0:0:0:
0,184,19905,1,10,2:0:0:0:
32,315,20077,1,2,3:2:0:0:
77,133,20248,2,0,L|55:45,1,90,14|8,2:0|2:3,0:0:0:0:
208,8,20591,5,0,0:0:0:0:
208,8,20648,1,0,0:0:0:0:
208,8,20705,1,0,0:0:0:0:
208,8,20762,2,0,L|229:95,1,90,8|0,2:0|3:0,0:0:0:0:
212,204,21105,1,0,0:0:0:0:
300,180,21277,1,8,2:0:0:0:
304,376,21448,5,0,0:0:0:0:
304,376,21505,1,0,0:0:0:0:
304,376,21562,1,0,0:0:0:0:
304,376,21619,2,0,L|280:280,1,90
229,95,21962,5,4,2:0:0:0:
200,84,27448,5,4,2:0:0:0:
112,100,27620,1,0,3:0:0:0:
128,188,27791,1,0,1:0:0:0:
216,172,27962,1,0,0:0:0:0:
312,300,28134,5,0,1:0:0:0:
400,284,28306,1,0,3:0:0:0:
384,196,28477,1,0,1:0:0:0:
296,212,28648,1,0,0:0:0:0:
156,331,28820,5,0,1:0:0:0:
128,244,28991,1,0,3:0:0:0:
188,177,29162,1,0,1:0:0:0:
216,264,29334,1,0,0:0:0:0:
324,177,29505,5,0,1:0:0:0:
352,90,29676,1,0,3:0:0:0:
292,23,29847,1,0,1:0:0:0:
264,110,30019,1,0,0:0:0:0:
412,157,30191,5,4,2:0:0:0:
204,43,30362,1,0,3:0:0:0:
380,3,30534,1,8,2:0:0:0:
236,197,30705,1,0,1:0:0:0:
440,70,30877,1,8,2:0:0:0:
176,130,31048,1,0,3:0:0:0:
440,70,31220,5,8,2:0:0:0:
440,70,31305,1,2,1:0:0:0:
440,70,31391,1,0,1:0:0:0:
440,70,31477,1,2,1:0:0:0:
440,70,31562,6,0,P|385:116|309:120,1,144,4|0,1:2|0:0,0:0:0:0:
72,70,31905,1,0,0:0:0:0:
72,70,32248,6,0,P|128:116|204:120,1,144,4|0,1:2|0:0,0:0:0:0:
412,192,32591,2,0,P|359:203|307:220,1,108,8|0,2:0|0:0,0:0:0:0:
176,261,32934,6,0,P|211:289|255:296,1,90,4|0,1:2|0:0,0:0:0:0:
315,121,33277,1,10,2:1:0:0:
484,228,33448,1,0,0:0:0:0:
489,206,33533,1,2,2:1:0:0:
494,184,33619,1,2,2:0:0:0:
256,52,33791,1,2,3:1:0:0:
331,209,33962,1,10,2:1:0:0:
344,36,34134,1,2,2:0:0:0:
243,225,34305,6,0,L|226:136,1,90,0|0,1:0|0:0,0:0:0:0:
24,96,34648,1,10,2:1:0:0:
66,318,34820,1,0,0:0:0:0:
61,295,34905,1,2,2:1:0:0:
57,273,34991,1,0,0:0:0:0:
168,68,35162,1,2,3:1:0:0:
40,183,35334,2,0,P|84:187|123:209,1,90,10|2,2:1|2:0,0:0:0:0:
307,292,35677,6,0,P|269:313|224:317,1,90,0|2,3:0|2:0,0:0:0:0:
372,120,36020,2,0,L|396:292,1,135,8|2,2:0|3:1,0:0:0:0:
397,297,36362,1,2,2:0:0:0:
456,84,36534,1,2,3:1:0:0:
456,84,36620,1,2,2:0:0:0:
456,84,36705,2,0,L|468:173,1,90,8|0,1:0|0:0,0:0:0:0:
320,40,37048,6,0,P|264:60|228:64,1,90,0|2,3:0|2:0,0:0:0:0:
40,132,37391,2,0,P|91:140|128:160,1,90,8|0,2:0|3:0,0:0:0:0:
156,192,37648,1,0,3:0:0:0:
156,192,37734,2,0,L|200:184,1,45,0|0,3:0|1:0,0:0:0:0:
356,192,37905,1,2,3:1:0:0:
192,316,38077,1,10,2:1:0:0:
320,316,38248,1,2,1:0:0:0:
156,192,38420,6,0,L|67:206,1,90,4|0,1:2|0:0,0:0:0:0:
4,360,38762,1,10,2:1:0:0:
192,316,38934,1,0,0:0:0:0:
214,317,39019,1,2,2:1:0:0:
235,324,39105,1,2,2:0:0:0:
232,144,39277,1,2,3:1:0:0:
104,304,39448,1,10,2:1:0:0:
316,360,39620,1,2,2:0:0:0:
313,190,39791,6,0,P|282:222|240:236,1,90,0|0,1:0|0:0,0:0:0:0:
280,52,40134,1,10,2:1:0:0:
456,120,40305,1,0,0:0:0:0:
458,97,40390,1,2,2:1:0:0:
461,75,40476,1,0,0:0:0:0:
434,298,40648,1,2,3:1:0:0:
240,236,40820,2,0,P|289:244|352:260,1,90,10|2,2:1|2:0,0:0:0:0:
100,176,41162,6,0,P|143:165|188:158,1,90,0|2,3:0|1:3,0:0:0:0:
4,324,41505,2,0,P|68:336|128:296,1,135,10|0,2:1|1:0,0:0:0:0:
140,256,41848,1,2,1:2:0:0:
16,140,42020,1,2,1:2:0:0:
168,68,42191,1,8,2:0:0:0:
292,180,42362,1,0,3:0:0:0:
140,256,42534,6,0,L|120:168,1,90,0|2,3:0|3:1,0:0:0:0:
108,124,42791,1,0,3:0:0:0:
108,124,42877,2,0,P|144:112|224:100,1,90,8|2,2:0|3:1,0:0:0:0:
317,102,43134,1,8,3:0:0:0:
317,102,43220,2,0,P|361:110|404:123,1,90,8|0,2:3|0:0,0:0:0:0:
428,256,43477,1,2,2:0:0:0:
428,256,43562,2,0,P|488:208|472:128,1,135,8|0,2:0|0:0,0:0:0:0:
424,36,43905,6,0,P|380:22|336:14,1,90,4|0,1:2|0:0,0:0:0:0:
256,184,44248,1,10,2:1:0:0:
428,256,44420,1,0,0:0:0:0:
423,234,44505,1,2,2:1:0:0:
420,211,44591,1,2,2:0:0:0:
171,115,44762,1,2,3:1:0:0:
357,145,44934,1,10,2:1:0:0:
239,291,45105,1,2,2:0:0:0:
171,115,45277,6,0,L|186:26,1,90,0|0,1:0|0:0,0:0:0:0:
150,240,45620,1,10,2:1:0:0:
37,91,45791,1,0,0:0:0:0:
59,94,45876,1,2,2:1:0:0:
81,98,45962,1,0,0:0:0:0:
238,255,46134,1,2,3:1:0:0:
52,324,46305,2,0,P|28:285|21:241,1,90,10|2,2:1|2:0,0:0:0:0:
171,115,46648,6,0,P|223:139|255:171,1,90,0|2,3:0|2:0,0:0:0:0:
417,227,46991,2,0,L|283:247,1,135,10|0,2:1|3:0,0:0:0:0:
238,255,47334,1,0,0:0:0:0:
380,368,47505,1,0,3:0:0:0:
380,368,47591,1,0,3:0:0:0:
380,368,47677,2,0,P|444:372|480:388,1,90,8|0,1:0|0:0,0:0:0:0:
505,213,48020,6,0,L|491:124,1,90,0|2,3:0|2:0,0:0:0:0:
352,12,48362,1,8,2:0:0:0:
256,164,48534,1,0,3:0:0:0:
256,164,48620,1,0,3:0:0:0:
256,164,48705,2,0,L|267:235,1,45,0|0,3:0|1:0,0:0:0:0:
280,316,48877,5,2,3:1:0:0:
364,146,49048,1,10,2:1:0:0:
148,182,49220,1,2,1:0:0:0:
348,236,49391,6,0,P|392:234|429:210,1,90,4|0,1:2|0:0,0:0:0:0:
242,75,49734,1,10,2:1:0:0:
188,264,49905,1,0,0:0:0:0:
191,286,49990,1,2,2:1:0:0:
195,308,50076,1,2,2:0:0:0:
256,164,50248,1,2,3:1:0:0:
52,116,50420,1,10,2:1:0:0:
108,336,50591,1,2,2:0:0:0:
274,283,50762,6,0,P|232:267|188:264,1,90,0|0,1:0|0:0,0:0:0:0:
0,192,51105,1,10,2:1:0:0:
144,56,51277,1,0,0:0:0:0:
165,50,51362,1,2,2:1:0:0:
187,43,51448,1,0,0:0:0:0:
324,192,51620,1,2,3:1:0:0:
187,264,51791,2,0,L|168:175,1,90,10|2,2:1|2:0,0:0:0:0:
360,14,52134,6,0,L|342:103,1,90,0|2,3:0|1:3,0:0:0:0:
305,280,52477,1,8,1:0:0:0:
341,280,52562,1,8,2:3:0:0:
374,267,52648,1,0,1:0:0:0:
399,241,52734,1,8,2:3:0:0:
412,208,52819,5,2,1:2:0:0:
235,173,52991,1,10,1:2:0:0:
452,124,53162,1,8,2:0:0:0:
232,80,53334,1,8,3:1:0:0:
305,280,53505,6,0,P|401:278|456:200,2,180,0|2|8,0:0|2:0|0:0,0:0:0:0:
184,192,54362,1,2,2:0:0:0:
196,148,54448,1,2,2:0:0:0:
207,104,54534,1,2,2:0:0:0:
328,192,54705,1,0,3:0:0:0:
316,148,54791,1,2,2:0:0:0:
304,103,54877,6,0,P|363:39|451:42,1,180,4|8,3:2|2:0,0:0:0:0:
256,0,55391,1,0,3:0:0:0:
328,192,55562,2,0,L|468:168,1,135,2|2,3:1|2:1,0:0:0:0:
488,256,55905,2,0,P|456:308|412:324,1,90,8|2,2:0|3:1,0:0:0:0:
240,220,56248,5,0,3:0:0:0:
343,300,56420,1,0,3:0:0:0:
184,336,56591,1,8,2:0:0:0:
148,177,56762,1,2,2:0:0:0:
143,199,56847,1,0,3:0:0:0:
138,221,56933,1,0,0:0:0:0:
104,384,57105,1,0,3:0:0:0:
16,192,57277,2,0,L|35:101,1,90,8|2,2:0|2:0,0:0:0:0:
120,8,57620,6,0,P|186:6|242:42,1,135,0|0,3:0|2:0,0:0:0:0:
272,126,57962,2,0,P|327:162|394:159,1,135,8|0,2:0|3:0,0:0:0:0:
480,80,58305,2,0,L|465:6,2,60,2|2|2,1:0|2:1|0:1,0:0:0:0:
499,174,58648,2,0,P|468:205|444:244,1,90,10|2,2:1|2:0,0:0:0:0:
384,374,58991,6,0,L|356:241,1,135,0|2,3:0|2:0,0:0:0:0:
308,164,59334,2,0,B|236:172|256:208|186:215,1,135,8|0,2:0|3:0,0:0:0:0:
104,176,59677,1,0,1:0:0:0:
256,288,59848,1,0,0:0:0:0:
108,328,60020,2,0,P|60:324|4:260,1,135,8|2,2:0|2:3,0:0:0:0:
24,156,60362,6,0,L|44:48,1,90,4|0,3:2|0:0,0:0:0:0:
256,116,60705,1,8,2:0:0:0:
104,176,60877,1,0,3:0:0:0:
124,0,61048,2,0,L|256:26,1,135,2|2,3:1|2:1,0:0:0:0:
336,72,61391,2,0,P|400:60|436:24,1,90,8|2,2:0|3:1,0:0:0:0:
376,228,61734,5,0,3:0:0:0:
512,140,61905,1,0,3:0:0:0:
336,72,62077,1,8,2:0:0:0:
256,240,62248,1,2,2:0:0:0:
259,262,62333,1,0,3:0:0:0:
263,284,62419,1,0,0:0:0:0:
388,372,62591,1,0,3:0:0:0:
468,204,62762,2,0,P|426:187|381:184,1,90,8|2,2:0|2:0,0:0:0:0:
195,175,63105,6,0,P|194:236|256:240,1,135,0|0,3:0|0:0,0:0:0:0:
296,160,63448,2,0,L|272:12,1,135,8|0,2:0|3:0,0:0:0:0:
160,0,63791,2,0,L|100:9,2,60,2|2|2,1:0|2:1|0:1,0:0:0:0:
148,95,64134,2,0,P|85:121|16:116,1,135,10|2,2:1|2:0,0:0:0:0:
0,206,64477,6,0,P|46:209|104:240,1,90,0|0,3:0|3:0,0:0:0:0:
232,384,64820,1,8,2:0:0:0:
38,344,64991,1,0,0:0:0:0:
38,344,65077,2,0,P|75:319|119:311,1,90,0|0,3:0|3:0,0:0:0:0:
165,323,65334,1,0,0:0:0:0:
268,204,65505,2,0,L|249:292,1,90,12|0,2:0|3:0,0:0:0:0:
490,215,65848,6,0,P|432:279|348:264,1,180,0|4,0:0|3:2,0:0:0:0:
244,116,66362,1,0,3:2:0:0:
426,52,66534,2,0,L|379:179,1,135,2|2,3:1|2:1,0:0:0:0:
347,263,66877,2,0,L|315:347,1,90,8|2,2:0|3:1,0:0:0:0:
212,196,67220,5,0,3:0:0:0:
379,178,67391,1,0,3:0:0:0:
228,364,67562,1,8,2:0:0:0:
395,346,67734,1,2,2:0:0:0:
417,343,67819,1,0,3:0:0:0:
439,340,67905,1,0,0:0:0:0:
512,136,68077,1,0,3:0:0:0:
347,263,68248,2,0,P|310:240|289:200,1,90,8|2,2:0|2:0,0:0:0:0:
256,4,68591,6,0,P|239:69|227:135,1,135,0|0,3:0|0:0,0:0:0:0:
204,223,68934,2,0,P|148:259|83:247,1,135,8|0,2:0|3:0,0:0:0:0:
25,146,69277,2,0,P|52:134|82:130,2,60,2|2|2,1:0|2:1|0:1,0:0:0:0:
38,48,69620,2,0,P|104:40|157:79,1,135,10|2,2:1|2:0,0:0:0:0:
227,135,69962,6,0,P|293:123|358:106,1,135,0|2,3:0|2:0,0:0:0:0:
448,84,70305,2,0,P|484:143|468:211,1,135,8|0,2:0|3:0,0:0:0:0:
408,304,70648,2,0,L|400:380,2,60,0|2|2,1:0|2:0|2:0,0:0:0:0:
332,243,70991,2,0,P|265:249|203:222,1,135,8|2,2:0|2:0,0:0:0:0:
131,159,71334,6,0,P|87:160|46:178,1,90,4|0,3:2|0:0,0:0:0:0:
132,368,71677,1,8,2:0:0:0:
8,264,71848,1,0,3:0:0:0:
204,223,72020,2,0,L|366:189,1,135,2|2,3:1|2:1,0:0:0:0:
368,112,72362,2,0,P|324:111|283:93,1,90,8|2,2:0|3:1,0:0:0:0:
436,52,72705,5,0,3:0:0:0:
420,228,72877,1,0,3:0:0:0:
512,96,73048,1,8,2:0:0:0:
496,272,73220,1,2,2:0:0:0:
493,294,73305,1,0,3:0:0:0:
491,316,73391,1,0,0:0:0:0:
320,371,73562,1,0,3:0:0:0:
336,195,73734,2,0,L|344:105,1,90,8|2,2:0|2:0,0:0:0:0:
176,195,74077,6,0,L|163:60,2,135,0|0|0,3:0|3:0|3:0,0:0:0:0:
192,371,74762,1,8,2:0:0:0:
192,371,74934,2,0,P|104:352|84:248,1,180
176,195,75448,6,0,P|220:207|265:210,1,90,0|0,3:0|3:0,0:0:0:0:
327,276,75705,2,0,P|370:262|408:224,1,90,0|0,3:0|3:0,0:0:0:0:
424,144,75962,1,0,3:0:0:0:
340,28,76134,2,0,B|256:8|256:80|168:56,1,180,8|0,2:0|0:0,0:0:0:0:
96,2,76562,2,0,P|79:43|84:87,1,90,0|0,3:0|0:0,0:0:0:0:
150,186,76820,5,4,2:0:0:0:
148,252,86420,6,0,L|236:269,1,90,0|0,1:0|0:0,0:0:0:0:
364,132,86762,1,0,0:0:0:0:
341,127,86847,1,2,2:3:0:0:
319,123,86933,1,0,3:0:0:0:
297,119,87019,1,0,3:0:0:0:
275,114,87104,1,2,2:0:0:0:
152,92,87277,5,0,0:0:0:0:
152,92,87334,1,0,0:0:0:0:
152,92,87391,1,0,0:0:0:0:
152,92,87448,1,8,2:0:0:0:
256,24,87620,1,2,2:3:0:0:
224,192,87791,6,0,L|207:280,1,90,4|0,1:2|0:0,0:0:0:0:
56,235,88134,2,0,P|75:299|132:331,2,135,0|0|0,3:0|3:0|3:0,0:0:0:0:
76,148,88820,2,0,P|132:136|184:120,1,90,0|0,1:0|0:0,0:0:0:0:
256,40,89162,6,0,P|211:30|168:18,1,90,0|0,1:0|0:0,0:0:0:0:
275,128,89505,2,0,P|330:91|344:27,2,135,0|0|0,3:0|3:0|3:0,0:0:0:0:
216,200,90191,2,0,L|232:296,1,90,8|0,1:2|0:0,0:0:0:0:
356,264,90534,6,0,L|341:352,1,90,0|0,1:0|0:0,0:0:0:0:
480,238,90877,2,0,P|494:173|459:118,2,135,0|2|0,3:0|3:1|3:0,0:0:0:0:
370,136,91562,2,0,L|281:154,1,90,0|2,1:0|2:1,0:0:0:0:
139,98,91905,6,0,L|228:80,1,90,0|0,1:0|0:0,0:0:0:0:
31,27,92248,2,0,L|50:116,1,90,0|0,3:0|3:0,0:0:0:0:
60,160,92505,1,2,3:1:0:0:
60,160,92591,2,0,P|93:189|136:200,1,90,0|0,0:0|3:0,0:0:0:0:
326,255,92934,2,0,P|282:261|240:276,1,90,8|2,1:2|2:1,0:0:0:0:
124,376,93277,5,0,1:0:0:0:
36,356,93448,1,0,3:0:0:0:
144,288,93620,1,0,3:0:0:0:
56,268,93791,1,0,3:0:0:0:
108,108,93962,5,0,3:0:0:0:
117,201,94133,1,0,3:0:0:0:
201,99,94305,1,0,3:0:0:0:
210,192,94476,1,0,3:0:0:0:
404,108,94648,5,0,3:0:0:0:
311,99,94819,1,0,3:0:0:0:
395,201,94991,1,0,3:0:0:0:
302,192,95162,1,0,3:0:0:0:
388,376,95334,5,0,3:0:0:0:
368,288,95505,1,0,3:0:0:0:
476,356,95677,1,8,3:2:0:0:
456,268,95848,1,0,3:0:0:0:
301,348,96020,5,4,3:2:0:0:
123,311,96191,1,10,2:1:0:0:
280,260,96362,1,8,3:2:0:0:
102,223,96534,1,10,2:1:0:0:
410,161,96705,1,8,3:2:0:0:
232,124,96877,1,10,2:1:0:0:
389,73,97048,5,8,3:2:0:0:
211,36,97220,1,10,2:1:0:0:
256,220,97391,6,0,P|319:252|390:249,1,144,4|0,1:2|0:0,0:0:0:0:
78,183,97734,1,0,0:0:0:0:
78,183,98077,6,0,P|60:248|64:328,1,144,4|0,1:2|0:0,0:0:0:0:
151,103,98420,2,0,P|180:149|182:202,1,108,8|0,2:0|0:0,0:0:0:0:
162,381,98762,6,0,L|172:291,1,90,14|0,3:2|0:0,0:0:0:0:
268,224,99020,1,0,0:0:0:0:
268,224,99105,2,0,P|300:232|316:240,1,45,8|0,2:0|0:0,0:0:0:0:
405,302,99277,5,2,2:1:0:0:
451,299,99362,1,0,3:0:0:0:
489,273,99448,1,0,0:0:0:0:
510,232,99534,1,2,1:0:0:0:
503,187,99620,1,0,0:0:0:0:
473,153,99705,1,2,2:1:0:0:
432,133,99791,2,0,L|426:177,1,45,8|0,2:0|0:0,0:0:0:0:
336,76,99962,2,0,L|330:120,1,45,2|0,2:0|0:0,0:0:0:0:
268,224,100134,6,0,L|172:240,1,90,0|0,3:0|0:0,0:0:0:0:
68,300,100391,1,0,0:0:0:0:
68,300,100477,2,0,L|50:258,1,45,8|0,2:0|0:0,0:0:0:0:
4,148,100648,5,2,2:1:0:0:
20,108,100733,1,0,3:0:0:0:
59,85,100819,1,0,0:0:0:0:
105,84,100905,1,2,3:1:0:0:
143,106,100990,1,0,0:0:0:0:
184,128,101076,1,2,3:1:0:0:
229,128,101162,1,8,2:0:0:0:
265,101,101248,1,2,3:1:0:0:
282,59,101334,2,0,L|271:15,1,45,2|0,3:0|0:0,0:0:0:0:
372,120,101505,6,0,L|395:33,1,90,0|0,3:0|0:0,0:0:0:0:
480,124,101761,1,0,0:0:0:0:
480,124,101848,2,0,L|491:168,1,45,8|0,2:0|0:0,0:0:0:0:
464,288,102020,5,2,2:1:0:0:
429,316,102105,1,0,3:0:0:0:
386,329,102191,1,0,0:0:0:0:
342,323,102277,1,2,1:0:0:0:
304,299,102362,1,0,3:0:0:0:
279,263,102448,1,2,2:1:0:0:
271,219,102534,2,0,P|276:192|282:175,1,45,8|0,2:0|0:0,0:0:0:0:
196,308,102705,2,0,P|180:292|164:256,1,45,2|0,2:0|0:0,0:0:0:0:
124,152,102877,6,0,P|84:172|57:208,1,90,0|0,3:0|0:0,0:0:0:0:
0,100,103134,1,0,0:0:0:0:
0,100,103220,2,0,L|12:44,1,45,8|0,2:0|2:0,0:0:0:0:
124,16,103391,1,2,2:1:0:0:
124,16,103477,2,0,P|148:25|172:28,1,45,0|0,3:0|0:0,0:0:0:0:
256,112,103648,5,2,3:1:0:0:
295,131,103733,1,0,0:0:0:0:
340,127,103819,1,2,3:1:0:0:
376,101,103905,1,8,2:0:0:0:
394,61,103990,1,2,3:1:0:0:
388,16,104077,2,0,P|363:25|339:28,1,45,2|0,3:0|0:0,0:0:0:0:
404,176,104248,6,0,P|448:159|491:153,1,90,4|0,3:2|0:0,0:0:0:0:
500,280,104505,1,0,0:0:0:0:
500,280,104591,2,0,P|477:283|456:291,1,45,8|0,2:0|0:0,0:0:0:0:
360,371,104762,5,2,2:1:0:0:
316,382,104847,1,0,3:0:0:0:
273,372,104933,1,0,0:0:0:0:
240,342,105019,1,2,1:0:0:0:
224,300,105104,1,0,0:0:0:0:
230,256,105190,1,2,2:1:0:0:
256,219,105277,2,0,L|304:224,1,45,8|0,2:0|0:0,0:0:0:0:
372,108,105448,2,0,L|327:103,1,45,2|0,2:0|0:0,0:0:0:0:
228,36,105620,6,0,P|185:48|138:45,1,90,0|0,3:0|0:0,0:0:0:0:
36,108,105877,1,0,0:0:0:0:
36,108,105963,2,0,L|44:188,1,45,8|0,2:0|0:0,0:0:0:0:
56,280,106134,5,2,2:1:0:0:
95,257,106219,1,0,3:0:0:0:
138,246,106305,1,0,0:0:0:0:
182,252,106391,1,2,3:1:0:0:
224,269,106476,1,0,0:0:0:0:
265,287,106562,1,2,3:1:0:0:
309,293,106648,1,8,2:0:0:0:
353,282,106734,1,2,3:1:0:0:
392,259,106820,2,0,L|404:216,1,45,2|0,3:0|0:0,0:0:0:0:
483,115,106991,6,0,P|446:91|402:87,1,90,4|0,3:2|3:0,0:0:0:0:
216,40,107334,2,0,L|348:12,1,135,8|0,2:0|1:0,0:0:0:0:
320,132,107677,2,0,L|216:153,1,90,0|0,0:0|1:0,0:0:0:0:
56,76,108020,1,8,2:0:0:0:
56,76,108105,2,0,P|12:112|-4:164,1,90,2|2,2:3|2:3,0:0:0:0:
24,256,108362,6,0,P|104:296|172:280,1,135,4|2,3:2|3:0,0:0:0:0:
220,240,108705,1,8,2:0:0:0:
379,200,108877,2,0,P|424:207|464:232,1,90,2|0,3:1|0:0,0:0:0:0:
404,344,109134,2,0,P|359:336|319:312,1,90,2|0,3:1|1:0,0:0:0:0:
290,180,109391,5,8,3:2:0:0:
298,135,109476,1,0,3:0:0:0:
307,91,109562,1,0,3:0:0:0:
315,47,109648,1,0,3:0:0:0:
324,3,109734,6,0,L|412:20,1,90,0|2,1:0|2:1,0:0:0:0:
220,72,110077,1,4,1:2:0:0:
384,164,110248,1,0,0:0:0:0:
405,156,110333,1,0,3:0:0:0:
427,152,110419,1,0,0:0:0:0:
324,3,110591,1,0,3:0:0:0:
290,180,110762,2,0,L|273:268,1,90,8|0,2:0|0:0,0:0:0:0:
50,215,111105,5,0,1:0:0:0:
90,191,111191,1,0,0:0:0:0:
136,194,111277,1,2,2:1:0:0:
170,222,111362,1,0,3:0:0:0:
180,267,111448,1,8,2:0:0:0:
190,311,111533,1,0,0:0:0:0:
219,344,111619,1,2,2:1:0:0:
261,360,111705,1,0,3:0:0:0:
305,355,111790,1,0,0:0:0:0:
342,330,111876,1,2,2:1:0:0:
363,291,111962,6,0,P|357:261|355:227,1,45,0|0,0:0|1:0,0:0:0:0:
400,136,112134,1,0,3:0:0:0:
444,128,112220,1,2,2:3:0:0:
486,143,112305,1,2,2:3:0:0:
512,180,112391,1,2,2:3:0:0:
512,226,112477,6,0,P|485:274|440:294,1,90,0|2,1:0|2:1,0:0:0:0:
316,164,112820,1,12,1:2:0:0:
440,32,112991,1,0,0:0:0:0:
462,36,113076,1,0,3:0:0:0:
484,40,113162,1,0,0:0:0:0:
440,216,113334,1,0,3:0:0:0:
308,76,113505,2,0,P|266:91|236:125,1,90,8|0,2:0|0:0,0:0:0:0:
129,312,113848,5,0,1:0:0:0:
84,317,113934,1,0,0:0:0:0:
47,291,114020,1,2,2:1:0:0:
35,247,114105,1,0,3:0:0:0:
55,206,114191,1,8,2:0:0:0:
97,190,114277,1,0,0:0:0:0:
140,200,114362,1,2,2:1:0:0:
172,231,114448,1,0,3:0:0:0:
198,267,114534,5,0,0:0:0:0:
238,286,114620,1,2,2:1:0:0:
282,289,114705,1,0,3:0:0:0:
323,269,114791,1,0,1:0:0:0:
351,233,114877,1,0,3:0:0:0:
357,188,114962,1,2,2:3:0:0:
344,144,115048,2,0,P|316:138|272:120,1,45,2|2,2:3|2:3,0:0:0:0:
192,64,115220,6,0,P|236:57|279:45,1,90,4|2,1:2|2:1,0:0:0:0:
96,80,115562,1,8,1:2:0:0:
240,196,115734,1,0,0:0:0:0:
261,202,115819,1,0,3:0:0:0:
283,206,115905,1,0,0:0:0:0:
368,24,116077,1,0,3:0:0:0:
164,148,116248,2,0,P|120:160|76:167,1,90,8|0,2:0|0:0,0:0:0:0:
200,336,116591,5,0,1:0:0:0:
243,345,116676,1,0,0:0:0:0:
282,325,116762,1,2,2:1:0:0:
300,285,116848,1,0,3:0:0:0:
290,242,116933,1,8,2:0:0:0:
255,215,117019,1,0,0:0:0:0:
239,172,117105,1,2,2:1:0:0:
250,128,117191,1,0,3:0:0:0:
280,94,117277,1,0,0:0:0:0:
323,85,117362,1,2,2:1:0:0:
367,94,117448,6,0,P|384:104|420:120,1,45,0|0,0:0|1:0,0:0:0:0:
496,192,117620,1,0,3:0:0:0:
487,236,117705,1,2,1:0:0:0:
478,280,117791,1,2,1:0:0:0:
469,324,117877,1,2,1:0:0:0:
459,367,117962,6,0,P|416:372|368:380,1,90,4|0,1:2|0:0,0:0:0:0:
276,308,118220,1,0,0:0:0:0:
276,308,118305,2,0,P|254:310|230:314,1,45,8|0,1:2|0:0,0:0:0:0:
125,370,118477,5,0,0:0:0:0:
81,368,118562,1,2,3:1:0:0:
42,347,118648,1,0,0:0:0:0:
17,310,118734,1,2,2:1:0:0:
10,266,118819,1,0,0:0:0:0:
24,223,118905,1,0,3:0:0:0:
56,191,118991,2,0,P|77:193|101:197,1,45,10|0,2:1|0:0,0:0:0:0:
160,92,119162,2,0,P|162:114|166:136,1,45,2|0,2:1|0:0,0:0:0:0:
184,256,119334,5,0,1:0:0:0:
256,108,119505,1,0,1:0:0:0:
280,272,119677,1,8,2:0:0:0:
312,268,119762,1,0,0:0:0:0:
344,264,119848,2,0,L|388:257,1,45,0|0,1:0|3:0,0:0:0:0:
424,172,120020,5,8,3:2:0:0:
384,177,120106,1,0,3:0:0:0:
343,182,120191,2,0,L|298:188,1,45,0|0,3:0|3:0,0:0:0:0:
256,108,120362,5,8,3:2:0:0:
305,102,120447,1,0,3:0:0:0:
354,96,120534,2,0,L|408:88,1,45,0|0,3:0|3:0,0:0:0:0:
512,72,120705,5,4,2:0:0:0:
