osu file format v14

[General]
AudioFilename: audio.mp3
AudioLeadIn: 0
PreviewTime:98677
Countdown: 0
SampleSet: Soft
StackLeniency: 0.7
Mode: 0
LetterboxInBreaks: 0
WidescreenStoryboard: 1

[Editor]
Bookmarks:10991
DistanceSpacing: 1
BeatDivisor: 4
GridSize: 32
TimelineZoom: 1.1

[Metadata]
Title:Hypersonik
TitleUnicode:Hypersonik
Artist:Eagle
ArtistUnicode:Eagle
Creator:Ascended
Version:Deppy's Easy
Source:beatmania IIDX 21 SPADA
Tags:kors k korsk BEMANI electronic instrumental neurofunk drum and bass drumandbass dnb drum&bass beatmania iidx infinitas Flask zhuxiaoyan frostwich frostwhich stwi synderes jas CraEZy Otosaka-Yu OtosakaYu Suzuki_1112 Suzuki1112 Jounzan Natteke_desu Natteke desu Nattekedesu EvilElvisV2 Aistre Alphabet Venax NeilPerry Mir Frey dahkjdas Seolv Lukas [_L_u_k_a_s_] [Lukas] -ascended- -_ascended_- Deppyforce jascended
BeatmapID:3870569
BeatmapSetID:1834293

[Difficulty]
HPDrainRate:3
CircleSize:3
OverallDifficulty:3
ApproachRate:3.5
SliderMultiplier:0.9
SliderTickRate:1

[Events]
//Background and Video events
0,0,"anime style.jpg",0,0
//Break Periods
2,77020,86411
//Storyboard Layer 0 (Background)
//Storyboard Layer 1 (Fail)
//Storyboard Layer 2 (Pass)
//Storyboard Layer 3 (Foreground)
//Storyboard Layer 4 (Overlay)
//Storyboard Sound Samples

[TimingPoints]
20,342.857142857143,4,2,1,68,1,0
10991,-100,4,2,1,50,0,0
14934,-100,4,2,1,20,0,0
15277,-100,4,2,1,50,0,0
20591,-100,4,2,100,50,0,0
20933,-100,4,2,100,50,0,0
21276,-100,4,2,1,50,0,0
21620,-100,4,2,100,50,0,0
21962,-100,4,2,1,50,0,0
22648,-100,4,2,1,68,0,0
24705,-100,4,2,1,68,0,0
25391,-100,4,2,1,68,0,0
26077,-100,4,2,1,68,0,0
26763,-100,4,2,1,68,0,0
27448,-100,4,2,1,50,0,0
28820,-100,4,2,1,60,0,0
30191,-100,4,2,1,70,0,0
31562,-100,4,2,1,80,0,0
32934,-100,4,2,5,70,0,0
33791,-100,4,2,1,70,0,0
41847,-100,4,2,0,70,0,0
42190,-100,4,2,1,70,0,0
53505,-100,4,2,63,70,0,0
53848,-100,4,2,1,60,0,0
54877,-100,4,2,1,68,0,0
56248,-100,4,2,1,68,0,0
57105,-100,4,2,1,68,0,0
57620,-100,4,2,1,58,0,0
60362,-100,4,2,1,68,0,0
61734,-100,4,2,1,68,0,0
62591,-100,4,2,1,68,0,0
63105,-100,4,2,1,58,0,0
65847,-100,4,2,1,58,0,0
66534,-100,4,2,1,68,0,0
67220,-100,4,2,1,68,0,0
68077,-100,4,2,1,68,0,0
72705,-100,4,2,1,68,0,0
73562,-100,4,2,1,68,0,0
74077,-100,4,2,1,50,0,0
74762,-100,4,2,2,70,0,0
75448,-100,4,2,1,50,0,0
76134,-100,4,2,2,70,0,0
76820,-100,4,2,1,60,0,0
87791,-100,4,2,1,55,0,0
88477,-100,4,2,1,68,0,0
89162,-100,4,2,1,55,0,0
89848,-100,4,2,1,68,0,0
90534,-100,4,2,1,57,0,0
91220,-100,4,2,1,68,0,0
91905,-100,4,2,1,57,0,0
92591,-100,4,2,1,57,0,0
93277,-100,4,2,1,25,0,0
97391,-100,4,2,1,80,0,0
98762,-100,4,2,4,70,0,1
99619,-100,4,2,100,70,0,1
99791,-100,4,2,100,70,0,1
100991,-100,4,2,100,70,0,1
101162,-100,4,2,100,70,0,1
103734,-100,4,2,100,70,0,1
103905,-100,4,2,100,70,0,1
107677,-100,4,2,100,70,0,1
108020,-100,4,2,100,70,0,1
109733,-100,4,2,100,40,0,1
110077,-100,4,2,5,70,0,0
110420,-100,4,2,100,70,0,0
110762,-100,4,2,100,70,0,0
112133,-100,4,2,50,60,0,0
112477,-100,4,2,100,70,0,0
113162,-100,4,2,100,70,0,0
113504,-100,4,2,100,70,0,0
115905,-100,4,2,100,70,0,0
116247,-100,4,2,100,70,0,0
118648,-100,4,2,100,70,0,0
118991,-100,4,2,1,70,0,0
119334,-100,4,2,100,70,0,0

[Colours]
Combo1 : 231,205,61
Combo2 : 218,218,218
Combo3 : 106,106,106
Combo4 : 184,169,214
Combo5 : 153,94,202
Combo6 : 247,241,176

[HitObjects]
142,17,10991,5,4,3:2:0:0:
184,96,11334,1,0,3:0:0:0:
138,173,11677,2,0,B|57:206|84:142|10:167,2,135,8|8|0,2:0|2:0|3:0,0:0:0:0:
180,252,13047,1,8,2:0:0:0:
335,342,13734,5,0,3:0:0:0:
399,279,14077,1,0,3:0:0:0:
350,203,14420,2,0,P|297:162|290:97,1,135,8|2,2:0|3:2,0:0:0:0:
353,33,15277,2,0,L|419:33,1,45,0|0,3:0|3:0,0:0:0:0:
488,33,15791,2,0,B|515:97|515:97|488:156,1,135,8|0,2:0|1:0,0:0:0:0:
466,196,16477,69,4,3:2:0:0:
382,162,16820,1,0,3:0:0:0:
321,228,17162,2,0,B|248:228|278:174|198:174,2,135,8|8|0,2:0|2:0|3:0,0:0:0:0:
346,314,18533,1,8,2:0:0:0:
165,314,19220,6,0,P|116:320|79:337,1,90,0|0,3:0|3:0,0:0:0:0:
20,268,19905,1,10,2:0:0:0:
64,189,20248,1,14,2:0:0:0:
8,117,20591,2,0,P|-8:61|1:29,2,90,0|0|8,0:0|3:0|2:0,0:0:0:0:
64,189,21620,1,0,0:0:0:0:
153,189,21962,37,4,2:0:0:0:
280,61,22648,1,0,0:0:0:0:
407,188,23334,1,0,0:0:0:0:
280,316,24020,1,0,0:0:0:0:
153,189,24705,5,0,3:0:0:0:
234,28,25391,1,0,0:0:0:0:
411,56,26077,1,0,3:0:0:0:
440,233,26763,1,0,0:0:0:0:
280,316,27448,70,0,L|179:309,1,90,4|0,2:0|1:0,0:0:0:0:
126,245,28134,2,0,L|133:144,1,90,0|0,1:0|1:0,0:0:0:0:
197,91,28820,2,0,L|298:98,1,90,0|0,1:0|1:0,0:0:0:0:
351,162,29505,2,0,L|344:263,1,90,0|0,1:0|1:0,0:0:0:0:
405,319,30191,53,4,2:0:0:0:
473,260,30534,1,8,2:0:0:0:
480,171,30877,1,8,2:0:0:0:
419,103,31220,1,8,2:0:0:0:
351,162,31562,2,0,B|285:169|285:169|246:144|246:144|180:153,1,180,4|4,1:2|1:2,0:0:0:0:
45,273,32934,6,0,P|161:274|251:348,1,225,4|2,1:2|3:1,0:0:0:0:
267,376,33962,1,10,2:1:0:0:
340,323,34305,2,0,P|426:330|449:207,1,225,0|2,1:0|3:1,0:0:0:0:
425,180,35334,1,10,2:1:0:0:
460,97,35677,69,0,3:0:0:0:
385,45,36020,2,0,B|295:45|295:45|257:18|257:18|212:52,1,180,8|8,2:0|1:0,0:0:0:0:
164,113,37048,1,0,3:0:0:0:
230,173,37391,2,0,L|326:173,2,90,8|0|10,2:0|3:0|2:1,0:0:0:0:
230,263,38420,6,0,P|200:345|66:339,1,225,4|2,1:2|3:1,0:0:0:0:
47,314,39448,1,10,2:1:0:0:
86,233,39791,2,0,B|108:116|-2:154|39:20,1,225,0|2,1:0|3:1,0:0:0:0:
74,0,40820,1,10,2:1:0:0:
161,19,41162,69,0,3:0:0:0:
215,90,41505,2,0,L|199:189,2,90,10|2|8,2:1|1:2|2:0,0:0:0:0:
298,55,42534,1,0,3:0:0:0:
385,74,42876,1,8,2:0:0:0:
472,93,43220,2,0,P|501:153|493:185,1,90,8|8,2:3|2:0,0:0:0:0:
459,255,43905,6,0,B|348:227|348:227|302:334,1,225,4|2,1:2|3:1,0:0:0:0:
288,370,44934,1,10,2:1:0:0:
197,370,45277,2,0,L|170:145,1,225,0|2,1:0|3:1,0:0:0:0:
162,102,46305,1,10,2:1:0:0:
89,48,46648,69,0,3:0:0:0:
7,85,46991,2,0,P|-23:166|32:244,1,180,10|8,2:1|1:0,0:0:0:0:
94,296,48020,1,0,3:0:0:0:
152,228,48362,2,0,P|176:190|170:147,2,90,8|0|10,2:0|3:0|2:1,0:0:0:0:
182,312,49391,6,0,B|261:353|261:353|303:297|303:297|361:327,1,225,4|2,1:2|3:1,0:0:0:0:
400,350,50420,1,10,2:1:0:0:
472,297,50762,2,0,P|492:247|370:169,1,225,0|2,1:0|3:1,0:0:0:0:
337,191,51791,1,10,2:1:0:0:
246,191,52134,1,0,3:0:0:0:
181,22,52820,2,0,L|86:22,1,90,2|8,1:2|2:0,0:0:0:0:
0,22,53505,37,0,0:0:0:0:
21,109,53848,1,2,2:0:0:0:
0,197,54191,1,8,0:0:0:0:
21,284,54534,1,2,2:0:0:0:
111,284,54877,22,0,B|215:287|158:211|268:214,1,180,4|2,3:2|3:1,0:0:0:0:
431,143,56248,2,0,P|443:84|314:25,1,225,0|0,3:0|3:0,0:0:0:0:
280,48,57277,1,8,2:0:0:0:
233,125,57620,5,0,3:0:0:0:
278,202,57962,1,8,2:0:0:0:
323,279,58305,2,0,L|413:279,1,90,2|10,1:0|2:1,0:0:0:0:
413,369,58991,2,0,P|323:369|228:379,1,180,0|0,3:0|1:0,0:0:0:0:
162,322,60020,1,8,2:0:0:0:
78,353,60362,70,0,B|27:277|27:277|76:194,1,180,4|2,3:2|3:1,0:0:0:0:
193,67,61734,2,0,L|196:300,1,225,0|0,3:0|3:0,0:0:0:0:
196,336,62762,1,8,2:0:0:0:
278,371,63105,5,0,3:0:0:0:
328,296,63448,1,8,2:0:0:0:
409,331,63791,2,0,P|451:315|475:278,1,90,2|10,1:0|2:1,0:0:0:0:
475,187,64477,1,0,3:0:0:0:
475,96,64820,1,8,2:0:0:0:
475,6,65162,2,0,L|295:6,1,180,2|0,2:0|0:0,0:0:0:0:
230,68,66191,69,4,3:2:0:0:
164,130,66534,2,0,P|169:173|201:204,1,90,2|8,3:1|2:0,0:0:0:0:
294,187,67220,2,0,B|178:195|261:320|156:339,1,225,0|0,3:0|3:0,0:0:0:0:
113,349,68248,1,8,2:0:0:0:
52,282,68591,5,0,3:0:0:0:
91,201,68934,1,8,2:0:0:0:
45,120,69277,2,0,B|30:76|30:76|51:36,1,90,2|10,1:0|2:1,0:0:0:0:
140,37,69962,2,0,B|155:81|155:81|134:121,1,90,0|8,3:0|2:0,0:0:0:0:
91,201,70648,1,0,1:0:0:0:
52,282,70991,1,8,2:0:0:0:
113,349,71334,70,0,L|294:349,1,180,4|2,3:2|3:1,0:0:0:0:
407,210,72705,2,0,B|250:210|250:210|218:150,1,225,0|0,3:0|3:0,0:0:0:0:
198,109,73734,1,8,2:0:0:0:
234,26,74077,54,0,P|351:80|355:125,1,180,0|8,3:0|2:0,0:0:0:0:
356,296,75448,2,0,P|338:343|261:365,1,135,0|0,3:0|3:0,0:0:0:0:
222,343,76134,1,8,2:0:0:0:
41,343,76820,1,4,2:0:0:0:
173,22,87791,5,4,1:2:0:0:
317,14,88477,1,0,0:0:0:0:
425,109,89162,1,0,1:0:0:0:
433,253,89848,1,0,0:0:0:0:
338,361,90534,1,0,1:0:0:0:
194,369,91220,1,0,0:0:0:0:
86,274,91905,1,0,1:0:0:0:
78,130,92591,1,0,0:0:0:0:
256,192,93277,12,4,97391,1:2:0:0:
256,192,98762,6,0,B|288:77|399:125|351:225,1,225,14|0,3:2|0:0,0:0:0:0:
376,263,99791,1,8,2:0:0:0:
337,344,100134,2,0,B|206:371|242:276|127:301,1,225,0|0,3:0|0:0,0:0:0:0:
84,318,101162,1,8,2:0:0:0:
18,256,101505,6,0,P|-8:175|106:140,1,225,0|0,3:0|3:0,0:0:0:0:
134,167,102534,1,8,2:0:0:0:
197,230,102877,2,0,B|197:343|197:343|310:343,1,225,0|0,3:0|0:0,0:0:0:0:
353,343,103905,1,8,2:0:0:0:
427,292,104248,70,0,P|453:208|371:57,1,270,4|8,3:2|2:0,0:0:0:0:
328,40,105448,1,2,2:0:0:0:
284,28,105620,2,0,P|166:48|104:181,1,270,0|8,3:0|2:0,0:0:0:0:
113,217,106819,1,2,3:0:0:0:
124,260,106991,5,4,3:2:0:0:
214,260,107334,1,8,2:0:0:0:
304,260,107677,1,0,0:0:0:0:
394,260,108020,1,8,2:0:0:0:
394,170,108362,2,0,B|355:146|355:146|318:171|318:171|279:147|279:147|242:171|242:171|203:147|203:147|167:172|167:172|128:148|128:148|92:172,1,360,4|0,3:2|1:0,0:0:0:0:
24,111,110076,69,4,1:2:0:0:
24,20,110420,2,0,P|61:-4|120:-4,1,90,0|8,0:0|2:0,0:0:0:0:
183,38,111105,2,0,L|167:172,2,135,0|2|0,1:0|2:1|3:0,0:0:0:0:
267,5,112477,5,0,1:0:0:0:
343,52,112820,1,12,1:2:0:0:
313,136,113162,2,0,P|303:187|315:234,1,90,0|8,0:0|2:0,0:0:0:0:
385,271,113848,2,0,B|473:250|473:250|492:202,2,135,0|2|0,1:0|2:1|3:0,0:0:0:0:
337,348,115220,69,4,1:2:0:0:
261,299,115562,1,8,1:2:0:0:
185,348,115905,2,0,P|135:318|97:318,1,90,0|8,0:0|2:0,0:0:0:0:
31,263,116591,2,0,B|13:196|13:196|62:146,2,135,0|2|0,1:0|2:1|3:0,0:0:0:0:
104,316,117962,5,4,1:2:0:0:
194,316,118305,1,8,1:2:0:0:
284,316,118648,1,0,0:0:0:0:
284,225,118991,1,10,2:1:0:0:
284,134,119334,2,0,L|194:134,1,90,0|8,1:0|2:0,0:0:0:0:
104,134,120020,1,8,3:2:0:0:
104,225,120363,1,8,3:2:0:0:
104,316,120705,1,4,2:0:0:0:
