osu file format v14

[General]
AudioFilename: D.mp3
AudioLeadIn: 0
PreviewTime: 71517
Countdown: 0
SampleSet: Soft
StackLeniency: 0.7
Mode: 0
LetterboxInBreaks: 0
WidescreenStoryboard: 1

[Editor]
DistanceSpacing: 0.5
BeatDivisor: 12
GridSize: 4
TimelineZoom: 4.057758

[Metadata]
Title:D
TitleUnicode:D
Artist:Eagle
ArtistUnicode:Eagle
Creator:P o M u T a
Version:Oxy's ANOTHER
Source:beatmania IIDX 17 SIRIUS
Tags:Ways For Liberation ICARUS kors k bemani NEXT SKOOL BREAKBEATS HARDCORE pomuta bluoxy sionkotori faust
BeatmapID:895258
BeatmapSetID:403667

[Difficulty]
HPDrainRate:6
CircleSize:4
OverallDifficulty:7
ApproachRate:9.2
SliderMultiplier:1.7
SliderTickRate:2

[Events]
//Background and Video events
0,0,"49955889_p0.jpg",0,0
//Break Periods
//Storyboard Layer 0 (Background)
//Storyboard Layer 1 (Fail)
//Storyboard Layer 2 (Pass)
//Storyboard Layer 3 (Foreground)
//Storyboard Sound Samples

[TimingPoints]
352,500,4,2,1,40,1,0
352,-100,4,2,1,40,0,0
13852,-66.6666666666667,4,2,1,60,0,0
16352,-100,4,2,3,50,0,0
19852,-100,4,2,3,70,0,0
20352,-66.6666666666667,4,2,3,70,0,0
20727,-100,4,2,3,70,0,0
22602,-111.111111111111,4,2,3,70,0,0
22852,-125,4,2,3,70,0,0
23102,-142.857142857143,4,2,3,70,0,0
23352,-100,4,2,3,70,0,0
27852,-66.6666666666667,4,2,3,70,0,0
28352,-100,4,2,3,70,0,0
28602,-100,4,2,2,70,0,0
28727,-100,4,2,3,70,0,0
30352,-66.6666666666667,4,2,3,70,0,0
30727,-50,4,2,3,70,0,0
31102,-100,4,2,3,70,0,0
32602,-100,4,2,2,70,0,0
32852,-100,4,2,3,70,0,0
34102,-100,4,2,2,70,0,0
34384,461.538461538462,4,2,3,70,1,0
34384,-100,4,2,3,70,0,0
35307,-100,4,2,2,70,0,0
35537,-100,4,2,3,70,0,0
35768,-66.6666666666667,4,2,3,70,0,0
35999,-100,4,2,3,70,0,0
36230,428.571428571429,4,2,3,70,1,0
37944,400,4,2,3,70,1,0
37944,-66.6666666666667,4,2,3,70,0,0
38144,-100,4,2,3,70,0,0
38844,-66.6666666666667,4,2,3,70,0,0
39144,-100,4,2,3,70,0,0
39544,375,4,2,3,70,1,0
39544,-100,4,2,3,70,0,0
39731,-100,4,2,2,70,0,0
39919,-100,4,2,3,70,0,0
40294,352.941176470588,4,2,3,70,1,0
40999,333.333333333333,4,2,3,70,1,0
41665,315.789473684211,4,2,3,70,1,0
41980,-66.6666666666667,4,2,3,70,0,0
42296,300,4,2,3,70,1,0
42596,285.714285714286,4,2,3,70,1,0
42881,272.727272727273,4,2,3,70,1,0
43153,250,4,2,3,70,1,0
43403,1200,4,2,3,70,1,0
43403,-200,4,2,3,70,0,0
47903,-100,4,2,3,70,0,0
48128,-200,4,2,3,5,0,0
48203,342.857142857143,4,2,1,70,1,0
48203,-100,4,2,1,70,0,0
48288,-100,4,2,1,20,0,0
48717,-100,4,2,1,50,0,0
49574,-100,4,2,1,65,0,0
60545,-100,4,2,2,65,0,0
65688,-66.6666666666667,4,2,2,65,0,0
66031,-100,4,2,2,65,0,0
70145,-100,4,2,1,65,0,0
71517,-90.9090909090909,4,2,1,70,0,1
71860,-90.9090909090909,4,2,2,70,0,1
71945,-90.9090909090909,4,2,1,70,0,1
73917,-90.9090909090909,4,2,2,70,0,1
74260,-90.9090909090909,4,2,1,70,0,1
74603,-90.9090909090909,4,2,2,70,0,1
74688,-90.9090909090909,4,2,1,70,0,1
76660,-90.9090909090909,4,2,2,70,0,1
76745,-90.9090909090909,4,2,1,70,0,1
77345,-90.9090909090909,4,2,2,70,0,1
77431,-90.9090909090909,4,2,1,70,0,1
79403,-90.9090909090909,4,2,2,70,0,1
79745,-90.9090909090909,4,2,1,70,0,1
80088,-90.9090909090909,4,2,2,70,0,1
80174,-90.9090909090909,4,2,1,70,0,1
81117,-100,4,2,1,70,0,0
81781,342.857142857143,4,2,1,70,1,0
82488,342.857142857143,4,2,2,60,1,0
82488,-100,4,2,2,60,0,0
83860,-100,4,2,2,55,0,0
85231,-100,4,2,2,50,0,0
86603,-100,4,2,2,45,0,0
87974,352.941176470588,4,2,2,40,1,0
88503,375,4,2,2,40,1,0
89440,400,4,2,2,35,1,0
90240,428.571428571429,4,2,2,35,1,0
90240,-200,4,2,2,35,0,0
91097,461.538461538462,4,2,2,30,1,0
92481,-100,4,2,2,25,0,0
92943,2000,4,2,1,20,1,0
92943,-200,4,2,1,20,0,0
97693,-100,4,2,1,10,0,0
97943,500,4,2,1,50,1,0
97943,-66.6666666666667,4,2,1,50,0,0
99943,-100,4,2,1,60,0,0
100068,-100,4,2,2,60,0,0
107943,-100,4,2,1,60,0,0
108068,-100,4,2,2,60,0,0
111443,-66.6666666666667,4,2,2,60,0,0
111943,-100,4,2,2,60,0,0
113943,-66.6666666666667,4,2,2,60,0,0
114318,-50,4,2,2,60,0,0
114693,-100,4,2,2,60,0,0
115443,-66.6666666666667,4,2,2,60,0,0
115943,-100,4,2,1,60,0,0

[Colours]
Combo1 : 216,216,216
Combo2 : 191,255,255
Combo3 : 83,83,255
Combo4 : 255,47,255

[HitObjects]
370,136,352,5,6,0:0:0:0:
198,285,602,1,2,0:0:0:0:
228,256,727,1,0,0:0:0:0:
264,234,852,1,2,0:0:0:0:
304,222,977,1,0,0:0:0:0:
346,224,1102,1,2,0:0:0:0:
384,242,1227,1,0,0:0:0:0:
410,275,1352,6,0,L|422:218,1,42.5,2|0,0:0|0:0,0:0:0:0:
281,171,1602,1,2,0:0:0:0:
281,171,1727,2,0,L|272:212,1,42.5,0|2,0:0|0:0,0:0:0:0:
300,308,1977,1,0,0:0:0:0:
300,308,2102,1,2,0:0:0:0:
300,308,2227,1,0,0:0:0:0:
300,308,2352,5,2,0:0:0:0:
170,134,2602,1,2,0:0:0:0:
199,164,2727,1,0,0:0:0:0:
221,200,2852,1,2,0:0:0:0:
233,240,2977,1,0,0:0:0:0:
231,282,3102,1,2,0:0:0:0:
213,320,3227,1,0,0:0:0:0:
180,346,3352,6,0,L|237:358,1,42.5,2|0,0:0|0:0,0:0:0:0:
324,217,3602,1,2,0:0:0:0:
324,217,3727,1,0,0:0:0:0:
324,217,3852,2,0,L|234:201,1,85,2|0,0:0|0:0,0:0:0:0:
144,251,4227,1,0,0:0:0:0:
144,251,4352,5,2,0:0:0:0:
321,106,4602,1,2,0:0:0:0:
291,135,4727,1,0,0:0:0:0:
255,157,4852,1,2,0:0:0:0:
215,169,4977,1,0,0:0:0:0:
173,167,5102,1,2,0:0:0:0:
135,149,5227,1,0,0:0:0:0:
109,116,5352,6,0,L|97:173,1,42.5,2|0,0:0|0:0,0:0:0:0:
238,220,5602,2,0,L|246:178,1,42.5,2|0,0:0|0:0,0:0:0:0:
220,0,5852,1,2,0:0:0:0:
219,2,5977,2,0,L|200:85,1,85,0|0,0:0|0:0,0:0:0:0:
54,211,6352,6,0,P|117:207|183:239,1,127.5,2|0,0:0|0:0,0:0:0:0:
234,292,6852,2,0,L|383:311,1,127.5,2|0,0:0|0:0,0:0:0:0:
423,360,7352,2,0,B|390:267|439:275|415:193,1,170,2|2,0:0|0:0,0:0:0:0:
411,172,7977,2,0,L|416:126,2,42.5,0|2|0,0:0|0:0|0:0,0:0:0:0:
467,70,8352,6,0,P|421:71|384:60,1,85,2|2,0:0|0:0,0:0:0:0:
310,18,8852,2,0,B|324:55|324:55|315:103,1,85,2|2,0:0|0:0,0:0:0:0:
202,124,9227,6,0,P|223:125|243:131,1,42.5,0|2,0:0|0:0,0:0:0:0:
379,143,9477,2,0,P|367:160|351:175,1,42.5,0|2,0:0|0:0,0:0:0:0:
265,289,9727,1,0,0:0:0:0:
265,289,9852,2,0,P|246:250|236:209,1,85,2|2,0:0|0:0,0:0:0:0:
338,304,10352,5,2,0:0:0:0:
295,299,10477,1,0,0:0:0:0:
256,316,10602,1,2,0:0:0:0:
226,346,10727,1,0,0:0:0:0:
211,384,10852,2,0,L|204:336,1,42.5,2|0,0:0|0:0,0:0:0:0:
405,223,11102,2,0,L|411:265,1,42.5,2|0,0:0|0:0,0:0:0:0:
126,159,11352,5,2,0:0:0:0:
169,164,11477,1,0,0:0:0:0:
208,149,11602,1,2,0:0:0:0:
237,118,11727,1,0,0:0:0:0:
256,80,11852,2,0,L|273:206,1,127.5,2|0,0:0|0:0,0:0:0:0:
411,265,12352,5,2,0:0:0:0:
411,265,12477,1,0,0:0:0:0:
411,265,12602,1,2,0:0:0:0:
411,265,12727,1,0,0:0:0:0:
411,265,12852,2,0,L|405:223,1,42.5,2|0,0:0|0:0,0:0:0:0:
280,296,13102,2,0,L|322:290,1,42.5,2|0,0:0|0:0,0:0:0:0:
416,134,13352,5,2,0:0:0:0:
416,134,13477,1,0,0:0:0:0:
416,134,13602,1,2,0:0:0:0:
416,134,13727,1,0,0:0:0:0:
416,134,13852,6,0,L|344:143,1,63.7500024318696,8|8,0:1|0:1,0:0:0:0:
256,80,14102,2,0,L|262:38,2,42.5000016212464,8|8|8,0:1|0:1|0:1,0:0:0:0:
159,205,14352,6,0,L|161:181,10,15.9375006079674,4|0|0|0|0|0|0|0|0|0|0,0:1|0:0|0:0|0:0|0:0|0:0|0:0|0:0|0:0|0:0|0:0,0:0:0:0:
182,231,14727,6,0,P|122:209|56:219,1,127.500004863739,4|0,0:0|0:0,0:0:0:0:
237,291,15102,5,4,0:0:0:0:
260,217,15227,1,8,0:1:0:0:
156,307,15352,1,8,0:2:0:0:
260,217,15477,6,0,P|320:239|386:229,1,127.500004863739,4|0,0:0|3:0,0:0:0:0:
463,181,15852,6,0,L|471:217,3,31.8750012159348,8|0|0|0,0:1|0:0|0:0|0:0,0:0:0:0:
310,315,16102,2,0,L|302:279,3,31.8750012159348,0|0|0|0,0:0|0:0|0:0|0:0,0:0:0:0:
370,146,16352,5,6,0:0:0:0:
396,341,16602,1,2,0:0:0:0:
207,257,16852,2,0,P|250:254|292:247,1,85,2|0,1:0|0:0,0:0:0:0:
501,324,17352,5,0,0:0:0:0:
501,324,17477,2,0,P|458:327|416:334,1,85,0|0,0:0|0:0,0:0:0:0:
396,340,17852,2,0,L|408:287,1,42.5,8|0,0:1|0:0,0:0:0:0:
321,199,18102,2,0,L|311:240,1,42.5,4|0,0:0|0:0,0:0:0:0:
467,147,18352,5,10,0:0:0:0:
170,103,18602,1,0,0:0:0:0:
170,103,18727,1,0,0:0:0:0:
170,103,18852,2,0,B|233:112|225:78|294:87,1,127.5,10|0,0:0|0:0,0:0:0:0:
314,94,19352,6,0,B|316:74|316:74|327:55,1,42.5,2|2,0:0|0:0,0:0:0:0:
481,108,19602,2,0,B|478:127|478:127|468:147,1,42.5,10|2,0:0|0:0,0:0:0:0:
374,190,19852,1,2,0:0:0:0:
414,25,20102,1,0,0:0:0:0:
414,25,20227,1,0,0:0:0:0:
414,25,20352,6,0,B|420:76|389:106|389:106|402:106|402:106|372:136|374:193,1,191.250007295609,8|0,0:0|0:0,0:0:0:0:
394,272,20852,2,0,P|353:260|303:252,1,85,0|2,1:0|0:0,0:0:0:0:
118,207,21227,6,0,P|152:200|163:196,1,42.5,0|0,1:0|0:0,0:0:0:0:
351,163,21477,2,0,P|328:157|307:153,1,42.5,0|8,0:0|0:0,0:0:0:0:
51,118,21727,1,0,0:0:0:0:
51,118,21852,2,0,P|92:110|133:98,1,85,8|0,0:1|0:0,0:0:0:0:
326,36,22352,6,0,L|318:84,1,42.5,8|0,0:0|0:0,0:0:0:0:
174,84,22602,6,0,L|180:130,1,38.2499988327027,0|0,0:0|0:0,0:0:0:0:
303,182,22852,6,0,L|295:226,1,34,0|0,0:0|0:0,0:0:0:0:
205,231,23102,6,0,L|209:272,1,29.7499990921021,8|0,0:0|0:0,0:0:0:0:
256,340,23352,5,0,1:0:0:0:
256,340,23477,2,0,P|212:324|172:324,1,85,0|0,1:0|0:0,0:0:0:0:
88,351,23852,2,0,L|74:291,1,42.5,8|8,0:0|0:0,0:0:0:0:
26,248,24102,1,8,0:0:0:0:
26,248,24227,1,8,0:0:0:0:
26,248,24352,6,0,P|67:249|116:232,1,85,4|0,0:0|0:0,0:0:0:0:
221,195,24852,2,0,L|208:288,1,85,0|0,1:0|0:0,0:0:0:0:
206,300,25227,1,0,0:0:0:0:
336,379,25477,1,0,0:0:0:0:
336,379,25602,1,8,0:0:0:0:
336,379,25727,1,0,0:0:0:0:
336,379,25852,2,0,L|349:286,1,85,8|0,0:1|0:0,0:0:0:0:
485,150,26352,5,8,0:0:0:0:
485,150,26477,1,8,0:0:0:0:
485,150,26602,1,8,0:0:0:0:
485,150,26727,2,0,P|444:151|395:134,1,85,8|0,0:0|0:0,0:0:0:0:
276,0,27102,2,0,P|297:35|307:85,1,85,0|0,1:0|0:0,0:0:0:0:
247,256,27477,2,0,P|266:219|307:187,1,85,0|0,1:0|0:0,0:0:0:0:
320,179,27852,6,0,B|228:197|229:137|132:155,1,191.250007295609,2|0,0:0|0:0,0:0:0:0:
52,178,28352,6,0,L|65:88,1,85,4|4,0:0|0:0,0:0:0:0:
67,72,28727,1,0,1:0:0:0:
216,137,28977,1,0,0:0:0:0:
216,137,29102,1,8,0:0:0:0:
216,137,29227,1,0,0:0:0:0:
216,137,29352,2,0,L|208:193,1,42.5,0|0,0:0|0:0,0:0:0:0:
114,328,29602,1,8,0:0:0:0:
114,328,29727,1,0,0:0:0:0:
114,328,29852,2,0,L|126:242,1,85,8|0,0:1|0:0,0:0:0:0:
332,338,30352,6,0,P|263:334|209:357,1,127.500004863739,4|8,0:0|0:0,0:0:0:0:
352,328,30727,6,0,P|260:321|184:357,1,170,8|0,0:0|0:0,0:0:0:0:
373,316,31102,6,0,L|367:363,1,42.5,8|8,0:0|0:0,0:0:0:0:
456,282,31352,6,0,L|459:254,6,21.25,8|0|12|0|0|0|0,0:0|0:0|0:0|0:0|0:0|0:0|1:0,0:0:0:0:
383,215,31852,2,0,L|373:185,6,21.25,0|0|0|0|0|0|0,0:0|0:0|0:0|0:0|0:0|0:0|0:0,0:0:0:0:
478,108,32352,6,0,P|439:122|397:120,1,85,4|4,0:0|0:0,0:0:0:0:
180,168,32852,2,0,P|219:154|261:156,1,85,0|0,1:0|0:0,0:0:0:0:
281,164,33227,1,0,1:0:0:0:
298,176,33352,2,0,L|308:117,1,42.5,0|0,0:0|0:0,0:0:0:0:
122,64,33602,2,0,L|114:105,1,42.5,8|0,0:0|0:0,0:0:0:0:
197,18,33852,1,8,0:1:0:0:
33,271,34102,1,8,0:0:0:0:
33,271,34227,1,0,0:0:0:0:
33,271,34384,6,0,P|39:229|27:182,1,85,8|0,0:0|0:0,0:0:0:0:
22,167,34730,1,0,0:0:0:0:
12,148,34845,1,8,2:0:0:0:
219,101,35076,2,0,P|213:143|225:190,1,85,8|8,2:0|2:0,0:0:0:0:
230,205,35422,1,0,0:0:0:0:
240,225,35537,2,0,L|193:218,1,42.5,8|0,2:0|0:0,0:0:0:0:
33,271,35768,6,0,P|102:268|161:299,1,127.500004863739,0|0,0:0|0:0,0:0:0:0:
167,308,36114,1,0,0:0:0:0:
180,326,36230,5,4,0:0:0:0:
122,192,36444,1,0,0:0:0:0:
309,254,36658,1,0,1:0:0:0:
251,109,36872,5,0,0:0:0:0:
251,109,36980,2,0,P|290:126|339:128,1,85,0|0,1:0|0:0,0:0:0:0:
352,125,37301,1,8,0:0:0:0:
371,116,37408,1,0,0:0:0:0:
386,101,37515,2,0,L|377:154,1,42.5,0|8,0:0|0:0,0:0:0:0:
463,188,37730,2,0,L|470:146,1,42.5,0|0,0:0|0:0,0:0:0:0:
510,247,37944,6,0,P|452:221|389:225,1,127.500004863739,12|0,0:0|1:0,0:0:0:0:
307,272,38244,2,0,L|316:317,1,42.5,0|0,0:0|0:0,0:0:0:0:
441,82,38544,1,8,0:0:0:0:
159,133,38744,1,0,0:0:0:0:
159,133,38844,2,0,P|216:158|279:154,1,127.500004863739,8|0,0:0|0:0,0:0:0:0:
358,119,39144,2,0,L|352:162,1,42.5,0|0,1:0|0:0,0:0:0:0:
242,326,39344,1,0,1:0:0:0:
242,326,39444,1,0,0:0:0:0:
242,326,39544,6,0,B|222:287|222:287|227:244,1,85,4|4,0:0|0:0,0:0:0:0:
322,353,39919,1,0,1:0:0:0:
497,43,40106,5,0,0:0:0:0:
497,43,40200,1,0,1:0:0:0:
497,43,40294,2,0,L|450:53,1,42.5,2|0,0:3|0:0,0:0:0:0:
343,36,40470,1,8,0:0:0:0:
343,36,40558,1,0,0:0:0:0:
343,36,40646,2,0,B|363:75|363:75|358:118,1,85,8|0,0:1|0:0,0:0:0:0:
330,263,40999,6,0,P|368:249|427:255,1,85,4|0,0:0|1:0,0:0:0:0:
260,322,41332,1,0,1:0:0:0:
260,322,41416,1,0,1:0:0:0:
260,322,41499,2,0,L|249:266,1,42.5,0|0,1:0|0:0,0:0:0:0:
285,168,41665,5,0,1:0:0:0:
285,168,41743,1,0,1:0:0:0:
285,168,41822,1,0,0:0:0:0:
285,168,41901,1,0,1:0:0:0:
285,168,41980,2,0,P|186:192|98:166,1,191.250007295609,0|0,1:0|0:0,0:0:0:0:
84,153,42296,6,0,L|102:240,1,85,4|0,0:0|1:0,0:0:0:0:
125,322,42596,2,0,L|134:365,2,42.5,0|0|0,1:0|0:0|1:0,0:0:0:0:
313,179,42881,1,0,0:0:0:0:
313,179,42949,1,0,1:0:0:0:
313,179,43017,2,0,L|301:131,1,42.5,0|0,1:0|0:0,0:0:0:0:
275,55,43153,2,0,L|264:13,2,42.5,0|0|0,1:0|0:0|0:0,0:0:0:0:
260,284,43403,6,0,B|268:218|351:187|414:228|414:228|410:200|425:166,1,255,12|0,0:3|0:0,0:0:0:0:
496,77,47903,6,0,L|500:108,1,31.875,0|0,0:0|0:0,0:0:0:0:
501,109,48203,6,0,B|392:132|410:43|294:71,1,212.5,8|0,0:3|0:0,0:0:0:0:
217,103,48717,5,8,3:0:0:0:
217,103,48803,1,8,3:0:0:0:
217,103,48888,2,0,L|208:56,1,42.5,8|8,3:0|3:0,0:0:0:0:
129,97,49060,1,8,0:3:0:0:
129,97,49146,1,8,0:3:0:0:
129,97,49231,1,8,0:3:0:0:
129,97,49317,1,8,0:3:0:0:
129,97,49403,1,8,3:0:0:0:
285,155,49574,5,6,0:1:0:0:
201,274,49745,1,2,0:1:0:0:
206,188,49917,1,2,0:1:0:0:
267,324,50088,1,2,0:1:0:0:
130,223,50260,1,0,0:0:0:0:
130,223,50345,1,2,0:0:0:0:
130,223,50431,1,2,0:1:0:0:
279,240,50603,1,2,0:1:0:0:
279,240,50688,1,2,0:0:0:0:
52,258,50860,1,2,0:0:0:0:
52,258,50945,6,0,P|44:213|59:177,1,85,2|2,0:1|0:1,0:0:0:0:
200,270,51203,2,0,P|165:299|126:304,1,85,2|2,0:0|0:0,0:0:0:0:
140,134,51460,2,0,P|162:143|191:171,1,42.5,2|0,0:1|0:0,0:0:0:0:
190,170,51631,5,2,0:1:0:0:
190,170,51717,1,2,0:0:0:0:
279,47,51888,1,2,0:0:0:0:
279,227,52060,1,2,0:0:0:0:
279,227,52145,1,2,0:1:0:0:
370,109,52317,6,0,B|383:152|383:152|368:200,1,85,2|2,0:1|0:1,0:0:0:0:
188,332,52660,2,0,B|175:289|175:289|190:241,1,85,2|2,0:1|0:0,0:0:0:0:
305,297,53003,1,2,0:0:0:0:
305,297,53088,2,0,P|282:292|260:290,1,42.5,2|0,0:1|0:0,0:0:0:0:
18,208,53260,1,2,0:0:0:0:
18,208,53345,2,0,P|57:204|106:193,1,85,2|2,0:1|0:1,0:0:0:0:
231,140,53688,5,2,0:1:0:0:
79,296,53860,1,0,0:0:0:0:
79,296,53945,1,2,0:0:0:0:
79,296,54031,1,0,0:0:0:0:
238,124,54203,1,2,0:1:0:0:
200,355,54374,1,0,0:0:0:0:
200,355,54459,1,2,0:0:0:0:
200,355,54545,1,0,0:0:0:0:
512,283,54717,2,0,P|470:273|428:269,1,85,2|2,0:1|0:1,0:0:0:0:
292,320,55060,5,2,0:1:0:0:
319,172,55231,1,2,0:1:0:0:
211,306,55402,1,2,0:1:0:0:
347,253,55573,1,2,0:1:0:0:
263,240,55745,1,2,0:1:0:0:
263,240,55831,1,2,0:0:0:0:
263,240,55917,1,0,0:0:0:0:
374,332,56088,1,2,0:1:0:0:
374,332,56174,1,2,0:0:0:0:
140,371,56345,1,2,0:0:0:0:
140,371,56431,6,0,P|130:325|116:284,1,85,2|0,0:1|0:0,0:0:0:0:
23,181,56688,2,0,P|63:197|108:205,1,85,2|0,0:0|0:0,0:0:0:0:
226,190,56945,2,0,P|206:203|194:218,1,42.5,2|0,0:1|0:0,0:0:0:0:
184,238,57117,5,0,0:0:0:0:
184,238,57203,1,0,0:0:0:0:
321,166,57374,1,2,0:0:0:0:
164,136,57545,1,2,0:0:0:0:
164,136,57631,1,2,0:1:0:0:
313,61,57803,5,2,0:1:0:0:
269,259,57974,1,2,0:1:0:0:
505,206,58145,2,0,P|466:188|424:184,1,85,2|2,0:1|0:1,0:0:0:0:
326,207,58488,1,0,0:0:0:0:
326,207,58574,2,0,P|325:181|326:159,1,42.5,2|0,0:0|0:0,0:0:0:0:
230,48,58745,1,2,0:0:0:0:
230,48,58831,2,0,P|216:85|216:132,1,85,2|2,0:1|0:1,0:0:0:0:
251,255,59174,5,2,0:1:0:0:
314,21,59345,1,0,0:0:0:0:
314,21,59431,1,2,0:0:0:0:
314,21,59517,1,0,0:0:0:0:
76,150,59688,5,8,3:0:0:0:
76,150,59774,1,8,3:0:0:0:
76,150,59860,1,8,3:0:0:0:
76,150,59945,1,8,3:0:0:0:
76,150,60031,2,0,L|123:160,1,42.5,8|8,0:3|0:3,0:0:0:0:
251,255,60203,5,8,0:3:0:0:
205,248,60288,1,8,0:3:0:0:
159,259,60374,1,0,3:0:0:0:
121,287,60460,1,0,3:0:0:0:
99,328,60545,6,0,L|84:239,1,85,6|2,0:1|0:1,0:0:0:0:
413,56,60888,2,0,L|428:145,1,85,10|2,0:1|0:1,0:0:0:0:
314,125,61231,1,2,0:1:0:0:
314,125,61317,1,2,0:0:0:0:
318,129,61403,2,0,L|327:190,1,42.5,0|0,0:0|0:0,0:0:0:0:
411,249,61574,1,2,0:1:0:0:
411,249,61660,1,2,0:0:0:0:
411,249,61745,2,0,P|383:248|362:255,1,42.5,10|2,0:1|0:0,0:0:0:0:
246,290,61917,6,0,P|240:246|231:197,1,85,2|0,0:1|0:0,0:0:0:0:
184,82,62174,1,2,0:0:0:0:
184,82,62260,2,0,P|180:103|175:125,1,42.5,0|0,0:0|0:0,0:0:0:0:
119,237,62431,2,0,P|117:214|114:192,1,42.5,2|0,0:1|0:0,0:0:0:0:
58,71,62603,5,0,0:0:0:0:
58,71,62688,1,2,0:0:0:0:
58,71,62774,2,0,P|82:69|107:65,1,42.5,0|0,0:0|0:0,0:0:0:0:
278,9,62945,1,2,0:1:0:0:
274,30,63031,1,8,0:1:0:0:
270,51,63117,1,2,0:1:0:0:
267,72,63203,1,8,0:1:0:0:
262,90,63288,6,0,P|304:74|346:73,1,85,2|2,0:1|0:1,0:0:0:0:
488,255,63631,2,0,P|446:271|404:272,1,85,10|2,0:1|0:1,0:0:0:0:
437,63,63974,1,2,0:1:0:0:
437,63,64060,1,2,0:0:0:0:
437,63,64145,2,0,L|423:117,1,42.5,0|0,0:0|0:0,0:0:0:0:
317,249,64317,1,2,0:1:0:0:
317,249,64403,1,0,0:0:0:0:
317,249,64488,2,0,L|326:301,1,42.5,10|0,0:1|0:0,0:0:0:0:
216,150,64660,5,2,0:1:0:0:
463,179,64831,1,0,0:0:0:0:
463,179,64917,1,2,0:0:0:0:
463,179,65003,1,0,0:0:0:0:
258,346,65174,6,0,L|250:314,10,21.25,2|0|0|0|0|0|2|0|0|0|0,0:1|0:0|0:0|0:0|0:0|0:0|0:0|0:0|0:0|0:0|0:0,0:0:0:0:
156,273,65688,6,0,L|165:235,6,31.8750012159348,2|0|0|0|10|0|0,0:1|0:0|0:0|0:0|0:1|0:0|0:0,0:0:0:0:
209,168,66031,5,2,0:1:0:0:
177,359,66203,1,2,0:1:0:0:
3,104,66374,2,0,P|52:72|121:75,1,127.5,10|2,0:1|0:0,0:0:0:0:
136,86,66717,5,2,0:1:0:0:
136,86,66803,1,2,0:0:0:0:
136,86,66888,2,0,L|149:35,1,42.5,0|0,0:0|0:0,0:0:0:0:
290,148,67060,1,2,0:1:0:0:
290,148,67146,1,2,0:0:0:0:
290,148,67231,2,0,L|277:199,1,42.5,0|2,0:0|0:0,0:0:0:0:
476,75,67403,6,0,P|428:76|387:62,1,85,2|0,0:1|0:0,0:0:0:0:
310,32,67660,1,2,0:0:0:0:
310,32,67745,2,0,L|317:80,1,42.5,8|0,0:1|0:0,0:0:0:0:
201,208,67917,2,0,P|249:207|290:221,1,85,2|0,0:1|0:0,0:0:0:0:
367,251,68174,1,2,0:0:0:0:
367,251,68260,1,8,0:1:0:0:
367,251,68345,6,0,L|351:167,1,85,0|8,0:0|0:1,0:0:0:0:
339,149,68603,2,0,P|361:153|388:154,1,42.5,2|8,0:1|0:1,0:0:0:0:
461,124,68774,6,0,L|464:103,30,21.25,2|0|0|0|2|0|0|0|10|0|0|0|0|0|2|0|0|0|2|0|0|0|2|0|2|0|0|0|2|0|0,0:1|0:0|0:0|0:0|0:1|0:0|0:0|0:0|0:1|0:0|0:0|0:0|0:0|0:0|0:0|0:0|0:0|0:0|0:0|0:0|0:0|0:0|0:0|0:0|0:1|0:0|0:0|0:0|0:1|0:0|0:0,0:0:0:0:
453,208,70145,5,8,0:1:0:0:
453,208,70231,1,8,0:1:0:0:
453,208,70317,1,8,0:1:0:0:
389,50,70488,1,8,0:1:0:0:
309,290,70660,5,8,0:1:0:0:
309,290,70746,1,8,0:1:0:0:
309,290,70832,1,8,0:1:0:0:
373,133,71003,1,8,0:1:0:0:
397,350,71174,5,8,0:0:0:0:
44,130,71345,1,8,0:1:0:0:
44,130,71431,1,8,0:1:0:0:
44,130,71517,6,0,P|92:136|138:124,1,93.5000028533936,6|2,0:1|0:1,0:0:0:0:
155,113,71774,1,0,0:0:0:0:
174,99,71860,1,10,0:1:0:0:
503,89,72031,1,2,0:0:0:0:
465,69,72117,1,2,0:0:0:0:
422,66,72203,1,2,0:0:0:0:
382,79,72288,1,2,0:0:0:0:
351,107,72374,1,2,0:0:0:0:
333,145,72460,1,2,0:0:0:0:
301,172,72545,1,10,0:0:0:0:
260,184,72631,1,2,0:0:0:0:
218,176,72717,1,2,0:0:0:0:
92,202,72888,5,10,0:1:0:0:
246,345,73060,1,0,0:0:0:0:
246,345,73145,1,2,0:1:0:0:
246,345,73231,2,0,P|260:301|262:251,1,93.5000028533936,8|10,0:0|0:1,0:0:0:0:
170,34,73574,1,0,0:0:0:0:
170,34,73660,2,0,P|187:80|187:126,1,93.5000028533936,2|0,0:1|0:0,0:0:0:0:
173,142,73917,2,0,L|271:124,1,93.5000028533936,10|2,0:1|0:1,0:0:0:0:
505,194,74260,6,0,P|433:190|367:220,1,140.25000428009,10|0,0:1|0:0,0:0:0:0:
355,233,74603,1,10,0:1:0:0:
21,180,74774,1,2,0:0:0:0:
60,195,74860,1,2,0:0:0:0:
103,190,74946,1,2,0:0:0:0:
139,169,75031,1,2,0:0:0:0:
163,135,75117,1,2,0:0:0:0:
199,112,75203,1,2,0:0:0:0:
241,107,75288,1,10,0:0:0:0:
282,117,75374,1,2,0:0:0:0:
316,143,75460,1,2,0:0:0:0:
408,31,75631,5,10,0:1:0:0:
408,31,75717,1,8,0:1:0:0:
408,31,75803,1,8,0:1:0:0:
408,31,75888,1,2,0:1:0:0:
408,31,75974,2,0,P|408:71|412:88,1,46.7500014266968,8|0,0:0|0:0,0:0:0:0:
445,163,76145,1,10,0:1:0:0:
247,297,76317,1,0,0:0:0:0:
247,297,76403,1,2,0:1:0:0:
247,297,76488,2,0,P|246:249|231:205,1,93.5000028533936,8|10,0:1|0:1,0:0:0:0:
136,118,76745,1,8,0:1:0:0:
136,118,76831,2,0,L|188:125,1,46.7500014266968,2|0,0:1|0:1,0:0:0:0:
324,65,77003,6,0,L|231:52,1,93.5000028533936,6|2,0:1|0:1,0:0:0:0:
208,49,77260,1,8,0:1:0:0:
184,46,77345,1,10,0:1:0:0:
35,158,77517,1,2,0:0:0:0:
74,144,77603,1,2,0:0:0:0:
117,150,77689,1,2,0:0:0:0:
152,173,77774,1,2,0:0:0:0:
175,207,77860,1,2,0:0:0:0:
210,232,77946,1,2,0:0:0:0:
252,238,78031,1,10,0:0:0:0:
293,230,78117,1,2,0:0:0:0:
328,205,78203,1,2,0:0:0:0:
405,346,78374,5,10,0:1:0:0:
429,130,78545,1,0,0:0:0:0:
429,130,78631,1,2,0:1:0:0:
429,130,78716,2,0,P|430:175|445:220,1,93.5000028533936,8|10,0:0|0:1,0:0:0:0:
236,285,79060,1,0,0:0:0:0:
236,285,79145,2,0,P|235:240|220:195,1,93.5000028533936,2|2,0:1|0:1,0:0:0:0:
204,176,79403,1,10,0:1:0:0:
347,296,79574,1,2,0:1:0:0:
505,84,79745,6,0,B|434:102|437:52|366:69,1,140.25000428009,10|8,0:1|0:1,0:0:0:0:
347,77,80088,1,10,0:1:0:0:
41,153,80260,1,2,0:0:0:0:
80,139,80346,1,2,0:0:0:0:
123,145,80432,1,2,0:0:0:0:
158,168,80517,1,2,0:0:0:0:
181,202,80603,1,2,0:0:0:0:
216,227,80689,1,2,0:0:0:0:
258,233,80774,1,10,0:0:0:0:
299,225,80860,1,2,0:0:0:0:
334,200,80946,1,2,0:0:0:0:
405,346,81117,5,8,0:0:0:0:
429,130,81288,2,0,L|425:108,2,21.25,0|0|0,0:0|0:0|0:0,0:0:0:0:
468,214,81460,2,0,P|443:216|417:223,1,42.5,0|0,1:0|0:0,0:0:0:0:
330,293,81631,2,0,P|341:275|348:255,1,42.5,0|0,1:0|0:0,0:0:0:0:
316,139,81781,5,0,0:0:0:0:
316,139,81866,1,8,0:0:0:0:
316,139,81952,2,0,B|323:158|343:172|343:172|329:128|345:87,1,127.5,4|0,0:0|0:0,0:0:0:0:
423,31,82295,2,0,L|414:0,1,28.3333333333333,8|0,0:0|0:0,0:0:0:0:
404,38,82381,2,0,L|392:0,1,28.3333333333333,0|0,0:0|0:0,0:0:0:0:
386,45,82488,6,0,B|298:63|307:13|219:28,1,170,4|8,0:3|0:0,0:0:0:0:
103,63,83002,2,0,P|94:108|96:153,1,85,4|0,0:3|0:0,0:0:0:0:
248,195,83345,2,0,P|257:150|255:105,1,85,8|0,0:0|0:0,0:0:0:0:
150,224,83688,1,0,0:0:0:0:
312,271,83860,5,4,0:3:0:0:
58,251,84031,2,0,P|142:253|217:296,1,170,0|0,0:0|0:0,0:0:0:0:
281,366,84545,1,8,0:0:0:0:
454,133,84717,2,0,P|370:131|295:88,1,170,0|8,0:0|0:0,0:0:0:0:
233,32,85231,6,0,B|214:70|214:70|218:118,1,85,4|0,0:3|0:0,0:0:0:0:
222,133,85574,1,8,0:0:0:0:
361,258,85745,2,0,B|380:220|380:220|376:172,1,85,4|0,0:3|0:0,0:0:0:0:
372,157,86088,1,8,0:0:0:0:
299,203,86260,1,0,0:0:0:0:
467,233,86431,1,8,0:0:0:0:
214,353,86603,5,4,0:3:0:0:
203,268,86774,1,8,0:0:0:0:
203,268,86945,1,8,0:0:0:0:
128,310,87117,5,4,0:3:0:0:
115,226,87288,1,8,0:0:0:0:
115,226,87459,1,8,0:0:0:0:
41,269,87631,5,4,0:3:0:0:
25,185,87802,1,8,0:0:0:0:
25,185,87974,6,0,P|108:200|190:170,1,170,4|8,0:3|0:0,0:0:0:0:
285,58,88503,2,0,P|271:98|272:149,1,85,4|0,0:3|0:0,0:0:0:0:
415,256,88878,2,0,P|429:216|428:165,1,85,8|0,0:0|0:0,0:0:0:0:
358,116,89253,1,8,0:0:0:0:
341,200,89440,5,4,0:3:0:0:
488,312,89640,2,0,B|401:297|410:347|322:329,1,170,0|0,0:0|0:0,0:0:0:0:
20,237,90240,6,0,P|98:228|163:255,1,148.75,8|0,0:0|0:0,0:0:0:0:
176,266,91097,6,0,B|172:225|172:225|192:187,1,85,4|0,0:3|0:0,0:0:0:0:
204,168,91558,1,8,0:0:0:0:
368,241,91789,2,0,B|372:282|372:282|352:320,1,85,4|0,0:3|0:0,0:0:0:0:
340,339,92250,1,8,0:0:0:0:
275,259,92481,1,0,0:0:0:0:
275,259,92712,1,0,0:0:0:0:
506,149,92943,6,0,B|404:173|416:89|311:117,1,201.875,0|0,0:0|0:0,0:0:0:0:
353,205,97943,6,0,L|351:181,10,15.9375006079674,4|0|0|0|0|0|0|0|0|0|0,0:1|0:0|0:0|0:0|0:0|0:0|0:0|0:0|0:0|0:0|0:0,0:0:0:0:
330,231,98318,6,0,P|390:209|456:219,1,127.500004863739,4|0,0:0|0:0,0:0:0:0:
275,291,98693,5,4,0:0:0:0:
252,217,98818,1,8,0:1:0:0:
356,307,98943,1,8,0:2:0:0:
252,217,99068,6,0,P|192:239|126:229,1,127.500004863739,4|0,0:0|3:0,0:0:0:0:
49,181,99443,6,0,L|41:217,3,31.8750012159348,8|0|0|0,0:1|0:0|0:0|0:0,0:0:0:0:
202,315,99693,2,0,L|210:279,3,31.8750012159348,0|0|0|0,0:0|0:0|0:0|0:0,0:0:0:0:
142,146,99943,5,4,0:0:0:0:
116,341,100193,1,0,0:0:0:0:
305,257,100443,2,0,P|262:254|220:247,1,85,8|0,0:0|0:0,0:0:0:0:
11,324,100943,5,0,0:0:0:0:
11,324,101068,2,0,P|54:327|96:334,1,85,8|0,0:0|0:0,0:0:0:0:
116,340,101443,2,0,L|104:287,1,42.5,8|0,0:0|0:0,0:0:0:0:
191,199,101693,2,0,L|201:240,1,42.5,0|0,0:0|0:0,0:0:0:0:
57,131,101943,5,8,0:0:0:0:
342,103,102193,1,0,0:0:0:0:
342,103,102318,1,0,0:0:0:0:
342,103,102443,2,0,P|302:105|253:92,1,85,8|8,0:0|0:0,0:0:0:0:
163,44,102818,1,0,0:0:0:0:
163,44,102943,6,0,B|174:63|174:63|176:83,1,42.5,0|0,0:0|0:0,0:0:0:0:
19,161,103193,2,0,B|9:141|9:141|6:122,1,42.5,0|0,0:0|0:0,0:0:0:0:
71,29,103443,6,0,B|65:73|92:99|92:99|81:99|81:99|107:126|105:175,1,170,8|8,0:0|0:0,0:0:0:0:
104,175,104068,1,0,0:0:0:0:
84,260,104193,2,0,P|121:244|171:242,1,85,4|8,0:0|0:0,0:0:0:0:
301,280,104568,2,0,P|273:261|264:251,1,42.5,0|0,0:0|0:0,0:0:0:0:
247,131,104818,1,0,0:0:0:0:
247,131,104943,2,0,P|244:163|240:176,1,42.5,0|0,0:0|0:0,0:0:0:0:
189,353,105193,2,0,P|199:322|207:310,1,42.5,8|0,0:0|0:0,0:0:0:0:
407,172,105443,1,8,0:0:0:0:
407,172,105568,2,0,P|370:188|320:190,1,85,0|0,0:0|0:0,0:0:0:0:
75,163,105943,5,0,0:0:0:0:
75,163,106026,1,0,0:0:0:0:
75,163,106109,1,0,0:0:0:0:
75,163,106193,2,0,P|105:153|150:152,1,56.6666666666667,0|0,0:0|0:0,0:0:0:0:
157,156,106443,2,0,L|172:61,1,85,0|8,0:0|0:0,0:0:0:0:
175,51,106818,1,0,0:0:0:0:
353,19,106943,5,0,0:0:0:0:
353,19,107068,2,0,L|339:102,1,85,8|0,0:0|0:0,0:0:0:0:
259,84,107443,2,0,L|253:126,1,42.5,0|0,0:0|0:0,0:0:0:0:
230,213,107693,1,0,0:0:0:0:
230,213,107818,1,0,0:0:0:0:
230,213,107944,6,0,P|268:194|310:188,1,85,4|0,0:0|0:0,0:0:0:0:
406,202,108443,2,0,B|424:243|424:243|419:295,1,85,8|0,0:0|0:0,0:0:0:0:
163,353,108943,1,0,0:0:0:0:
163,353,109068,2,0,B|145:312|145:312|148:271,1,85,0|0,0:0|0:0,0:0:0:0:
153,251,109443,1,8,0:0:0:0:
157,230,109568,1,0,0:0:0:0:
161,209,109693,1,0,0:0:0:0:
27,150,109943,5,8,0:0:0:0:
27,150,110068,1,0,1:0:0:0:
27,150,110193,1,8,0:0:0:0:
27,150,110318,2,0,P|68:151|117:134,1,85,0|0,3:0|1:0,0:0:0:0:
236,0,110693,2,0,P|215:35|205:85,1,85,8|8,0:0|0:0,0:0:0:0:
265,256,111068,2,0,P|246:219|205:187,1,85,0|0,0:0|0:0,0:0:0:0:
192,179,111443,6,0,B|284:197|283:137|380:155,1,191.250007295609,8|0,0:0|0:0,0:0:0:0:
460,178,111943,6,0,L|447:88,1,85,8|0,0:0|0:0,0:0:0:0:
445,72,112318,1,0,0:0:0:0:
296,137,112568,1,0,0:0:0:0:
296,137,112693,1,8,0:0:0:0:
296,137,112818,1,0,0:0:0:0:
296,137,112943,2,0,L|304:193,1,42.5,0|8,0:0|0:0,0:0:0:0:
398,328,113193,1,0,0:0:0:0:
398,328,113318,1,0,0:0:0:0:
398,328,113443,2,0,L|386:242,1,85,8|0,0:0|0:0,0:0:0:0:
180,338,113943,6,0,P|249:334|303:357,1,127.500004863739,8|0,0:0|1:0,0:0:0:0:
160,328,114318,6,0,P|252:321|328:357,1,170,8|0,0:0|0:0,0:0:0:0:
140,315,114693,6,0,L|147:375,1,42.5,0|0,1:0|1:0,0:0:0:0:
56,282,114943,6,0,L|53:254,6,21.25,0|0|8|0|0|0|0,1:0|0:0|0:0|0:0|0:0|0:0|0:0,0:0:0:0:
129,215,115443,6,0,L|138:175,6,31.8750012159348,0|0|0|0|8|0|2,0:0|0:0|0:0|0:0|0:0|0:0|0:3,0:0:0:0:
40,117,115943,5,4,0:0:0:0:
