osu file format v14

[General]
AudioFilename: D.mp3
AudioLeadIn: 0
PreviewTime: 71517
Countdown: 0
SampleSet: None
StackLeniency: 0.7
Mode: 0
LetterboxInBreaks: 0
WidescreenStoryboard: 1

[Editor]
Bookmarks: 39344
DistanceSpacing: 0.9
BeatDivisor: 4
GridSize: 4
TimelineZoom: 2.994399

[Metadata]
Title:D
TitleUnicode:D
Artist:Eagle
ArtistUnicode:Eagle
Creator:P o M u T a
Version:Kotori's EXTREME
Source:beatmania IIDX 17 SIRIUS
Tags:Ways For Liberation ICARUS kors k bemani NEXT SKOOL BREAKBEATS HARDCORE pomuta bluoxy sionkotori faust
BeatmapID:902947
BeatmapSetID:403667

[Difficulty]
HPDrainRate:6.5
CircleSize:4.5
OverallDifficulty:7
ApproachRate:9.2
SliderMultiplier:1.7
SliderTickRate:2

[Events]
//Background and Video events
0,0,"49955889_p0.jpg",0,0
//Break Periods
//Storyboard Layer 0 (Background)
//Storyboard Layer 1 (Fail)
//Storyboard Layer 2 (Pass)
//Storyboard Layer 3 (Foreground)
//Storyboard Sound Samples

[TimingPoints]
352,500,4,2,4,40,1,0
3852,-76.9230769230769,4,2,4,40,0,0
4352,-100,4,2,4,40,0,0
6352,-76.9230769230769,4,2,4,40,0,0
8352,-100,4,2,4,40,0,0
9852,-66.6666666666667,4,2,4,40,0,0
10227,-76.9230769230769,4,2,4,40,0,0
10602,-100,4,2,4,40,0,0
11852,-76.9230769230769,4,2,4,40,0,0
12352,-83.3333333333333,4,2,4,40,0,0
12852,-66.6666666666667,4,2,4,40,0,0
13102,-66.6666666666667,4,2,4,5,0,0
13227,-66.6666666666667,4,2,4,10,0,0
13352,-66.6666666666667,4,2,4,15,0,0
13477,-66.6666666666667,4,2,4,20,0,0
13602,-66.6666666666667,4,2,4,25,0,0
13727,-66.6666666666667,4,2,4,30,0,0
13852,-50,4,2,4,35,0,0
14727,-100,4,2,4,40,0,0
15102,-58.8235294117647,4,2,4,40,0,0
15477,-66.6666666666667,4,2,4,40,0,0
15852,-76.9230769230769,4,2,4,60,0,0
15914,-76.9230769230769,4,2,4,55,0,0
15977,-76.9230769230769,4,2,4,50,0,0
16039,-76.9230769230769,4,2,4,45,0,0
16102,-76.9230769230769,4,2,4,40,0,0
16164,-76.9230769230769,4,2,4,35,0,0
16227,-76.9230769230769,4,2,4,30,0,0
16289,-76.9230769230769,4,2,4,25,0,0
16352,-62.5,4,2,4,50,0,0
22352,-76.9230769230769,4,2,4,50,0,0
23352,-62.5,4,2,4,50,0,0
23477,-55.5555555555556,4,2,4,50,0,0
24352,-62.5,4,2,4,50,0,0
25852,-58.8235294117647,4,2,4,50,0,0
26352,-62.5,4,2,4,40,0,0
27602,-62.5,4,2,4,20,0,0
27852,-58.8235294117647,4,2,4,50,0,0
30102,-55.5555555555556,4,2,4,50,0,0
31477,-62.5,4,2,4,50,0,0
34384,461.538461538462,4,2,4,50,1,0
34614,-62.5,4,2,4,50,0,0
36230,428.571428571429,4,2,4,50,1,0
36230,-62.5,4,2,4,50,0,0
37944,400,4,2,4,50,1,0
38144,-66.6666666666667,4,2,4,50,0,0
39544,375,4,2,4,50,1,0
39544,-66.6666666666667,4,2,4,50,0,0
40294,352.941176470588,4,2,4,50,1,0
40294,-71.4285714285714,4,2,4,50,0,0
40999,333.333333333333,4,2,4,50,1,0
41165,-71.4285714285714,4,2,4,50,0,0
41665,315.789473684211,4,2,4,50,1,0
41665,-71.4285714285714,4,2,4,50,0,0
42296,300,4,2,4,50,1,0
42296,-71.4285714285714,4,2,4,50,0,0
42596,285.714285714286,4,2,4,50,1,0
42596,-71.4285714285714,4,2,4,50,0,0
42881,272.727272727273,4,2,4,50,1,0
42881,-71.4285714285714,4,2,4,50,0,0
43153,250,4,2,4,50,1,0
43153,-71.4285714285714,4,2,4,50,0,0
43403,1200,4,2,4,50,1,0
43403,-117.647058823529,4,2,4,50,0,0
48203,342.857142857143,4,2,4,20,1,0
48717,-100,4,3,0,40,0,0
49574,-76.9230769230769,4,2,5,35,0,0
60545,-76.9230769230769,4,2,5,40,0,0
70145,-66.6666666666667,4,2,5,45,0,0
71174,-66.6666666666667,4,2,5,55,0,0
71517,-71.4285714285714,4,2,4,60,0,1
81117,-62.5,4,2,4,60,0,1
81460,-71.4285714285714,4,2,4,60,0,1
81781,342.857142857143,4,2,4,60,1,0
81781,-71.4285714285714,4,2,4,60,0,0
81952,-90.9090909090909,4,2,4,60,0,1
82488,342.857142857143,4,2,4,40,1,0
82488,-100,4,2,4,40,0,0
87974,352.941176470588,4,2,4,40,1,0
87974,-125,4,2,4,40,0,0
88503,375,4,2,4,40,1,0
89440,400,4,2,4,40,1,0
90240,428.571428571429,4,2,4,40,1,0
91097,461.538461538462,4,2,4,40,1,0
92943,2000,4,2,4,40,1,0
94193,-100,4,2,4,35,0,0
94943,-100,4,2,4,30,0,0
95693,-100,4,2,4,25,0,0
96443,-100,4,2,4,20,0,0
97193,-100,4,2,4,15,0,0
97693,-100,4,2,4,10,0,0
97943,500,4,2,4,40,1,0
97943,-71.4285714285714,4,2,4,40,0,0
99443,-71.4285714285714,4,2,4,60,0,0
99505,-71.4285714285714,4,2,4,55,0,0
99568,-71.4285714285714,4,2,4,50,0,0
99630,-71.4285714285714,4,2,4,45,0,0
99693,-71.4285714285714,4,2,4,40,0,0
99755,-71.4285714285714,4,2,4,35,0,0
99818,-71.4285714285714,4,2,4,30,0,0
99880,-71.4285714285714,4,2,4,25,0,0
99943,-62.5,4,2,4,50,0,0
113943,-62.5,4,2,5,45,0,0
114318,-62.5,4,2,5,42,0,0
114693,-62.5,4,2,5,39,0,0
115068,-62.5,4,2,5,36,0,0
115443,-62.5,4,2,5,33,0,0
115943,-62.5,4,2,0,30,0,0

[Colours]
Combo1 : 216,216,216
Combo2 : 191,255,255
Combo3 : 83,83,255
Combo4 : 255,47,255

[HitObjects]
83,282,352,6,0,L|178:278,1,85
261,308,727,2,0,L|251:368,1,42.5,0|2,0:0|0:0,0:0:0:0:
124,173,1102,6,0,L|134:113,2,42.5
184,250,1477,1,0,0:0:0:0:
282,238,1602,2,0,L|377:234,2,85,0|2|0,0:0|0:0|0:0,0:0:0:0:
220,160,2227,1,0,0:0:0:0:
291,90,2352,1,0,0:0:0:0:
291,90,2602,6,0,L|338:86,1,42.5
421,79,2852,1,2,0:0:0:0:
339,173,2977,6,0,L|386:169,1,42.5
469,162,3227,1,0,0:0:0:0:
387,256,3352,6,0,L|434:252,1,42.5
308,324,3602,6,0,L|312:371,1,42.5
432,336,3852,6,0,B|394:352|349:355|301:313|301:313|350:303,1,165.749992412568,2|0,0:0|0:0,0:0:0:0:
387,256,4352,6,0,L|383:161,1,85
413,78,4727,2,0,L|473:88,1,42.5,0|2,0:0|0:0,0:0:0:0:
278,215,5102,6,0,L|218:205,2,42.5
351,149,5477,1,0,0:0:0:0:
413,78,5602,2,0,L|473:88,1,42.5
351,149,5852,2,0,L|245:131,1,85,2|0,0:0|0:0,0:0:0:0:
181,117,6227,1,0,0:0:0:0:
179,40,6352,6,0,B|169:95|169:95|194:145|194:145|183:197,1,165.749992412568
126,270,6852,2,0,P|106:280|72:278,1,55.2499974708558,2|0,0:0|0:0,0:0:0:0:
56,158,7102,2,0,P|76:148|110:150,1,55.2499974708558
197,218,7352,6,0,B|207:273|207:273|182:323|182:323|193:375,1,165.749992412568
270,333,7852,2,0,L|338:338,1,55.2499974708558,2|0,0:0|0:0,0:0:0:0:
395,285,8102,2,0,L|463:290,1,55.2499974708558
330,359,8352,6,0,L|317:260,1,85
376,196,8727,2,0,L|443:202,1,42.5,0|2,0:0|0:0,0:0:0:0:
237,334,9102,6,0,L|170:328,1,42.5
117,290,9352,1,0,0:0:0:0:
117,290,9477,2,0,L|50:296,1,42.5
6,351,9727,1,0,0:0:0:0:
6,351,9852,6,0,B|-6:275|-6:275|25:228,1,127.500004863739,2|0,0:0|0:0,0:0:0:0:
52,147,10227,2,0,L|42:82,1,55.2499974708558
43,92,10602,5,0,0:0:0:0:
140,122,10727,2,0,L|192:118,2,42.5,0|2|0,0:0|0:0|0:0,0:0:0:0:
110,219,11102,2,0,L|58:223,1,42.5
204,202,11352,6,0,P|207:229|196:258,1,42.5
123,319,11602,2,0,P|120:346|131:375,1,42.5
234,344,11852,2,0,B|341:329|282:374|398:352,1,165.749992412568,2|0,0:0|0:0,0:0:0:0:
471,288,12352,6,0,P|477:266|472:237,1,50.9999984436036
316,237,12602,2,0,P|311:261|317:286,1,50.9999984436036
396,254,12852,2,0,B|390:212|390:212|401:179|401:179|395:129,1,127.500004863739,2|4,0:0|0:0,0:0:0:0:
386,48,13227,1,4,0:0:0:0:
326,163,13352,5,4,0:0:0:0:
304,171,13477,1,4,0:0:0:0:
250,179,13602,1,4,0:0:0:0:
171,159,13727,1,4,0:0:0:0:
127,74,13852,6,0,P|122:54|124:33,1,42.5,14|0,0:0|0:0,0:0:0:0:
250,179,13977,2,0,P|255:159|253:138,1,42.5,12|0,0:0|0:0,0:0:0:0:
82,224,14102,6,0,L|49:249,1,28.3333333333333,4|0,0:0|0:0,0:0:0:0:
113,222,14185,2,0,L|151:238,1,28.3333333333333,4|0,0:0|0:0,0:0:0:0:
96,197,14268,2,0,L|90:155,1,28.3333333333333,4|0,0:0|0:0,0:0:0:0:
107,302,14352,6,0,L|97:339,8,21.25,4|0|0|0|0|0|0|0|0,0:0|0:0|0:0|0:0|0:0|0:0|0:0|0:0|0:0,0:0:0:0:
107,302,14727,6,0,L|105:182,1,106.25,4|0,0:0|0:0,0:0:0:0:
58,109,15102,6,0,L|3:113,1,36.1250006890297,4|0,0:0|0:0,0:0:0:0:
179,149,15227,2,0,L|234:153,1,36.1250006890297
139,58,15352,1,0,0:0:0:0:
106,197,15477,2,0,P|140:255|197:269,1,127.500004863739,4|0,0:0|0:0,0:0:0:0:
340,282,15852,6,0,L|370:287,7,27.6249987354279,2|2|2|2|2|2|2|2,0:0|0:0|0:0|0:0|0:0|0:0|0:0|0:0,0:0:0:0:
289,345,16352,6,0,B|260:304|260:304|279:208,1,136,4|0,0:0|0:0,0:0:0:0:
290,134,16727,1,0,0:0:0:0:
290,134,16852,2,0,L|213:138,2,68,8|0|0,0:0|0:0|0:0,0:0:0:0:
372,220,17227,6,0,B|465:213|465:213|513:235,1,136,4|0,0:0|0:0,0:0:0:0:
445,356,17602,2,0,B|439:322|439:322|452:278,1,68,4|0,0:0|0:0,0:0:0:0:
474,174,17852,6,0,B|435:191|435:191|342:184,1,136,8|0,0:0|0:0,0:0:0:0:
227,173,18227,2,0,L|215:100,1,68,0|4,0:0|0:0,0:0:0:0:
215,105,18602,6,0,L|203:178,1,68
187,261,18852,1,8,0:0:0:0:
302,153,18977,2,0,L|290:226,1,68,0|8,0:0|0:0,0:0:0:0:
274,309,19227,1,0,0:0:0:0:
274,309,19352,6,0,B|248:322|248:322|200:319,1,68,4|0,0:0|0:0,0:0:0:0:
361,276,19602,2,0,B|387:263|387:263|435:266,1,68,4|0,0:0|0:0,0:0:0:0:
314,369,19852,2,0,B|307:325|307:325|323:288|323:288|316:237,1,136,8|0,0:0|0:0,0:0:0:0:
301,147,20227,1,0,0:0:0:0:
250,262,20352,6,0,P|309:307|363:289,1,136,4|0,0:0|0:0,0:0:0:0:
388,182,20727,1,0,0:0:0:0:
388,182,20852,2,0,P|329:137|275:155,1,136,8|0,0:0|0:0,0:0:0:0:
319,225,21227,2,0,B|361:253|361:253|453:263,1,136,4|0,0:0|0:0,0:0:0:0:
502,349,21602,2,0,L|423:340,1,68,4|0,0:0|0:0,0:0:0:0:
388,182,21852,2,0,L|455:189,1,68,8|0,0:0|0:0,0:0:0:0:
342,360,22102,2,0,L|349:293,1,68
294,160,22352,6,0,L|297:202,1,27.6249987354279,2|0,0:0|0:0,0:0:0:0:
269,157,22477,2,0,L|272:199,1,27.6249987354279,2|0,0:0|0:0,0:0:0:0:
183,232,22602,6,0,L|186:190,1,27.6249987354279,2|0,0:0|0:0,0:0:0:0:
158,235,22727,2,0,L|161:193,1,27.6249987354279,2|0,0:0|0:0,0:0:0:0:
72,157,22852,6,0,L|75:199,1,27.6249987354279,2|0,0:0|0:0,0:0:0:0:
47,154,22977,2,0,L|50:196,1,27.6249987354279,2|0,0:0|0:0,0:0:0:0:
22,151,23102,2,0,L|25:193,1,27.6249987354279,2|0,0:0|0:0,0:0:0:0:
299,256,23352,6,0,L|299:304,1,34,4|0,0:0|0:0,0:0:0:0:
412,312,23477,2,0,P|395:253|303:250,1,152.999995330811
344,354,23852,5,4,0:0:0:0:
490,312,23977,1,0,0:0:0:0:
381,207,24102,1,8,0:0:0:0:
276,316,24227,1,0,0:0:0:0:
425,352,24352,6,0,B|465:319|465:319|456:234,1,136,4|0,0:0|0:0,0:0:0:0:
445,144,24727,1,0,0:0:0:0:
367,223,24852,2,0,L|373:291,2,68,8|0|0,0:0|0:0|0:0,0:0:0:0:
445,144,25227,6,0,B|401:148|401:148|367:131|367:131|314:134,1,136,4|0,0:0|0:0,0:0:0:0:
422,63,25602,2,0,L|495:57,1,68,4|0,0:0|0:0,0:0:0:0:
244,97,25852,2,0,B|208:113|208:113|140:97,1,108.375002067089,8|0,0:0|0:0,0:0:0:0:
75,50,26102,2,0,L|77:9,3,36.1250006890297,2|2|2|2,0:0|0:0|0:0|0:0,0:0:0:0:
69,130,26352,6,0,L|66:210,1,68,4|0,0:0|0:0,0:0:0:0:
174,170,26602,1,8,0:0:0:0:
169,260,26727,2,0,L|166:340,1,68,4|0,0:0|0:0,0:0:0:0:
279,210,26977,1,0,0:0:0:0:
274,300,27102,2,0,L|271:380,1,68,4|0,0:0|0:0,0:0:0:0:
174,170,27352,6,0,L|177:90,1,68,4|0,0:0|0:0,0:0:0:0:
54,295,27602,2,0,L|53:332,3,34,4|4|4|4,0:0|0:0|0:0|0:0,0:0:0:0:
56,278,27852,6,0,P|155:233|124:321,1,252.875004823208,8|0,0:0|0:0,0:0:0:0:
110,268,28352,6,0,B|105:220|105:220|121:181|121:181|116:127,1,144.500002756119,4|0,0:0|0:0,0:0:0:0:
106,36,28727,1,0,0:0:0:0:
32,90,28852,2,0,L|39:166,2,72.2500013780594,8|0|0,0:0|0:0|0:0,0:0:0:0:
190,73,29227,2,0,B|245:70|245:70|274:84|274:84|333:79,1,144.500002756119,4|0,0:0|0:0,0:0:0:0:
427,127,29602,1,4,0:0:0:0:
419,20,29727,1,0,0:0:0:0:
339,187,29852,6,0,L|343:228,5,24.0833337926865,8|0|0|0|0|0,0:0|0:0|0:0|0:0|0:0|0:0,0:0:0:0:
336,168,30102,6,0,L|273:167,1,38.2499988327027,8|0,0:0|0:0,0:0:0:0:
212,164,30227,2,0,L|149:163,1,38.2499988327027,8|0,0:0|0:0,0:0:0:0:
92,193,30352,6,0,P|51:131|79:62,1,152.999995330811,12|0,0:0|0:0,0:0:0:0:
245,44,30727,2,0,P|286:106|258:175,1,152.999995330811,12|0,0:0|0:0,0:0:0:0:
123,123,31102,1,4,0:0:0:0:
214,114,31227,1,4,0:0:0:0:
176,197,31352,5,4,0:0:0:0:
123,123,31477,2,0,B|154:82|154:82|239:77,1,136,4|0,0:0|0:0,0:0:0:0:
318,107,31852,2,0,L|309:148,3,34,14|2|2|2,0:0|0:0|0:0|0:0,0:0:0:0:
396,78,32102,2,0,L|387:37,3,34,6|2|2|2,0:0|0:0|0:0|0:0,0:0:0:0:
475,109,32352,6,0,L|466:252,1,136,4|0,0:0|0:0,0:0:0:0:
267,352,32852,2,0,P|235:364|191:357,1,68,8|0,0:0|0:0,0:0:0:0:
124,329,33102,1,0,0:0:0:0:
245,334,33227,6,0,P|167:343|130:303,1,136,4|0,0:0|0:0,0:0:0:0:
188,195,33602,2,0,P|220:193|248:212,1,68,4|0,0:0|0:0,0:0:0:0:
99,239,33852,2,0,B|26:231|26:231|-4:247,1,102,8|0,0:0|0:0,0:0:0:0:
13,212,34102,2,0,B|38:198|38:198|111:206,1,102
142,133,34352,5,4,0:0:0:0:
28,32,34614,2,0,B|36:71|36:71|30:107,2,68,0|0|8,0:0|0:0|0:0,0:0:0:0:
114,54,34960,1,0,0:0:0:0:
199,71,35076,2,0,L|270:62,1,68,0|4,0:0|0:0,0:0:0:0:
343,155,35307,6,0,L|272:164,1,68
142,133,35537,1,4,0:0:0:0:
142,133,35653,1,0,0:0:0:0:
213,220,35768,2,0,B|219:264|219:264|205:305|205:305|211:356,1,136,8|0,0:0|0:0,0:0:0:0:
297,323,36114,1,0,0:0:0:0:
140,259,36230,6,0,P|75:247|31:294,1,136,4|0,0:0|0:0,0:0:0:0:
297,323,36658,2,0,P|362:335|406:288,1,136,8|0,0:0|0:0,0:0:0:0:
422,194,36980,1,4,0:0:0:0:
224,230,37194,2,0,L|222:301,2,68,0|4|0,0:0|0:0|0:0,0:0:0:0:
343,188,37515,2,0,L|342:256,1,68,8|0,0:0|0:0,0:0:0:0:
461,214,37730,2,0,L|462:146,1,68
461,64,37944,5,4,0:0:0:0:
202,95,38144,2,0,B|192:126|192:126|207:178,1,63.7500024318696
461,64,38444,2,0,B|471:33|471:33|456:-19,1,63.7500024318696,4|0,0:0|0:0,0:0:0:0:
276,127,38744,1,4,0:0:0:0:
340,212,38844,2,0,P|402:225|447:172,1,127.500004863739
381,53,39144,2,0,L|373:118,1,63.7500024318696,8|0,0:0|0:0,0:0:0:0:
505,234,39344,2,0,L|513:169,1,63.7500024318696,8|0,0:0|0:0,0:0:0:0:
447,45,39544,6,0,B|409:49|409:49|371:38|371:38|318:43,1,127.500004863739,4|0,0:0|0:0,0:0:0:0:
111,117,39919,2,0,B|149:121|149:121|187:110|187:110|240:115,1,127.500004863739,8|0,0:0|0:0,0:0:0:0:
292,178,40200,1,4,0:0:0:0:
292,178,40294,6,0,B|298:197|298:197|287:243,1,59.4999981842042
163,234,40470,2,0,B|176:219|176:219|221:205,1,59.4999981842042,4|0,0:0|0:0,0:0:0:0:
276,318,40646,2,0,B|256:313|256:313|222:281,2,59.4999981842042,8|0|0,0:0|0:0|0:0,0:0:0:0:
98,297,40999,5,4,0:0:0:0:
357,281,41165,2,0,L|430:278,1,59.4999981842042
213,207,41415,2,0,L|140:210,1,59.4999981842042
357,281,41665,6,0,P|381:305|417:310,1,59.4999981842042,4|0,0:0|0:0,0:0:0:0:
462,196,41822,2,0,P|438:172|402:167,1,59.4999981842042,4|0,0:0|0:0,0:0:0:0:
340,292,41980,2,0,B|417:315|417:315|504:271,1,178.499994552612,8|0,0:0|0:0,0:0:0:0:
480,181,42296,6,0,B|478:140|478:140|491:112|491:112|487:62,1,118.999996368408,4|0,0:0|0:0,0:0:0:0:
399,38,42521,1,0,0:0:0:0:
399,38,42596,6,0,B|403:82|403:82|389:112|389:112|393:155,1,118.999996368408,4|0,0:0|0:0,0:0:0:0:
313,202,42810,1,0,0:0:0:0:
313,202,42881,6,0,L|306:138,1,59.4999981842042,4|0,0:0|0:0,0:0:0:0:
217,31,43017,2,0,L|224:95,1,59.4999981842042,4|0,0:0|0:0,0:0:0:0:
149,228,43153,6,0,L|142:159,1,59.4999981842042,4|0,0:0|0:0,0:0:0:0:
35,22,43278,2,0,L|42:91,1,59.4999981842042,4|0,0:0|0:0,0:0:0:0:
93,263,43403,6,0,B|151:250|151:250|166:187|127:148|59:139|-14:143|-55:213|-50:313|-3:371|80:390|144:360|176:322,1,578.000011024475,12|0,0:0|0:0,0:0:0:0:
171,326,48717,5,8,0:0:0:0:
204,329,48803,1,0,0:0:0:0:
237,332,48888,1,8,0:0:0:0:
270,335,48974,1,0,0:0:0:0:
313,307,49060,5,8,0:0:0:0:
346,310,49146,1,0,0:0:0:0:
379,313,49231,1,8,0:0:0:0:
412,316,49317,1,0,0:0:0:0:
455,288,49403,5,4,0:0:0:0:
488,291,49489,1,4,0:0:0:0:
490,257,49574,6,0,L|497:146,1,110.499994941712,4|0,0:0|0:0,0:0:0:0:
386,237,49917,1,6,0:0:0:0:
343,87,50088,1,0,0:0:0:0:
494,124,50260,5,0,0:0:0:0:
496,146,50345,2,0,P|457:176|396:171,1,110.499994941712,2|0,0:0|0:0,0:0:0:0:
288,207,50603,1,0,0:0:0:0:
290,185,50688,2,0,P|251:155|190:160,1,110.499994941712,2|0,0:0|0:0,0:0:0:0:
76,138,50945,6,0,L|83:268,1,110.499994941712,2|0,0:0|0:0,0:0:0:0:
87,332,51203,1,2,0:0:0:0:
209,258,51374,5,0,0:0:0:0:
228,246,51460,1,2,0:0:0:0:
84,167,51631,1,0,0:0:0:0:
70,191,51717,2,0,B|112:214|112:214|191:195,1,110.499994941712,2|0,0:0|0:0,0:0:0:0:
169,87,52060,1,2,0:0:0:0:
169,87,52145,1,0,0:0:0:0:
22,257,52317,6,0,L|15:146,1,110.499994941712
169,87,52660,1,2,0:0:0:0:
18,124,52832,5,0,0:0:0:0:
16,146,52917,2,0,B|61:173|61:173|127:162,1,110.499994941712,2|0,0:0|0:0,0:0:0:0:
249,249,53260,1,0,0:0:0:0:
247,271,53345,2,0,B|292:298|292:298|358:287,1,110.499994941712,2|0,0:0|0:0,0:0:0:0:
436,138,53688,6,0,L|429:268,1,110.499994941712,2|0,0:0|0:0,0:0:0:0:
425,332,53946,1,2,0:0:0:0:
303,258,54117,5,0,0:0:0:0:
284,246,54203,1,2,0:0:0:0:
428,167,54374,1,0,0:0:0:0:
442,191,54460,2,0,B|400:214|400:214|321:195,1,110.499994941712,2|0,0:0|0:0,0:0:0:0:
250,172,54717,1,2,0:0:0:0:
248,38,54888,1,2,0:0:0:0:
205,239,55060,5,0,0:0:0:0:
159,118,55231,1,0,0:0:0:0:
280,72,55403,1,2,0:0:0:0:
326,193,55574,1,0,0:0:0:0:
159,118,55745,5,0,0:0:0:0:
172,139,55831,2,0,B|192:181|192:181|180:251,1,110.499994941712,2|0,0:0|0:0,0:0:0:0:
282,236,56088,1,0,0:0:0:0:
269,257,56174,2,0,B|249:299|249:299|261:369,1,110.499994941712,2|0,0:0|0:0,0:0:0:0:
350,369,56431,6,0,L|474:361,1,110.499994941712,2|0,0:0|0:0,0:0:0:0:
505,287,56688,1,2,0:0:0:0:
337,233,56860,6,0,L|281:236,1,55.2499974708558,0|2,0:0|0:0,0:0:0:0:
461,362,57117,1,0,0:0:0:0:
474,333,57203,2,0,B|489:295|489:295|474:223,1,110.499994941712,2|0,0:0|0:0,0:0:0:0:
289,114,57545,1,2,0:0:0:0:
289,114,57631,1,0,0:0:0:0:
403,230,57803,5,0,0:0:0:0:
369,109,57974,1,0,0:0:0:0:
282,199,58145,1,2,0:0:0:0:
449,153,58317,6,0,L|512:135,1,55.2499974708558,0|2,0:0|0:0,0:0:0:0:
282,111,58574,1,0,0:0:0:0:
459,164,58745,6,0,L|522:146,1,55.2499974708558,0|2,0:0|0:0,0:0:0:0:
267,106,59003,1,0,0:0:0:0:
401,10,59174,5,2,0:0:0:0:
384,312,59431,1,2,0:0:0:0:
384,312,59688,6,0,L|387:252,1,55.2499974708558,2|0,1:0|1:0,0:0:0:0:
336,184,59860,1,4,0:0:0:0:
333,151,59945,1,6,0:0:0:0:
330,118,60031,1,4,0:0:0:0:
327,85,60117,1,4,0:0:0:0:
395,40,60203,2,0,L|450:44,1,55.2499974708558,10|0,0:0|0:0,0:0:0:0:
259,130,60374,2,0,L|204:126,1,55.2499974708558,10|0,0:0|0:0,0:0:0:0:
115,42,60545,6,0,B|110:102|110:102|129:146|129:146|124:203,1,165.749992412568,12|0,0:0|0:0,0:0:0:0:
98,286,60888,2,0,P|42:309|-4:276,1,110.499994941712,10|0,0:0|0:0,0:0:0:0:
182,264,61231,1,4,0:0:0:0:
182,264,61317,2,0,L|327:257,1,110.499994941712,2|0,0:0|0:0,0:0:0:0:
378,329,61574,1,8,0:0:0:0:
378,329,61660,2,0,L|523:322,1,110.499994941712,2|0,0:0|0:0,0:0:0:0:
443,226,61917,6,0,B|427:167|427:167|453:117,1,110.499994941712,6|0,0:0|0:0,0:0:0:0:
486,54,62174,1,2,0:0:0:0:
486,54,62260,2,0,B|447:70|447:70|372:63,1,110.499994941712,8|0,0:0|0:0,0:0:0:0:
185,73,62603,1,6,0:0:0:0:
161,79,62688,1,0,0:0:0:0:
312,107,62860,1,0,0:0:0:0:
170,164,63031,1,2,0:0:0:0:
146,170,63116,1,0,0:0:0:0:
269,257,63288,6,0,L|385:263,1,110.499994941712,4|0,0:0|0:0,0:0:0:0:
425,130,63631,1,10,0:0:0:0:
447,307,63803,1,0,0:0:0:0:
447,307,63888,1,2,0:0:0:0:
447,307,63974,2,0,L|434:381,1,55.2499974708558,4|0,0:0|0:0,0:0:0:0:
201,296,64231,2,0,L|214:370,1,55.2499974708558,0|10,0:0|0:0,0:0:0:0:
395,244,64488,1,0,0:0:0:0:
195,272,64660,6,0,B|151:300|151:300|92:292,1,110.499994941712,6|0,0:0|0:0,0:0:0:0:
74,177,64917,2,0,B|118:149|118:149|177:157,1,110.499994941712,2|0,0:0|0:0,0:0:0:0:
256,202,65174,1,2,0:0:0:0:
389,322,65345,1,4,0:0:0:0:
385,343,65431,2,0,B|370:306|370:306|386:223,1,110.499994941712,2|0,0:0|0:0,0:0:0:0:
398,154,65688,1,8,0:0:0:0:
485,279,65860,1,2,0:0:0:0:
296,314,66031,6,0,L|179:320,1,110.499994941712,4|0,0:0|0:0,0:0:0:0:
368,334,66374,1,10,0:0:0:0:
113,300,66545,1,0,0:0:0:0:
275,238,66717,1,4,0:0:0:0:
275,238,66803,2,0,L|392:248,1,110.499994941712,2|0,0:0|0:0,0:0:0:0:
448,149,67060,1,8,0:0:0:0:
448,149,67146,2,0,L|331:159,1,110.499994941712,2|0,0:0|0:0,0:0:0:0:
262,114,67403,5,6,0:0:0:0:
388,51,67574,2,0,L|446:57,1,55.2499974708558,0|2,0:0|0:0,0:0:0:0:
242,126,67831,2,0,L|184:120,1,55.2499974708558,0|2,0:0|0:0,0:0:0:0:
393,140,68088,1,0,0:0:0:0:
417,146,68173,1,2,0:0:0:0:
292,47,68345,1,0,0:0:0:0:
262,181,68517,1,2,0:0:0:0:
256,206,68603,1,0,0:0:0:0:
319,305,68774,5,4,0:0:0:0:
184,293,68945,1,0,0:0:0:0:
396,262,69117,1,10,0:0:0:0:
245,364,69288,1,0,0:0:0:0:
245,364,69374,2,0,P|197:375|141:336,1,110.499994941712,4|2,0:0|0:0,0:0:0:0:
262,208,69717,1,0,0:0:0:0:
262,208,69803,2,0,P|295:244|289:312,1,110.499994941712,8|2,0:0|0:0,0:0:0:0:
89,285,70145,6,0,L|22:291,2,63.7500024318696,4|4|4,0:0|0:0|0:0,0:0:0:0:
377,313,70488,1,4,0:0:0:0:
112,297,70660,6,0,L|45:303,2,63.7500024318696,4|4|4,0:0|0:0|0:0,0:0:0:0:
400,325,71003,1,4,0:0:0:0:
229,124,71174,5,8,0:0:0:0:
240,353,71345,2,0,L|309:367,1,63.7500024318696
422,361,71517,6,0,B|470:322|470:322|454:256,1,118.999996368408,4|0,0:0|0:0,0:0:0:0:
394,197,71774,1,0,0:0:0:0:
394,197,71860,2,0,L|401:124,2,59.4999981842042,8|0|0,0:0|0:0|0:0,0:0:0:0:
368,285,72117,5,2,0:0:0:0:
328,321,72203,1,6,0:0:0:0:
275,331,72288,1,2,0:0:0:0:
222,317,72374,1,2,0:0:0:0:
185,277,72460,1,2,0:0:0:0:
175,224,72545,1,10,0:0:0:0:
191,173,72631,1,2,0:0:0:0:
232,139,72717,1,2,0:0:0:0:
352,21,72888,5,4,0:0:0:0:
436,151,73060,1,0,0:0:0:0:
436,151,73145,1,0,0:0:0:0:
436,151,73231,2,0,B|379:166|379:166|318:128,1,118.999996368408,8|0,0:0|0:0,0:0:0:0:
113,51,73574,2,0,L|178:45,1,59.4999981842042,4|0,0:0|0:0,0:0:0:0:
389,86,73831,1,0,0:0:0:0:
152,122,74003,2,0,L|217:116,1,59.4999981842042,4|0,0:0|0:0,0:0:0:0:
450,243,74260,6,0,L|327:234,1,118.999996368408,4|0,0:0|0:0,0:0:0:0:
244,270,74517,1,0,0:0:0:0:
244,270,74603,2,0,L|251:332,2,59.4999981842042,8|0|0,0:0|0:0|0:0,0:0:0:0:
229,173,74860,5,2,0:0:0:0:
183,145,74945,1,6,0:0:0:0:
129,139,75031,1,2,0:0:0:0:
78,155,75117,1,2,0:0:0:0:
40,192,75203,1,2,0:0:0:0:
20,241,75288,1,10,0:0:0:0:
26,294,75374,1,2,0:0:0:0:
59,335,75460,1,2,0:0:0:0:
221,365,75631,5,4,0:0:0:0:
326,325,75803,1,0,0:0:0:0:
326,325,75888,1,0,0:0:0:0:
326,325,75974,2,0,L|401:333,1,59.4999981842042,8|0,0:0|0:0,0:0:0:0:
506,264,76145,2,0,L|431:256,1,59.4999981842042
340,229,76317,1,4,0:0:0:0:
340,229,76403,2,0,B|326:172|360:188|340:105,1,118.999996368408
256,70,76660,2,0,P|270:43|297:27,1,59.4999981842042,8|0,0:0|0:0,0:0:0:0:
429,71,76831,2,0,P|415:44|388:28,1,59.4999981842042
340,96,77003,6,0,B|321:173|355:157|341:214,1,118.999996368408,4|0,0:0|0:0,0:0:0:0:
211,336,77345,1,8,0:0:0:0:
422,303,77517,1,0,0:0:0:0:
214,146,77688,1,6,0:0:0:0:
160,152,77774,1,2,0:0:0:0:
120,188,77860,1,2,0:0:0:0:
106,239,77945,1,2,0:0:0:0:
119,291,78031,1,10,0:0:0:0:
159,326,78117,1,2,0:0:0:0:
211,336,78203,1,2,0:0:0:0:
423,283,78374,6,0,B|387:280|387:280|356:291|356:291|299:285,1,118.999996368408,4|0,0:0|0:0,0:0:0:0:
306,285,78631,1,0,0:0:0:0:
306,285,78717,2,0,L|315:217,1,59.4999981842042,8|0,0:0|0:0,0:0:0:0:
230,149,78888,2,0,L|221:217,1,59.4999981842042
152,284,79060,2,0,P|122:297|86:289,2,59.4999981842042,4|0|0,0:0|0:0|0:0,0:0:0:0:
116,220,79317,2,0,B|125:183|125:183|107:144|107:144|116:102,1,118.999996368408,4|0,0:0|0:0,0:0:0:0:
131,32,79574,1,0,0:0:0:0:
198,189,79745,6,0,B|211:278|211:278|180:263,1,118.999996368408,4|0,0:0|0:0,0:0:0:0:
91,249,80003,1,0,0:0:0:0:
91,249,80088,2,0,B|65:306|65:306|98:363,1,118.999996368408,8|0,0:0|0:0,0:0:0:0:
265,367,80431,1,2,0:0:0:0:
318,373,80517,1,2,0:0:0:0:
369,357,80603,1,2,0:0:0:0:
404,317,80688,1,2,0:0:0:0:
413,264,80774,1,10,0:0:0:0:
394,213,80860,1,2,0:0:0:0:
347,187,80945,1,2,0:0:0:0:
217,302,81117,6,0,L|174:304,3,34,2|0|0|0,0:0|0:0|0:0|0:0,0:0:0:0:
286,255,81288,2,0,L|325:261,3,34,2|0|0|0,0:0|0:0|0:0|0:0,0:0:0:0:
217,302,81460,2,0,B|189:250|189:250|214:195,1,118.999996368408,2|0,0:0|0:0,0:0:0:0:
252,115,81717,1,2,0:0:0:0:
252,115,81781,2,0,L|187:104,1,59.4999981842042,2|0,0:0|0:0,0:0:0:0:
105,136,81952,2,0,P|65:102|165:61,1,187.000005706787,2|2,0:0|0:0,0:0:0:0:
142,36,82488,6,0,L|328:30,1,170,4|0,0:0|0:0,0:0:0:0:
384,131,83003,2,0,L|198:125,2,170,4|0|0,0:0|0:0|0:0,0:0:0:0:
482,180,83860,5,4,0:0:0:0:
467,87,84031,1,0,0:0:0:0:
402,221,84203,2,0,L|412:310,1,85,0|4,0:0|0:0,0:0:0:0:
283,355,84545,1,0,0:0:0:0:
295,247,84717,1,0,0:0:0:0:
200,293,84888,2,0,L|111:303,1,85
52,149,85231,6,0,B|18:169|-5:213|11:270|11:270|46:239,1,170,4|0,0:0|0:0,0:0:0:0:
141,166,85745,2,0,B|156:129|149:80|103:44|103:44|92:89,1,170,4|0,0:0|0:0,0:0:0:0:
109,254,86260,2,0,P|149:263|189:248,1,85
309,223,86603,5,4,0:0:0:0:
415,241,86774,2,0,L|510:254,1,85
292,131,87117,5,4,0:0:0:0:
398,149,87288,2,0,L|493:162,1,85
275,39,87631,5,4,0:0:0:0:
224,191,87803,1,0,0:0:0:0:
275,345,87974,6,0,B|402:371|343:299|478:336,1,204,4|4,0:0|0:0,0:0:0:0:
161,360,88878,1,0,0:0:0:0:
167,273,89065,1,0,0:0:0:0:
173,186,89253,1,0,0:0:0:0:
89,312,89440,5,4,0:0:0:0:
239,321,89640,2,0,B|283:336|283:336|273:204,1,170
236,104,90240,2,0,P|203:115|179:159,1,85,4|0,0:0|0:0,0:0:0:0:
382,227,90668,2,0,P|388:192|362:150,1,85
292,174,91097,6,0,B|292:221|292:221|274:254|274:254|291:284|291:284|290:343,1,170,4|0,0:0|0:0,0:0:0:0:
219,207,91789,2,0,B|219:160|219:160|237:127|237:127|220:97|220:97|221:38,1,170,4|0,0:0|0:0,0:0:0:0:
151,128,92481,1,4,0:0:0:0:
307,128,92712,1,0,0:0:0:0:
117,50,92943,6,0,B|69:36|50:76|71:121|71:121|101:138|92:85|58:85|18:153|62:186|62:186|90:224|77:263|55:268|55:268|34:278|31:325,1,403.75
31,318,97943,6,0,L|224:312,1,178.499994552612,4|4,0:0|0:0,0:0:0:0:
209,312,98693,2,0,L|201:360,1,29.7499990921021,4|0,0:0|0:0,0:0:0:0:
291,305,98818,2,0,L|283:353,1,29.7499990921021,4|0,0:0|0:0,0:0:0:0:
373,298,98943,1,4,0:0:0:0:
373,298,99068,2,0,B|464:303|464:303|436:328,1,118.999996368408,4|0,0:0|0:0,0:0:0:0:
369,273,99443,6,0,L|365:226,1,29.7499990921021,2|2,0:0|0:0,0:0:0:0:
366,228,99568,6,0,L|370:181,1,29.7499990921021,2|2,0:0|0:0,0:0:0:0:
366,179,99693,6,0,L|362:132,1,29.7499990921021,2|2,0:0|0:0,0:0:0:0:
363,134,99818,6,0,L|367:87,1,29.7499990921021,2|2,0:0|0:0,0:0:0:0:
371,77,99943,6,0,P|307:113|247:94,1,136,4|0,0:0|0:0,0:0:0:0:
89,39,100443,2,0,L|161:34,2,68,8|0|0,0:0|0:0|0:0,0:0:0:0:
28,118,100818,2,0,B|21:169|21:169|37:200|37:200|32:250,1,136,4|0,0:0|0:0,0:0:0:0:
90,327,101193,2,0,P|120:339|157:335,1,68,4|0,0:0|0:0,0:0:0:0:
176,199,101443,2,0,P|146:187|109:191,1,68,8|0,0:0|0:0,0:0:0:0:
133,263,101693,1,0,0:0:0:0:
265,348,101943,6,0,B|303:361|303:361|403:350,1,136,4|0,0:0|0:0,0:0:0:0:
487,356,102318,1,0,0:0:0:0:
487,356,102443,2,0,L|475:280,2,68,8|0|0,0:0|0:0|0:0,0:0:0:0:
407,273,102818,2,0,P|439:219|509:224,1,136,4|0,0:0|0:0,0:0:0:0:
419,194,103193,2,0,L|326:190,1,68,4|0,0:0|0:0,0:0:0:0:
264,113,103443,2,0,L|357:109,2,68,8|0|0,0:0|0:0|0:0,0:0:0:0:
442,29,103943,6,0,B|416:75|416:75|428:169,1,136,4|0,0:0|0:0,0:0:0:0:
346,333,104443,2,0,P|312:338|268:315,1,68,8|0,0:0|0:0,0:0:0:0:
324,238,104693,1,0,0:0:0:0:
360,348,104818,2,0,B|292:367|257:326|257:326|305:327,1,136,4|0,0:0|0:0,0:0:0:0:
432,300,105193,2,0,P|444:326|440:374,1,68,4|0,0:0|0:0,0:0:0:0:
324,238,105443,2,0,L|328:163,1,68,8|0,0:0|0:0,0:0:0:0:
383,102,105693,1,0,0:0:0:0:
234,59,105943,6,0,P|241:83|227:135,2,45.3333333333333,2|2|2,0:0|0:0|0:0,0:0:0:0:
154,26,106193,2,0,L|113:21,1,34,2|0,0:0|0:0,0:0:0:0:
103,30,106318,2,0,L|62:25,1,34,2|0,0:0|0:0,0:0:0:0:
51,34,106443,2,0,P|77:96|167:82,1,136,2|0,0:0|0:0,0:0:0:0:
436,71,106943,1,4,0:0:0:0:
289,55,107068,2,0,B|223:72|223:72|294:92,1,136,4|0,0:0|0:0,0:0:0:0:
506,102,107443,2,0,P|513:71|501:31,1,68,4|0,0:0|0:0,0:0:0:0:
367,40,107693,2,0,P|360:71|372:111,1,68,8|0,0:0|0:0,0:0:0:0:
443,188,107943,6,0,B|461:287|461:287|412:278,1,136,4|0,0:0|0:0,0:0:0:0:
208,336,108443,2,0,P|234:363|277:365,1,68,8|0,0:0|0:0,0:0:0:0:
344,337,108693,1,0,0:0:0:0:
270,293,108818,2,0,B|132:299,1,136,4|0,0:0|0:0,0:0:0:0:
36,277,109193,2,0,L|47:350,1,68,4|0,0:0|0:0,0:0:0:0:
104,215,109443,2,0,L|93:142,2,68,8|0|0,0:0|0:0|0:0,0:0:0:0:
29,80,109943,5,6,0:0:0:0:
27,52,110068,1,2,0:0:0:0:
117,41,110193,1,2,0:0:0:0:
119,69,110318,1,2,0:0:0:0:
205,79,110443,2,0,L|277:73,1,68,2|0,0:0|0:0,0:0:0:0:
420,39,110693,2,0,L|492:45,1,68,2|0,0:0|0:0,0:0:0:0:
351,81,110943,5,2,0:0:0:0:
354,100,111068,1,0,0:0:0:0:
422,163,111193,1,2,0:0:0:0:
419,144,111318,1,0,0:0:0:0:
347,63,111443,6,0,B|304:186|373:157|346:263,1,204,8|0,0:0|0:0,0:0:0:0:
294,341,111943,6,0,P|267:363|183:319,1,136,4|0,0:0|0:0,0:0:0:0:
114,274,112318,1,0,0:0:0:0:
114,274,112443,2,0,L|23:285,2,68,8|0|0,0:0|0:0|0:0,0:0:0:0:
247,298,112818,2,0,L|395:277,1,136,4|0,0:0|0:0,0:0:0:0:
327,197,113193,2,0,L|236:208,1,68,4|0,0:0|0:0,0:0:0:0:
429,352,113443,2,0,L|520:341,2,68,8|0|0,0:0|0:0|0:0,0:0:0:0:
280,112,113943,6,0,B|306:89|320:35|320:35|338:71|321:96,1,136,10|4,0:0|0:0,0:0:0:0:
283,270,114318,6,0,B|276:304|296:356|296:356|260:338|259:307,1,136,10|4,0:0|0:0,0:0:0:0:
187,144,114693,6,0,B|173:112|126:82|126:82|166:76|184:100,1,136,10|4,0:0|0:0,0:0:0:0:
339,190,115068,6,0,B|369:207|425:204|425:204|396:232|367:224,1,136,10|4,0:0|0:0,0:0:0:0:
189,242,115443,6,0,B|155:245|111:281|111:281|118:241|146:231,1,136,10|4,0:0|0:0,0:0:0:0:
256,192,115943,5,4,0:0:0:0:
