osu file format v14

[General]
AudioFilename: D.mp3
AudioLeadIn: 0
PreviewTime: 71517
Countdown: 0
SampleSet: Soft
StackLeniency: 0.7
Mode: 0
LetterboxInBreaks: 0
WidescreenStoryboard: 1

[Editor]
DistanceSpacing: 1.2
BeatDivisor: 4
GridSize: 4
TimelineZoom: 4.757757

[Metadata]
Title:D
TitleUnicode:D
Artist:Eagle
ArtistUnicode:Eagle
Creator:P o M u T a
Version:HYPER
Source:beatmania IIDX 17 SIRIUS
Tags:Ways For Liberation ICARUS kors k bemani NEXT SKOOL BREAKBEATS HARDCORE pomuta bluoxy sionkotori faust
BeatmapID:992286
BeatmapSetID:403667

[Difficulty]
HPDrainRate:5
CircleSize:4
OverallDifficulty:6
ApproachRate:8
SliderMultiplier:1.4
SliderTickRate:2

[Events]
//Background and Video events
0,0,"49955889_p0.jpg",0,0
//Break Periods
2,49774,59720
//Storyboard Layer 0 (Background)
//Storyboard Layer 1 (Fail)
//Storyboard Layer 2 (Pass)
//Storyboard Layer 3 (Foreground)
//Storyboard Sound Samples

[TimingPoints]
352,500,4,2,1,40,1,0
13852,-100,4,2,1,60,0,0
16352,-100,4,2,3,50,0,0
19852,-100,4,2,3,60,0,0
28602,-100,4,2,2,60,0,0
28727,-100,4,2,3,60,0,0
32602,-100,4,2,2,60,0,0
32852,-100,4,2,3,60,0,0
34102,-100,4,2,2,60,0,0
34384,461.538461538462,4,2,3,60,1,0
34384,-100,4,2,3,60,0,0
35307,-100,4,2,2,60,0,0
35537,-100,4,2,3,60,0,0
36230,428.571428571429,4,2,3,60,1,0
37944,400,4,2,3,60,1,0
39544,375,4,2,3,60,1,0
39731,-100,4,2,2,60,0,0
39919,-100,4,2,3,60,0,0
40294,352.941176470588,4,2,3,60,1,0
40999,333.333333333333,4,2,3,60,1,0
41665,315.789473684211,4,2,3,60,1,0
42296,300,4,2,3,60,1,0
42446,-100,4,2,2,60,0,0
42596,285.714285714286,4,2,3,60,1,0
42881,272.727272727273,4,2,3,60,1,0
43153,250,4,2,3,60,1,0
43403,1200,4,2,3,60,1,0
48203,342.857142857143,4,2,1,20,1,0
48717,-100,4,2,1,55,0,0
60545,-100,4,2,2,55,0,0
70145,-100,4,2,1,55,0,0
71517,-100,4,2,1,60,0,1
71860,-100,4,2,2,60,0,1
71945,-100,4,2,1,60,0,1
73917,-100,4,2,2,60,0,1
74260,-100,4,2,1,60,0,1
74603,-100,4,2,2,60,0,1
74688,-100,4,2,1,60,0,1
76660,-100,4,2,2,60,0,1
76745,-100,4,2,1,60,0,1
77345,-100,4,2,2,60,0,1
77431,-100,4,2,1,60,0,1
79403,-100,4,2,2,60,0,1
79745,-100,4,2,1,60,0,1
80088,-100,4,2,2,60,0,1
80174,-100,4,2,1,60,0,1
81781,342.857142857143,4,2,1,60,1,0
82488,342.857142857143,4,2,2,60,1,0
82488,-100,4,2,2,60,0,0
83860,-100,4,2,2,55,0,0
84373,-100,4,2,3,55,0,0
84459,-100,4,2,2,55,0,0
85231,-100,4,2,2,50,0,0
86603,-100,4,2,2,45,0,0
87974,352.941176470588,4,2,2,40,1,0
88503,375,4,2,2,40,1,0
89440,400,4,2,2,35,1,0
90240,428.571428571429,4,2,2,35,1,0
91097,461.538461538462,4,2,2,30,1,0
92481,-100,4,2,2,25,0,0
92943,2000,4,2,1,20,1,0
97693,-100,4,2,1,10,0,0
97943,500,4,2,1,50,1,0
99943,-100,4,2,1,60,0,0
100068,-100,4,2,2,60,0,0
107943,-100,4,2,1,60,0,0
108068,-100,4,2,2,60,0,0
115943,-100,4,2,1,60,0,0

[Colours]
Combo1 : 216,216,216
Combo2 : 191,255,255
Combo3 : 83,83,255
Combo4 : 255,47,255

[HitObjects]
445,73,352,6,0,L|440:154,1,70,6|2,0:0|0:0,0:0:0:0:
358,122,852,2,0,L|363:203,1,70,2|2,0:0|0:0,0:0:0:0:
346,274,1352,1,2,0:0:0:0:
322,299,1477,2,0,P|302:306|242:298,1,70,0|0,0:0|0:0,0:0:0:0:
215,284,1852,2,0,L|163:288,2,35,2|0|2,0:0|0:0|0:0,0:0:0:0:
256,210,2352,5,2,0:0:0:0:
209,141,2602,1,2,0:0:0:0:
169,127,2727,1,0,0:0:0:0:
132,51,2977,1,0,0:0:0:0:
95,71,3102,1,2,0:0:0:0:
12,53,3352,2,0,P|11:88|30:126,1,70,2|2,0:0|0:0,0:0:0:0:
81,181,3852,2,0,P|93:237|74:285,1,105,2|0,0:0|0:0,0:0:0:0:
52,315,4352,5,2,0:0:0:0:
116,368,4602,1,2,0:0:0:0:
116,368,4727,1,0,0:0:0:0:
116,368,4852,1,2,0:0:0:0:
184,319,5102,1,2,0:0:0:0:
262,348,5352,1,2,0:0:0:0:
302,357,5477,2,0,P|338:361|381:350,1,70,0|0,0:0|0:0,0:0:0:0:
406,332,5852,2,0,L|402:254,1,70,2|2,0:0|0:0,0:0:0:0:
450,192,6352,6,0,P|396:234|328:220,1,140,2|2,0:0|0:0,0:0:0:0:
257,177,7102,1,2,0:0:0:0:
180,141,7352,2,0,L|33:149,1,140,2|2,0:0|0:0,0:0:0:0:
8,226,8102,2,0,P|9:244|20:266,1,35,2|0,0:0|0:0,0:0:0:0:
35,296,8352,6,0,P|39:332|20:370,2,70,2|2|2,0:0|0:0|0:0,0:0:0:0:
87,229,9102,1,2,0:0:0:0:
11,79,9602,1,2,0:0:0:0:
178,88,10102,1,2,0:0:0:0:
242,141,10352,6,0,L|329:131,1,70,2|2,0:0|0:0,0:0:0:0:
353,127,10727,1,0,0:0:0:0:
394,125,10852,2,0,P|412:155|415:192,1,70,2|2,0:0|0:0,0:0:0:0:
498,175,11352,2,0,P|498:209|482:243,1,70,2|2,0:0|0:0,0:0:0:0:
505,322,11852,2,0,P|449:318|397:356,1,105,2|0,0:0|0:0,0:0:0:0:
374,366,12352,5,2,0:0:0:0:
291,382,12602,1,2,0:0:0:0:
221,334,12852,1,2,0:0:0:0:
212,250,13102,1,2,0:0:0:0:
265,185,13352,2,0,L|258:144,3,35,2|0|2|0,0:0|0:0|0:0|0:0,0:0:0:0:
226,124,13852,2,0,L|178:128,1,35,8|8,0:1|0:1,0:0:0:0:
150,116,14102,6,0,L|135:68,1,46.6666666666667,8|8,0:1|0:1,0:0:0:0:
114,53,14352,6,0,P|61:41|19:65,1,105,4|4,0:1|0:0,0:0:0:0:
1,189,15102,2,0,L|3:227,2,35,4|8|8,0:0|0:1|0:2,0:0:0:0:
31,160,15477,2,0,L|120:171,1,70,4|0,0:0|3:0,0:0:0:0:
140,154,15852,2,0,P|126:201|140:255,1,105,8|0,0:1|0:0,0:0:0:0:
169,284,16352,5,6,0:0:0:0:
252,272,16602,1,2,0:0:0:0:
294,199,16852,2,0,P|295:164|283:125,1,70,2|0,1:0|0:0,0:0:0:0:
257,98,17227,1,2,1:0:0:0:
317,39,17477,1,0,0:0:0:0:
317,39,17602,2,0,L|391:30,1,70,10|8,0:2|0:1,0:0:0:0:
469,41,18102,2,0,L|478:78,1,35,4|0,0:0|0:0,0:0:0:0:
500,110,18352,6,0,L|487:178,1,70,10|0,0:0|0:0,0:0:0:0:
412,216,18852,2,0,P|432:243|466:261,1,70,10|8,0:0|0:0,0:0:0:0:
496,337,19352,1,2,0:0:0:0:
454,332,19477,1,2,0:0:0:0:
412,336,19602,1,10,0:0:0:0:
376,357,19727,1,2,0:0:0:0:
335,366,19852,2,0,P|304:371|262:361,1,70,2|0,0:0|0:0,0:0:0:0:
225,289,20352,6,0,P|234:253|229:218,2,70,8|4|0,0:0|0:0|1:0,0:0:0:0:
151,329,21102,2,0,L|157:374,1,35,2|0,0:0|1:0,0:0:0:0:
78,329,21477,2,0,L|83:372,1,35,0|8,0:0|0:0,0:0:0:0:
5,329,21852,2,0,L|10:372,1,35,8|8,0:1|0:0,0:0:0:0:
57,246,22352,6,0,L|47:207,3,35,8|0|0|0,0:0|0:0|0:0|0:0,0:0:0:0:
72,177,22852,2,0,L|105:168,3,35,0|0|8|0,0:0|0:0|0:0|0:0,0:0:0:0:
137,140,23352,2,0,L|127:101,1,35,0|0,1:0|1:0,0:0:0:0:
194,54,23727,1,0,0:0:0:0:
230,74,23852,2,0,L|274:74,3,35,8|8|8|8,0:0|0:0|0:0|0:0,0:0:0:0:
306,72,24352,6,0,P|324:103|323:141,1,70,4|0,0:0|0:0,0:0:0:0:
257,187,24852,2,0,L|266:259,1,70,0|0,1:0|0:0,0:0:0:0:
347,274,25352,1,0,0:0:0:0:
343,315,25477,1,0,0:0:0:0:
340,356,25602,2,0,L|392:353,1,35,8|0,0:0|0:0,0:0:0:0:
417,349,25852,2,0,P|454:332|471:303,1,70,8|0,0:1|0:0,0:0:0:0:
485,225,26352,5,8,0:0:0:0:
485,225,26477,1,8,0:0:0:0:
485,225,26602,2,0,L|478:178,1,35,8|8,0:0|0:0,0:0:0:0:
421,130,26977,2,0,L|400:91,1,35,0|0,0:0|1:0,0:0:0:0:
328,62,27352,2,0,L|289:54,1,35,0|0,0:0|1:0,0:0:0:0:
172,21,27852,2,0,B|159:50|159:50|168:125,1,105,2|0,0:0|0:0,0:0:0:0:
181,162,28352,6,0,L|99:167,1,70,4|4,0:0|0:0,0:0:0:0:
69,171,28727,2,0,P|65:208|80:257,1,70,0|0,1:0|0:0,0:0:0:0:
91,276,29102,1,8,0:0:0:0:
172,255,29352,2,0,L|211:253,3,35,0|0|8|0,0:0|0:0|0:0|0:0,0:0:0:0:
244,235,29852,2,0,L|254:310,1,70,8|0,0:1|0:0,0:0:0:0:
324,260,30352,6,0,L|333:190,1,70,4|8,0:0|0:0,0:0:0:0:
362,220,30727,2,0,L|382:337,1,105,8|8,0:0|0:0,0:0:0:0:
450,277,31352,1,8,0:0:0:0:
460,236,31477,2,0,L|474:164,1,70,12|0,0:0|1:0,0:0:0:0:
502,136,31852,2,0,B|470:144|470:144|434:130|434:130|400:138,1,105,0|0,0:0|0:0,0:0:0:0:
359,145,32352,6,0,P|349:109|357:77,1,70,4|4,0:0|0:0,0:0:0:0:
306,203,32852,1,0,1:0:0:0:
306,203,33352,1,0,0:0:0:0:
256,270,33602,1,8,0:0:0:0:
206,203,33852,2,0,L|129:203,1,70,8|8,0:1|0:0,0:0:0:0:
43,246,34384,6,0,P|47:207|37:175,1,70,8|0,0:0|0:0,0:0:0:0:
8,147,34730,2,0,L|11:70,1,70,0|0,0:0|0:0,0:0:0:0:
37,44,35076,1,8,2:0:0:0:
112,80,35307,2,0,L|190:75,1,70,8|8,2:0|2:0,0:0:0:0:
253,32,35768,2,0,P|303:53|363:49,1,105,0|0,0:0|0:0,0:0:0:0:
395,35,36230,6,0,L|401:118,1,70,4|0,0:0|0:0,0:0:0:0:
326,145,36658,2,0,L|347:222,1,70,0|0,1:0|0:0,0:0:0:0:
369,247,36980,2,0,P|310:242|269:259,2,105,0|8|8,1:0|0:0|0:0,0:0:0:0:
471,335,37944,6,0,P|484:284|468:231,1,105,12|0,0:0|0:0,0:0:0:0:
502,112,38544,2,0,P|451:125|398:109,1,105,8|8,0:0|0:0,0:0:0:0:
300,35,39144,2,0,L|293:76,3,35,0|0|0|0,1:0|0:0|1:0|0:0,0:0:0:0:
313,110,39544,6,0,P|276:109|238:120,1,70,4|4,0:0|0:0,0:0:0:0:
169,155,39919,1,0,1:0:0:0:
151,237,40106,1,0,0:0:0:0:
204,308,40294,6,0,L|286:298,2,70,2|8|8,0:3|0:0|0:1,0:0:0:0:
120,320,40823,1,0,0:0:0:0:
32,332,40999,6,0,P|22:293|23:258,1,70,4|0,0:0|1:0,0:0:0:0:
43,226,41249,2,0,P|53:187|52:152,1,70,0|0,0:0|1:0,0:0:0:0:
38,117,41499,1,0,1:0:0:0:
85,42,41665,6,0,L|154:38,1,70,0|0,1:0|0:0,0:0:0:0:
236,20,41980,2,0,P|233:71|190:115,1,105,0|0,1:0|0:0,0:0:0:0:
160,133,42296,6,0,L|167:214,1,70,4|0,0:0|1:0,0:0:0:0:
249,174,42596,6,0,L|256:255,1,70,0|0,1:0|1:0,0:0:0:0:
338,215,42881,6,0,L|345:296,1,70,0|0,0:0|1:0,0:0:0:0:
427,256,43153,6,0,L|434:337,1,70,0|0,1:0|0:0,0:0:0:0:
256,192,43403,12,8,48203,0:3:0:0:
256,192,48288,12,6,49574,0:1:0:0:
458,165,60545,5,6,0:1:0:0:
385,207,60717,1,2,0:1:0:0:
321,152,60888,2,0,L|314:81,1,70,10|2,0:1|0:1,0:0:0:0:
256,21,61231,1,2,0:1:0:0:
172,30,61403,1,8,0:1:0:0:
255,38,61574,1,2,0:1:0:0:
171,47,61746,1,10,0:1:0:0:
97,86,61917,6,0,P|82:153|108:217,1,140,2|8,0:1|0:1,0:0:0:0:
190,234,62431,2,0,B|230:243|230:243|286:221|286:221|328:230,1,140,2|8,0:1|0:1,0:0:0:0:
190,234,62945,2,0,L|195:303,1,70,2|10,0:1|0:1,0:0:0:0:
134,362,63288,5,2,0:1:0:0:
115,279,63460,1,2,0:1:0:0:
195,303,63631,2,0,P|227:313|265:308,1,70,10|2,0:1|0:1,0:0:0:0:
134,362,63974,2,0,P|102:352|64:357,1,70,2|8,0:1|0:1,0:0:0:0:
21,284,64317,2,0,L|18:209,1,70,2|10,0:1|0:1,0:0:0:0:
12,129,64660,6,0,P|80:124|137:79,1,140,2|8,0:1|0:1,0:0:0:0:
178,9,65174,2,0,P|183:77|228:134,1,140,2|8,0:1|0:1,0:0:0:0:
308,146,65688,1,2,0:1:0:0:
390,127,65860,1,10,0:1:0:0:
436,57,66031,5,2,0:1:0:0:
436,57,66203,1,2,0:1:0:0:
436,57,66374,1,10,0:1:0:0:
501,279,66717,2,0,L|505:210,1,70,2|8,0:1|0:1,0:0:0:0:
427,238,67060,2,0,L|423:307,1,70,2|8,0:1|0:1,0:0:0:0:
345,335,67403,6,0,L|354:169,1,140,2|8,0:1|0:1,0:0:0:0:
304,265,67917,2,0,P|235:280|176:246,1,140,2|8,0:1|0:1,0:0:0:0:
122,183,68431,1,2,0:1:0:0:
38,193,68603,1,10,0:1:0:0:
0,267,68774,6,0,L|10:337,1,70,2|2,0:1|0:1,0:0:0:0:
38,193,69117,2,0,L|48:123,1,70,10|0,0:1|0:0,0:0:0:0:
114,72,69460,2,0,L|157:78,3,35,0|2|0|2,0:0|0:0|0:0|0:0,0:0:0:0:
190,82,69803,1,2,0:1:0:0:
256,31,69974,1,2,0:1:0:0:
322,82,70145,5,8,0:1:0:0:
340,72,70231,1,8,0:1:0:0:
358,62,70317,1,8,0:1:0:0:
437,89,70488,1,8,0:1:0:0:
401,165,70660,1,8,0:1:0:0:
411,183,70746,1,8,0:1:0:0:
421,201,70832,1,8,0:1:0:0:
394,280,71003,1,8,0:1:0:0:
323,235,71174,1,8,0:0:0:0:
256,285,71345,2,0,P|256:308|262:326,1,35,8|8,0:1|0:1,0:0:0:0:
267,340,71517,6,0,P|229:343|199:357,1,70,6|2,0:1|0:1,0:0:0:0:
125,376,71860,1,10,0:1:0:0:
68,324,72031,1,8,0:1:0:0:
137,277,72203,2,0,L|142:240,3,35,2|2|2|2,0:0|0:0|0:0|0:0,0:0:0:0:
126,227,72545,2,0,L|90:233,3,35,10|2|2|2,0:0|0:0|0:0|0:0,0:0:0:0:
72,223,72888,6,0,P|60:189|64:146,1,70,10|0,0:1|0:0,0:0:0:0:
73,138,73145,2,0,L|71:96,1,35,2|8,0:1|0:0,0:0:0:0:
122,35,73403,2,0,P|160:40|203:29,1,70,10|0,0:1|0:0,0:0:0:0:
211,28,73660,1,2,0:1:0:0:
294,22,73831,2,0,P|315:56|332:126,1,105,0|2,0:0|0:1,0:0:0:0:
259,160,74260,6,0,L|267:233,1,70,10|2,0:1|0:1,0:0:0:0:
197,278,74603,2,0,L|130:260,1,70,10|8,0:1|0:1,0:0:0:0:
53,295,74945,2,0,L|58:333,3,35,2|2|2|2,0:0|0:0|0:0|0:0,0:0:0:0:
78,326,75288,2,0,L|83:364,3,35,10|2|2|2,0:0|0:0|0:0|0:0,0:0:0:0:
103,360,75631,6,0,P|159:353|212:367,1,105,10|2,0:1|0:1,0:0:0:0:
226,369,75974,1,8,0:0:0:0:
288,312,76145,2,0,P|281:256|295:203,1,105,10|2,0:1|0:1,0:0:0:0:
297,189,76488,1,8,0:1:0:0:
372,151,76660,2,0,L|453:155,1,70,10|2,0:1|0:1,0:0:0:0:
509,204,77003,5,6,0:1:0:0:
502,287,77174,1,2,0:1:0:0:
431,241,77345,2,0,L|350:245,1,70,10|8,0:1|0:1,0:0:0:0:
285,281,77688,2,0,L|290:324,3,35,2|2|2|2,0:0|0:0|0:0|0:0,0:0:0:0:
246,317,78031,2,0,L|241:282,3,35,10|2|2|2,0:0|0:0|0:0|0:0,0:0:0:0:
199,282,78374,6,0,L|125:285,1,70,10|0,0:1|0:0,0:0:0:0:
107,285,78631,2,0,L|105:331,1,35,10|8,0:1|0:0,0:0:0:0:
26,349,78888,2,0,L|34:240,1,105,10|2,0:1|0:1,0:0:0:0:
36,223,79231,1,8,0:1:0:0:
3,145,79403,2,0,P|37:137|73:146,1,70,10|2,0:1|0:1,0:0:0:0:
143,185,79745,6,0,L|218:182,1,70,10|2,0:1|0:1,0:0:0:0:
256,254,80088,1,10,0:1:0:0:
172,268,80260,1,8,0:1:0:0:
224,333,80431,2,0,L|299:330,1,70,2|2,0:0|0:0,0:0:0:0:
371,297,80774,2,0,L|390:332,3,35,10|2|2|2,0:0|0:0|0:0|0:0,0:0:0:0:
398,345,81117,5,8,0:0:0:0:
256,192,81203,12,4,82488,0:3:0:0:
299,236,82831,5,8,0:0:0:0:
255,308,83003,2,0,L|98:292,2,140,4|8|8,0:3|0:0|0:0,0:0:0:0:
299,236,83860,2,0,P|304:165|273:101,1,140,4|8,0:3|0:0,0:0:0:0:
196,74,84374,1,8,0:0:0:0:
275,104,84545,2,0,L|352:97,1,70,8|0,0:0|0:0,0:0:0:0:
196,74,84888,2,0,L|126:67,1,70,0|8,0:0|0:0,0:0:0:0:
64,10,85231,6,0,P|41:73|72:134,1,140,4|8,0:3|0:0,0:0:0:0:
136,187,85745,2,0,P|159:252|128:312,1,140,4|8,0:3|0:0,0:0:0:0:
60,362,86260,2,0,P|44:320|47:291,1,70,0|8,0:0|0:0,0:0:0:0:
128,312,86603,5,4,0:3:0:0:
210,328,86774,1,8,0:0:0:0:
292,344,86945,1,8,0:0:0:0:
353,286,87117,2,0,L|430:273,2,70,4|8|8,0:3|0:0|0:0,0:0:0:0:
292,227,87631,2,0,P|289:188|302:158,1,70,4|8,0:3|0:0,0:0:0:0:
375,126,87974,6,0,B|263:170|263:112|170:126,1,210,4|4,0:3|0:3,0:0:0:0:
14,190,88878,5,8,0:0:0:0:
47,266,89065,1,0,0:0:0:0:
14,343,89253,1,8,0:0:0:0:
47,266,89440,6,0,L|262:266,1,210,4|0,0:3|1:0,0:0:0:0:
299,199,90240,6,0,B|280:266|280:266|313:348,1,140,8|8,0:0|0:0,0:0:0:0:
356,140,90882,1,8,0:0:0:0:
314,73,91097,6,0,L|172:74,1,140,4|8,0:3|0:0,0:0:0:0:
382,52,91789,6,0,L|242:52,1,140,4|8,0:3|0:0,0:0:0:0:
450,30,92481,6,0,L|353:31,1,70
256,192,92943,12,0,97693,0:0:0:0:
447,151,97943,6,0,L|441:261,1,105,4|4,0:1|0:0,0:0:0:0:
319,286,98693,2,0,L|314:244,2,35,4|8|8,0:0|0:1|0:2,0:0:0:0:
326,327,99068,1,4,0:0:0:0:
256,373,99318,1,0,3:0:0:0:
217,356,99443,2,0,L|106:364,1,105,8|0,0:1|0:0,0:0:0:0:
70,368,99943,5,4,0:0:0:0:
13,305,100193,1,0,0:0:0:0:
49,229,100443,2,0,P|52:192|48:159,1,70,8|0,0:0|0:0,0:0:0:0:
37,118,100818,2,0,L|116:113,1,70,0|8,0:0|0:0,0:0:0:0:
148,110,101193,2,0,P|148:127|152:144,1,35,0|0,0:0|0:0,0:0:0:0:
182,174,101443,1,8,0:0:0:0:
222,185,101568,1,0,0:0:0:0:
263,179,101693,2,0,P|301:181|332:199,1,70,0|8,0:0|0:0,0:0:0:0:
366,271,102193,5,0,0:0:0:0:
375,312,102318,1,0,0:0:0:0:
361,351,102443,2,0,L|291:350,1,70,8|8,0:0|0:0,0:0:0:0:
256,325,102818,2,0,L|256:251,2,70,0|0|0,0:0|0:0|0:0,0:0:0:0:
222,351,103443,2,0,L|172:350,2,35,8|0|0,0:0|0:0|0:0,0:0:0:0:
112,370,103943,6,0,P|114:331|104:297,1,70,8|4,0:0|0:0,0:0:0:0:
54,234,104443,2,0,L|50:153,1,70,8|0,0:0|0:0,0:0:0:0:
82,136,104818,2,0,L|3:132,2,70,0|0|0,0:0|0:0|0:0,0:0:0:0:
123,130,105443,1,8,0:0:0:0:
164,124,105568,1,0,0:0:0:0:
205,118,105693,1,0,0:0:0:0:
256,184,105943,6,0,L|278:177,2,23.3333333333333
238,206,106193,6,0,P|229:233|230:260,1,35,8|0,0:0|0:0,0:0:0:0:
237,280,106443,2,0,P|251:304|273:320,1,35
290,334,106693,1,0,0:0:0:0:
374,334,106943,2,0,P|410:276|411:204,1,140,8|0,0:0|0:0,0:0:0:0:
383,126,107693,2,0,L|405:94,2,35,0|0|4,0:0|0:0|0:0,0:0:0:0:
298,128,108193,5,0,0:0:0:0:
218,100,108443,2,0,P|181:90|142:94,1,70,8|0,0:0|0:0,0:0:0:0:
111,110,108818,2,0,L|100:36,2,70,0|0|0,0:0|0:0|0:0,0:0:0:0:
94,148,109443,1,8,0:0:0:0:
77,186,109568,1,0,0:0:0:0:
60,224,109693,1,0,0:0:0:0:
138,253,109943,6,0,L|148:308,3,35,8|0|8|0,0:0|1:0|0:0|3:0,0:0:0:0:
117,319,110443,2,0,P|150:310|185:313,1,70,8|8,0:0|0:0,0:0:0:0:
225,326,110818,2,0,L|231:252,1,70,0|0,3:0|0:0,0:0:0:0:
233,214,111193,1,0,3:0:0:0:
236,172,111318,1,0,0:0:0:0:
239,130,111443,2,0,L|205:130,2,35,8|0|0,0:0|0:0|0:0,0:0:0:0:
309,84,111943,5,8,0:0:0:0:
387,114,112193,2,0,L|403:155,1,35,0|0,0:0|0:0,0:0:0:0:
442,146,112443,2,0,P|432:183|431:221,1,70,8|8,0:0|0:0,0:0:0:0:
429,256,112818,2,0,L|499:240,2,70,0|8|0,0:0|0:0|0:0,0:0:0:0:
392,276,113443,2,0,P|385:302|388:326,1,35,8|0,0:0|0:0,0:0:0:0:
396,350,113693,1,0,0:0:0:0:
312,356,113943,6,0,L|226:336,1,70,8|0,0:0|1:0,0:0:0:0:
222,376,114318,2,0,L|157:315,1,70,8|0,0:0|0:0,0:0:0:0:
137,353,114693,2,0,L|111:268,1,70,0|0,1:0|1:0,0:0:0:0:
76,298,115068,2,0,L|96:211,1,70,8|0,0:0|0:0,0:0:0:0:
71,192,115443,2,0,L|37:192,3,35,0|0|8|2,0:0|0:0|0:0|0:3,0:0:0:0:
8,160,115943,5,4,0:0:0:0:
