osu file format v14

[General]
AudioFilename: D.mp3
AudioLeadIn: 0
PreviewTime: 71517
Countdown: 0
SampleSet: Soft
StackLeniency: 0.7
Mode: 0
LetterboxInBreaks: 0
WidescreenStoryboard: 0

[Editor]
DistanceSpacing: 1.1
BeatDivisor: 16
GridSize: 4
TimelineZoom: 2.957759

[Metadata]
Title:D
TitleUnicode:D
Artist:Eagle
ArtistUnicode:Eagle
Creator:P o M u T a
Version:Faust's ANOTHER
Source:beatmania IIDX 17 SIRIUS
Tags:Ways For Liberation ICARUS kors k bemani NEXT SKOOL BREAKBEATS HARDCORE pomuta bluoxy sionkotori faust
BeatmapID:1000075
BeatmapSetID:403667

[Difficulty]
HPDrainRate:8
CircleSize:4
OverallDifficulty:7
ApproachRate:9
SliderMultiplier:1.6
SliderTickRate:2

[Events]
//Background and Video events
0,0,"49955889_p0.jpg",0,0
//Break Periods
//Storyboard Layer 0 (Background)
//Storyboard Layer 1 (Fail)
//Storyboard Layer 2 (Pass)
//Storyboard Layer 3 (Foreground)
//Storyboard Sound Samples

[TimingPoints]
352,500,4,2,1,40,1,0
15789,-133.333333333333,4,2,1,60,0,0
16352,-133.333333333333,4,2,3,50,0,0
16477,-100,4,2,3,50,0,0
19852,-76.9230769230769,4,2,3,50,0,0
27789,-66.6666666666667,4,2,3,50,0,0
28602,-66.6666666666667,4,2,2,50,0,0
28727,-66.6666666666667,4,2,3,50,0,0
32352,-66.6666666666667,4,2,3,60,0,0
32602,-66.6666666666667,4,2,2,60,0,0
32852,-66.6666666666667,4,2,3,60,0,0
34102,-66.6666666666667,4,2,2,60,0,0
34384,461.538461538462,4,2,3,60,1,0
34499,-76.9230769230769,4,2,3,60,0,0
35307,-76.9230769230769,4,2,2,60,0,0
35537,-76.9230769230769,4,2,3,60,0,0
35710,-66.6666666666667,4,2,3,60,0,0
36230,428.571428571429,4,2,3,60,1,0
36551,-76.9230769230769,4,2,3,60,0,0
37944,400,4,2,3,60,1,0
38844,-76.9230769230769,4,2,3,60,0,0
39544,375,4,2,3,60,1,0
39825,-76.9230769230769,4,2,2,60,0,0
39919,-76.9230769230769,4,2,3,60,0,0
40294,352.941176470588,4,2,3,60,1,0
40999,333.333333333333,4,2,3,60,1,0
41665,315.789473684211,4,2,3,60,1,0
41901,-76.9230769230769,4,2,3,60,0,0
42296,300,4,2,3,60,1,0
42596,285.714285714286,4,2,3,60,1,0
42881,272.727272727273,4,2,3,60,1,0
43153,250,4,2,3,60,1,0
43153,-76.9230769230769,4,2,3,60,0,0
43403,1200,4,2,3,65,1,0
48203,342.857142857143,4,2,1,20,1,0
48717,-100,4,2,1,50,0,0
49574,-100,4,2,1,65,0,0
60545,-100,4,2,2,65,0,1
60888,-100,4,2,2,65,0,0
65945,-76.9230769230769,4,2,2,65,0,0
70145,-76.9230769230769,4,2,1,65,0,0
71517,-76.9230769230769,4,2,1,70,0,1
71860,-76.9230769230769,4,2,2,70,0,1
71945,-76.9230769230769,4,2,1,70,0,1
73917,-76.9230769230769,4,2,2,70,0,1
74260,-76.9230769230769,4,2,1,70,0,1
74603,-76.9230769230769,4,2,2,70,0,1
74688,-76.9230769230769,4,2,1,70,0,1
76660,-76.9230769230769,4,2,2,70,0,1
76745,-76.9230769230769,4,2,1,70,0,1
77345,-76.9230769230769,4,2,2,70,0,1
77431,-76.9230769230769,4,2,1,70,0,1
79403,-76.9230769230769,4,2,2,70,0,1
79745,-76.9230769230769,4,2,1,70,0,1
80088,-76.9230769230769,4,2,2,70,0,1
80174,-76.9230769230769,4,2,1,70,0,1
81781,342.857142857143,4,2,1,70,1,0
81781,-76.9230769230769,4,2,1,70,0,0
82488,342.857142857143,4,2,2,60,1,0
82488,-76.9230769230769,4,2,2,60,0,0
82917,-100,4,2,2,60,0,0
83860,-100,4,2,2,55,0,0
85231,-100,4,2,2,50,0,0
86603,-100,4,2,2,45,0,0
87974,352.941176470588,4,2,2,40,1,0
88503,375,4,2,2,40,1,0
89440,400,4,2,2,35,1,0
90240,428.571428571429,4,2,2,35,1,0
91097,461.538461538462,4,2,2,30,1,0
91673,-133.333333333333,4,2,2,30,0,0
92481,-133.333333333333,4,2,2,25,0,0
92943,2000,4,2,1,20,1,0
97693,-100,4,2,1,10,0,0
97943,500,4,2,1,50,1,0
99943,-100,4,2,1,60,0,0
100068,-100,4,2,2,60,0,0
107943,-100,4,2,1,60,0,0
108068,-100,4,2,2,60,0,0
113880,-76.9230769230769,4,2,2,60,0,0
114255,-66.6666666666667,4,2,2,60,0,0
115943,-66.6666666666667,4,2,1,60,0,0
117943,-66.6666666666667,4,2,1,20,0,0

[Colours]
Combo1 : 216,216,216
Combo2 : 191,255,255
Combo3 : 83,83,255
Combo4 : 255,47,255

[HitObjects]
96,40,352,6,0,L|84:88,1,40,6|0,0:0|0:0,0:0:0:0:
52,100,602,2,0,L|56:144,1,40,2|0,0:0|0:0,0:0:0:0:
48,180,852,1,2,0:0:0:0:
204,240,1102,1,2,0:0:0:0:
204,240,1227,2,0,B|192:200|204:152,1,80,0|0,0:0|0:0,0:0:0:0:
360,72,1602,2,0,B|372:112|360:160,1,80,2|2,0:0|0:0,0:0:0:0:
256,288,2102,1,2,0:0:0:0:
416,344,2352,6,0,L|428:296,1,40,2|0,0:0|0:0,0:0:0:0:
460,284,2602,2,0,L|456:240,1,40,2|0,0:0|0:0,0:0:0:0:
464,204,2852,1,2,0:0:0:0:
296,120,3102,1,2,0:0:0:0:
296,120,3227,2,0,B|256:120|216:136,1,80,0|0,0:0|0:0,0:0:0:0:
56,244,3602,2,0,B|96:256|140:252,2,80,2|2|0,0:0|0:0|0:0,0:0:0:0:
40,84,4352,6,0,L|80:56,1,40,2|0,0:0|0:0,0:0:0:0:
112,80,4602,2,0,L|152:72,1,40,2|0,0:0|0:0,0:0:0:0:
188,92,4852,1,2,0:0:0:0:
352,232,5102,2,0,B|344:188,1,40,2|0,0:0|0:0,0:0:0:0:
168,268,5477,2,0,B|164:308,2,40,0|2|0,0:0|0:0|0:0,0:0:0:0:
184,200,5852,2,0,B|220:192|264:192,1,80,2|2,0:0|0:0,0:0:0:0:
392,192,6352,6,0,P|432:276|396:344,1,160,2|2,0:0|0:0,0:0:0:0:
216,332,7102,1,2,0:0:0:0:
184,336,7227,1,0,0:0:0:0:
152,340,7352,2,0,B|116:316|116:316|104:256|148:208,2,160,2|2|2,0:0|0:0|0:0,0:0:0:0:
328,320,8602,5,2,0:0:0:0:
312,192,8852,1,2,0:0:0:0:
436,156,9102,1,2,0:0:0:0:
436,156,9227,2,0,B|420:244,1,80,0|0,0:0|0:0,0:0:0:0:
216,232,9602,1,2,0:0:0:0:
224,192,9727,1,0,0:0:0:0:
232,152,9852,2,0,B|244:72,2,80,2|2|2,0:0|0:0|0:0,0:0:0:0:
216,232,10477,6,0,B|260:256,2,40,0|2|0,0:0|0:0|0:0,0:0:0:0:
116,148,10852,2,0,B|92:184|92:232,1,80,2|2,0:0|0:0,0:0:0:0:
292,304,11227,2,0,B|308:264|296:216,1,80,0|0,0:0|0:0,0:0:0:0:
298,225,11602,2,0,L|244:208,1,40,2|0,0:0|0:0,0:0:0:0:
368,244,11852,2,0,P|448:248|500:188,1,160,2|2,0:0|0:0,0:0:0:0:
432,76,12602,1,2,0:0:0:0:
300,40,12852,6,0,B|316:120,1,80,2|2,0:0|0:0,0:0:0:0:
188,72,13227,2,0,B|204:152,1,80,0|0,0:0|0:0,0:0:0:0:
76,100,13602,2,0,B|92:180,1,80,2|8,0:0|0:1,0:0:0:0:
99,205,13977,1,8,0:1:0:0:
108,248,14102,2,0,L|116:284,3,26.6666666666667,8|8|8|4,0:1|0:1|0:1|0:1,0:0:0:0:
352,220,14727,1,4,0:0:0:0:
352,220,15102,6,0,B|392:240,2,40,4|8|8,0:0|0:1|0:2,0:0:0:0:
328,152,15477,2,0,B|304:68,1,80,4|0,0:0|3:0,0:0:0:0:
160,192,15852,2,0,B|188:308,1,119.999996423721,8|6,0:1|0:0,0:0:0:0:
348,324,16602,5,2,0:0:0:0:
436,192,16852,2,0,B|448:236|432:280,1,80,2|0,1:0|0:0,0:0:0:0:
292,192,17227,2,0,B|296:148|324:108,1,80,2|0,1:0|0:0,0:0:0:0:
317,117,17602,2,0,L|368:100,1,40,10|0,0:2|0:0,0:0:0:0:
252,132,17852,2,0,B|211:143|163:135,1,80,8|4,0:1|0:0,0:0:0:0:
60,104,18227,1,0,0:0:0:0:
60,104,18352,6,0,B|44:148|60:192,1,80,10|0,0:0|0:0,0:0:0:0:
96,208,18727,1,0,0:0:0:0:
136,232,18852,2,0,B|216:272,2,80,10|8|2,0:0|0:0|0:0,0:0:0:0:
96,208,19477,1,2,0:0:0:0:
108,156,19602,1,10,0:0:0:0:
144,116,19727,1,2,0:0:0:0:
192,92,19852,2,0,B|260:72|336:96|336:96|308:156,1,207.99999628067,2|8,0:0|0:0,0:0:0:0:
268,248,20602,5,4,0:0:0:0:
256,352,20852,2,0,B|148:356,1,103.999998140335,0|2,1:0|0:0,0:0:0:0:
36,232,21227,2,0,B|144:228,1,103.999998140335,0|0,1:0|0:0,0:0:0:0:
139,228,21602,2,0,B|164:272,2,51.9999990701676,8|0|8,0:0|0:0|0:1,0:0:0:0:
128,176,21977,1,8,0:0:0:0:
128,124,22102,1,0,0:0:0:0:
164,88,22227,1,0,0:0:0:0:
212,84,22352,6,0,L|264:176,1,103.999995239258,8|0,0:0|0:0,0:0:0:0:
420,228,22727,2,0,B|360:228,3,51.9999990701676,0|0|0|8,0:0|0:0|0:0|0:0,0:0:0:0:
368,228,23227,2,0,L|328:324,2,103.999995239258,0|0|0,0:0|1:0|0:0,0:0:0:0:
372,120,23852,1,8,0:0:0:0:
324,104,23977,1,8,0:0:0:0:
272,104,24102,1,8,0:0:0:0:
224,120,24227,1,8,0:0:0:0:
188,156,24352,6,0,P|176:208|184:268,1,103.999995239258,4|0,0:0|0:0,0:0:0:0:
400,336,24852,2,0,P|404:276|388:232,1,103.999995239258,0|0,1:0|0:0,0:0:0:0:
452,104,25227,2,0,P|400:108|344:96,1,103.999995239258,0|0,0:0|0:0,0:0:0:0:
312,100,25602,1,8,0:0:0:0:
272,108,25727,1,0,0:0:0:0:
232,116,25852,1,8,0:1:0:0:
316,236,26102,1,0,0:0:0:0:
160,316,26352,5,8,0:0:0:0:
120,324,26477,1,8,0:0:0:0:
80,332,26602,1,8,0:0:0:0:
40,340,26727,2,0,B|56:228,1,103.999998140335,8|0,0:0|0:0,0:0:0:0:
220,124,27102,2,0,B|205:226,1,103.999998140335,0|0,1:0|0:0,0:0:0:0:
292,260,27477,2,0,B|306:157,1,103.999998140335,0|0,1:0|0:0,0:0:0:0:
376,144,27852,2,0,B|411:138|411:138|441:125|462:73|462:73|426:30|394:27|394:27|354:34,1,239.999992847443,2|4,0:0|0:0,0:0:0:0:
212,72,28602,6,0,B|144:88,1,60.0000022888184,4|0,0:0|1:0,0:0:0:0:
220,228,28977,2,0,B|160:240,1,60.0000022888184,0|8,0:0|0:0,0:0:0:0:
284,260,29227,2,0,B|288:324|248:376,1,120.000004577637,0|0,0:0|0:0,0:0:0:0:
96,300,29602,1,8,0:0:0:0:
88,252,29727,1,0,0:0:0:0:
92,204,29852,2,0,B|136:160|204:164,1,120.000004577637,8|0,0:1|0:0,0:0:0:0:
380,280,30352,5,4,0:0:0:0:
220,228,30727,1,8,0:0:0:0:
220,228,31102,1,8,0:0:0:0:
272,208,31227,1,8,0:0:0:0:
324,188,31352,1,8,0:0:0:0:
372,168,31477,2,0,B|412:40,1,120.000004577637,12|0,0:0|1:0,0:0:0:0:
184,76,31852,2,0,B|161:193,1,119.999996423721,0|0,0:0|0:0,0:0:0:0:
196,216,32227,1,0,0:0:0:0:
236,232,32352,6,0,B|291:219|355:231,1,119.999996423721,4|4,0:0|0:0,0:0:0:0:
476,336,32852,2,0,B|421:349|357:337,1,119.999996423721,0|0,1:0|0:0,0:0:0:0:
356,336,33227,2,0,B|378:218,1,119.999996423721,0|0,1:0|0:0,0:0:0:0:
188,280,33602,2,0,B|204:208,1,60.0000022888184,8|0,0:0|0:0,0:0:0:0:
220,152,33852,2,0,B|268:180|336:168,1,119.999996423721,8|8,0:1|0:0,0:0:0:0:
364,120,34227,1,0,0:0:0:0:
388,72,34384,1,8,0:0:0:0:
388,72,34614,6,0,B|440:68,1,51.9999990701676,0|0,0:0|0:0,0:0:0:0:
320,76,34845,2,0,B|212:84,1,103.999995239258,8|8,2:0|2:0,0:0:0:0:
412,156,35191,2,0,B|296:168,1,103.999998140335,0|0,0:0|0:0,0:0:0:0:
131,168,35537,1,8,2:0:0:0:
173,180,35653,1,0,0:0:0:0:
220,192,35768,2,0,P|192:288|300:344,1,240.000009155274,0|4,0:0|0:0,0:0:0:0:
472,328,36444,5,0,0:0:0:0:
364,188,36658,2,0,B|380:292,1,103.999998140335,0|0,1:0|0:0,0:0:0:0:
256,196,36980,2,0,B|240:92,1,103.999998140335,0|0,1:0|0:0,0:0:0:0:
140,172,37301,2,0,B|156:276,1,103.999998140335,8|0,0:0|0:0,0:0:0:0:
172,344,37622,2,0,B|228:348,2,51.999997619629,8|0|0,0:0|0:0|0:0,0:0:0:0:
296,356,37944,6,0,P|356:360|416:332,1,120,12|0,0:0|0:0,0:0:0:0:
392,256,38344,2,0,B|372:168,2,80,0|8|0,0:0|0:0|0:0,0:0:0:0:
472,152,38844,1,8,0:0:0:0:
472,152,38944,2,0,B|452:48,1,103.999998140335,0|0,0:0|1:0,0:0:0:0:
292,32,39244,2,0,B|228:24,2,51.9999990701676,0|0|0,0:0|1:0|0:0,0:0:0:0:
372,48,39544,5,4,0:0:0:0:
340,172,39731,1,4,0:0:0:0:
220,156,39919,2,0,B|240:264,1,103.999998140335,0|0,1:0|0:0,0:0:0:0:
164,344,40200,1,0,1:0:0:0:
72,240,40382,1,0,0:0:0:0:
108,212,40470,1,8,0:0:0:0:
156,204,40558,1,0,0:0:0:0:
204,212,40646,1,8,0:1:0:0:
300,276,40823,1,0,0:0:0:0:
396,192,40999,6,0,P|384:108|324:72,1,160,4|0,0:0|1:0,0:0:0:0:
244,152,41499,1,0,1:0:0:0:
184,260,41665,2,0,B|164:312,3,40,0|0|0|0,1:0|1:0|0:0|1:0,0:0:0:0:
112,204,41980,2,0,P|212:180|272:260,1,207.999990478516,0|4,1:0|0:0,0:0:0:0:
392,332,42446,6,0,B|424:364,2,40,0|0|0,1:0|0:0|1:0,0:0:0:0:
432,236,42738,1,0,1:0:0:0:
404,128,42881,2,0,B|444:120,3,40,0|0|0|0,1:0|1:0|1:0|0:0,0:0:0:0:
356,192,43153,2,0,B|320:184|288:160|288:160|156:188,1,207.999990478516,0|12,1:0|0:3,0:0:0:0:
256,192,43553,12,8,48203,0:3:0:0:
152,84,48717,5,8,3:0:0:0:
168,56,48803,1,8,3:0:0:0:
192,36,48888,1,8,3:0:0:0:
220,20,48974,1,8,3:0:0:0:
252,12,49060,1,8,0:3:0:0:
284,12,49145,1,8,0:3:0:0:
316,20,49231,1,8,0:3:0:0:
344,36,49317,1,8,0:3:0:0:
368,56,49403,1,8,3:0:0:0:
380,84,49488,1,0,3:0:0:0:
388,116,49574,5,6,0:1:0:0:
232,156,49745,1,2,0:1:0:0:
416,228,49917,1,2,0:1:0:0:
232,156,50088,2,0,B|240:204,1,40,2|2,0:1|0:0,0:0:0:0:
320,352,50345,2,0,B|313:312,1,40,2|2,0:0|0:1,0:0:0:0:
116,192,50603,2,0,B|124:240,1,40,2|2,0:1|0:0,0:0:0:0:
200,352,50860,1,2,0:0:0:0:
200,352,50945,2,0,B|72:336,1,120,2|2,0:1|0:0,0:0:0:0:
296,244,51374,1,2,0:0:0:0:
296,244,51460,2,0,B|424:228,1,120,2|2,0:1|0:0,0:0:0:0:
432,72,51888,1,2,0:0:0:0:
432,72,51974,2,0,B|512:64,2,80,0|2|2,0:0|0:1|0:1,0:0:0:0:
272,88,52488,5,2,0:1:0:0:
396,192,52660,1,2,0:1:0:0:
396,192,52831,2,0,B|352:196,1,40,2|2,0:0|0:1,0:0:0:0:
192,280,53088,2,0,B|232:276,1,40,2|0,0:1|0:0,0:0:0:0:
392,352,53345,2,0,B|348:356,2,40,2|0|2,0:1|0:0|0:1,0:0:0:0:
468,344,53688,5,2,0:1:0:0:
256,236,53860,1,0,0:0:0:0:
256,236,53945,1,2,0:0:0:0:
396,192,54117,1,0,0:0:0:0:
396,192,54203,1,2,0:1:0:0:
200,124,54374,1,0,0:0:0:0:
200,124,54460,1,2,0:0:0:0:
336,244,54631,1,0,0:0:0:0:
336,244,54717,1,2,0:1:0:0:
292,356,54888,1,2,0:1:0:0:
172,344,55060,6,0,B|88:336,1,80,2|2,0:1|0:1,0:0:0:0:
36,228,55403,2,0,B|115:235,2,80,2|2|2,0:1|0:1|0:1,0:0:0:0:
36,228,55831,2,0,B|8:196,1,40,2|0,0:0|0:0,0:0:0:0:
216,152,56088,2,0,B|188:120,1,40,2|2,0:1|0:0,0:0:0:0:
296,232,56345,2,0,B|324:264,1,40,2|2,0:0|0:1,0:0:0:0:
400,356,56603,1,0,0:0:0:0:
400,356,56688,1,2,0:0:0:0:
476,192,56860,1,0,0:0:0:0:
476,192,56945,2,0,B|372:212,1,80,2|0,0:1|0:0,0:0:0:0:
372,140,57203,2,0,B|268:160,1,80,0|2,0:0|0:0,0:0:0:0:
293,155,57460,1,0,0:0:0:0:
136,192,57631,6,0,B|160:232,2,40,2|0|2,0:1|0:0|0:1,0:0:0:0:
52,56,57974,1,2,0:1:0:0:
168,104,58145,1,2,0:1:0:0:
356,144,58317,1,2,0:1:0:0:
356,144,58403,1,2,0:0:0:0:
368,304,58574,1,2,0:0:0:0:
220,228,58745,1,2,0:0:0:0:
220,228,58831,1,2,0:1:0:0:
84,316,59003,1,2,0:1:0:0:
120,200,59174,6,0,B|144:116,1,80,2|0,0:1|0:0,0:0:0:0:
336,184,59431,2,0,B|314:260,1,80,2|0,0:0|0:0,0:0:0:0:
220,228,59688,2,0,B|242:152,1,80,8|8,3:0|3:0,0:0:0:0:
432,220,59945,2,0,B|410:296,1,80,8|8,3:0|0:3,0:0:0:0:
220,228,60203,2,0,B|198:304,2,80,8|0|6,0:3|3:0|0:1,0:0:0:0:
104,192,60717,5,2,0:1:0:0:
140,32,60888,2,0,B|232:32,1,80,10|2,0:1|0:1,0:0:0:0:
72,114,61231,1,2,0:1:0:0:
235,127,61403,2,0,B|156:120,1,80,8|2,0:1|0:1,0:0:0:0:
448,192,61745,2,0,B|372:136,2,80,10|2|0,0:1|0:1|0:0,0:0:0:0:
392,264,62260,2,0,B|312:244,1,80,8|2,0:1|0:1,0:0:0:0:
336,348,62603,1,0,0:0:0:0:
336,348,62774,2,8,B|252:360,1,80,8|2,0:1|0:1,0:1:0:0:
132,276,63117,2,0,B|196:340,2,80,10|2|2,0:1|0:1|0:1,0:0:0:0:
48,192,63631,5,10,0:1:0:0:
120,96,63803,1,2,0:1:0:0:
120,96,63888,1,2,0:0:0:0:
256,112,64060,1,2,0:0:0:0:
124,192,64231,1,0,0:0:0:0:
124,192,64317,2,0,B|212:204,1,80,2|10,0:1|0:1,0:0:0:0:
360,228,64660,1,2,0:1:0:0:
128,264,64831,2,0,B|168:268,1,40,0|2,0:0|0:0,0:0:0:0:
384,292,65088,2,0,B|344:296,1,40,0|2,0:0|0:1,0:0:0:0:
132,336,65345,2,0,B|172:340,1,40,0|2,0:0|0:0,0:0:0:0:
332,364,65603,2,0,B|371:360,1,40,0|2,0:0|0:1,0:0:0:0:
464,228,65860,1,10,0:1:0:0:
300,100,66031,6,0,B|352:92|408:116,1,103.999998140335,2|2,0:1|0:1,0:0:0:0:
280,280,66374,2,0,B|224:288|172:284,1,103.999998140335,10|2,0:1|0:1,0:0:0:0:
76,100,66717,2,0,B|112:200,1,103.999998140335,2|8,0:1|0:1,0:0:0:0:
224,192,67060,1,2,0:1:0:0:
242,228,67145,1,2,0:0:0:0:
290,239,67231,1,8,0:1:0:0:
331,219,67317,1,2,0:0:0:0:
338,172,67403,1,2,0:1:0:0:
472,80,67574,5,0,0:0:0:0:
472,80,67660,1,2,0:0:0:0:
472,80,67745,2,0,L|456:196,1,103.999995239258,8|2,0:1|0:1,0:0:0:0:
440,296,68088,1,0,0:0:0:0:
331,219,68260,1,8,0:1:0:0:
256,344,68431,2,0,L|144:336,1,103.999995239258,2|10,0:1|0:1,0:0:0:0:
100,200,68774,1,2,0:1:0:0:
212,96,68945,5,2,0:1:0:0:
332,192,69117,1,10,0:1:0:0:
164,228,69288,1,0,0:0:0:0:
164,228,69374,1,2,0:0:0:0:
308,328,69545,1,2,0:0:0:0:
144,356,69717,1,2,0:0:0:0:
144,356,69803,1,2,0:1:0:0:
308,328,69974,1,2,0:1:0:0:
308,328,70145,6,0,B|304:380,2,51.9999990701676,8|8|8,0:1|0:1|0:1,0:0:0:0:
324,152,70488,1,8,0:1:0:0:
204,56,70660,2,0,B|208:4,2,51.9999990701676,8|8|8,0:1|0:1|0:1,0:0:0:0:
196,148,71003,1,8,0:1:0:0:
36,288,71174,1,8,0:0:0:0:
36,288,71345,6,0,B|32:339,2,51.9999990701676,8|8|6,0:1|0:1|0:1,0:0:0:0:
48,152,71688,1,2,0:1:0:0:
256,192,71860,1,10,0:1:0:0:
304,100,72031,1,2,0:0:0:0:
260,80,72117,1,2,0:0:0:0:
212,72,72203,1,2,0:0:0:0:
168,80,72288,1,2,0:0:0:0:
128,108,72374,1,2,0:0:0:0:
104,148,72460,1,2,0:0:0:0:
96,192,72545,1,10,0:0:0:0:
108,236,72631,1,2,0:0:0:0:
136,272,72717,1,2,0:0:0:0:
180,292,72803,1,2,0:0:0:0:
228,296,72888,5,10,0:1:0:0:
364,264,73060,2,0,B|416:276,1,51.9999990701676,0|10,0:0|0:1,0:0:0:0:
212,228,73317,1,0,0:0:0:0:
212,228,73403,1,10,0:1:0:0:
384,112,73574,2,0,B|324:88,1,51.9999990701676,0|2,0:0|0:1,0:0:0:0:
168,80,73831,1,0,0:0:0:0:
212,68,73917,1,10,0:1:0:0:
256,76,74003,1,0,0:0:0:0:
292,108,74088,1,2,0:1:0:0:
308,152,74174,1,0,0:0:0:0:
300,200,74260,5,10,0:1:0:0:
172,284,74431,1,2,0:1:0:0:
308,356,74603,1,10,0:1:0:0:
452,292,74774,1,2,0:0:0:0:
476,252,74860,1,2,0:0:0:0:
484,208,74945,1,2,0:0:0:0:
476,160,75031,1,2,0:0:0:0:
444,124,75117,1,2,0:0:0:0:
400,104,75203,1,2,0:0:0:0:
352,100,75288,1,10,0:0:0:0:
308,116,75374,1,2,0:0:0:0:
276,152,75460,1,2,0:0:0:0:
264,196,75545,1,2,0:0:0:0:
264,244,75631,6,0,B|276:296,2,51.999997619629,10|0|8,0:1|1:0|0:1,0:0:0:0:
128,352,75974,2,0,B|140:296,2,51.999997619629,8|0|10,0:0|0:0|0:1,0:0:0:0:
52,196,76317,1,0,0:0:0:0:
52,196,76403,1,2,0:1:0:0:
156,88,76574,1,0,0:0:0:0:
156,88,76660,1,10,0:1:0:0:
268,72,76831,1,2,0:1:0:0:
348,154,77003,6,0,B|372:206|356:262,1,103.999998140335,6|2,0:1|0:1,0:0:0:0:
192,352,77345,2,0,B|168:300|184:244,1,103.999998140335,10|8,0:1|0:1,0:0:0:0:
284,228,77688,1,2,0:0:0:0:
276,180,77774,1,2,0:0:0:0:
252,140,77860,1,2,0:0:0:0:
212,120,77945,1,2,0:0:0:0:
164,112,78031,1,10,0:0:0:0:
120,128,78117,1,2,0:0:0:0:
92,168,78203,1,2,0:0:0:0:
84,212,78288,1,2,0:0:0:0:
92,260,78374,5,10,0:1:0:0:
256,348,78545,1,0,0:0:0:0:
256,348,78631,1,10,0:1:0:0:
412,232,78803,1,0,0:0:0:0:
412,232,78888,1,10,0:1:0:0:
304,100,79060,1,0,0:0:0:0:
304,100,79145,1,2,0:1:0:0:
316,188,79317,1,2,0:0:0:0:
316,188,79403,2,0,B|324:248,2,51.9999990701676,10|0|0,0:1|0:1|0:0,0:0:0:0:
304,100,79745,6,0,B|196:92,1,103.999998140335,10|2,0:1|0:1,0:0:0:0:
116,184,80088,2,0,B|219:191,1,103.999998140335,10|8,0:1|0:1,0:0:0:0:
455,245,80431,1,2,0:0:0:0:
409,266,80517,1,2,0:0:0:0:
360,256,80603,1,2,0:0:0:0:
316,232,80688,1,2,0:0:0:0:
292,188,80774,1,10,0:0:0:0:
296,136,80860,5,2,0:0:0:0:
324,92,80945,1,2,0:0:0:0:
372,76,81031,1,2,0:0:0:0:
424,76,81117,6,0,B|456:80,8,25.9999995350838,8|0|0|0|0|0|0|0|0,0:0|0:0|0:0|0:0|0:0|0:0|0:0|0:0|1:0,0:0:0:0:
219,191,81631,2,0,L|166:182,1,51.999997619629,0|0,1:0|0:0,0:0:0:0:
296,136,81781,6,0,L|349:127,1,51.999997619629,0|8,0:0|0:0,0:0:0:0:
260,52,81952,2,0,B|164:16|52:40,1,207.99999628067,4|8,0:0|0:0,0:0:0:0:
36,140,82488,6,0,B|-20:224|40:344,1,207.99999628067,4|8,0:3|0:0,0:0:0:0:
188,352,83003,2,0,B|232:284|204:196,2,160,4|8|8,0:3|0:0|0:0,0:0:0:0:
276,344,83860,1,4,0:3:0:0:
364,336,84031,1,0,0:0:0:0:
364,336,84203,2,0,B|348:300|356:252,1,80,8|0,0:0|0:0,0:0:0:0:
464,116,84545,2,0,B|480:152|472:200,2,80,8|0|0,0:0|0:0|0:0,0:0:0:0:
372,40,85060,1,8,0:0:0:0:
292,128,85231,6,0,B|264:208|296:288,1,160,4|8,0:3|0:0,0:0:0:0:
396,348,85745,2,0,B|436:280|400:192,1,160,4|8,0:3|0:0,0:0:0:0:
292,128,86260,1,0,0:0:0:0:
292,128,86431,1,8,0:0:0:0:
292,128,86603,2,0,B|208:136,1,80,4|8,0:3|0:0,0:0:0:0:
56,228,86945,1,8,0:0:0:0:
256,312,87117,1,4,0:3:0:0:
256,312,87288,2,0,B|172:320,1,80,8|8,0:0|0:0,0:0:0:0:
56,228,87631,2,0,B|135:220,1,80,4|8,0:3|0:0,0:0:0:0:
252,204,87974,6,0,B|280:120|212:48,1,160,4|8,0:3|0:0,0:0:0:0:
72,148,88503,2,0,P|56:228|96:312,2,160,4|8|8,0:3|0:0|0:0,0:0:0:0:
172,128,89440,2,0,B|256:116,1,80,4|0,0:3|0:0,0:0:0:0:
372,228,89840,1,8,0:0:0:0:
372,228,90040,2,0,B|292:239,1,80,0|8,0:0|0:0,0:0:0:0:
144,296,90454,2,0,P|216:324|304:308,1,160,0|8,0:0|0:0,0:0:0:0:
372,228,91097,6,0,B|392:144|336:72,1,160,4|8,0:3|0:0,0:0:0:0:
256,128,91789,2,0,B|292:176|268:248,1,119.999996423721,4|8,0:3|0:0,0:0:0:0:
184,252,92481,1,0,0:0:0:0:
120,192,92712,1,0,0:0:0:0:
136,100,92943,1,0,0:0:0:0:
256,192,93193,12,0,97693,0:0:0:0:
400,108,97943,5,4,0:1:0:0:
164,156,98318,1,4,0:0:0:0:
164,156,98693,1,4,0:0:0:0:
172,200,98818,1,8,0:1:0:0:
180,244,98943,1,8,0:2:0:0:
192,288,99068,2,0,B|232:300|272:288,1,80,4|0,0:0|3:0,0:0:0:0:
400,232,99443,6,0,P|336:192|256:224,1,160,8|4,0:1|0:0,0:0:0:0:
128,300,100193,1,0,0:0:0:0:
128,300,100443,6,0,B|216:312,1,80,8|0,0:0|0:0,0:0:0:0:
383,318,100818,2,0,B|295:330,1,80,0|8,0:0|0:0,0:0:0:0:
178,227,101193,2,0,B|220:232,1,40,0|0,0:0|0:0,0:0:0:0:
336,244,101443,2,0,B|294:249,1,40,8|0,0:0|0:0,0:0:0:0:
116,267,101693,2,0,B|98:218,1,40,0|0,0:0|0:0,0:0:0:0:
255,141,101943,6,0,B|343:157,1,80,8|0,0:0|0:0,0:0:0:0:
256,336,102443,2,0,B|168:320,1,80,8|8,0:0|0:0,0:0:0:0:
144,316,102818,2,0,B|128:276|148:224,1,80,0|0,0:0|0:0,0:0:0:0:
296,204,103193,2,0,B|252:192,3,40,0|0|8|0,0:0|0:0|0:0|0:0,0:0:0:0:
360,232,103693,2,0,B|380:272|364:308,2,80,0|8|4,0:0|0:0|0:0,0:0:0:0:
200,252,104443,6,0,B|120:260,1,80,8|0,0:0|0:0,0:0:0:0:
296,152,104818,2,0,B|375:144,1,80,0|0,0:0|0:0,0:0:0:0:
375,144,105193,2,0,B|416:140,3,40,8|0|8|0,0:0|0:0|0:0|0:0,0:0:0:0:
344,208,105693,6,0,B|324:244|332:292,1,80,0|0,0:0|0:0,0:0:0:0:
176,312,106193,2,0,B|172:352,4,40,0|0|0|0|8,0:0|0:0|0:0|0:0|0:0,0:0:0:0:
180,240,106818,2,0,B|108:208,2,80,0|8|0,0:0|0:0|0:0,0:0:0:0:
324,292,107443,2,0,B|328:252,3,40,0|0|0|0,0:0|0:0|0:0|0:0,0:0:0:0:
256,304,107943,6,0,B|168:312,1,80,4|0,0:0|0:0,0:0:0:0:
220,156,108443,2,0,B|136:144,1,80,8|0,0:0|0:0,0:0:0:0:
292,228,108818,2,0,B|372:216,1,80,0|0,0:0|0:0,0:0:0:0:
220,304,109193,2,0,B|264:312,1,40,8|0,0:0|0:0,0:0:0:0:
152,288,109443,2,0,B|72:272,1,80,8|0,0:0|0:0,0:0:0:0:
116,152,109943,5,8,0:0:0:0:
144,124,110068,1,0,1:0:0:0:
180,108,110193,1,8,0:0:0:0:
220,104,110318,1,0,3:0:0:0:
260,112,110443,2,0,B|300:124,2,40,8|0|8,0:0|1:0|0:0,0:0:0:0:
256,192,110818,2,0,B|292:264,1,80,0|0,3:0|0:0,0:0:0:0:
216,344,111193,2,0,B|256:336,3,40,0|0|8|0,3:0|0:0|0:0|0:0,0:0:0:0:
112,232,111693,1,0,0:0:0:0:
112,232,111943,6,0,B|100:272|116:320,1,80,8|0,0:0|0:0,0:0:0:0:
328,272,112443,2,0,B|340:232|324:184,1,80,8|8,0:0|0:0,0:0:0:0:
220,192,112818,2,0,B|208:152|224:104,1,80,0|8,0:0|0:0,0:0:0:0:
404,116,113193,1,0,0:0:0:0:
424,148,113318,1,0,0:0:0:0:
436,188,113443,1,8,0:0:0:0:
440,228,113568,1,0,0:0:0:0:
432,268,113693,2,0,B|480:264,1,40,0|0,0:0|0:0,0:0:0:0:
364,276,113943,6,0,B|260:284,1,103.999998140335,8|0,0:0|1:0,0:0:0:0:
324,192,114318,2,0,B|204:200,1,120.000004577637,8|0,0:0|0:0,0:0:0:0:
284,104,114693,1,0,1:0:0:0:
256,92,114818,1,0,1:0:0:0:
228,80,114943,1,0,1:0:0:0:
200,68,115068,6,0,B|80:80,1,119.999996423721,8|0,0:0|0:0,0:0:0:0:
156,240,115443,1,0,1:0:0:0:
192,232,115568,1,0,1:0:0:0:
228,224,115693,1,8,0:0:0:0:
264,216,115818,1,2,0:3:0:0:
300,208,115943,1,4,0:0:0:0:
256,192,116005,12,0,117943,0:0:0:0:
