osu file format v14

[General]
AudioFilename: D.mp3
AudioLeadIn: 0
PreviewTime: 71517
Countdown: 0
SampleSet: Soft
StackLeniency: 0.7
Mode: 0
LetterboxInBreaks: 0
WidescreenStoryboard: 0

[Editor]
Bookmarks: 39344
DistanceSpacing: 1.4
BeatDivisor: 12
GridSize: 4
TimelineZoom: 8

[Metadata]
Title:D
TitleUnicode:D
Artist:Eagle
ArtistUnicode:Eagle
Creator:P o M u T a
Version:EXTREME
Source:beatmania IIDX 17 SIRIUS
Tags:Ways For Liberation ICARUS kors k bemani NEXT SKOOL BREAKBEATS HARDCORE pomuta bluoxy sionkotori faust
BeatmapID:877728
BeatmapSetID:403667

[Difficulty]
HPDrainRate:6.7
CircleSize:4.5
OverallDifficulty:8
ApproachRate:9.2
SliderMultiplier:1.8
SliderTickRate:2

[Events]
//Background and Video events
0,0,"49955889_p0.jpg",0,0
//Break Periods
//Storyboard Layer 0 (Background)
//Storyboard Layer 1 (Fail)
//Storyboard Layer 2 (Pass)
//Storyboard Layer 3 (Foreground)
//Storyboard Sound Samples

[TimingPoints]
352,500,4,2,1,40,1,0
352,-200,4,2,1,40,0,0
13602,-133.333333333333,4,2,1,40,0,0
13852,-100,4,2,1,60,0,0
14727,-66.6666666666667,4,2,1,60,0,0
15852,-100,4,2,1,60,0,0
16352,-133.333333333333,4,2,3,50,0,0
19852,-76.9230769230769,4,2,3,60,0,0
20727,-133.333333333333,4,2,3,60,0,0
21227,-100,4,2,3,60,0,0
22352,-76.9230769230769,4,2,3,60,0,0
23352,-133.333333333333,4,2,3,60,0,0
27852,-66.6666666666667,4,2,3,60,0,0
28352,-100,4,2,3,60,0,0
28602,-100,4,2,2,60,0,0
28727,-100,4,2,3,60,0,0
30352,-57.1428571428571,4,2,3,60,0,0
31852,-76.9230769230769,4,2,3,60,0,0
32352,-66.6666666666667,4,2,3,60,0,0
32602,-66.6666666666667,4,2,2,60,0,0
32852,-66.6666666666667,4,2,3,60,0,0
34102,-66.6666666666667,4,2,2,60,0,0
34384,461.538461538462,4,2,3,60,1,0
34384,-76.9230769230769,4,2,3,60,0,0
35307,-71.4285714285714,4,2,2,60,0,0
35537,-71.4285714285714,4,2,3,60,0,0
35768,-66.6666666666667,4,2,3,60,0,0
36230,428.571428571429,4,2,3,60,1,0
36230,-50,4,2,3,60,0,0
36551,-76.9230769230769,4,2,3,60,0,0
37944,400,4,2,3,60,1,0
37944,-66.6666666666667,4,2,3,60,0,0
39544,375,4,2,3,60,1,0
39544,-50,4,2,3,60,0,0
39731,-50,4,2,2,60,0,0
39919,-76.9230769230769,4,2,3,60,0,0
40294,352.941176470588,4,2,3,60,1,0
40999,333.333333333333,4,2,3,60,1,0
40999,-50,4,2,3,60,0,0
41332,-76.9230769230769,4,2,3,60,0,0
41665,315.789473684211,4,2,3,60,1,0
42296,300,4,2,3,60,1,0
42446,-100,4,2,2,60,0,0
42596,285.714285714286,4,2,3,60,1,0
42881,272.727272727273,4,2,3,60,1,0
43153,250,4,2,3,60,1,0
43153,-76.9230769230769,4,2,3,60,0,0
43403,1200,4,2,3,60,1,0
43403,-200,4,2,3,60,0,0
48203,342.857142857143,4,2,1,20,1,0
48717,-100,4,2,1,50,0,0
49574,-100,4,2,1,55,0,0
60545,-100,4,2,3,55,0,0
60631,-100,4,2,2,55,0,0
70145,-100,4,2,1,55,0,0
71517,-66.6666666666667,4,2,1,60,0,1
71860,-76.9230769230769,4,2,2,60,0,1
71945,-76.9230769230769,4,2,1,60,0,1
73917,-76.9230769230769,4,2,2,60,0,1
74260,-76.9230769230769,4,2,1,60,0,1
74603,-76.9230769230769,4,2,2,60,0,1
74688,-76.9230769230769,4,2,1,60,0,1
76660,-76.9230769230769,4,2,2,60,0,1
76745,-76.9230769230769,4,2,1,60,0,1
77345,-76.9230769230769,4,2,2,60,0,1
77431,-76.9230769230769,4,2,1,60,0,1
79403,-76.9230769230769,4,2,2,60,0,1
79488,-76.9230769230769,4,2,1,60,0,1
80088,-76.9230769230769,4,2,2,60,0,1
80174,-76.9230769230769,4,2,1,60,0,1
81117,-76.9230769230769,4,2,1,50,0,1
81288,-76.9230769230769,4,2,1,55,0,1
81460,-76.9230769230769,4,2,1,60,0,1
81717,-76.9230769230769,4,2,1,55,0,1
81781,342.857142857143,4,2,1,60,1,0
81781,-76.9230769230769,4,2,1,60,0,0
82488,342.857142857143,4,2,2,55,1,0
82488,-133.333333333333,4,2,2,55,0,0
83860,-133.333333333333,4,2,2,50,0,0
85231,-133.333333333333,4,2,2,45,0,0
86603,-133.333333333333,4,2,2,40,0,0
87974,352.941176470588,4,2,2,40,1,0
87974,-133.333333333333,4,2,2,40,0,0
88503,375,4,2,2,40,1,0
88503,-133.333333333333,4,2,2,40,0,0
89440,400,4,2,2,35,1,0
89440,-133.333333333333,4,2,2,35,0,0
90240,428.571428571429,4,2,2,35,1,0
90240,-133.333333333333,4,2,2,35,0,0
91097,461.538461538462,4,2,2,30,1,0
91097,-133.333333333333,4,2,2,30,0,0
92481,-200,4,2,2,25,0,0
92943,2000,4,2,1,20,1,0
97693,-100,4,2,1,10,0,0
97943,500,4,2,1,50,1,0
97943,-133.333333333333,4,2,1,50,0,0
98318,-66.6666666666667,4,2,1,50,0,0
99443,-100,4,2,1,50,0,0
99943,-100,4,2,1,60,0,0
100068,-100,4,2,2,60,0,0
101068,-100,4,2,3,60,0,0
101193,-100,4,2,2,60,0,0
101943,-100,4,2,3,60,0,0
102068,-100,4,2,2,60,0,0
102693,-100,4,2,3,60,0,0
102818,-100,4,2,2,60,0,0
103943,-100,4,2,3,60,0,0
104068,-100,4,2,2,60,0,0
105193,-100,4,2,3,60,0,0
105318,-100,4,2,2,60,0,0
107943,-100,4,2,1,60,0,0
108068,-100,4,2,2,60,0,0
109193,-100,4,2,3,60,0,0
109318,-100,4,2,2,60,0,0
109943,-76.9230769230769,4,2,3,60,0,0
110443,-76.9230769230769,4,2,2,60,0,0
111943,-76.9230769230769,4,2,3,60,0,0
112068,-76.9230769230769,4,2,2,60,0,0
112693,-76.9230769230769,4,2,3,60,0,0
112818,-76.9230769230769,4,2,2,60,0,0
113943,-66.6666666666667,4,2,3,60,0,0
115443,-66.6666666666667,4,2,2,60,0,0
115943,-66.6666666666667,4,2,1,60,0,0

[Colours]
Combo1 : 216,216,216
Combo2 : 191,255,255
Combo3 : 83,83,255
Combo4 : 255,47,255

[HitObjects]
411,149,352,5,6,0:0:0:0:
389,141,477,1,0,0:0:0:0:
367,139,602,1,2,0:0:0:0:
345,142,727,1,0,0:0:0:0:
324,152,852,1,2,0:0:0:0:
307,166,977,1,0,0:0:0:0:
294,184,1102,1,2,0:0:0:0:
285,204,1227,1,0,0:0:0:0:
282,227,1352,1,2,0:0:0:0:
285,249,1477,1,0,0:0:0:0:
293,270,1602,2,0,L|305:294,1,22.5,2|0,0:0|0:0,0:0:0:0:
256,363,1852,2,0,L|256:341,1,22.5,2|0,0:0|0:0,0:0:0:0:
218,270,2102,2,0,L|207:294,1,22.5,2|0,0:0|0:0,0:0:0:0:
157,354,2352,5,2,0:0:0:0:
134,358,2477,1,0,0:0:0:0:
112,355,2602,1,2,0:0:0:0:
92,346,2727,1,0,0:0:0:0:
75,332,2852,1,2,0:0:0:0:
63,313,2977,1,0,0:0:0:0:
57,291,3102,1,2,0:0:0:0:
58,269,3227,1,0,0:0:0:0:
66,247,3352,2,0,L|88:225,1,22.5,2|0,0:0|0:0,0:0:0:0:
81,152,3602,2,0,L|66:136,1,22.5,2|0,0:0|0:0,0:0:0:0:
148,192,3852,2,0,L|229:192,1,67.5,2|0,0:0|0:0,0:0:0:0:
296,192,4352,5,2,0:0:0:0:
314,208,4477,1,0,0:0:0:0:
336,220,4602,1,2,0:0:0:0:
360,226,4727,1,0,0:0:0:0:
385,226,4852,1,2,0:0:0:0:
409,220,4977,1,0,0:0:0:0:
431,209,5102,1,2,0:0:0:0:
449,193,5227,1,0,0:0:0:0:
463,172,5352,1,2,0:0:0:0:
472,149,5477,1,0,0:0:0:0:
476,125,5602,2,0,L|478:91,1,22.5,2|0,0:0|0:0,0:0:0:0:
404,90,5852,2,0,L|405:55,1,22.5,2|0,0:0|0:0,0:0:0:0:
331,54,6102,2,0,L|332:19,1,22.5,2|0,0:0|0:0,0:0:0:0:
337,127,6352,6,0,L|262:123,1,67.5,2|0,0:0|0:0,0:0:0:0:
206,174,6852,1,2,0:0:0:0:
207,200,6977,1,0,0:0:0:0:
208,227,7102,1,2,0:0:0:0:
210,254,7227,1,0,0:0:0:0:
211,281,7352,2,0,L|136:277,1,67.5,2|0,0:0|0:0,0:0:0:0:
201,313,7852,1,2,0:0:0:0:
227,316,7977,1,0,0:0:0:0:
253,319,8102,1,2,0:0:0:0:
279,322,8227,1,0,0:0:0:0:
305,326,8352,5,2,0:0:0:0:
299,297,8477,1,0,0:0:0:0:
303,268,8602,1,2,0:0:0:0:
317,243,8727,1,0,0:0:0:0:
339,224,8852,1,2,0:0:0:0:
366,214,8977,1,0,0:0:0:0:
395,214,9102,1,2,0:0:0:0:
423,224,9227,1,0,0:0:0:0:
443,245,9352,1,2,0:0:0:0:
438,216,9477,1,0,0:0:0:0:
433,187,9602,1,2,0:0:0:0:
428,158,9727,1,0,0:0:0:0:
423,129,9852,1,2,0:0:0:0:
418,100,9977,1,0,0:0:0:0:
413,71,10102,1,2,0:0:0:0:
408,42,10227,1,0,0:0:0:0:
403,13,10352,6,0,L|450:9,1,45,2|2,0:0|0:0,0:0:0:0:
332,20,10727,1,0,0:0:0:0:
418,100,10852,2,0,L|465:96,1,45,2|2,0:0|0:0,0:0:0:0:
328,106,11227,1,0,0:0:0:0:
201,89,11352,2,0,L|172:83,1,22.5,2|0,0:0|0:0,0:0:0:0:
254,153,11602,2,0,L|233:163,1,22.5,2|0,0:0|0:0,0:0:0:0:
341,187,11852,2,0,L|297:237,1,67.5,2|0,0:0|0:0,0:0:0:0:
369,314,12352,5,2,0:0:0:0:
341,332,12477,1,0,0:0:0:0:
309,342,12602,1,2,0:0:0:0:
275,342,12727,1,0,0:0:0:0:
243,332,12852,1,2,0:0:0:0:
215,314,12977,1,0,0:0:0:0:
183,304,13102,1,2,0:0:0:0:
149,304,13227,1,0,0:0:0:0:
117,314,13352,2,0,L|107:344,1,22.5,2|0,0:0|0:0,0:0:0:0:
213,229,13602,2,0,L|199:189,1,33.7500012874604,2|0,0:0|0:0,0:0:0:0:
76,138,13852,5,8,0:1:0:0:
140,119,13977,1,8,0:1:0:0:
93,71,14102,6,0,L|81:43,2,30,8|8|8,0:1|0:1|0:1,0:0:0:0:
10,103,14352,6,0,L|8:113,10,11.25,4|0|0|0|0|0|0|0|0|0|0,0:1|0:0|0:0|0:0|0:0|0:0|0:0|0:0|0:0|0:0|0:0,0:0:0:0:
15,179,14727,6,0,B|27:223|27:223|17:270|17:270|29:315,1,135.000005149842,4|0,0:0|0:0,0:0:0:0:
103,303,15102,6,0,L|116:349,1,33.7500012874604,4|0,0:0|0:0,0:0:0:0:
174,369,15227,2,0,L|187:323,1,33.7500012874604,8|0,0:1|0:0,0:0:0:0:
245,303,15352,2,0,L|258:349,1,33.7500012874604,8|0,0:2|0:0,0:0:0:0:
316,369,15477,2,0,B|360:365|360:365|407:376|407:376|453:370,1,135.000005149842,4|0,0:0|3:0,0:0:0:0:
490,212,15852,6,0,L|488:234,1,22.5,8|0,0:1|0:0,0:0:0:0:
464,209,15977,2,0,L|462:233,1,22.5
390,160,16102,2,0,L|390:129,1,22.5
364,163,16227,2,0,L|364:138,1,22.5
300,226,16352,6,0,B|264:234|264:234|225:221,1,67.5000025749208,6|2,0:0|0:0,0:0:0:0:
152,175,16727,1,0,0:0:0:0:
152,175,16852,2,0,B|116:167|116:167|77:180,1,67.5000025749208,2|0,1:0|0:0,0:0:0:0:
88,277,17227,2,0,B|124:285|124:285|153:275,1,67.5000025749208,2|0,1:0|0:0,0:0:0:0:
256,120,17602,2,0,P|255:100|262:81,1,33.7500012874604,10|0,0:2|0:0,0:0:0:0:
320,48,17852,5,8,0:1:0:0:
393,39,17977,1,0,0:0:0:0:
466,30,18102,1,4,0:0:0:0:
437,98,18227,1,0,0:0:0:0:
414,200,18352,6,0,L|482:192,1,67.5000025749208,10|0,0:0|0:0,0:0:0:0:
452,272,18727,1,0,0:0:0:0:
422,351,18852,2,0,L|490:343,1,67.5000025749208,10|8,0:0|0:0,0:0:0:0:
201,296,19352,5,2,0:0:0:0:
215,379,19477,1,2,0:0:0:0:
311,296,19602,1,10,0:0:0:0:
297,379,19727,1,2,0:0:0:0:
209,213,19852,6,0,P|254:152|299:213,1,175.499991966248,2|0,0:0|0:0,0:0:0:0:
256,192,20352,6,0,B|252:153|252:153|260:119|260:119|256:77,1,116.999994644165,8|4,0:0|0:0,0:0:0:0:
194,14,20727,1,0,0:0:0:0:
173,36,20852,2,0,B|138:49|138:49|102:39,1,67.5000025749208,0|2,1:0|0:0,0:0:0:0:
18,77,21227,6,0,L|24:170,1,90,0|0,1:0|0:0,0:0:0:0:
172,187,21602,2,0,L|168:142,1,45,8|0,0:0|0:0,0:0:0:0:
92,211,21852,1,8,0:1:0:0:
93,240,21977,1,8,0:0:0:0:
96,268,22102,1,0,0:0:0:0:
97,298,22227,1,0,0:0:0:0:
99,327,22352,6,0,P|136:329|157:319,1,58.4999973220826,8|0,0:0|0:0,0:0:0:0:
215,241,22602,2,0,P|212:269|218:298,1,58.4999973220826
293,298,22852,2,0,P|299:269|297:241,1,58.4999973220826
356,319,23102,2,0,P|383:330|412:327,1,58.4999973220826,8|0,0:0|0:0,0:0:0:0:
486,279,23352,5,0,1:0:0:0:
506,306,23477,2,0,B|517:272|517:272|497:245,1,67.5000025749208,0|0,1:0|0:0,0:0:0:0:
449,199,23852,1,8,0:0:0:0:
426,136,23977,1,8,0:0:0:0:
437,70,24102,1,8,0:0:0:0:
479,18,24227,1,8,0:0:0:0:
503,81,24352,6,0,L|369:75,1,135.000005149842,4|0,0:0|1:0,0:0:0:0:
234,172,25102,2,0,L|217:201,1,33.7500012874604
234,95,25352,2,0,L|218:66,1,33.7500012874604
299,133,25602,2,0,L|333:134,1,33.7500012874604,8|0,0:0|0:0,0:0:0:0:
400,232,25852,6,0,L|398:244,6,8.43750032186509,8|0|0|0|0|0|0,0:1|0:0|0:1|0:0|0:1|0:0|0:1,0:0:0:0:
468,178,26102,2,0,L|469:169,6,8.43750032186509
479,264,26352,5,8,0:0:0:0:
486,348,26477,1,8,0:0:0:0:
479,264,26602,1,8,0:0:0:0:
486,348,26727,2,0,L|409:353,1,67.5000025749208,8|0,0:0|0:0,0:0:0:0:
328,283,27102,2,0,P|324:317|327:351,1,67.5000025749208,0|0,1:0|0:0,0:0:0:0:
185,350,27477,2,0,P|187:316|184:283,1,67.5000025749208,0|0,1:0|0:0,0:0:0:0:
26,348,27852,6,0,B|116:351|116:351|13:305,1,202.500007724762,2|0,0:0|0:0,0:0:0:0:
27,215,28352,6,0,L|111:248,1,90,4|4,0:0|0:0,0:0:0:0:
209,192,28727,2,0,L|292:159,1,90,0|0,1:0|0:0,0:0:0:0:
374,237,29102,1,8,0:0:0:0:
400,244,29227,1,0,0:0:0:0:
455,285,29352,2,0,P|465:262|467:243,1,45
454,98,29602,2,0,P|464:119|466:141,1,45,8|0,0:0|0:0,0:0:0:0:
393,325,29852,2,0,P|408:341|428:353,1,45,8|0,0:1|0:0,0:0:0:0:
394,57,30102,2,0,P|401:49|414:39,3,22.5
484,11,30352,6,0,B|429:22|429:22|380:14|380:14|328:23,1,157.500001502037,4|8,0:0|0:0,0:0:0:0:
278,82,30727,2,0,P|229:61|240:134,1,157.500001502037,8|0,0:0|0:0,0:0:0:0:
306,170,31102,1,8,0:0:0:0:
343,239,31227,1,8,0:0:0:0:
333,317,31352,1,8,0:0:0:0:
286,380,31477,2,0,B|205:398|205:360|129:380,1,157.500001502037,12|0,0:0|1:0,0:0:0:0:
81,327,31852,6,0,L|28:331,1,38.9999982147218
146,302,31977,2,0,L|199:306,1,38.9999982147218
69,255,32102,2,0,L|16:259,1,38.9999982147218
134,230,32227,2,0,L|190:234,1,38.9999982147218
8,190,32352,6,0,L|16:49,1,135.000005149842,4|4,0:0|0:0,0:0:0:0:
15,55,32852,2,0,P|85:69|139:38,1,135.000005149842,0|0,1:0|0:0,0:0:0:0:
290,69,33227,2,0,P|226:88|191:144,1,135.000005149842,0|0,1:0|0:0,0:0:0:0:
364,116,33602,2,0,L|431:105,1,67.5000025749208,8|0,0:0|0:0,0:0:0:0:
448,246,33852,6,0,P|456:199|495:165,1,101.250003862381,8|0,0:1|0:0,0:0:0:0:
342,212,34102,2,0,P|334:259|295:293,1,101.250003862381,8|0,0:0|0:0,0:0:0:0:
51,229,34384,6,0,P|123:208|212:288,1,204.749990627289,8|0,0:0|0:0,0:0:0:0:
226,313,34845,6,0,L|232:253,1,58.4999973220826,8|0,2:0|0:0,0:0:0:0:
305,152,35076,2,0,L|311:212,1,58.4999973220826,8|0,2:0|0:0,0:0:0:0:
360,348,35307,2,0,L|367:266,1,62.9999980773926,8|0,2:0|0:0,0:0:0:0:
446,170,35537,2,0,L|452:236,1,62.9999980773926,8|0,2:0|0:0,0:0:0:0:
494,70,35768,6,0,B|444:59|444:59|351:71|351:71|293:60,1,202.500007724762
48,111,36230,6,0,B|48:153|48:153|95:182|95:182|143:150|143:150|194:150,1,180,4|0,0:0|0:0,0:0:0:0:
317,211,36551,1,0,1:0:0:0:
343,234,36658,2,0,P|352:292|332:349,1,116.999994644165,0|0,1:0|0:0,0:0:0:0:
178,346,36980,2,0,P|159:291|168:234,1,116.999994644165,0|0,1:0|0:0,0:0:0:0:
321,119,37301,2,0,B|379:132|379:132|432:103,1,116.999994644165,8|0,0:0|0:0,0:0:0:0:
191,119,37622,2,0,B|133:132|133:132|80:103,1,116.999994644165,8|0,0:0|0:0,0:0:0:0:
22,207,37944,6,0,B|22:262|22:262|32:291|32:291|32:351,1,135.000005149842,12|0,0:0|1:0,0:0:0:0:
140,282,38244,2,0,P|158:239|167:292,1,135.000005149842
256,360,38544,2,0,L|325:357,1,67.5000025749208,8|0,0:0|0:0,0:0:0:0:
418,354,38744,1,0,0:0:0:0:
489,210,38844,2,0,L|332:216,1,135.000005149842,8|0,0:0|0:0,0:0:0:0:
171,148,39144,6,0,L|235:113,1,67.5000025749208,0|0,1:0|0:0,0:0:0:0:
83,360,39344,2,0,L|19:325,1,67.5000025749208,0|0,1:0|0:0,0:0:0:0:
59,212,39544,6,0,B|95:216|113:247|113:247|151:238|151:238|181:260|224:249,1,180,4|4,0:0|0:0,0:0:0:0:
482,144,39919,2,0,P|428:144|380:184,1,116.999994644165,0|0,1:0|0:0,0:0:0:0:
292,336,40200,1,0,1:0:0:0:
292,336,40294,6,0,B|303:294|303:294|291:249,1,90,2|8,0:3|0:0,0:0:0:0:
222,352,40558,1,0,0:0:0:0:
225,377,40646,2,0,L|180:382,1,45,8|0,0:1|0:0,0:0:0:0:
360,350,40823,2,0,L|410:355,1,45
470,361,40999,6,0,L|286:335,1,180,4|0,0:0|1:0,0:0:0:0:
157,313,41249,1,0,0:0:0:0:
233,139,41332,6,0,L|233:197,1,58.4999973220826,0|0,1:0|1:0,0:0:0:0:
233,280,41499,1,0,1:0:0:0:
306,76,41665,5,0,1:0:0:0:
261,46,41743,1,0,1:0:0:0:
208,45,41822,1,0,0:0:0:0:
162,73,41901,1,0,1:0:0:0:
148,125,41980,2,0,B|126:141|126:141|17:111,1,135,0|0,1:0|0:0,0:0:0:0:
18,33,42296,6,0,L|61:45,1,45,4|0,0:0|0:0,0:0:0:0:
43,199,42446,2,0,L|0:187,1,45,0|0,1:0|0:0,0:0:0:0:
148,125,42596,6,0,L|195:139,1,45,0|0,1:0|0:0,0:0:0:0:
173,291,42738,2,0,L|130:279,1,45,0|0,1:0|0:0,0:0:0:0:
278,215,42881,6,0,L|325:229,1,45,0|0,0:0|1:0,0:0:0:0:
303,382,43017,2,0,L|260:370,1,45,0|0,1:0|0:0,0:0:0:0:
499,271,43153,6,0,P|415:255|351:309,1,175.499991966248,0|0,1:0|1:0,0:0:0:0:
440,352,43403,6,8,P|377:187|211:132,1,360,12|8,0:3|0:3,0:3:0:0:
214,131,48717,5,8,3:0:0:0:
204,162,48803,1,8,3:0:0:0:
196,192,48888,1,8,3:0:0:0:
187,223,48974,1,8,3:0:0:0:
134,210,49060,1,8,0:3:0:0:
144,241,49145,1,8,0:3:0:0:
152,271,49231,1,8,0:3:0:0:
161,302,49317,1,8,0:3:0:0:
215,303,49403,1,8,3:0:0:0:
205,335,49488,1,0,3:0:0:0:
197,365,49574,5,6,0:1:0:0:
282,337,49745,1,2,0:1:0:0:
363,376,49917,1,2,0:1:0:0:
434,321,50088,2,0,L|479:314,1,45,2|2,0:1|0:0,0:0:0:0:
434,235,50345,2,0,L|389:228,1,45,2|2,0:0|0:1,0:0:0:0:
435,149,50603,1,2,0:1:0:0:
461,144,50688,1,2,0:0:0:0:
423,63,50860,1,2,0:0:0:0:
396,59,50945,5,2,0:1:0:0:
310,89,51117,1,2,0:1:0:0:
326,116,51203,1,2,0:0:0:0:
202,89,51374,1,2,0:0:0:0:
186,116,51460,1,2,0:1:0:0:
310,89,51631,5,2,0:1:0:0:
326,116,51717,1,2,0:0:0:0:
256,17,51888,1,2,0:0:0:0:
256,192,52060,1,2,0:0:0:0:
256,160,52145,1,2,0:1:0:0:
256,303,52317,5,2,0:1:0:0:
172,235,52488,1,2,0:1:0:0:
139,338,52660,1,2,0:1:0:0:
55,270,52831,1,2,0:0:0:0:
51,238,52917,1,2,0:1:0:0:
47,206,53003,1,2,0:0:0:0:
43,174,53088,1,2,0:1:0:0:
118,96,53260,1,2,0:0:0:0:
122,128,53345,1,2,0:1:0:0:
193,18,53517,1,2,0:1:0:0:
303,246,53688,6,0,P|350:260|403:252,1,90,2|0,0:1|0:0,0:0:0:0:
202,239,53945,2,0,P|188:286|196:339,1,90,2|0,0:0|0:0,0:0:0:0:
209,138,54203,2,0,P|162:124|109:132,1,90,2|0,0:1|0:0,0:0:0:0:
310,145,54460,2,0,P|324:98|316:45,1,90,2|0,0:0|0:0,0:0:0:0:
256,8,54717,1,2,0:1:0:0:
410,117,54888,1,2,0:1:0:0:
326,287,55060,5,2,0:1:0:0:
451,298,55231,1,2,0:1:0:0:
341,361,55403,1,2,0:1:0:0:
391,245,55574,1,2,0:1:0:0:
420,367,55745,1,2,0:1:0:0:
451,372,55831,1,2,0:0:0:0:
326,287,56003,1,2,0:0:0:0:
295,292,56088,2,0,L|247:300,1,45,2|2,0:1|0:0,0:0:0:0:
126,363,56345,1,2,0:0:0:0:
157,368,56431,6,0,B|164:338|164:338|148:279,1,90,2|0,0:1|0:0,0:0:0:0:
176,219,56688,2,0,B|146:212|146:212|87:228,1,90,2|0,0:0|0:0,0:0:0:0:
27,199,56945,2,0,B|20:229|20:229|36:288,1,90,2|0,0:1|0:0,0:0:0:0:
7,348,57203,2,0,B|37:355|37:355|96:339,1,90,0|2,0:0|0:0,0:0:0:0:
176,219,57545,2,0,L|176:169,1,45,2|2,0:0|0:1,0:0:0:0:
176,65,57803,5,2,0:1:0:0:
67,65,57974,1,2,0:1:0:0:
176,65,58145,1,2,0:1:0:0:
256,137,58317,1,2,0:1:0:0:
256,173,58403,1,2,0:0:0:0:
336,65,58574,1,2,0:0:0:0:
402,182,58745,1,2,0:0:0:0:
402,218,58831,1,2,0:1:0:0:
482,110,59003,1,2,0:1:0:0:
482,274,59174,6,0,B|463:293|463:293|398:291,1,90,2|0,0:1|0:0,0:0:0:0:
336,355,59431,2,0,B|317:336|317:336|252:338,1,90,2|0,0:0|0:0,0:0:0:0:
168,369,59688,5,8,3:0:0:0:
135,339,59774,1,8,3:0:0:0:
116,298,59860,1,8,3:0:0:0:
116,254,59945,1,8,3:0:0:0:
133,212,60031,1,8,0:3:0:0:
166,182,60117,1,8,0:3:0:0:
208,168,60203,1,8,0:3:0:0:
248,146,60288,1,8,0:3:0:0:
270,108,60374,1,0,3:0:0:0:
268,63,60460,1,0,3:0:0:0:
244,26,60545,6,0,P|200:5|153:10,1,90,6|2,0:1|0:1,0:0:0:0:
59,103,60888,1,10,0:1:0:0:
185,99,61060,1,2,0:1:0:0:
438,36,61231,1,2,0:1:0:0:
438,36,61317,2,0,B|399:59|399:59|349:46,1,90,2|0,0:0|0:0,0:0:0:0:
293,113,61574,1,2,0:1:0:0:
293,113,61660,1,2,0:0:0:0:
293,113,61745,1,10,0:1:0:0:
293,113,61831,1,2,0:0:0:0:
293,113,61917,6,0,L|305:221,1,90,2|0,0:1|0:0,0:0:0:0:
391,184,62174,2,0,L|386:289,1,90,2|0,0:0|0:0,0:0:0:0:
265,93,62431,2,0,L|278:208,1,90,2|0,0:1|0:0,0:0:0:0:
418,203,62688,2,0,L|412:321,1,90,2|0,0:0|0:0,0:0:0:0:
305,313,62945,6,0,L|295:360,1,45,2|8,0:1|0:1,0:1:0:0:
207,313,63117,2,0,L|217:360,1,45,2|8,0:1|0:1,0:1:0:0:
256,264,63288,6,0,B|239:275|239:275|169:264,1,90,2|2,0:1|0:1,0:0:0:0:
94,215,63631,1,10,0:1:0:0:
22,269,63803,2,0,P|22:292|28:317,1,45,2|2,0:1|0:0,0:0:0:0:
94,215,63974,1,2,0:1:0:0:
106,181,64060,2,0,P|105:136|87:94,1,90,2|0,0:0|0:0,0:0:0:0:
30,59,64317,2,0,P|20:86|25:114,1,45,2|0,0:1|0:0,0:0:0:0:
146,62,64488,2,0,P|132:43|113:32,1,45,10|0,0:1|0:0,0:0:0:0:
264,29,64660,6,0,L|358:24,1,90,2|0,0:1|0:0,0:0:0:0:
183,129,64917,2,0,L|277:124,1,90,2|0,0:0|0:0,0:0:0:0:
391,196,65174,2,0,L|481:192,1,90,2|0,0:1|0:0,0:0:0:0:
310,296,65431,2,0,L|400:292,1,90,2|0,0:0|0:0,0:0:0:0:
223,239,65688,1,2,0:1:0:0:
225,270,65774,1,0,0:0:0:0:
227,301,65860,1,10,0:1:0:0:
229,333,65945,1,0,0:0:0:0:
232,364,66031,6,0,L|142:360,1,90,2|2,0:1|0:1,0:0:0:0:
19,302,66374,1,10,0:1:0:0:
129,225,66545,2,0,L|159:187,1,45,2|2,0:1|0:0,0:1:0:0:
234,82,66717,1,2,0:1:0:0:
255,111,66803,2,0,B|214:130|214:130|170:118,1,90,2|0,0:0|0:0,0:0:0:0:
278,302,67060,1,2,0:1:0:0:
257,273,67145,2,0,B|298:254|298:254|342:266,1,90,2|2,0:0|0:0,0:0:0:0:
421,213,67403,6,0,P|437:254|432:298,1,90,2|0,0:1|0:0,0:0:0:0:
357,358,67660,2,0,L|313:366,2,45,2|8|0,0:0|0:1|0:0,0:0:0:0:
336,169,67917,6,0,P|319:127|324:83,1,90,2|0,0:1|0:0,0:0:0:0:
413,115,68174,2,0,L|457:107,2,45,2|8|0,0:0|0:1|0:0,0:0:0:0:
249,214,68431,1,2,0:1:0:0:
212,212,68517,1,8,0:1:0:0:
175,210,68603,1,2,0:1:0:0:
139,208,68688,1,8,0:1:0:0:
102,206,68774,5,2,0:1:0:0:
84,312,68945,1,2,0:1:0:0:
249,214,69117,1,10,0:1:0:0:
270,341,69288,1,0,0:0:0:0:
270,341,69374,1,2,0:0:0:0:
270,341,69460,2,0,L|320:345,1,45,0|2,0:0|0:0,0:0:0:0:
437,353,69631,2,0,L|487:357,2,45,0|2|2,0:0|0:0|0:1,0:0:0:0:
256,192,69974,1,2,0:1:0:0:
388,84,70145,5,8,0:1:0:0:
407,43,70231,1,8,0:1:0:0:
450,29,70317,1,8,0:1:0:0:
256,192,70488,1,8,0:1:0:0:
124,300,70660,1,8,0:1:0:0:
105,341,70745,1,8,0:1:0:0:
62,355,70831,1,8,0:1:0:0:
256,114,71003,5,8,0:1:0:0:
256,270,71174,1,8,0:0:0:0:
256,35,71345,1,8,0:1:0:0:
256,30,71431,1,8,0:1:0:0:
256,25,71517,6,0,B|206:22|206:22|171:35|171:35|124:31,1,135.000005149842,6|2,0:1|0:1,0:0:0:0:
18,115,71774,1,0,0:0:0:0:
33,140,71860,6,0,B|80:144|80:144|115:131|115:131|147:132,1,116.999994644165,10|8,0:1|0:1,0:0:0:0:
378,90,72203,1,2,0:0:0:0:
414,135,72288,1,2,0:0:0:0:
423,192,72374,1,2,0:0:0:0:
402,246,72460,1,2,0:0:0:0:
356,282,72545,1,10,0:0:0:0:
299,290,72631,1,2,0:0:0:0:
246,268,72717,2,0,P|218:265|190:275,1,58.4999973220826,2|2,0:0|0:0,0:0:0:0:
117,334,72888,6,0,B|83:327|83:327|-2:344,1,116.999994644165,10|0,0:1|0:0,0:0:0:0:
34,254,73145,1,2,0:1:0:0:
64,237,73231,1,8,0:0:0:0:
82,207,73317,1,0,0:0:0:0:
72,173,73403,1,10,0:1:0:0:
41,155,73488,1,0,0:0:0:0:
10,137,73574,1,0,0:0:0:0:
0,103,73660,1,2,0:1:0:0:
23,76,73745,1,8,0:1:0:0:
53,59,73831,1,0,0:0:0:0:
87,52,73917,2,0,P|115:56|144:50,1,58.4999973220826,10|0,0:1|0:0,0:0:0:0:
226,75,74088,2,0,P|231:46|225:18,1,58.4999973220826,2|0,0:1|0:0,0:0:0:0:
160,129,74260,6,0,L|166:258,1,116.999994644165,10|2,0:1|0:1,0:0:0:0:
346,239,74517,1,0,0:0:0:0:
346,245,74603,2,0,L|352:129,1,116.999994644165,10|8,0:1|0:1,0:0:0:0:
248,291,74945,1,2,0:0:0:0:
283,336,75031,1,2,0:0:0:0:
337,356,75117,1,2,0:0:0:0:
394,346,75203,1,2,0:0:0:0:
437,308,75288,1,10,0:0:0:0:
456,252,75374,1,2,0:0:0:0:
446,194,75460,2,0,P|442:164|452:133,1,58.4999973220826,2|2,0:0|0:0,0:0:0:0:
494,61,75631,6,0,B|434:72|434:72|439:49|434:17,1,116.999994644165,10|8,0:1|0:1,0:1:0:0:
339,85,75888,1,2,0:1:0:0:
309,135,75974,1,8,0:0:0:0:
368,135,76060,1,0,0:0:0:0:
339,118,76145,6,0,L|222:110,1,116.999994644165,10|0,0:1|0:0,0:0:0:0:
128,51,76403,2,0,P|111:107|124:164,1,116.999994644165,2|0,0:1|0:0,0:0:0:0:
265,329,76660,6,0,L|206:325,1,58.4999973220826,10|8,0:1|0:1,0:0:0:0:
317,201,76831,2,0,L|375:197,1,58.4999973220826,2|0,0:1|0:1,0:0:0:0:
256,346,77003,6,0,L|139:338,1,116.999994644165,6|2,0:1|0:1,0:0:0:0:
65,173,77260,1,8,0:1:0:0:
78,194,77345,6,0,L|195:202,1,116.999994644165,10|8,0:1|0:1,0:0:0:0:
481,48,77688,1,2,0:0:0:0:
445,78,77774,1,2,0:0:0:0:
422,119,77860,1,2,0:0:0:0:
416,165,77945,1,2,0:0:0:0:
436,207,78031,1,10,0:0:0:0:
455,249,78117,1,2,0:0:0:0:
447,295,78203,1,2,0:0:0:0:
421,333,78288,1,2,0:0:0:0:
362,377,78374,6,0,B|332:360|332:360|247:360,1,116.999994644165,10|0,0:1|0:0,0:0:0:0:
170,244,78631,2,0,B|200:261|200:261|282:261,1,116.999994644165,2|0,0:1|0:0,0:0:0:0:
89,359,78888,5,10,0:1:0:0:
82,330,78974,2,0,L|68:267,1,58.4999973220826
52,192,79145,5,2,0:1:0:0:
45,163,79231,2,0,L|31:100,1,58.4999973220826,8|2,0:1|0:1,0:0:0:0:
150,51,79403,6,0,L|92:42,1,58.4999973220826,10|0,0:1|1:0,0:0:0:0:
278,71,79574,2,0,L|220:62,1,58.4999973220826,2|0,0:1|0:0,0:0:0:0:
21,183,79745,6,0,L|79:174,1,58.4999973220826,10|0,0:1|0:0,0:0:0:0:
149,163,79917,2,0,L|207:154,1,58.4999973220826,2|8,0:1|0:1,0:0:0:0:
388,216,80088,6,0,P|328:201|277:222,1,116.999994644165,10|8,0:1|0:1,0:0:0:0:
292,296,80345,1,2,0:0:0:0:
350,362,80431,6,0,L|423:356,1,58.4999973220826,2|2,0:0|0:0,0:0:0:0:
185,381,80603,2,0,L|112:375,1,58.4999973220826,2|2,0:0|0:0,0:0:0:0:
35,251,80774,1,10,0:0:0:0:
64,253,80860,1,2,0:0:0:0:
93,255,80945,1,2,0:0:0:0:
122,258,81031,1,2,0:0:0:0:
151,261,81117,6,0,L|154:228,3,29.2499986610413,8|0|0|0,0:0|0:0|0:0|0:0,0:0:0:0:
162,158,81288,2,0,L|164:128,3,29.2499986610413
233,80,81460,2,0,P|187:47|129:52,1,116.999994644165,0|0,1:0|1:0,0:0:0:0:
70,109,81717,1,0,0:0:0:0:
257,154,81781,6,0,P|284:139|302:116,1,58.4999973220826,0|8,0:0|0:0,0:0:0:0:
392,18,81952,2,0,B|382:91|382:91|385:113|385:113|373:195,1,175.499991966248,4|0,0:0|0:0,0:0:0:0:
476,145,82295,6,0,L|475:125,5,19.4999991073609,8|0|0|0|0|0,0:0|0:0|0:0|0:0|0:0|0:0,0:0:0:0:
475,119,82488,6,0,L|446:264,1,135.000005149842,4|8,0:3|0:0,0:0:0:0:
416,338,83003,2,0,P|350:330|294:365,2,135.000005149842,4|8|0,0:3|0:0|0:0,0:0:0:0:
217,310,83860,5,4,0:3:0:0:
257,225,84031,2,0,L|250:90,1,135.000005149842
185,41,84545,1,8,0:0:0:0:
261,12,84717,2,0,L|395:7,1,135.000005149842,0|8,0:0|0:0,0:0:0:0:
473,32,85231,6,0,P|497:93|492:166,1,135.000005149842,4|8,0:3|0:0,0:0:0:0:
362,268,85745,2,0,P|338:207|343:134,2,135.000005149842,4|8|8,0:3|0:0|0:0,0:0:0:0:
443,258,86603,5,4,0:3:0:0:
453,338,86774,1,8,0:0:0:0:
453,338,86945,1,8,0:0:0:0:
362,268,87117,1,4,0:3:0:0:
372,348,87288,1,8,0:0:0:0:
372,348,87460,1,8,0:0:0:0:
281,278,87631,1,4,0:3:0:0:
291,358,87803,1,8,0:0:0:0:
271,198,87974,6,0,B|338:203|338:203|389:159,1,135.000005149842,4|8,0:3|0:0,0:0:0:0:
267,121,88503,6,0,B|200:116|200:116|149:160,2,135.000005149842,4|8|8,0:3|0:0|0:0,0:0:0:0:
306,56,89440,5,4,0:3:0:0:
171,46,89640,2,0,L|305:55,1,135.000005149842
103,85,90240,6,0,P|94:51|100:16,1,67.5000025749208,8|0,0:0|0:0,0:0:0:0:
172,123,90668,2,0,P|180:155|176:188,1,67.5000025749208,8|8,0:0|0:0,0:0:0:0:
87,236,91097,6,0,P|139:285|210:285,1,135.000005149842,4|8,0:3|0:0,0:0:0:0:
299,199,91789,2,0,L|453:215,1,135.000005149842,4|8,0:3|0:0,0:0:0:0:
421,303,92481,6,0,L|425:350,1,45
200,237,92943,6,0,B|193:132|193:132|277:127|277:127|355:189|289:253|289:253|202:260,1,427.5
256,192,97943,6,0,L|245:192,10,8.43750032186509,4|0|0|0|0|0|0|0|0|0|0,0:1|0:0|0:0|0:0|0:0|0:0|0:0|0:0|0:0|0:0|0:0,0:0:0:0:
156,192,98318,6,0,B|89:193|89:193|40:145,1,135.000005149842,4|0,0:0|0:0,0:0:0:0:
117,122,98693,6,0,L|128:86,1,33.7500012874604,4|0,0:0|0:0,0:0:0:0:
146,224,98818,2,0,L|155:191,1,33.7500012874604,8|0,0:1|0:0,0:0:0:0:
175,326,98943,2,0,L|184:293,1,33.7500012874604,8|0,0:2|0:0,0:0:0:0:
242,358,99068,2,0,B|210:355|210:355|147:365|147:365|108:360,1,135.000005149842,4|0,0:0|3:0,0:0:0:0:
297,286,99443,6,0,L|319:285,1,22.5000008583069,8|0,0:1|0:0,0:0:0:0:
274,244,99568,2,0,L|303:242,1,22.5000008583069
211,168,99693,2,0,L|182:168,1,22.5000008583069
215,132,99818,2,0,L|190:132,1,22.5000008583069
265,59,99943,6,0,L|362:54,1,90,4|0,0:0|0:0,0:0:0:0:
429,105,100443,2,0,P|437:153|424:207,1,90,8|0,0:0|0:0,0:0:0:0:
461,224,100818,2,0,L|355:234,2,90,0|8|0,0:0|0:0|0:0,0:0:0:0:
473,304,101443,1,8,0:0:0:0:
470,326,101568,1,0,0:0:0:0:
467,348,101693,2,0,L|403:354,1,45
340,354,101943,5,8,0:0:0:0:
256,210,102193,1,0,0:0:0:0:
256,241,102318,1,0,0:0:0:0:
256,272,102443,2,0,L|166:265,1,90,8|8,0:0|0:0,0:0:0:0:
103,308,102818,2,0,P|92:257|105:219,2,90
173,339,103443,2,0,L|162:379,1,45,8|0,0:0|0:0,0:0:0:0:
173,340,103693,2,0,L|263:347,1,90,0|8,0:0|0:0,0:0:0:0:
356,377,104193,5,4,0:0:0:0:
438,321,104443,2,0,P|451:279|449:218,1,90,8|0,0:0|0:0,0:0:0:0:
392,193,104818,2,0,P|350:206|289:204,1,90
245,163,105193,2,0,P|239:141|242:114,1,45,8|0,0:0|0:0,0:0:0:0:
267,52,105443,1,8,0:0:0:0:
269,29,105568,1,0,0:0:0:0:
265,6,105693,2,0,L|213:6,1,45
149,21,105943,5,0,0:0:0:0:
135,26,106026,1,0,0:0:0:0:
121,31,106110,1,0,0:0:0:0:
107,36,106193,2,0,L|53:33,1,45
20,87,106443,2,0,P|31:134|26:182,1,90,0|8,0:0|0:0,0:0:0:0:
129,236,106818,2,0,P|118:192|121:147,2,90,0|8|0,0:0|0:0|0:0,0:0:0:0:
213,207,107443,5,0,0:0:0:0:
191,294,107568,1,0,0:0:0:0:
275,265,107693,1,0,0:0:0:0:
253,352,107818,1,0,0:0:0:0:
338,324,107943,6,0,L|443:316,1,90,4|0,0:0|0:0,0:0:0:0:
504,153,108443,2,0,L|399:145,1,90,8|0,0:0|0:0,0:0:0:0:
333,185,108818,2,0,L|341:83,1,90
330,5,109193,2,0,L|381:9,1,45,8|0,0:0|0:0,0:0:0:0:
256,55,109443,1,8,0:0:0:0:
256,55,109568,1,0,0:0:0:0:
256,55,109693,2,0,L|205:59,1,45
98,89,109943,6,0,L|91:25,1,58.4999973220826,8|0,0:0|1:0,0:0:0:0:
16,136,110193,2,0,L|9:72,1,58.4999973220826,8|0,0:0|3:0,0:0:0:0:
122,115,110443,6,0,L|115:51,1,58.4999973220826,8|0,0:0|1:0,0:0:0:0:
40,162,110693,2,0,L|33:98,1,58.4999973220826,8|0,0:0|3:0,0:0:0:0:
118,203,110943,5,8,0:0:0:0:
111,243,111068,1,0,0:0:0:0:
43,244,111193,1,0,3:0:0:0:
50,284,111318,1,0,0:0:0:0:
0,328,111443,2,0,B|88:328|88:328|155:384,1,175.499991966248,8|0,0:0|0:0,0:0:0:0:
293,300,111943,6,0,B|232:313|232:313|186:279,1,116.999994644165,8|0,0:0|0:0,0:0:0:0:
317,293,112318,1,0,0:0:0:0:
376,255,112443,2,0,L|493:276,1,116.999994644165,8|8,0:0|0:0,0:0:0:0:
376,129,112818,2,0,L|493:108,2,116.999994644165,0|8|0,0:0|0:0|0:0,0:0:0:0:
256,77,113443,2,0,L|255:14,2,58.4999973220826,8|0|0,0:0|0:0|0:0,0:0:0:0:
136,129,113818,1,0,0:0:0:0:
136,129,113880,1,0,0:0:0:0:
136,129,113943,6,0,P|84:144|14:107,1,135.000005149842,8|0,0:0|1:0,0:0:0:0:
15,275,114318,2,0,P|71:241|136:255,1,135.000005149842,8|0,0:0|0:0,0:0:0:0:
85,329,114693,1,0,1:0:0:0:
79,362,114818,1,0,1:0:0:0:
160,362,114943,1,0,1:0:0:0:
166,329,115068,2,0,L|301:329,1,135.000005149842,8|0,0:0|0:0,0:0:0:0:
363,276,115443,2,0,L|405:276,3,33.7500012874604
297,234,115693,2,0,L|255:234,3,33.7500012874604,8|0|2|0,0:0|0:0|0:3|0:0,0:0:0:0:
363,192,115943,5,4,0:0:0:0:
