osu file format v14

[General]
AudioFilename: D.mp3
AudioLeadIn: 0
PreviewTime: 71517
Countdown: 0
SampleSet: Soft
StackLeniency: 0.7
Mode: 0
LetterboxInBreaks: 0
WidescreenStoryboard: 0

[Editor]
DistanceSpacing: 1
BeatDivisor: 4
GridSize: 4
TimelineZoom: 4.757757

[Metadata]
Title:D
TitleUnicode:D
Artist:Eagle
ArtistUnicode:Eagle
Creator:P o M u T a
Version:BEGINNER
Source:beatmania IIDX 17 SIRIUS
Tags:Ways For Liberation ICARUS kors k bemani NEXT SKOOL BREAKBEATS HARDCORE pomuta bluoxy sionkotori faust
BeatmapID:880178
BeatmapSetID:403667

[Difficulty]
HPDrainRate:2
CircleSize:3
OverallDifficulty:2
ApproachRate:3
SliderMultiplier:0.799999999999999
SliderTickRate:2

[Events]
//Background and Video events
0,0,"49955889_p0.jpg",0,0
//Break Periods
2,49774,59105
//Storyboard Layer 0 (Background)
//Storyboard Layer 1 (Fail)
//Storyboard Layer 2 (Pass)
//Storyboard Layer 3 (Foreground)
//Storyboard Sound Samples

[TimingPoints]
352,500,4,2,1,40,1,0
13852,-100,4,2,1,60,0,0
16352,-100,4,2,3,50,0,0
19852,-100,4,2,3,70,0,0
34384,461.538461538462,4,2,3,70,1,0
34384,-100,4,2,3,70,0,0
35307,-100,4,2,2,70,0,0
36230,428.571428571429,4,2,3,70,1,0
37944,400,4,2,3,70,1,0
39544,375,4,2,3,70,1,0
40294,352.941176470588,4,2,3,70,1,0
40999,333.333333333333,4,2,3,70,1,0
41665,315.789473684211,4,2,3,70,1,0
42296,300,4,2,3,70,1,0
42596,285.714285714286,4,2,3,70,1,0
42881,272.727272727273,4,2,3,70,1,0
43153,250,4,2,3,70,1,0
43403,1200,4,2,3,70,1,0
48203,342.857142857143,4,2,1,20,1,0
49574,-100,4,2,1,65,0,0
60545,-100,4,2,2,65,0,0
70145,-100,4,2,1,65,0,0
71517,-100,4,2,1,70,0,1
71860,-100,4,2,2,70,0,1
71945,-100,4,2,1,70,0,1
73917,-100,4,2,2,70,0,1
74260,-100,4,2,1,70,0,1
74603,-100,4,2,2,70,0,1
74688,-100,4,2,1,70,0,1
76660,-100,4,2,2,70,0,1
76745,-100,4,2,1,70,0,1
77345,-100,4,2,2,70,0,1
77431,-100,4,2,1,70,0,1
79403,-100,4,2,2,70,0,1
79745,-100,4,2,1,70,0,1
80088,-100,4,2,2,70,0,1
80174,-100,4,2,1,70,0,1
81781,342.857142857143,4,2,1,70,1,0
82488,342.857142857143,4,2,2,60,1,0
82488,-100,4,2,2,60,0,0
83860,-100,4,2,2,55,0,0
85231,-100,4,2,2,50,0,0
86603,-100,4,2,2,45,0,0
87974,352.941176470588,4,2,2,40,1,0
88503,375,4,2,2,40,1,0
89440,400,4,2,2,35,1,0
90240,428.571428571429,4,2,2,35,1,0
91097,461.538461538462,4,2,2,30,1,0
92943,2000,4,2,1,20,1,0
97693,-100,4,2,1,10,0,0
97943,500,4,2,1,50,1,0
99943,-100,4,2,1,60,0,0
100068,-100,4,2,2,60,0,0
107943,-100,4,2,1,60,0,0
108068,-100,4,2,2,60,0,0
115943,-100,4,2,1,60,0,0

[Colours]
Combo1 : 216,216,216
Combo2 : 191,255,255
Combo3 : 83,83,255
Combo4 : 255,47,255

[HitObjects]
52,122,352,6,0,B|109:135|109:135|149:120|149:120|209:131,1,160,6|2,0:0|0:0,0:0:0:0:
280,162,1852,1,2,0:0:0:0:
355,188,2352,2,0,P|394:197|435:187,1,79.9999999999999,2|2,0:0|0:0,0:0:0:0:
491,134,3352,2,0,L|486:53,1,79.9999999999999,2|2,0:0|0:0,0:0:0:0:
408,33,4352,6,0,B|333:64|333:64|256:47,1,160,2|2,0:0|0:0,0:0:0:0:
177,33,5852,1,2,0:0:0:0:
204,108,6352,2,0,L|197:188,1,79.9999999999999,2|2,0:0|0:0,0:0:0:0:
122,217,7352,2,0,P|181:268|254:245,1,160,2|2,0:0|0:0,0:0:0:0:
281,171,8852,5,2,0:0:0:0:
268,92,9352,2,0,L|352:87,1,79.9999999999999,2|2,0:0|0:0,0:0:0:0:
427,81,10352,2,0,P|439:120|438:163,1,79.9999999999999,2|2,0:0|0:0,0:0:0:0:
391,223,11352,1,2,0:0:0:0:
312,210,11852,2,0,B|272:206|272:206|233:223,1,79.9999999999999,2|2,0:0|0:0,0:0:0:0:
187,286,12852,6,0,L|202:367,2,79.9999999999999,2|2|8,0:0|0:0|0:1,0:0:0:0:
156,212,14352,1,4,0:1:0:0:
458,106,16352,6,0,L|452:276,1,160,6|0,0:0|0:0,0:0:0:0:
391,317,17852,1,8,0:1:0:0:
322,276,18352,2,0,P|282:274|241:285,1,79.9999999999999,10|10,0:0|0:0,0:0:0:0:
174,324,19352,2,0,L|179:370,2,40,2|10|2,0:0|0:0|0:0,0:0:0:0:
171,244,20352,6,0,L|88:250,1,79.9999999999999,8|0,0:0|1:0,0:0:0:0:
22,209,21352,2,0,P|13:169|21:129,1,79.9999999999999,0|8,0:0|0:1,0:0:0:0:
80,78,22352,2,0,B|240:104|240:36|397:78,1,320,8|4,0:0|0:0,0:0:0:0:
472,105,24852,5,0,1:0:0:0:
338,192,25852,1,8,0:1:0:0:
277,139,26352,2,0,P|258:178|262:219,1,79.9999999999999,8|0,0:0|0:0,0:0:0:0:
318,269,27352,2,0,L|324:357,1,79.9999999999999,0|2,0:0|0:0,0:0:0:0:
403,355,28352,6,0,B|456:296|456:296|456:213,1,160,4|0,0:0|0:0,0:0:0:0:
456,135,29852,1,8,0:1:0:0:
456,55,30352,2,0,P|378:37|307:71,1,160,4|8,0:0|0:0,0:0:0:0:
265,137,31852,1,0,0:0:0:0:
207,192,32352,6,0,L|121:187,2,79.9999999999999,4|0|0,0:0|1:0|0:0,0:0:0:0:
372,258,34384,6,0,L|453:250,2,79.9999999999999,8|8|8,0:0|2:0|2:0,0:0:0:0:
211,321,36230,6,0,P|116:339|53:163,1,320,4|12,0:0|0:0,0:0:0:0:
378,58,39544,6,0,L|219:51,1,160,4|2,0:0|0:3,0:0:0:0:
342,166,40999,6,0,L|513:173,1,160,4|0,0:0|1:0,0:0:0:0:
368,274,42296,5,4,0:0:0:0:
256,192,43403,12,8,48203,0:3:0:0:
256,192,49574,5,6,0:1:0:0:
202,133,60545,6,0,P|162:135|125:151,1,79.9999999999999,6|10,0:1|0:1,0:0:0:0:
125,233,61231,2,0,P|161:248|201:250,1,79.9999999999999,2|2,0:1|0:1,0:0:0:0:
256,192,61917,2,0,L|375:192,2,120,2|2|2,0:1|0:1|0:1,0:0:0:0:
202,133,63288,6,0,P|204:93|220:56,1,79.9999999999999,2|10,0:1|0:1,0:0:0:0:
294,27,63974,2,0,L|374:27,1,79.9999999999999,2|2,0:1|0:1,0:0:0:0:
454,27,64660,2,0,P|492:77|479:139,2,120,2|2|2,0:1|0:1|0:1,0:0:0:0:
412,95,66031,5,2,0:1:0:0:
284,192,66717,1,2,0:1:0:0:
412,289,67403,1,2,0:1:0:0:
256,325,68088,1,0,0:0:0:0:
100,289,68774,5,2,0:1:0:0:
228,192,69460,1,0,0:0:0:0:
100,95,70145,2,0,B|130:68|130:68|289:75|289:75|320:44,1,240,8|8,0:1|0:0,0:0:0:0:
396,31,71517,6,0,B|409:69|409:69|401:110,1,79.9999999999999,6|10,0:1|0:1,0:0:0:0:
364,179,72203,2,0,B|360:259|360:259|387:336,1,160,2|10,0:0|0:1,0:0:0:0:
457,371,73231,1,8,0:0:0:0:
510,311,73574,2,0,L|510:224,1,79.9999999999999,0|10,0:0|0:1,0:0:0:0:
483,155,74260,6,0,B|442:152|442:152|403:163,1,79.9999999999999,10|10,0:1|0:1,0:0:0:0:
333,198,74945,2,0,B|253:210|253:210|173:191,1,160,2|10,0:0|0:1,0:0:0:0:
98,170,75974,1,8,0:0:0:0:
22,195,76317,2,0,L|28:300,1,79.9999999999999,0|10,0:0|0:1,0:0:0:0:
106,265,77003,6,0,L|100:370,1,79.9999999999999,6|10,0:1|0:1,0:0:0:0:
179,360,77688,2,0,P|244:320|324:333,1,160,2|10,0:0|0:1,0:0:0:0:
397,362,78717,1,8,0:0:0:0:
457,309,79060,2,0,L|453:228,1,79.9999999999999,0|10,0:0|0:1,0:0:0:0:
489,157,79745,6,0,P|449:147|406:165,1,79.9999999999999,10|10,0:1|0:1,0:0:0:0:
343,198,80431,1,2,0:0:0:0:
265,179,80774,1,10,0:0:0:0:
187,160,81117,1,8,0:0:0:0:
466,316,82488,6,0,B|400:301|350:340|350:340|278:315|278:315|227:354|155:328,1,320,4|4,0:3|0:3,0:0:0:0:
82,192,84545,1,8,0:0:0:0:
163,53,85231,6,0,B|227:30|278:69|278:69|350:44|350:44|400:83|466:68,1,320,4|4,0:3|0:3,0:0:0:0:
503,138,86945,2,0,L|495:234,1,79.9999999999999,8|8,0:0|0:0,0:0:0:0:
404,343,87974,6,0,L|285:351,1,120,4|4,0:3|0:3,0:0:0:0:
191,188,89440,6,0,P|171:259|206:353,1,160,4|8,0:3|0:0,0:0:0:0:
284,220,91097,6,0,P|355:240|402:226,1,120,4|0,0:3|0:0,0:0:0:0:
256,192,92943,12,0,97693,0:0:0:0:
376,290,99943,6,0,L|297:293,1,79.9999999999999,4|8,0:0|0:0,0:0:0:0:
215,293,100943,2,0,L|136:290,1,79.9999999999999,0|8,0:0|0:0,0:0:0:0:
135,209,101943,2,0,L|214:206,1,79.9999999999999,8|8,0:0|0:0,0:0:0:0:
296,206,102943,2,0,L|375:209,1,79.9999999999999,0|8,0:0|0:0,0:0:0:0:
455,212,103943,6,0,P|470:154|432:64,1,160,8|8,0:0|0:0,0:0:0:0:
358,35,105443,1,8,0:0:0:0:
283,63,105943,2,0,B|210:97|210:97|47:83,1,240,0|0,0:0|0:0,0:0:0:0:
6,149,107943,6,0,P|3:193|13:226,1,79.9999999999999,4|8,0:0|0:0,0:0:0:0:
75,277,108943,1,0,0:0:0:0:
154,278,109443,1,8,0:0:0:0:
219,231,109943,2,0,L|302:226,1,79.9999999999999,8|8,0:0|0:0,0:0:0:0:
378,219,110943,2,0,P|390:260|383:307,1,79.9999999999999,8|8,0:0|0:0,0:0:0:0:
320,341,111943,6,0,B|202:302|202:376|85:341,1,240,8|8,0:0|0:0,0:0:0:0:
28,284,113943,2,0,P|27:198|72:144,2,160,8|0|4,0:0|1:0|0:0,0:0:0:0:
