osu file format v14

[General]
AudioFilename: audio.mp3
AudioLeadIn: 0
PreviewTime: 34405
Countdown: 1
SampleSet: Soft
StackLeniency: 0.7
Mode: 3
LetterboxInBreaks: 0
SpecialStyle: 0
WidescreenStoryboard: 1

[Editor]
DistanceSpacing: 0.8
BeatDivisor: 4
GridSize: 4
TimelineZoom: 1.3

[Metadata]
Title:cloud
TitleUnicode:cloud
Artist:EZFG
ArtistUnicode:EZFG
Creator:Ciel
Version:High (nerfed)
Source:
Tags:
BeatmapID:1178427
BeatmapSetID:556863

[Difficulty]
HPDrainRate:8
CircleSize:7
OverallDifficulty:7
ApproachRate:5
SliderMultiplier:1.4
SliderTickRate:1

[Events]
//Background and Video events
0,0,"Starwalt+Design.png",0,0
//Break Periods
//Storyboard Layer 0 (Background)
//Storyboard Layer 1 (Fail)
//Storyboard Layer 2 (Pass)
//Storyboard Layer 3 (Foreground)
//Storyboard Sound Samples

[TimingPoints]
0,419.58041958042,4,2,0,5,1,0
0,-125,4,2,0,5,0,0
314,-208.333333333333,4,2,0,5,0,0
839,-125,4,2,0,5,0,0
1153,-208.333333333333,4,2,0,5,0,0
1678,-125,4,2,0,5,0,0
1992,-208.333333333333,4,2,0,5,0,0
2517,-125,4,2,0,5,0,0
2831,-208.333333333333,4,2,0,5,0,0
3356,-125,4,2,0,5,0,0
3670,-208.333333333333,4,2,0,5,0,0
4195,-125,4,2,0,5,0,0
4509,-208.333333333333,4,2,0,5,0,0
5034,-125,4,2,0,5,0,0
5348,-208.333333333333,4,2,0,5,0,0
5873,-125,4,2,0,5,0,0
6187,-208.333333333333,4,2,0,5,0,0
6713,-125,4,2,0,5,0,0
7342,-83.3333333333333,4,2,0,5,0,0
7552,-125,4,2,0,5,0,0
8181,-83.3333333333333,4,2,0,5,0,0
8391,-125,4,2,0,5,0,0
9020,-83.3333333333333,4,2,0,5,0,0
9230,-125,4,2,0,5,0,0
9859,-83.3333333333333,4,2,0,5,0,0
10069,-125,4,2,0,5,0,0
10698,-83.3333333333333,4,2,0,5,0,0
10908,-125,4,2,0,5,0,0
11537,-83.3333333333333,4,2,0,5,0,0
11747,-125,4,2,0,5,0,0
12376,-83.3333333333333,4,2,0,5,0,0
12586,-125,4,2,0,5,0,0
12902,-208.333333333333,4,2,0,5,0,0
13426,-125,4,2,0,5,0,0
14055,-83.3333333333333,4,2,0,5,0,0
14265,-125,4,2,0,5,0,0
14894,-83.3333333333333,4,2,0,5,0,0
15104,-125,4,2,0,5,0,0
15733,-83.3333333333333,4,2,0,5,0,0
15943,-125,4,2,0,5,0,0
16572,-83.3333333333333,4,2,0,5,0,0
16782,-125,4,2,0,5,0,0
17411,-83.3333333333333,4,2,0,5,0,0
17621,-125,4,2,0,5,0,0
18250,-83.3333333333333,4,2,0,5,0,0
18460,-125,4,2,0,5,0,0
19089,-83.3333333333333,4,2,0,5,0,0
19299,-125,4,2,0,5,0,0
19930,-83.3333333333333,4,2,0,5,0,0
20139,-125,4,2,0,5,0,0
20768,-83.3333333333333,4,2,0,5,0,0
20978,-125,4,2,0,5,0,0
21607,-83.3333333333333,4,2,0,5,0,0
21817,-125,4,2,0,5,0,0
22446,-83.3333333333333,4,2,0,5,0,0
22656,-125,4,2,0,5,0,0
23285,-83.3333333333333,4,2,0,5,0,0
23495,-125,4,2,0,5,0,0
24124,-83.3333333333333,4,2,0,5,0,0
24334,-125,4,2,0,5,0,0
24963,-83.3333333333333,4,2,0,5,0,0
25173,-125,4,2,0,5,0,0
25802,-83.3333333333333,4,2,0,5,0,0
26012,-125,4,2,0,5,0,0
26328,-208.333333333333,4,2,0,5,0,0
26852,-125,4,2,0,5,0,0
27481,-83.3333333333333,4,2,0,5,0,0
27691,-125,4,2,0,5,0,0
28320,-83.3333333333333,4,2,0,5,0,0
28530,-125,4,2,0,5,0,0
29159,-83.3333333333333,4,2,0,5,0,0
29369,-125,4,2,0,5,0,0
29998,-83.3333333333333,4,2,0,5,0,0
30208,-125,4,2,0,5,0,0
30837,-83.3333333333333,4,2,0,5,0,0
31047,-125,4,2,0,5,0,0
31676,-83.3333333333333,4,2,0,5,0,0
31886,-125,4,2,0,5,0,0
32515,-83.3333333333333,4,2,0,5,0,0
32725,-125,4,2,0,5,0,0
33356,-83.3333333333333,4,2,0,5,0,0
33566,-1000,4,2,0,5,0,0
33841.6,-20.4081632653061,4,2,0,5,0,0
33881,-1000,4,2,0,5,0,0
33972.9,-20.4081632653061,4,2,0,5,0,0
33986,-1000,4,2,0,5,0,0
34077,-20.4081632653061,4,2,0,5,0,0
34090,-1000,4,2,0,5,0,0
34181.9,-20.4081632653061,4,2,0,5,0,0
34195,-1000,4,2,0,5,0,0
34286.9,-20.4081632653061,4,2,0,5,0,0
34300,-1000,4,2,0,5,0,0
34391.9,-20.4081632653061,4,2,0,5,0,0
34405,419.58041958042,4,2,0,5,1,0
34405,-1000,4,2,0,5,0,0
34496,-20.4081632653061,4,2,0,5,0,0
34509,-1000,4,2,0,5,0,0
34692.75,-20.4081632653061,4,2,0,5,0,0
34719,-1000,4,2,0,5,0,0
34902.75,-20.4081632653061,4,2,0,5,0,0
34929,-1000,4,2,0,5,0,0
35020.875,-20.4081632653061,4,2,0,5,0,0
35034,-1000,4,2,0,5,0,0
35217.75,-20.4081632653061,4,2,0,5,0,0
35244,-1000,4,2,0,5,0,0
35335.875,-20.4081632653061,4,2,0,5,0,0
35349,-1000,4,2,0,5,0,0
35531.875,-20.4081632653061,4,2,0,5,0,0
35558,-1000,4,2,0,5,0,0
36017.375,-20.4081632653061,4,2,0,5,0,0
36083,-1000,4,2,0,5,0,0
36174.875,-20.4081632653061,4,2,0,5,0,0
36188,-1000,4,2,0,5,0,0
36371.75,-20.4081632653061,4,2,0,5,0,0
36398,-1000,4,2,0,5,0,0
36580.875,-20.4081632653061,4,2,0,5,0,0
36607,-1000,4,2,0,5,0,0
36698.875,-20.4081632653061,4,2,0,5,0,0
36712,-1000,4,2,0,5,0,0
36895.75,-20.4081632653061,4,2,0,5,0,0
36922,-1000,4,2,0,5,0,0
37013.875,-20.4081632653061,4,2,0,5,0,0
37027,-1000,4,2,0,5,0,0
37210.75,-20.4081632653061,4,2,0,5,0,0
37237,-1000,4,2,0,5,0,0
37419.875,-20.4081632653061,4,2,0,5,0,0
37446,-1000,4,2,0,5,0,0
37537.875,-20.4081632653061,4,2,0,5,0,0
37551,-1000,4,2,0,5,0,0
37734.75,-20.4081632653061,4,2,0,5,0,0
37761,-1000,4,2,0,5,0,0
37852.875,-20.4081632653061,4,2,0,5,0,0
37866,-1000,4,2,0,5,0,0
38049.75,-20.4081632653061,4,2,0,5,0,0
38076,-1000,4,2,0,5,0,0
38259.75,-20.4081632653061,4,2,0,5,0,0
38286,-1000,4,2,0,5,0,0
38377.875,-20.4081632653061,4,2,0,5,0,0
38391,-1000,4,2,0,5,0,0
38573.875,-20.4081632653061,4,2,0,5,0,0
38600,-1000,4,2,0,5,0,0
38691.875,-20.4081632653061,4,2,0,5,0,0
38705,-1000,4,2,0,5,0,0
38796.875,-20.4081632653061,4,2,0,5,0,0
38810,-1000,4,2,0,5,0,0
38901.875,-20.4081632653061,4,2,0,5,0,0
38915,-1000,4,2,0,5,0,0
39098.75,-20.4081632653061,4,2,0,5,0,0
39125,-1000,4,2,0,5,0,0
39216.875,-20.4081632653061,4,2,0,5,0,0
39230,-1000,4,2,0,5,0,0
39412.875,-20.4081632653061,4,2,0,5,0,0
39439,-1000,4,2,0,5,0,0
39530.875,-20.4081632653061,4,2,0,5,0,0
39544,-1000,4,2,0,5,0,0
39727.75,-20.4081632653061,4,2,0,5,0,0
39754,-1000,4,2,0,5,0,0
39937.75,-20.4081632653061,4,2,0,5,0,0
39964,-1000,4,2,0,5,0,0
40055.875,-20.4081632653061,4,2,0,5,0,0
40069,-1000,4,2,0,5,0,0
40252.75,-20.4081632653061,4,2,0,5,0,0
40279,-1000,4,2,0,5,0,0
40370.875,-20.4081632653061,4,2,0,5,0,0
40384,-1000,4,2,0,5,0,0
40566.875,-20.4081632653061,4,2,0,5,0,0
40593,-1000,4,2,0,5,0,0
40776.75,-20.4081632653061,4,2,0,5,0,0
40803,-1000,4,2,0,5,0,0
40894.875,-20.4081632653061,4,2,0,5,0,0
40908,-1000,4,2,0,5,0,0
41091.75,-20.4081632653061,4,2,0,5,0,0
41118,-1000,4,2,0,5,0,0
41209.875,-20.4081632653061,4,2,0,5,0,0
41223,-1000,4,2,0,5,0,0
41405.875,-20.2018175617389,4,2,0,5,0,0
41432,-1000,4,2,0,5,0,0
41615.75,-19.803265277226,4,2,0,5,0,0
41642,-1000,4,2,0,5,0,0
41733.875,-19.4183369264649,4,2,0,5,0,0
41747,-1000,4,2,0,5,0,0
41838.875,-19.2314303065952,4,2,0,5,0,0
41852,-1000,4,2,0,5,0,0
41943.875,-19.0480874358286,4,2,0,5,0,0
41957,-1000,4,2,0,5,0,0
42048.875,-18.8682073516682,4,2,0,5,0,0
42062,-1000,4,2,0,5,0,0
42245.75,-18.6916928696853,4,2,0,5,0,0
42272,-1000,4,2,0,5,0,0
42454.875,-18.3483898240231,4,2,0,5,0,0
42481,-1000,4,2,0,5,0,0
42572.875,-18.0190174893622,4,2,0,5,0,0
42586,-1000,4,2,0,5,0,0
42677.875,-17.8579662135082,4,2,0,5,0,0
42691,-1000,4,2,0,5,0,0
42782.875,-17.6997683386825,4,2,0,5,0,0
42796,-1000,4,2,0,5,0,0
42887.875,-17.5443486987215,4,2,0,5,0,0
42901,-1000,4,2,0,5,0,0
43084.75,-17.391634744583,4,2,0,5,0,0
43111,-1000,4,2,0,5,0,0
43294.75,-17.0940461114865,4,2,0,5,0,0
43321,-1000,4,2,0,5,0,0
43412,-16.806470240698,4,2,0,5,0,0
43425,-1000,4,2,0,5,0,0
43516.875,-16.6676045987361,4,2,0,5,0,0
43530,-1000,4,2,0,5,0,0
43621.875,-16.5297124453797,4,2,0,5,0,0
43635,-1000,4,2,0,5,0,0
43726.875,-16.3940831523526,4,2,0,5,0,0
43740,-1000,4,2,0,5,0,0
43923.75,-16.2606614714365,4,2,0,5,0,0
43950,-1000,4,2,0,5,0,0
44133.75,-16.000228801683,4,2,0,5,0,0
44160,-1000,4,2,0,5,0,0
44251.875,-15.7480068684455,4,2,0,5,0,0
44265,-1000,4,2,0,5,0,0
44356.875,-15.624854535242,4,2,0,5,0,0
44370,-1000,4,2,0,5,0,0
44461,-15.5036134042363,4,2,0,5,0,0
44474,-1000,4,2,0,5,0,0
44565.875,-15.3853675529168,4,2,0,5,0,0
44579,-1000,4,2,0,5,0,0
44762.75,-15.2678005573429,4,2,0,5,0,0
44789,-1000,4,2,0,5,0,0
44972.75,-15.0379757421174,4,2,0,5,0,0
44999,-1000,4,2,0,5,0,0
45090.875,-14.8149673835326,4,2,0,5,0,0
45104,-1000,4,2,0,5,0,0
45195.875,-14.7059253049983,4,2,0,5,0,0
45209,-1000,4,2,0,5,0,0
45300.875,-14.5984766554846,4,2,0,5,0,0
45314,-1000,4,2,0,5,0,0
45405,-14.4925867612307,4,2,0,5,0,0
45418,-1000,4,2,0,5,0,0
45601.75,-14.3892088078533,4,2,0,5,0,0
45628,-1000,4,2,0,5,0,0
45811.75,-14.1848966770436,4,2,0,5,0,0
45838,-1000,4,2,0,5,0,0
45929.875,-13.9863053653523,4,2,0,5,0,0
45943,-1000,4,2,0,5,0,0
46034.875,-13.8890804518434,4,2,0,5,0,0
46048,-1000,4,2,0,5,0,0
46139.875,-13.7931979125289,4,2,0,5,0,0
46153,-1000,4,2,0,5,0,0
46244.875,-13.6986301369863,4,2,0,5,0,0
46258,-1000,4,2,0,5,0,0
46440.875,-13.5132958590365,4,2,0,5,0,0
46467,-1000,4,2,0,5,0,0
46650.75,-13.1589265829138,4,2,0,5,0,0
46677,-1000,4,2,0,5,0,0
46768.875,-12.8211005669402,4,2,0,5,0,0
46782,-1000,4,2,0,5,0,0
46873.875,-12.6586098160805,4,2,0,5,0,0
46887,-1000,4,2,0,5,0,0
46978.875,-12.5001862363861,4,2,0,5,0,0
46992,-1000,4,2,0,5,0,0
47083.875,-12.3456790123457,4,2,0,5,0,0
47097,-1000,4,2,0,5,0,0
47188.875,-12.1949446939636,4,2,0,5,0,0
47202,-1000,4,2,0,5,0,0
47293.875,-12.0478467525381,4,2,0,5,0,0
47307,-1000,4,2,0,5,0,0
47398,-11.9042551682061,4,2,0,5,0,0
47411,-1000,4,2,0,5,0,0
47502.875,-11.7653657920938,4,2,0,5,0,0
47516,-1000,4,2,0,5,0,0
47607.875,-11.6283904588987,4,2,0,5,0,0
47621,-1000,4,2,0,5,0,0
47712.875,-11.4945678234303,4,2,0,5,0,0
47726,-1000,4,2,0,5,0,0
47817.875,-11.3637902777966,4,2,0,5,0,0
47831,-66.6666666666667,4,2,0,5,0,0
47884,-86.9565217391304,4,2,0,5,0,0
47936,-117.647058823529,4,2,0,5,0,0
47988,-166.666666666667,4,2,0,5,0,0
48041,-250,4,2,0,5,0,0
48093,-400,4,2,0,5,0,0
48146,-666.666666666667,4,2,0,5,0,0
48198,-1000,4,2,0,5,0,0
48251,-1000,4,2,0,5,0,0
48303,-666.666666666667,4,2,0,5,0,0
48356,-400,4,2,0,5,0,0
48408,-250,4,2,0,5,0,0
48460,-166.666666666667,4,2,0,5,0,0
48513,-117.647058823529,4,2,0,5,0,0
48565,-86.9565217391304,4,2,0,5,0,0
48618,-66.6666666666667,4,2,0,5,0,0
48670,-66.6666666666667,4,2,0,5,0,0
48723,-86.9565217391304,4,2,0,5,0,0
48775,-117.647058823529,4,2,0,5,0,0
48827,-166.666666666667,4,2,0,5,0,0
48880,-250,4,2,0,5,0,0
48932,-400,4,2,0,5,0,0
48985,-666.666666666667,4,2,0,5,0,0
49037,-1000,4,2,0,5,0,0
49090,-1000,4,2,0,5,0,0
49142,-666.666666666667,4,2,0,5,0,0
49195,-400,4,2,0,5,0,0
49247,-250,4,2,0,5,0,0
49299,-166.666666666667,4,2,0,5,0,0
49352,-117.647058823529,4,2,0,5,0,0
49404,-86.9565217391304,4,2,0,5,0,0
49457,-66.6666666666667,4,2,0,5,0,0
49509,-66.6666666666667,4,2,0,5,0,0
49562,-86.9565217391304,4,2,0,5,0,0
49614,-117.647058823529,4,2,0,5,0,0
49666,-166.666666666667,4,2,0,5,0,0
49719,-250,4,2,0,5,0,0
49771,-400,4,2,0,5,0,0
49824,-666.666666666667,4,2,0,5,0,0
49876,-1000,4,2,0,5,0,0
49929,-1000,4,2,0,5,0,0
49981,-666.666666666667,4,2,0,5,0,0
50034,-400,4,2,0,5,0,0
50086,-250,4,2,0,5,0,0
50138,-166.666666666667,4,2,0,5,0,0
50191,-117.647058823529,4,2,0,5,0,0
50243,-86.9565217391304,4,2,0,5,0,0
50296,-66.6666666666667,4,2,0,5,0,0
50348,-66.6666666666667,4,2,0,5,0,0
50401,-86.9565217391304,4,2,0,5,0,0
50453,-117.647058823529,4,2,0,5,0,0
50505,-166.666666666667,4,2,0,5,0,0
50558,-250,4,2,0,5,0,0
50610,-400,4,2,0,5,0,0
50663,-666.666666666667,4,2,0,5,0,0
50715,-1000,4,2,0,5,0,0
50768,-1000,4,2,0,5,0,0
50820,-666.666666666667,4,2,0,5,0,0
50873,-400,4,2,0,5,0,0
50925,-250,4,2,0,5,0,0
50977,-166.666666666667,4,2,0,5,0,0
51030,-117.647058823529,4,2,0,5,0,0
51082,-86.9565217391304,4,2,0,5,0,0
51135,-66.6666666666667,4,2,0,5,0,0
51188,-66.6666666666667,4,2,0,5,0,0
51241,-86.9565217391304,4,2,0,5,0,0
51293,-117.647058823529,4,2,0,5,0,0
51345,-166.666666666667,4,2,0,5,0,0
51398,-250,4,2,0,5,0,0
51450,-400,4,2,0,5,0,0
51503,-666.666666666667,4,2,0,5,0,0
51555,-1000,4,2,0,5,0,0
51608,-1000,4,2,0,5,0,0
51660,-666.666666666667,4,2,0,5,0,0
51713,-400,4,2,0,5,0,0
51765,-250,4,2,0,5,0,0
51817,-166.666666666667,4,2,0,5,0,0
51870,-117.647058823529,4,2,0,5,0,0
51922,-86.9565217391304,4,2,0,5,0,0
51975,-66.6666666666667,4,2,0,5,0,0
52027,-66.6666666666667,4,2,0,5,0,0
52080,-86.9565217391304,4,2,0,5,0,0
52132,-117.647058823529,4,2,0,5,0,0
52184,-166.666666666667,4,2,0,5,0,0
52237,-250,4,2,0,5,0,0
52289,-400,4,2,0,5,0,0
52342,-666.666666666667,4,2,0,5,0,0
52394,-1000,4,2,0,5,0,0
52447,-1000,4,2,0,5,0,0
52499,-666.666666666667,4,2,0,5,0,0
52552,-400,4,2,0,5,0,0
52604,-250,4,2,0,5,0,0
52656,-166.666666666667,4,2,0,5,0,0
52709,-117.647058823529,4,2,0,5,0,0
52761,-86.9565217391304,4,2,0,5,0,0
52814,-66.6666666666667,4,2,0,5,0,0
52866,-66.6666666666667,4,2,0,5,0,0
52919,-86.9565217391304,4,2,0,5,0,0
52971,-117.647058823529,4,2,0,5,0,0
53023,-166.666666666667,4,2,0,5,0,0
53076,-250,4,2,0,5,0,0
53128,-400,4,2,0,5,0,0
53181,-666.666666666667,4,2,0,5,0,0
53233,-1000,4,2,0,5,0,0
53286,-1000,4,2,0,5,0,0
53338,-666.666666666667,4,2,0,5,0,0
53391,-400,4,2,0,5,0,0
53443,-250,4,2,0,5,0,0
53495,-166.666666666667,4,2,0,5,0,0
53548,-117.647058823529,4,2,0,5,0,0
53600,-86.9565217391304,4,2,0,5,0,0
53653,-66.6666666666667,4,2,0,5,0,0
53705,-66.6666666666667,4,2,0,5,0,0
53758,-86.9565217391304,4,2,0,5,0,0
53810,-117.647058823529,4,2,0,5,0,0
53862,-166.666666666667,4,2,0,5,0,0
53915,-250,4,2,0,5,0,0
53967,-400,4,2,0,5,0,0
54020,-666.666666666667,4,2,0,5,0,0
54072,-1000,4,2,0,5,0,0
54125,-1000,4,2,0,5,0,0
54177,-666.666666666667,4,2,0,5,0,0
54230,-400,4,2,0,5,0,0
54282,-250,4,2,0,5,0,0
54334,-166.666666666667,4,2,0,5,0,0
54387,-117.647058823529,4,2,0,5,0,0
54439,-86.9565217391304,4,2,0,5,0,0
54492,-66.6666666666667,4,2,0,5,0,0
54544,-100,4,2,0,5,0,0
54638.5,-100,4,2,0,5,0,0
54649,-100.788110785859,4,2,0,5,0,0
54743.5,-93.425172197871,4,2,0,5,0,0
54754,-101.588742623695,4,2,0,5,0,0
54848.5,-87.6615746180964,4,2,0,5,0,0
54859,-102.402196293754,4,2,0,5,0,0
54953.5,-82.5677919203099,4,2,0,5,0,0
54964,-103.228782287823,4,2,0,5,0,0
55058.5,-78.0334728033473,4,2,0,5,0,0
55069,-104.068821204371,4,2,0,5,0,0
55163.5,-73.9712444224095,4,2,0,5,0,0
55174,-104.92264416315,4,2,0,5,0,0
55268.5,-70.311027332705,4,2,0,5,0,0
55279,-105.790593240369,4,2,0,5,0,0
55373.5,-66.995958688819,4,2,0,5,0,0
55384,-106.673021925643,4,2,0,5,0,0
55477.6,-63.9794168096055,4,2,0,5,0,0
55488,-107.561678949055,4,2,0,5,0,0
55582.5,-61.247947454844,4,2,0,5,0,0
55593,-108.474028596817,4,2,0,5,0,0
55687.5,-58.7170405352224,4,2,0,5,0,0
55698,-109.401987941991,4,2,0,5,0,0
55792.5,-56.3869992441421,4,2,0,5,0,0
55803,-110.345961048566,4,2,0,5,0,0
55897.5,-54.2348237004726,4,2,0,5,0,0
55908,-111.306366047745,4,2,0,5,0,0
56002.5,-52.2408963585434,4,2,0,5,0,0
56013,-112.283635755498,4,2,0,5,0,0
56107.5,-50.3883823032759,4,2,0,5,0,0
56118,-113.278218322929,4,2,0,5,0,0
56212.5,-48.6627527723418,4,2,0,5,0,0
56223,-114.290577921525,4,2,0,5,0,0
56317.5,-47.0514033427941,4,2,0,5,0,0
56328,-115.321195465476,4,2,0,5,0,0
56421.6,-45.5433455433455,4,2,0,5,0,0
56432,-116.360485268631,4,2,0,5,0,0
56526.5,-44.1420118343195,4,2,0,5,0,0
56537,-117.428946217753,4,2,0,5,0,0
56631.5,-42.8120516499283,4,2,0,5,0,0
56642,-118.517210944395,4,2,0,5,0,0
56736.5,-41.5598885793872,4,2,0,5,0,0
56747,-119.62583518931,4,2,0,5,0,0
56841.5,-40.3788903924222,4,2,0,5,0,0
56852,-120.755395683453,4,2,0,5,0,0
56946.5,-39.2631578947368,4,2,0,5,0,0
56957,-121.906491148434,4,2,0,5,0,0
57051.5,-38.2074263764405,4,2,0,5,0,0
57062,-123.07974335472,4,2,0,5,0,0
57156.5,-37.2069825436409,4,2,0,5,0,0
57167,-124.275798241555,4,2,0,5,0,0
57261.5,-36.2575941676792,4,2,0,5,0,0
57272,-125.495327102804,4,2,0,5,0,0
57366.5,-35.3554502369668,4,2,0,5,0,0
57377,-126.739027843322,4,2,0,5,0,0
57470.6,-34.4971098265896,4,2,0,5,0,0
57481,-127.9954246497,4,2,0,5,0,0
57575.5,-33.6870625423346,4,2,0,5,0,0
57586,-129.289428076257,4,2,0,5,0,0
57680.5,-32.9069254521394,4,2,0,5,0,0
57691,-130.609862853808,4,2,0,5,0,0
57785.5,-32.162103901703,4,2,0,5,0,0
57796,-131.957547169811,4,2,0,5,0,0
57890.5,-31.4502529510961,4,2,0,5,0,0
57901,-133.333333333333,4,2,0,5,0,0
57995.5,-30.7692307692308,4,2,0,5,0,0
58006,-134.738109572547,4,2,0,5,0,0
58100.5,-30.1170771094065,4,2,0,5,0,0
58111,-136.172801947064,4,2,0,5,0,0
58205.5,-29.4919944653093,4,2,0,5,0,0
58216,-137.638376383764,4,2,0,5,0,0
58310.5,-28.8923315259489,4,2,0,5,0,0
58321,-139.135840845508,4,2,0,5,0,0
58414.6,-28.3165686088442,4,2,0,5,0,0
58425,-140.651513564471,4,2,0,5,0,0
58519.5,-27.7684719895775,4,2,0,5,0,0
58530,-142.215632281296,4,2,0,5,0,0
58624.5,-27.2362175976634,4,2,0,5,0,0
58635,-143.814929848988,4,2,0,5,0,0
58729.5,-26.7239835214043,4,2,0,5,0,0
58740,-145.450606585789,4,2,0,5,0,0
58834.5,-26.2306610407876,4,2,0,5,0,0
58845,-147.12391804536,4,2,0,5,0,0
58939.5,-25.7552218194373,4,2,0,5,0,0
58950,-148.836178230991,4,2,0,5,0,0
59044.5,-25.2967107494066,4,2,0,5,0,0
59055,-150.588763036896,4,2,0,5,0,0
59149.5,-24.8542395468932,4,2,0,5,0,0
59160,-152.383113935542,4,2,0,5,0,0
59254.5,-24.4269810085134,4,2,0,5,0,0
59265,-154.220741931779,4,2,0,5,0,0
59359.5,-24.014163849992,4,2,0,5,0,0
59370,-156.103231806557,4,2,0,5,0,0
59463.6,-23.6150680595125,4,2,0,5,0,0
59474,-158.013650270652,4,2,0,5,0,0
59568.5,-23.2326378075366,4,2,0,5,0,0
59579,-159.990468247349,4,2,0,5,0,0
59673.5,-22.8588938256473,4,2,0,5,0,0
59684,-162.017374517375,4,2,0,5,0,0
59778.5,-22.496984318456,4,2,0,5,0,0
59789,-164.096297201515,4,2,0,5,0,0
59883.5,-22.1463559447825,4,2,0,5,0,0
59894,-166.229264669473,4,2,0,5,0,0
59988.5,-21.8064893306051,4,2,0,5,0,0
59999,-168.418412140976,4,2,0,5,0,0
60093.5,-21.4768965020872,4,2,0,5,0,0
60104,-170.665988815455,4,2,0,5,0,0
60198.5,-21.1571185479297,4,2,0,5,0,0
60209,-172.974365580317,4,2,0,5,0,0
60303.5,-20.8467234874948,4,2,0,5,0,0
60314,-175.346043353356,4,2,0,5,0,0
60407.6,-20.5453043238777,4,2,0,5,0,0
60418,-177.760127084988,4,2,0,5,0,0
60512.5,-20.25522671735,4,2,0,5,0,0
60523,-180.265807490938,4,2,0,5,0,0
60617.5,-19.9705528041761,4,2,0,5,0,0
60628,-182.843137254902,4,2,0,5,0,0
60722.5,-19.6937697993664,4,2,0,5,0,0
60733,-185.495234148363,4,2,0,5,0,0
60827.5,-19.4245540945189,4,2,0,5,0,0
60838,-188.225399495374,4,2,0,5,0,0
60932.5,-19.1625995376316,4,2,0,5,0,0
60943,-191.037131882202,4,2,0,5,0,0
61037.5,-18.9076162717019,4,2,0,5,0,0
61048,-193.934142114385,4,2,0,5,0,0
61142.5,-18.6593296648324,4,2,0,5,0,0
61153,-196.920369555653,4,2,0,5,0,0
61247.5,-18.4174793235403,4,2,0,5,0,0
61258,-200,4,2,0,5,0,0
61352.5,-18.1818181818182,4,2,0,5,0,0
61363,-201.259181532004,4,2,0,5,0,0
61456.6,-18.0892200320664,4,2,0,5,0,0
61467,-202.522098530787,4,2,0,5,0,0
61561.5,-17.9984288575435,4,2,0,5,0,0
61572,-203.813340619971,4,2,0,5,0,0
61666.5,-17.9076845921353,4,2,0,5,0,0
61677,-205.121153787393,4,2,0,5,0,0
61771.5,-17.817850763224,4,2,0,5,0,0
61782,-206.445859089092,4,2,0,5,0,0
61876.5,-17.7289137375973,4,2,0,5,0,0
61887,-207.787785928746,4,2,0,5,0,0
61981.5,-17.6408601528892,4,2,0,5,0,0
61992,-209.147272330747,4,2,0,5,0,0
62086.5,-17.5536769108876,4,2,0,5,0,0
62097,-210.524665224073,4,2,0,5,0,0
62191.5,-17.4673511710385,4,2,0,5,0,0
62202,-211.920320737444,4,2,0,5,0,0
62296.5,-17.3818703441419,4,2,0,5,0,0
62307,-213.334604506308,4,2,0,5,0,0
62400.6,-17.297222086231,4,2,0,5,0,0
62411,-214.754150804568,4,2,0,5,0,0
62505.5,-17.214188820137,4,2,0,5,0,0
62516,-216.206641115656,4,2,0,5,0,0
62610.5,-17.1311619740774,4,2,0,5,0,0
62621,-217.678913064626,4,2,0,5,0,0
62715.5,-17.0489321877643,4,2,0,5,0,0
62726,-219.171373534885,4,2,0,5,0,0
62820.5,-16.967488038338,4,2,0,5,0,0
62831,-220.684440645649,4,2,0,5,0,0
62925.5,-16.8868183201729,4,2,0,5,0,0
62936,-222.218544142474,4,2,0,5,0,0
63030.5,-16.8069120397377,4,2,0,5,0,0
63041,-223.774125804193,4,2,0,5,0,0
63135.5,-16.7277584106013,4,2,0,5,0,0
63146,-225.351639867065,4,2,0,5,0,0
63240.5,-16.6493468485785,4,2,0,5,0,0
63251,-226.951553466987,4,2,0,5,0,0
63345.5,-16.5716669670122,4,2,0,5,0,0
63356,-228.574347100684,4,2,0,5,0,0
63449.6,-16.4947085721868,4,2,0,5,0,0
63460,-230.204725489524,4,2,0,5,0,0
63554.5,-16.419184495085,4,2,0,5,0,0
63565,-231.874546647784,4,2,0,5,0,0
63659.5,-16.3436326054618,4,2,0,5,0,0
63670,-233.568769353885,4,2,0,5,0,0
63764.5,-16.2687728260843,4,2,0,5,0,0
63775,-235.287932424381,4,2,0,5,0,0
63869.5,-16.194595689965,4,2,0,5,0,0
63880,-237.03259065711,4,2,0,5,0,0
63974.5,-16.1210919019911,4,2,0,5,0,0
63985,-238.803315428124,4,2,0,5,0,0
64079.5,-16.048252335041,4,2,0,5,0,0
64090,-240.60069531558,4,2,0,5,0,0
64184.5,-15.9760680262071,4,2,0,5,0,0
64195,-242.425336752013,4,2,0,5,0,0
64289.5,-15.9045301731184,4,2,0,5,0,0
64300,-244.277864706524,4,2,0,5,0,0
64394.5,-15.8336301303627,4,2,0,5,0,0
64405,-246.158923398482,4,2,0,5,0,0
64498.6,-15.7633594060034,4,2,0,5,0,0
64509,-248.050844326202,4,2,0,5,0,0
64603.5,-15.6943700860116,4,2,0,5,0,0
64614,-249.990690053253,4,2,0,5,0,0
64708.5,-15.6253273218613,4,2,0,5,0,0
64719,-251.961115489997,4,2,0,5,0,0
64813.5,-15.556889363704,4,2,0,5,0,0
64824,-253.962849468467,4,2,0,5,0,0
64918.5,-15.4890482991581,4,2,0,5,0,0
64929,-255.996644167334,4,2,0,5,0,0
65023.5,-15.4217963532609,4,2,0,5,0,0
65034,-258.063276054281,4,2,0,5,0,0
65128.5,-15.3551258854988,4,2,0,5,0,0
65139,-260.163546874394,4,2,0,5,0,0
65233.5,-15.2890293869129,4,2,0,5,0,0
65244,-262.298284687219,4,2,0,5,0,0
65338.5,-15.2234994772804,4,2,0,5,0,0
65349,-264.468344955285,4,2,0,5,0,0
65442.6,-15.1585289023672,4,2,0,5,0,0
65453,-266.653426017875,4,2,0,5,0,0
65547.5,-15.0947214570802,4,2,0,5,0,0
65558,-268.896455037052,4,2,0,5,0,0
65652.5,-15.0308431199131,4,2,0,5,0,0
65663,-271.177539890931,4,2,0,5,0,0
65757.5,-14.9675031493517,4,2,0,5,0,0
65768,-273.497657364025,4,2,0,5,0,0
65862.5,-14.9046947679259,4,2,0,5,0,0
65873,-275.857817957674,4,2,0,5,0,0
65967.5,-14.8424113114519,4,2,0,5,0,0
65978,-278.259067357513,4,2,0,5,0,0
66072.5,-14.7806462266747,4,2,0,5,0,0
66083,-280.702487978256,4,2,0,5,0,0
66177.5,-14.7193930689704,4,2,0,5,0,0
66188,-283.189200590593,4,2,0,5,0,0
66282.5,-14.6586455001037,4,2,0,5,0,0
66293,-285.720366035327,4,2,0,5,0,0
66387.5,-14.598397286042,4,2,0,5,0,0
66398,-288.297187030277,4,2,0,5,0,0
66491.6,-14.5386422948228,4,2,0,5,0,0
66502,-290.895697014343,4,2,0,5,0,0
66596.5,-14.4799366704989,4,2,0,5,0,0
66607,-293.567149166922,4,2,0,5,0,0
66701.5,-14.4211455712926,4,2,0,5,0,0
66712,-296.288122875932,4,2,0,5,0,0
66806.5,-14.3628299460618,4,2,0,5,0,0
66817,-299.060008018889,4,2,0,5,0,0
66911.5,-14.3049840499321,4,2,0,5,0,0
66922,-301.884246975761,4,2,0,5,0,0
67016.5,-14.2476022302071,4,2,0,5,0,0
67027,-304.762337131702,4,2,0,5,0,0
67121.5,-14.1906789245271,4,2,0,5,0,0
67132,-307.695833524316,4,2,0,5,0,0
67226.5,-14.1342086590714,4,2,0,5,0,0
67237,-310.6863516453,4,2,0,5,0,0
67331.5,-14.0781860468043,4,2,0,5,0,0
67342,-313.735570407066,4,2,0,5,0,0
67435.6,-14.022605785761,4,2,0,5,0,0
67446,-316.815328708292,4,2,0,5,0,0
67540.5,-13.9679857844065,4,2,0,5,0,0
67551,-319.986653319987,4,2,0,5,0,0
67645.5,-13.9132705616087,4,2,0,5,0,0
67656,-323.222109875295,4,2,0,5,0,0
67750.5,-13.8589823258234,4,2,0,5,0,0
67761,-326.523663602315,4,2,0,5,0,0
67855.5,-13.8051160982913,4,2,0,5,0,0
67866,-329.893360853113,4,2,0,5,0,0
67960.5,-13.7516669773578,4,2,0,5,0,0
67971,-333.333333333333,4,2,0,5,0,0
68065.5,-13.6986301369863,4,2,0,5,0,0
68076,-336.845802599227,4,2,0,5,0,0
68170.5,-13.6460008253056,4,2,0,5,0,0
68181,-340.433084842031,4,2,0,5,0,0
68275.5,-13.5937743631905,4,2,0,5,0,0
68286,-344.097595981342,4,2,0,5,0,0
68380.5,-13.5419461428753,4,2,0,5,0,0
68391,-347.841857091041,4,2,0,5,0,0
68484.6,-13.4905116265984,4,2,0,5,0,0
68495,-351.631658896862,4,2,0,5,0,0
68589.5,-13.4399506687942,4,2,0,5,0,0
68600,-355.542608971982,4,2,0,5,0,0
68694.5,-13.389286576208,4,2,0,5,0,0
68705,-359.541535000803,4,2,0,5,0,0
68799.5,-13.3390030222886,4,2,0,5,0,0
68810,-363.631439250311,4,2,0,5,0,0
68904.5,-13.2890957357305,4,2,0,5,0,0
68915,-367.815462166457,4,2,0,5,0,0
69009.5,-13.2395605089135,4,2,0,5,0,0
69020,-372.096890416274,4,2,0,5,0,0
69114.5,-13.1903931967202,4,2,0,5,0,0
69125,-376.479165498289,4,2,0,5,0,0
69219.5,-13.1415897153798,4,2,0,5,0,0
69230,-380.965892968617,4,2,0,5,0,0
69324.5,-13.0931460413371,4,2,0,5,0,0
69335,-385.560852334731,4,2,0,5,0,0
69428.6,-13.0450582101473,4,2,0,5,0,0
69439,-390.222635586816,4,2,0,5,0,0
69533.5,-12.9977752951268,4,2,0,5,0,0
69544,-395.045018537045,4,2,0,5,0,0
69638.5,-12.9503841902296,4,2,0,5,0,0
69649,-399.988083179408,4,2,0,5,0,0
69743.5,-12.9033374146809,4,2,0,5,0,0
69754,-405.056417063899,4,2,0,5,0,0
69848.5,-12.8566312293759,4,2,0,5,0,0
69859,-410.254843243904,4,2,0,5,0,0
69953.5,-12.8102619491521,4,2,0,5,0,0
69964,-415.588435584721,4,2,0,5,0,0
70058.5,-12.7642259418204,4,2,0,5,0,0
70069,-421.062535281942,4,2,0,5,0,0
70163.5,-12.7185196272165,4,2,0,5,0,0
70174,-426.682768702727,4,2,0,5,0,0
70268.5,-12.6731394762726,4,2,0,5,0,0
70279,-432.455066675256,4,2,0,5,0,0
70373.5,-12.6280820101092,4,2,0,5,0,0
70384,-438.385685365376,4,2,0,5,0,0
70477.6,-12.5833437991464,4,2,0,5,0,0
70488,-444.422376696458,4,2,0,5,0,0
70582.5,-12.5393430527407,4,2,0,5,0,0
70593,-450.688150386036,4,2,0,5,0,0
70687.5,-12.4952302953029,4,2,0,5,0,0
70698,-457.133129043241,4,2,0,5,0,0
70792.5,-12.4514268225955,4,2,0,5,0,0
70803,-463.765112262522,4,2,0,5,0,0
70897.5,-12.4079293932813,4,2,0,5,0,0
70908,-470.592358920435,4,2,0,5,0,0
71002.5,-12.3647348111583,4,2,0,5,0,0
71013,-477.623621487015,4,2,0,5,0,0
71107.5,-12.3218399243766,4,2,0,5,0,0
71118,-484.868183459733,4,2,0,5,0,0
71212.5,-12.2792416246719,4,2,0,5,0,0
71223,-492.335900256692,4,2,0,5,0,0
71317.5,-12.2369368466145,4,2,0,5,0,0
71328,-500.037243947858,4,2,0,5,0,0
71421.6,-12.1949225668741,4,2,0,5,0,0
71432,-507.906484073542,4,2,0,5,0,0
71526.5,-12.1535918543959,4,2,0,5,0,0
71537,-516.106711770585,4,2,0,5,0,0
71631.5,-12.1121469696177,4,2,0,5,0,0
71642,-524.576072516996,4,2,0,5,0,0
71736.5,-12.0709837860776,4,2,0,5,0,0
71747,-533.32803686343,4,2,0,5,0,0
71841.5,-12.0300994414149,4,2,0,5,0,0
71852,-542.376989577442,4,2,0,5,0,0
71946.5,-11.9894911119168,4,2,0,5,0,0
71957,-551.738308539492,4,2,0,5,0,0
72051.5,-11.9491560118691,4,2,0,5,0,0
72062,-561.428451952831,4,2,0,5,0,0
72156.5,-11.9090913929184,4,2,0,5,0,0
72167,-571.465054907636,4,2,0,5,0,0
72261.5,-11.8692945434486,4,2,0,5,0,0
72272,-581.867036491289,4,2,0,5,0,0
72366.5,-11.8297627879683,4,2,0,5,0,0
72377,-592.654718813455,4,2,0,5,0,0
72470.6,-11.790493486512,4,2,0,5,0,0
72481,-603.741343646011,4,2,0,5,0,0
72575.5,-11.7518543351265,4,2,0,5,0,0
72586,-615.363461362178,4,2,0,5,0,0
72680.5,-11.7130997227452,4,2,0,5,0,0
72691,-627.441816992242,4,2,0,5,0,0
72785.5,-11.674599875828,4,2,0,5,0,0
72796,-640.003813518925,4,2,0,5,0,0
72890.5,-11.6363522904356,4,2,0,5,0,0
72901,-653.079093297013,4,2,0,5,0,0
72995.5,-11.5983544953342,4,2,0,5,0,0
73006,-666.699771576125,4,2,0,5,0,0
73100.5,-11.5606040514639,4,2,0,5,0,0
73111,-680.900699868141,4,2,0,5,0,0
73205.5,-11.5230985514162,4,2,0,5,0,0
73216,-695.719763706084,4,2,0,5,0,0
73310.5,-11.4858356189228,4,2,0,5,0,0
73321,-711.19822015044,4,2,0,5,0,0
73414.6,-11.4488129083532,4,2,0,5,0,0
73425,-727.223486079515,4,2,0,5,0,0
73519.5,-11.4123773207689,4,2,0,5,0,0
73530,-744.152532978605,4,2,0,5,0,0
73624.5,-11.3758259039401,4,2,0,5,0,0
73635,-761.888548405402,4,2,0,5,0,0
73729.5,-11.3395078724529,4,2,0,5,0,0
73740,-780.490640623183,4,2,0,5,0,0
73834.5,-11.3034209981293,4,2,0,5,0,0
73845,-800.023835061375,4,2,0,5,0,0
73939.5,-11.267563081065,4,2,0,5,0,0
73950,-820.559833761154,4,2,0,5,0,0
74044.5,-11.2319319491827,4,2,0,5,0,0
74055,-842.1778948689,4,2,0,5,0,0
74149.5,-11.1965254577933,4,2,0,5,0,0
74160,-864.965854915604,4,2,0,5,0,0
74254.5,-11.1613414891654,4,2,0,5,0,0
74265,-889.021321679248,4,2,0,5,0,0
74359.5,-11.1263779521034,4,2,0,5,0,0
74370,-914.453071788585,4,2,0,5,0,0
74463.6,-11.091632781533,4,2,0,5,0,0
74474,-941.118743866536,4,2,0,5,0,0
74568.5,-11.0574317702268,4,2,0,5,0,0
74579,-10,4,2,0,5,0,0
74684,60000000000,4,2,0,5,1,0
76362,419.58041958042,4,2,0,5,1,0
76363,-1000,4,2,0,5,0,0
76456.6,-62.5,4,2,0,5,0,0
76467,-1000,4,2,0,5,0,0
76561.5,-62.5,4,2,0,5,0,0
76572,-1000,4,2,0,5,0,0
76666.5,-62.5,4,2,0,5,0,0
76677,-1000,4,2,0,5,0,0
76771.5,-62.5,4,2,0,5,0,0
76782,-1000,4,2,0,5,0,0
76876.5,-62.5,4,2,0,5,0,0
76887,-1000,4,2,0,5,0,0
76981.5,-62.5,4,2,0,5,0,0
76992,-1000,4,2,0,5,0,0
77086.5,-62.5,4,2,0,5,0,0
77097,-1000,4,2,0,5,0,0
77191.5,-62.5,4,2,0,5,0,0
77202,-1000,4,2,0,5,0,0
77296.5,-62.5,4,2,0,5,0,0
77307,-1000,4,2,0,5,0,0
77400.6,-62.5,4,2,0,5,0,0
77411,-1000,4,2,0,5,0,0
77505.5,-62.5,4,2,0,5,0,0
77516,-1000,4,2,0,5,0,0
77610.5,-62.5,4,2,0,5,0,0
77621,-1000,4,2,0,5,0,0
77715.5,-62.5,4,2,0,5,0,0
77726,-1000,4,2,0,5,0,0
77820.5,-62.5,4,2,0,5,0,0
77831,-1000,4,2,0,5,0,0
77925.5,-62.5,4,2,0,5,0,0
77935,-10,4,2,0,5,0,0
78041,60000000000,4,2,0,5,1,0
79718,419.58041958042,4,2,0,5,1,0
79718,-1000,4,2,0,5,0,0
79811.6,-62.5,4,2,0,5,0,0
79822,-1000,4,2,0,5,0,0
79916.5,-62.5,4,2,0,5,0,0
79927,-1000,4,2,0,5,0,0
80021.5,-62.5,4,2,0,5,0,0
80032,-1000,4,2,0,5,0,0
80126.5,-62.5,4,2,0,5,0,0
80137,-1000,4,2,0,5,0,0
80231.5,-62.5,4,2,0,5,0,0
80242,-1000,4,2,0,5,0,0
80336.5,-62.5,4,2,0,5,0,0
80347,-1000,4,2,0,5,0,0
80441.5,-62.5,4,2,0,5,0,0
80452,-1000,4,2,0,5,0,0
80546.5,-62.5,4,2,0,5,0,0
80557,-1000,4,2,0,5,0,0
80651.5,-62.5,4,2,0,5,0,0
80662,-1000,4,2,0,5,0,0
80755.6,-62.5,4,2,0,5,0,0
80766,-1000,4,2,0,5,0,0
80860.5,-62.5,4,2,0,5,0,0
80871,-1000,4,2,0,5,0,0
80965.5,-62.5,4,2,0,5,0,0
80976,-1000,4,2,0,5,0,0
81070.5,-62.5,4,2,0,5,0,0
81081,-1000,4,2,0,5,0,0
81175.5,-62.5,4,2,0,5,0,0
81186,-1000,4,2,0,5,0,0
81280.5,-62.5,4,2,0,5,0,0
81290,-10,4,2,0,5,0,0
81396,60000000000,4,2,0,5,1,0
83076,419.58041958042,4,2,0,5,1,0
83076,-1000,4,2,0,5,0,0
83169.6,-62.5,4,2,0,5,0,0
83180,-1000,4,2,0,5,0,0
83274.5,-62.5,4,2,0,5,0,0
83285,-1000,4,2,0,5,0,0
83379.5,-62.5,4,2,0,5,0,0
83390,-1000,4,2,0,5,0,0
83484.5,-62.5,4,2,0,5,0,0
83495,-1000,4,2,0,5,0,0
83589.5,-62.5,4,2,0,5,0,0
83600,-1000,4,2,0,5,0,0
83694.5,-62.5,4,2,0,5,0,0
83705,-1000,4,2,0,5,0,0
83799.5,-62.5,4,2,0,5,0,0
83810,-1000,4,2,0,5,0,0
83904.5,-62.5,4,2,0,5,0,0
83915,-1000,4,2,0,5,0,0
84009.5,-62.5,4,2,0,5,0,0
84020,-1000,4,2,0,5,0,0
84113.6,-62.5,4,2,0,5,0,0
84124,-1000,4,2,0,5,0,0
84218.5,-62.5,4,2,0,5,0,0
84229,-1000,4,2,0,5,0,0
84323.5,-62.5,4,2,0,5,0,0
84334,-1000,4,2,0,5,0,0
84428.5,-62.5,4,2,0,5,0,0
84439,-1000,4,2,0,5,0,0
84533.5,-62.5,4,2,0,5,0,0
84544,-1000,4,2,0,5,0,0
84638.5,-62.5,4,2,0,5,0,0
84648,-10,4,2,0,5,0,0
84754,60000000000,4,2,0,5,1,0
86432,419.58041958042,4,2,0,5,1,0
86432,-1000,4,2,0,5,0,0
86525.6,-62.5,4,2,0,5,0,0
86536,-1000,4,2,0,5,0,0
86630.5,-62.5,4,2,0,5,0,0
86641,-1000,4,2,0,5,0,0
86735.5,-62.5,4,2,0,5,0,0
86746,-1000,4,2,0,5,0,0
86840.5,-62.5,4,2,0,5,0,0
86851,-1000,4,2,0,5,0,0
86945.5,-62.5,4,2,0,5,0,0
86956,-1000,4,2,0,5,0,0
87050.5,-62.5,4,2,0,5,0,0
87061,-1000,4,2,0,5,0,0
87155.5,-62.5,4,2,0,5,0,0
87166,-1000,4,2,0,5,0,0
87260.5,-62.5,4,2,0,5,0,0
87271,-1000,4,2,0,5,0,0
87365.5,-62.5,4,2,0,5,0,0
87376,-1000,4,2,0,5,0,0
87469.6,-62.5,4,2,0,5,0,0
87480,-1000,4,2,0,5,0,0
87574.5,-62.5,4,2,0,5,0,0
87585,-1000,4,2,0,5,0,0
87679.5,-62.5,4,2,0,5,0,0
87690,-1000,4,2,0,5,0,0
87784.5,-62.5,4,2,0,5,0,0
87795,-1000,4,2,0,5,0,0
87889.5,-62.5,4,2,0,5,0,0
87900,-1000,4,2,0,5,0,0
87994.5,-62.5,4,2,0,5,0,0
88005,-1000,4,2,0,5,0,0
88100,-62.5,4,2,0,5,0,0
88110,419.58041958042,4,2,0,5,1,0
88111,-125.008477942815,4,2,0,5,0,0
88204.6,-124.899563403324,4,2,0,5,0,0
88215,-125.89650764532,4,2,0,5,0,0
88404,-115.267441548811,4,2,0,5,0,0
88425,-127.728663214897,4,2,0,5,0,0
88708.5,-99.7363965955736,4,2,0,5,0,0
88740,-130.579114628666,4,2,0,5,0,0
88929,-82.9678597610382,4,2,0,5,0,0
88950,-132.551162981836,4,2,0,5,0,0
89044.5,-74.6056344543646,4,2,0,5,0,0
89055,-133.559693999027,4,2,0,5,0,0
89243.1,-71.0263086908412,4,2,0,5,0,0
89264,-135.613529819841,4,2,0,5,0,0
89547.5,-64.8348224605272,4,2,0,5,0,0
89579,-138.831200972744,4,2,0,5,0,0
89768,-57.3058012019028,4,2,0,5,0,0
89789,-141.062506150028,4,2,0,5,0,0
89883.5,-53.1881124445012,4,2,0,5,0,0
89894,-142.205272903624,4,2,0,5,0,0
90083,-51.3434783992869,4,2,0,5,0,0
90104,-144.547267471823,4,2,0,5,0,0
90386.6,-48.0131587761147,4,2,0,5,0,0
90418,-148.19664599127,4,2,0,5,0,0
90607,-43.7682339371735,4,2,0,5,0,0
90628,-150.741909101531,4,2,0,5,0,0
90722.5,-41.324749367413,4,2,0,5,0,0
90733,-152.047610629898,4,2,0,5,0,0
90922,-40.2025395341591,4,2,0,5,0,0
90943,-154.72806859747,4,2,0,5,0,0
91131.1,-38.1315482259757,4,2,0,5,0,0
91152,-157.491272185738,4,2,0,5,0,0
91246.5,-36.2719354965674,4,2,0,5,0,0
91257,-158.917068003498,4,2,0,5,0,0
91446,-35.4044953995011,4,2,0,5,0,0
91467,-161.847535657388,4,2,0,5,0,0
91561.5,-33.788402161075,4,2,0,5,0,0
91572,-163.353675521005,4,2,0,5,0,0
91761,-33.0344477957405,4,2,0,5,0,0
91782,-166.451646196718,4,2,0,5,0,0
92065.5,-31.6231690817467,4,2,0,5,0,0
92097,-171.325374799155,4,2,0,5,0,0
92285.1,-29.7187293411987,4,2,0,5,0,0
92306,-174.71967932398,4,2,0,5,0,0
92400.5,-28.5768709411629,4,2,0,5,0,0
92411,-176.476220437976,4,2,0,5,0,0
92600,-28.0356976003859,4,2,0,5,0,0
92621,-180.097432962492,4,2,0,5,0,0
92904.5,-27.0125976437779,4,2,0,5,0,0
92936,-185.816746838725,4,2,0,5,0,0
93124.1,-25.6106905080453,4,2,0,5,0,0
93145,-189.816245163378,4,2,0,5,0,0
93239.5,-24.7581655699924,4,2,0,5,0,0
93250,-191.891248735796,4,2,0,5,0,0
93439,-24.3509312315509,4,2,0,5,0,0
93460,-196.180397165709,4,2,0,5,0,0
93743.5,-23.5753728534205,4,2,0,5,0,0
93775,-202.98610783342,4,2,0,5,0,0
93964,-22.500440347325,4,2,0,5,0,0
93985,-207.791789470294,4,2,0,5,0,0
94079.5,-21.8366701024472,4,2,0,5,0,0
94090,-210.280983114936,4,2,0,5,0,0
94183.6,-21.5192575839455,4,2,0,5,0,0
94194,-212.805964240945,4,2,0,5,0,0
94288.5,-21.2138351956961,4,2,0,5,0,0
94299,-215.417494531915,4,2,0,5,0,0
94488,-20.9141469566528,4,2,0,5,0,0
94509,-220.837683788919,4,2,0,5,0,0
94603.5,-20.3394746923146,4,2,0,5,0,0
94614,-223.651365968659,4,2,0,5,0,0
94803,-20.0638210522387,4,2,0,5,0,0
94824,-229.499448575189,4,2,0,5,0,0
94918.5,-19.534337252717,4,2,0,5,0,0
94929,-232.539696844078,4,2,0,5,0,0
95117.1,-19.2799386724009,4,2,0,5,0,0
95138,-238.837467604591,4,2,0,5,0,0
95327,-18.7927870189647,4,2,0,5,0,0
95348,-245.518553758325,4,2,0,5,0,0
95442.5,-18.3274855462591,4,2,0,5,0,0
95453,-249.001254462993,4,2,0,5,0,0
95642,-18.1033696513888,4,2,0,5,0,0
95663,-256.271725096832,4,2,0,5,0,0
95757.5,-17.6711887853283,4,2,0,5,0,0
95768,-260.068534569643,4,2,0,5,0,0
95957,-17.4627451511173,4,2,0,5,0,0
95978,-268.009970918155,4,2,0,5,0,0
96166.1,-17.0602702774178,4,2,0,5,0,0
96187,-276.410223450522,4,2,0,5,0,0
96281.5,-16.6777187900316,4,2,0,5,0,0
96292,-280.832353837447,4,2,0,5,0,0
96481,-16.4919304327374,4,2,0,5,0,0
96502,-290.115128620255,4,2,0,5,0,0
96596.5,-16.1325010753334,4,2,0,5,0,0
96607,-294.990511466264,4,2,0,5,0,0
96796,-15.9585981864442,4,2,0,5,0,0
96817,-305.249958596541,4,2,0,5,0,0
97006,-15.621802718741,4,2,0,5,0,0
97027,-316.24874378018,4,2,0,5,0,0
97120.6,-15.2989291223926,4,2,0,5,0,0
97131,-321.994559385061,4,2,0,5,0,0
97320,-15.1439212450364,4,2,0,5,0,0
97341,-334.257364180419,4,2,0,5,0,0
97435.5,-14.8403073882922,4,2,0,5,0,0
97446,-340.745827170928,4,2,0,5,0,0
97635,-14.693020416716,4,2,0,5,0,0
97656,-354.508984997527,4,2,0,5,0,0
97845,-14.4070465219634,4,2,0,5,0,0
97866,-369.430763944565,4,2,0,5,0,0
97960.5,-14.1319920610232,4,2,0,5,0,0
97971,-377.372839217292,4,2,0,5,0,0
98159.1,-13.9983660254818,4,2,0,5,0,0
98180,-394.243109454257,4,2,0,5,0,0
98274.5,-13.7397686539031,4,2,0,5,0,0
98285,-403.300928386109,4,2,0,5,0,0
98474,-13.6134239206703,4,2,0,5,0,0
98495,-422.725336653452,4,2,0,5,0,0
98684,-13.3675794237498,4,2,0,5,0,0
98705,-444.115520980345,4,2,0,5,0,0
98799.5,-13.1304568181795,4,2,0,5,0,0
98810,-455.643452465037,4,2,0,5,0,0
98999,-13.0150224549992,4,2,0,5,0,0
99020,-480.593011994338,4,2,0,5,0,0
99113.6,-12.7901374577941,4,2,0,5,0,0
99124,-493.988819970901,4,2,0,5,0,0
99313,-12.6816188280069,4,2,0,5,0,0
99334,-523.45017851347,4,2,0,5,0,0
99523,-12.4680133899235,4,2,0,5,0,0
99544,-556.648546035033,4,2,0,5,0,0
99638.5,-12.2614845690804,4,2,0,5,0,0
99649,-574.878581294836,4,2,0,5,0,0
99838,-12.1607648972198,4,2,0,5,0,0
99859,-615.171887665093,4,2,0,5,0,0
99953.5,-11.964209376446,4,2,0,5,0,0
99964,-637.513588299239,4,2,0,5,0,0
100152.1,-11.8682952226938,4,2,0,5,0,0
100173,-687.190412782956,4,2,0,5,0,0
100362,-11.6818854718886,4,2,0,5,0,0
100383,-745.564865645767,4,2,0,5,0,0
100477.5,-11.5003899721448,4,2,0,5,0,0
100488,-778.636089318045,4,2,0,5,0,0
100582.5,-11.411740772517,4,2,0,5,0,0
100593,-814.777391853489,4,2,0,5,0,0
100687.5,-11.3244477993162,4,2,0,5,0,0
100698,-854.437086092715,4,2,0,5,0,0
100792.5,-11.2384801658508,4,2,0,5,0,0
100803,-898.155238426732,4,2,0,5,0,0
100897.5,-11.153807916247,4,2,0,5,0,0
100908,-946.588407923698,4,2,0,5,0,0
101002.5,-11.0704019906474,4,2,0,5,0,0
101012,-100,4,2,0,5,0,0

[HitObjects]
402,193,0,128,0,314:0:0:0:0:
256,193,0,1,0,0:0:0:0:
36,193,0,1,0,0:0:0:0:
36,193,314,1,0,0:0:0:0:
256,193,314,1,0,0:0:0:0:
402,193,839,128,0,1153:0:0:0:0:
36,193,839,1,0,0:0:0:0:
256,193,839,1,0,0:0:0:0:
36,193,1153,1,0,0:0:0:0:
256,193,1153,1,0,0:0:0:0:
256,192,1678,1,0,0:0:0:0:
402,192,1678,128,0,1993:0:0:0:0:
36,192,1678,1,0,0:0:0:0:
256,192,1993,1,0,0:0:0:0:
36,192,1993,1,0,0:0:0:0:
36,192,2517,1,0,0:0:0:0:
402,192,2517,128,0,2832:0:0:0:0:
256,192,2517,1,0,0:0:0:0:
36,192,2832,1,0,0:0:0:0:
256,192,2832,1,0,0:0:0:0:
36,192,3356,1,0,0:0:0:0:
402,192,3356,128,0,3671:0:0:0:0:
256,192,3356,1,0,0:0:0:0:
182,192,3356,1,0,0:0:0:0:
109,192,3566,1,0,0:0:0:0:
36,192,3671,1,0,0:0:0:0:
256,192,3671,1,0,0:0:0:0:
182,192,3986,1,0,0:0:0:0:
256,192,4195,1,0,0:0:0:0:
402,192,4195,128,0,4510:0:0:0:0:
36,192,4195,1,0,0:0:0:0:
182,192,4195,1,0,0:0:0:0:
109,192,4405,1,0,0:0:0:0:
256,192,4510,1,0,0:0:0:0:
36,192,4510,1,0,0:0:0:0:
182,192,4720,1,0,0:0:0:0:
182,192,4825,1,0,0:0:0:0:
256,192,5034,1,0,0:0:0:0:
402,192,5034,128,0,5349:0:0:0:0:
36,192,5034,1,0,0:0:0:0:
182,192,5034,1,0,0:0:0:0:
109,192,5244,1,0,0:0:0:0:
256,192,5349,1,0,0:0:0:0:
36,192,5349,1,0,0:0:0:0:
182,192,5664,1,0,0:0:0:0:
36,192,5874,1,0,0:0:0:0:
475,192,5874,128,0,6188:0:0:0:0:
329,192,5874,1,0,0:0:0:0:
109,192,5874,1,0,0:0:0:0:
109,192,5979,1,0,0:0:0:0:
36,192,6188,1,0,0:0:0:0:
256,192,6188,1,0,0:0:0:0:
402,192,6188,1,0,0:0:0:0:
109,192,6713,128,0,7027:0:0:0:0:
256,192,6713,128,0,7027:0:0:0:0:
475,192,6713,1,0,0:0:0:0:
402,192,6713,1,0,0:0:0:0:
36,192,7027,128,0,7342:0:0:0:0:
182,192,7027,128,0,7342:0:0:0:0:
329,192,7027,1,0,0:0:0:0:
109,192,7342,128,0,7552:0:0:0:0:
329,192,7342,128,0,7552:0:0:0:0:
256,192,7342,1,0,0:0:0:0:
182,192,7552,128,0,7867:0:0:0:0:
475,192,7552,128,0,7867:0:0:0:0:
402,192,7552,1,0,0:0:0:0:
36,192,7552,1,0,0:0:0:0:
109,192,7867,128,0,8181:0:0:0:0:
256,192,7867,128,0,8181:0:0:0:0:
402,192,7867,1,0,0:0:0:0:
182,192,8181,128,0,8391:0:0:0:0:
329,192,8181,128,0,8391:0:0:0:0:
475,192,8181,1,0,0:0:0:0:
402,192,8391,128,0,8706:0:0:0:0:
109,192,8391,128,0,8706:0:0:0:0:
256,192,8391,1,0,0:0:0:0:
36,192,8391,1,0,0:0:0:0:
256,192,8706,128,0,9020:0:0:0:0:
36,192,8706,128,0,9020:0:0:0:0:
182,192,8706,1,0,0:0:0:0:
182,192,9020,128,0,9230:0:0:0:0:
329,192,9020,128,0,9230:0:0:0:0:
475,192,9020,1,0,0:0:0:0:
256,192,9230,128,0,9545:0:0:0:0:
402,192,9230,128,0,9545:0:0:0:0:
36,192,9230,1,0,0:0:0:0:
109,192,9230,1,0,0:0:0:0:
182,192,9545,128,0,9860:0:0:0:0:
475,192,9545,128,0,9860:0:0:0:0:
329,192,9545,1,0,0:0:0:0:
329,192,9860,128,0,10069:0:0:0:0:
256,192,9860,128,0,10069:0:0:0:0:
402,192,9860,1,0,0:0:0:0:
36,192,10069,128,0,10384:0:0:0:0:
402,192,10069,128,0,10384:0:0:0:0:
109,192,10069,1,0,0:0:0:0:
475,192,10069,1,0,0:0:0:0:
182,192,10384,128,0,10699:0:0:0:0:
256,192,10384,128,0,10699:0:0:0:0:
329,192,10384,1,0,0:0:0:0:
109,192,10699,128,0,10909:0:0:0:0:
329,192,10699,128,0,10909:0:0:0:0:
36,192,10699,1,0,0:0:0:0:
402,192,10909,128,0,11223:0:0:0:0:
182,192,10909,128,0,11223:0:0:0:0:
256,192,10909,1,0,0:0:0:0:
475,192,10909,1,0,0:0:0:0:
256,192,11223,128,0,11538:0:0:0:0:
329,192,11223,128,0,11538:0:0:0:0:
109,192,11223,1,0,0:0:0:0:
109,192,11538,128,0,11748:0:0:0:0:
475,192,11538,128,0,11748:0:0:0:0:
36,192,11538,1,0,0:0:0:0:
182,192,11748,128,0,12062:0:0:0:0:
329,192,11748,128,0,12062:0:0:0:0:
256,192,11748,1,0,0:0:0:0:
402,192,11748,1,0,0:0:0:0:
36,192,12062,128,0,12377:0:0:0:0:
109,192,12062,128,0,12377:0:0:0:0:
475,192,12062,1,0,0:0:0:0:
256,192,12377,128,0,12587:0:0:0:0:
329,192,12377,128,0,12587:0:0:0:0:
182,192,12377,1,0,0:0:0:0:
475,192,12587,128,0,12902:0:0:0:0:
182,192,12587,128,0,12902:0:0:0:0:
36,192,12587,1,0,0:0:0:0:
109,192,12587,1,0,0:0:0:0:
256,192,12902,128,0,13006:0:0:0:0:
402,192,12902,128,0,13006:0:0:0:0:
329,192,12902,1,0,0:0:0:0:
36,192,13111,1,0,0:0:0:0:
109,192,13111,1,0,0:0:0:0:
402,192,13216,1,0,0:0:0:0:
475,192,13216,1,0,0:0:0:0:
475,192,13426,128,0,13741:0:0:0:0:
36,192,13426,128,0,13741:0:0:0:0:
256,192,13426,128,0,13741:0:0:0:0:
109,192,13426,1,0,0:0:0:0:
329,192,13741,128,0,14055:0:0:0:0:
402,192,13741,128,0,14055:0:0:0:0:
109,192,13741,128,0,14055:0:0:0:0:
182,192,13741,1,0,0:0:0:0:
182,192,14055,128,0,14265:0:0:0:0:
256,192,14055,128,0,14265:0:0:0:0:
475,192,14055,128,0,14265:0:0:0:0:
36,192,14055,1,0,0:0:0:0:
36,192,14265,128,0,14580:0:0:0:0:
109,192,14265,1,0,0:0:0:0:
329,192,14265,128,0,14580:0:0:0:0:
402,192,14265,128,0,14580:0:0:0:0:
109,192,14580,128,0,14895:0:0:0:0:
475,192,14580,128,0,14895:0:0:0:0:
256,192,14580,128,0,14895:0:0:0:0:
182,192,14580,1,0,0:0:0:0:
182,192,14895,128,0,15104:0:0:0:0:
36,192,14895,128,0,15104:0:0:0:0:
402,192,14895,128,0,15104:0:0:0:0:
329,192,14895,1,0,0:0:0:0:
475,192,15104,128,0,15419:0:0:0:0:
329,192,15104,128,0,15419:0:0:0:0:
109,192,15104,128,0,15419:0:0:0:0:
256,192,15104,1,0,0:0:0:0:
402,192,15419,128,0,15734:0:0:0:0:
256,192,15419,128,0,15734:0:0:0:0:
36,192,15419,128,0,15734:0:0:0:0:
182,192,15419,1,0,0:0:0:0:
329,192,15734,128,0,15944:0:0:0:0:
109,192,15734,128,0,15944:0:0:0:0:
182,192,15734,128,0,15944:0:0:0:0:
36,192,15944,128,0,16258:0:0:0:0:
256,192,15944,128,0,16258:0:0:0:0:
402,192,15944,128,0,16258:0:0:0:0:
475,192,15944,1,0,0:0:0:0:
109,192,16258,128,0,16573:0:0:0:0:
475,192,16258,128,0,16573:0:0:0:0:
182,192,16258,1,0,0:0:0:0:
329,192,16258,128,0,16573:0:0:0:0:
182,192,16573,128,0,16783:0:0:0:0:
256,192,16573,128,0,16783:0:0:0:0:
402,192,16573,128,0,16783:0:0:0:0:
36,192,16573,1,0,0:0:0:0:
475,192,16783,128,0,17097:0:0:0:0:
36,192,16783,128,0,17097:0:0:0:0:
109,192,16783,1,0,0:0:0:0:
329,192,16783,128,0,17097:0:0:0:0:
402,192,17097,128,0,17412:0:0:0:0:
109,192,17097,128,0,17412:0:0:0:0:
182,192,17097,128,0,17412:0:0:0:0:
256,192,17097,1,0,0:0:0:0:
329,192,17412,128,0,17622:0:0:0:0:
36,192,17412,128,0,17622:0:0:0:0:
475,192,17412,128,0,17622:0:0:0:0:
256,192,17412,1,0,0:0:0:0:
182,192,17622,128,0,17937:0:0:0:0:
256,192,17622,128,0,17937:0:0:0:0:
109,192,17622,1,0,0:0:0:0:
402,192,17622,128,0,17937:0:0:0:0:
109,192,17937,128,0,18251:0:0:0:0:
329,192,17937,128,0,18251:0:0:0:0:
475,192,17937,128,0,18251:0:0:0:0:
36,192,17937,1,0,0:0:0:0:
36,192,18251,128,0,18461:0:0:0:0:
182,192,18251,128,0,18461:0:0:0:0:
402,192,18251,128,0,18461:0:0:0:0:
256,192,18251,1,0,0:0:0:0:
329,192,18461,128,0,18776:0:0:0:0:
109,192,18461,128,0,18776:0:0:0:0:
256,192,18461,128,0,18776:0:0:0:0:
475,192,18461,1,0,0:0:0:0:
402,192,18776,128,0,19090:0:0:0:0:
36,192,18776,128,0,19090:0:0:0:0:
182,192,18776,128,0,19090:0:0:0:0:
475,192,18776,1,0,0:0:0:0:
475,192,19090,128,0,19300:0:0:0:0:
329,192,19090,128,0,19300:0:0:0:0:
109,192,19090,128,0,19300:0:0:0:0:
256,192,19090,1,0,0:0:0:0:
36,192,19300,128,0,19615:0:0:0:0:
182,192,19300,128,0,19615:0:0:0:0:
256,192,19300,128,0,19615:0:0:0:0:
402,192,19300,1,0,0:0:0:0:
109,192,19615,128,0,19930:0:0:0:0:
402,192,19615,128,0,19930:0:0:0:0:
475,192,19615,128,0,19930:0:0:0:0:
329,192,19615,1,0,0:0:0:0:
182,192,19930,128,0,20139:0:0:0:0:
329,192,19930,128,0,20139:0:0:0:0:
256,192,19930,128,0,20139:0:0:0:0:
36,192,19930,1,0,0:0:0:0:
475,192,20139,128,0,20979:0:0:0:0:
36,192,20139,128,0,20454:0:0:0:0:
402,192,20139,128,0,20454:0:0:0:0:
109,192,20139,1,0,0:0:0:0:
329,192,20454,128,0,20769:0:0:0:0:
109,192,20454,128,0,20769:0:0:0:0:
256,192,20454,1,0,0:0:0:0:
182,192,20769,128,0,20979:0:0:0:0:
256,192,20769,128,0,20979:0:0:0:0:
402,192,20769,1,0,0:0:0:0:
36,192,20979,128,0,21818:0:0:0:0:
109,192,20979,128,0,21293:0:0:0:0:
402,192,20979,128,0,21293:0:0:0:0:
329,192,20979,1,0,0:0:0:0:
475,192,21293,128,0,21608:0:0:0:0:
256,192,21293,128,0,21608:0:0:0:0:
182,192,21293,1,0,0:0:0:0:
329,192,21608,128,0,21818:0:0:0:0:
402,192,21608,128,0,21818:0:0:0:0:
109,192,21608,1,0,0:0:0:0:
475,192,21818,128,0,22657:0:0:0:0:
109,192,21818,128,0,22132:0:0:0:0:
256,192,21818,128,0,22132:0:0:0:0:
182,192,21818,1,0,0:0:0:0:
329,192,22132,128,0,22447:0:0:0:0:
36,192,22132,128,0,22447:0:0:0:0:
402,192,22132,1,0,0:0:0:0:
256,192,22447,128,0,22657:0:0:0:0:
402,192,22447,128,0,22657:0:0:0:0:
109,192,22447,1,0,0:0:0:0:
36,192,22657,128,0,23496:0:0:0:0:
109,192,22657,128,0,22972:0:0:0:0:
329,192,22657,128,0,22972:0:0:0:0:
182,192,22657,1,0,0:0:0:0:
402,192,22972,128,0,23286:0:0:0:0:
256,192,22972,128,0,23286:0:0:0:0:
182,192,22972,1,0,0:0:0:0:
109,192,23286,128,0,23496:0:0:0:0:
329,192,23286,128,0,23496:0:0:0:0:
475,192,23286,1,0,0:0:0:0:
402,192,23496,128,0,24335:0:0:0:0:
182,192,23496,128,0,23811:0:0:0:0:
475,192,23496,128,0,23811:0:0:0:0:
256,192,23496,1,0,0:0:0:0:
256,192,23811,128,0,24125:0:0:0:0:
36,192,23811,128,0,24125:0:0:0:0:
109,192,23811,1,0,0:0:0:0:
475,192,24125,128,0,24335:0:0:0:0:
329,192,24125,128,0,24335:0:0:0:0:
182,192,24125,1,0,0:0:0:0:
109,192,24335,128,0,25174:0:0:0:0:
182,192,24335,128,0,24650:0:0:0:0:
256,192,24335,128,0,24650:0:0:0:0:
36,192,24335,1,0,0:0:0:0:
36,192,24650,128,0,24965:0:0:0:0:
329,192,24650,128,0,24965:0:0:0:0:
402,192,24650,1,0,0:0:0:0:
402,192,24965,128,0,25174:0:0:0:0:
182,192,24965,128,0,25174:0:0:0:0:
256,192,24965,1,0,0:0:0:0:
329,192,25174,128,0,26013:0:0:0:0:
256,192,25174,128,0,25489:0:0:0:0:
36,192,25174,128,0,25489:0:0:0:0:
475,192,25174,1,0,0:0:0:0:
475,192,25489,128,0,25804:0:0:0:0:
182,192,25489,128,0,25804:0:0:0:0:
109,192,25489,1,0,0:0:0:0:
36,192,25804,128,0,26013:0:0:0:0:
402,192,25804,128,0,26013:0:0:0:0:
256,192,25804,1,0,0:0:0:0:
182,192,26013,128,0,26433:0:0:0:0:
475,192,26013,128,0,26328:0:0:0:0:
256,192,26013,128,0,26328:0:0:0:0:
109,192,26013,1,0,0:0:0:0:
402,192,26328,128,0,26433:0:0:0:0:
36,192,26328,128,0,26433:0:0:0:0:
109,192,26328,1,0,0:0:0:0:
402,192,26538,1,0,0:0:0:0:
475,192,26538,1,0,0:0:0:0:
36,192,26643,1,0,0:0:0:0:
109,192,26643,1,0,0:0:0:0:
475,192,26853,128,0,27482:0:0:0:0:
36,192,26853,128,0,27167:0:0:0:0:
109,192,26853,1,0,0:0:0:0:
256,192,26853,1,0,0:0:0:0:
402,192,27167,128,0,27692:0:0:0:0:
182,192,27167,128,0,27482:0:0:0:0:
109,192,27167,1,0,0:0:0:0:
329,192,27167,1,0,0:0:0:0:
329,192,27482,128,0,28006:0:0:0:0:
256,192,27482,128,0,27692:0:0:0:0:
109,192,27482,1,0,0:0:0:0:
36,192,27482,1,0,0:0:0:0:
36,192,27692,128,0,28321:0:0:0:0:
182,192,27692,128,0,28006:0:0:0:0:
109,192,27692,1,0,0:0:0:0:
475,192,27692,1,0,0:0:0:0:
109,192,28006,128,0,28531:0:0:0:0:
402,192,28006,128,0,28321:0:0:0:0:
256,192,28006,1,0,0:0:0:0:
475,192,28006,1,0,0:0:0:0:
182,192,28321,128,0,28846:0:0:0:0:
256,192,28321,128,0,28531:0:0:0:0:
329,192,28321,1,0,0:0:0:0:
475,192,28321,1,0,0:0:0:0:
402,192,28531,128,0,29160:0:0:0:0:
475,192,28531,128,0,28846:0:0:0:0:
329,192,28531,1,0,0:0:0:0:
36,192,28531,1,0,0:0:0:0:
329,192,28846,128,0,29370:0:0:0:0:
109,192,28846,128,0,29160:0:0:0:0:
36,192,28846,1,0,0:0:0:0:
256,192,28846,1,0,0:0:0:0:
256,192,29160,128,0,29685:0:0:0:0:
36,192,29160,128,0,29370:0:0:0:0:
182,192,29160,1,0,0:0:0:0:
475,192,29160,1,0,0:0:0:0:
109,192,29370,128,0,30000:0:0:0:0:
475,192,29370,128,0,29685:0:0:0:0:
402,192,29370,1,0,0:0:0:0:
182,192,29370,1,0,0:0:0:0:
182,192,29685,128,0,30209:0:0:0:0:
402,192,29685,128,0,30000:0:0:0:0:
329,192,29685,1,0,0:0:0:0:
36,192,29685,1,0,0:0:0:0:
256,192,30000,128,0,30524:0:0:0:0:
36,192,30000,128,0,30209:0:0:0:0:
329,192,30000,1,0,0:0:0:0:
475,192,30000,1,0,0:0:0:0:
475,192,30209,128,0,30839:0:0:0:0:
109,192,30209,128,0,30524:0:0:0:0:
329,192,30209,1,0,0:0:0:0:
402,192,30209,1,0,0:0:0:0:
402,192,30524,128,0,31048:0:0:0:0:
182,192,30524,128,0,30839:0:0:0:0:
329,192,30524,1,0,0:0:0:0:
36,192,30524,1,0,0:0:0:0:
329,192,30839,128,0,31363:0:0:0:0:
109,192,30839,128,0,31048:0:0:0:0:
256,192,30839,1,0,0:0:0:0:
36,192,30839,1,0,0:0:0:0:
182,192,31048,128,0,31678:0:0:0:0:
256,192,31048,128,0,31363:0:0:0:0:
36,192,31048,1,0,0:0:0:0:
475,192,31048,1,0,0:0:0:0:
109,192,31363,128,0,31888:0:0:0:0:
475,192,31363,128,0,31678:0:0:0:0:
402,192,31363,1,0,0:0:0:0:
36,192,31363,1,0,0:0:0:0:
36,192,31678,128,0,32202:0:0:0:0:
256,192,31678,128,0,31888:0:0:0:0:
329,192,31678,1,0,0:0:0:0:
402,192,31678,1,0,0:0:0:0:
329,192,31888,128,0,32517:0:0:0:0:
182,192,31888,128,0,32202:0:0:0:0:
402,192,31888,1,0,0:0:0:0:
475,192,31888,1,0,0:0:0:0:
402,192,32202,128,0,32727:0:0:0:0:
256,192,32202,128,0,32517:0:0:0:0:
109,192,32202,1,0,0:0:0:0:
475,192,32202,1,0,0:0:0:0:
475,192,32517,128,0,33041:0:0:0:0:
182,192,32517,128,0,32727:0:0:0:0:
36,192,32517,1,0,0:0:0:0:
109,192,32517,1,0,0:0:0:0:
36,192,32727,128,0,33356:0:0:0:0:
256,192,32727,128,0,33041:0:0:0:0:
109,192,32727,1,0,0:0:0:0:
329,192,32727,1,0,0:0:0:0:
109,192,33041,128,0,33566:0:0:0:0:
329,192,33041,128,0,33356:0:0:0:0:
402,192,33041,1,0,0:0:0:0:
182,192,33041,1,0,0:0:0:0:
182,192,33356,128,0,33566:0:0:0:0:
475,192,33356,128,0,33566:0:0:0:0:
402,192,33356,1,0,0:0:0:0:
256,192,33356,1,0,0:0:0:0:
329,192,33566,1,0,0:0:0:0:
402,192,33566,1,0,0:0:0:0:
329,192,33881,1,0,0:0:0:0:
402,192,33881,1,0,0:0:0:0:
36,192,33986,1,0,0:0:0:0:
109,192,33986,1,0,0:0:0:0:
36,192,34090,1,0,0:0:0:0:
109,192,34090,1,0,0:0:0:0:
402,192,34195,1,0,0:0:0:0:
329,192,34300,1,0,0:0:0:0:
109,192,34405,1,0,0:0:0:0:
256,192,34405,1,0,0:0:0:0:
36,192,34405,1,0,0:0:0:0:
256,192,34509,1,0,0:0:0:0:
36,192,34509,1,0,0:0:0:0:
475,192,34719,1,0,0:0:0:0:
182,192,34719,1,0,0:0:0:0:
402,192,34719,1,0,0:0:0:0:
329,192,34929,1,0,0:0:0:0:
402,192,34929,1,0,0:0:0:0:
182,192,34929,1,0,0:0:0:0:
256,192,35034,1,0,0:0:0:0:
402,192,35034,1,0,0:0:0:0:
182,192,35034,1,0,0:0:0:0:
109,192,35244,1,0,0:0:0:0:
256,192,35244,1,0,0:0:0:0:
36,192,35244,1,0,0:0:0:0:
256,192,35349,1,0,0:0:0:0:
36,192,35349,1,0,0:0:0:0:
329,192,35558,1,0,0:0:0:0:
182,192,35558,1,0,0:0:0:0:
402,192,35558,1,0,0:0:0:0:
109,192,36083,1,0,0:0:0:0:
256,192,36083,1,0,0:0:0:0:
36,192,36083,1,0,0:0:0:0:
256,192,36188,1,0,0:0:0:0:
36,192,36188,1,0,0:0:0:0:
475,192,36398,1,0,0:0:0:0:
182,192,36398,1,0,0:0:0:0:
402,192,36398,1,0,0:0:0:0:
329,192,36607,1,0,0:0:0:0:
402,192,36607,1,0,0:0:0:0:
182,192,36607,1,0,0:0:0:0:
256,192,36712,1,0,0:0:0:0:
402,192,36712,1,0,0:0:0:0:
182,192,36712,1,0,0:0:0:0:
36,192,36922,1,0,0:0:0:0:
256,192,36922,1,0,0:0:0:0:
109,192,36922,1,0,0:0:0:0:
256,192,37027,1,0,0:0:0:0:
109,192,37027,1,0,0:0:0:0:
475,192,37237,1,0,0:0:0:0:
36,192,37237,1,0,0:0:0:0:
402,192,37237,1,0,0:0:0:0:
182,192,37446,1,0,0:0:0:0:
402,192,37446,1,0,0:0:0:0:
36,192,37446,1,0,0:0:0:0:
256,192,37551,1,0,0:0:0:0:
402,192,37551,1,0,0:0:0:0:
36,192,37551,1,0,0:0:0:0:
36,192,37761,1,0,0:0:0:0:
182,192,37761,1,0,0:0:0:0:
329,192,37761,1,0,0:0:0:0:
182,192,37866,1,0,0:0:0:0:
329,192,37866,1,0,0:0:0:0:
402,192,38076,1,0,0:0:0:0:
475,192,38076,1,0,0:0:0:0:
109,192,38076,1,0,0:0:0:0:
256,192,38286,1,0,0:0:0:0:
109,192,38286,1,0,0:0:0:0:
475,192,38286,1,0,0:0:0:0:
109,192,38391,128,0,38600:0:0:0:0:
475,192,38391,128,0,38600:0:0:0:0:
329,192,38391,1,0,0:0:0:0:
402,192,38600,1,0,0:0:0:0:
256,192,38600,1,0,0:0:0:0:
36,192,38600,1,0,0:0:0:0:
402,192,38705,1,0,0:0:0:0:
256,192,38705,1,0,0:0:0:0:
36,192,38705,1,0,0:0:0:0:
402,192,38810,1,0,0:0:0:0:
256,192,38810,1,0,0:0:0:0:
36,192,38810,1,0,0:0:0:0:
329,192,38915,1,0,0:0:0:0:
109,192,38915,1,0,0:0:0:0:
475,192,38915,1,0,0:0:0:0:
36,192,39125,1,0,0:0:0:0:
182,192,39125,1,0,0:0:0:0:
329,192,39230,1,0,0:0:0:0:
475,192,39230,1,0,0:0:0:0:
256,192,39230,1,0,0:0:0:0:
109,192,39439,1,0,0:0:0:0:
182,192,39439,1,0,0:0:0:0:
402,192,39439,1,0,0:0:0:0:
182,192,39544,1,0,0:0:0:0:
402,192,39544,1,0,0:0:0:0:
36,192,39754,1,0,0:0:0:0:
329,192,39754,1,0,0:0:0:0:
475,192,39754,1,0,0:0:0:0:
402,192,39964,1,0,0:0:0:0:
109,192,39964,1,0,0:0:0:0:
256,192,39964,1,0,0:0:0:0:
329,192,40069,1,0,0:0:0:0:
109,192,40069,1,0,0:0:0:0:
256,192,40069,1,0,0:0:0:0:
182,192,40279,1,0,0:0:0:0:
256,192,40279,1,0,0:0:0:0:
36,192,40279,1,0,0:0:0:0:
475,192,40384,1,0,0:0:0:0:
256,192,40384,1,0,0:0:0:0:
36,192,40384,1,0,0:0:0:0:
109,192,40593,1,0,0:0:0:0:
182,192,40593,1,0,0:0:0:0:
402,192,40593,1,0,0:0:0:0:
329,192,40803,1,0,0:0:0:0:
475,192,40803,1,0,0:0:0:0:
256,192,40908,1,0,0:0:0:0:
182,192,40908,1,0,0:0:0:0:
36,192,40908,1,0,0:0:0:0:
109,192,41118,1,0,0:0:0:0:
182,192,41118,1,0,0:0:0:0:
329,192,41118,1,0,0:0:0:0:
109,192,41223,1,0,0:0:0:0:
256,192,41223,1,0,0:0:0:0:
402,192,41223,1,0,0:0:0:0:
36,192,41432,1,0,0:0:0:0:
256,192,41432,1,0,0:0:0:0:
402,192,41432,1,0,0:0:0:0:
109,192,41642,1,0,0:0:0:0:
182,192,41642,1,0,0:0:0:0:
402,192,41642,1,0,0:0:0:0:
36,192,41747,1,0,0:0:0:0:
182,192,41747,1,0,0:0:0:0:
329,192,41747,1,0,0:0:0:0:
256,192,41852,1,0,0:0:0:0:
402,192,41957,1,0,0:0:0:0:
475,192,41957,1,0,0:0:0:0:
182,192,41957,1,0,0:0:0:0:
402,192,42062,1,0,0:0:0:0:
256,192,42062,1,0,0:0:0:0:
109,192,42062,1,0,0:0:0:0:
36,192,42272,1,0,0:0:0:0:
329,192,42272,1,0,0:0:0:0:
109,192,42272,1,0,0:0:0:0:
329,192,42481,1,0,0:0:0:0:
475,192,42481,1,0,0:0:0:0:
109,192,42481,1,0,0:0:0:0:
402,192,42586,1,0,0:0:0:0:
475,192,42586,1,0,0:0:0:0:
182,192,42586,1,0,0:0:0:0:
256,192,42691,1,0,0:0:0:0:
36,192,42796,1,0,0:0:0:0:
109,192,42796,1,0,0:0:0:0:
329,192,42796,1,0,0:0:0:0:
182,192,42901,1,0,0:0:0:0:
36,192,42901,1,0,0:0:0:0:
475,192,42901,1,0,0:0:0:0:
109,192,43111,1,0,0:0:0:0:
256,192,43111,1,0,0:0:0:0:
475,192,43111,1,0,0:0:0:0:
256,192,43321,1,0,0:0:0:0:
182,192,43321,1,0,0:0:0:0:
475,192,43321,1,0,0:0:0:0:
182,192,43425,1,0,0:0:0:0:
36,192,43425,1,0,0:0:0:0:
329,192,43425,1,0,0:0:0:0:
256,192,43530,1,0,0:0:0:0:
329,192,43635,1,0,0:0:0:0:
402,192,43635,1,0,0:0:0:0:
182,192,43635,1,0,0:0:0:0:
329,192,43740,1,0,0:0:0:0:
475,192,43740,1,0,0:0:0:0:
36,192,43740,1,0,0:0:0:0:
256,192,43950,1,0,0:0:0:0:
402,192,43950,1,0,0:0:0:0:
36,192,43950,1,0,0:0:0:0:
256,192,44160,1,0,0:0:0:0:
402,192,44160,1,0,0:0:0:0:
36,192,44160,1,0,0:0:0:0:
402,192,44265,1,0,0:0:0:0:
475,192,44265,1,0,0:0:0:0:
182,192,44265,1,0,0:0:0:0:
256,192,44370,1,0,0:0:0:0:
329,192,44474,1,0,0:0:0:0:
109,192,44474,1,0,0:0:0:0:
402,192,44474,1,0,0:0:0:0:
329,192,44579,1,0,0:0:0:0:
182,192,44579,1,0,0:0:0:0:
475,192,44579,1,0,0:0:0:0:
256,192,44789,1,0,0:0:0:0:
36,192,44789,1,0,0:0:0:0:
475,192,44789,1,0,0:0:0:0:
36,192,44999,1,0,0:0:0:0:
182,192,44999,1,0,0:0:0:0:
475,192,44999,1,0,0:0:0:0:
109,192,45104,1,0,0:0:0:0:
182,192,45104,1,0,0:0:0:0:
402,192,45104,1,0,0:0:0:0:
256,192,45209,1,0,0:0:0:0:
329,192,45314,1,0,0:0:0:0:
475,192,45314,1,0,0:0:0:0:
109,192,45314,1,0,0:0:0:0:
402,192,45418,1,0,0:0:0:0:
475,192,45418,1,0,0:0:0:0:
36,192,45418,1,0,0:0:0:0:
182,192,45628,1,0,0:0:0:0:
402,192,45628,1,0,0:0:0:0:
36,192,45628,1,0,0:0:0:0:
182,192,45838,1,0,0:0:0:0:
329,192,45838,1,0,0:0:0:0:
36,192,45838,1,0,0:0:0:0:
329,192,45943,1,0,0:0:0:0:
402,192,45943,1,0,0:0:0:0:
109,192,45943,1,0,0:0:0:0:
256,192,46048,1,0,0:0:0:0:
182,192,46153,1,0,0:0:0:0:
36,192,46153,128,0,47831:0:0:0:0:
475,192,46153,128,0,47831:0:0:0:0:
109,192,46153,1,0,0:0:0:0:
329,192,46153,1,0,0:0:0:0:
182,192,46258,1,0,0:0:0:0:
256,192,46258,1,0,0:0:0:0:
402,192,46258,1,0,0:0:0:0:
182,192,46467,1,0,0:0:0:0:
329,192,46467,1,0,0:0:0:0:
402,192,46467,1,0,0:0:0:0:
256,192,46677,1,0,0:0:0:0:
109,192,46677,1,0,0:0:0:0:
402,192,46677,1,0,0:0:0:0:
109,192,46782,1,0,0:0:0:0:
329,192,46782,1,0,0:0:0:0:
256,192,46887,1,0,0:0:0:0:
329,192,46992,1,0,0:0:0:0:
182,192,46992,1,0,0:0:0:0:
329,192,47097,1,0,0:0:0:0:
109,192,47097,1,0,0:0:0:0:
256,192,47202,1,0,0:0:0:0:
182,192,47202,1,0,0:0:0:0:
109,192,47307,1,0,0:0:0:0:
329,192,47307,1,0,0:0:0:0:
182,192,47411,1,0,0:0:0:0:
402,192,47411,1,0,0:0:0:0:
109,192,47516,1,0,0:0:0:0:
329,192,47516,1,0,0:0:0:0:
109,192,47621,1,0,0:0:0:0:
256,192,47621,1,0,0:0:0:0:
329,192,47726,1,0,0:0:0:0:
182,192,47726,1,0,0:0:0:0:
402,192,47831,1,0,0:0:0:0:
256,192,47831,128,0,48670:0:0:0:0:
182,192,48670,128,0,49509:0:0:0:0:
402,192,48670,1,0,0:0:0:0:
109,192,49509,128,0,50349:0:0:0:0:
329,192,49509,128,0,50349:0:0:0:0:
256,192,49509,1,0,0:0:0:0:
256,192,50349,128,0,51188:0:0:0:0:
36,192,50349,128,0,52027:0:0:0:0:
475,192,50349,1,0,0:0:0:0:
329,192,51188,128,0,52866:0:0:0:0:
475,192,51188,128,0,52027:0:0:0:0:
109,192,51188,1,0,0:0:0:0:
402,192,52027,128,0,53705:0:0:0:0:
109,192,52027,128,0,52866:0:0:0:0:
182,192,52027,1,0,0:0:0:0:
256,192,52866,128,0,54544:0:0:0:0:
36,192,52866,128,0,53705:0:0:0:0:
475,192,52866,1,0,0:0:0:0:
329,192,53705,128,0,54544:0:0:0:0:
109,192,53705,128,0,54544:0:0:0:0:
182,192,53705,1,0,0:0:0:0:
402,192,54544,1,0,0:0:0:0:
36,192,54544,128,0,57062:0:0:0:0:
402,192,54649,1,0,0:0:0:0:
402,192,54859,1,0,0:0:0:0:
402,192,55069,1,0,0:0:0:0:
402,192,55174,1,0,0:0:0:0:
329,192,55384,1,0,0:0:0:0:
329,192,55488,1,0,0:0:0:0:
329,192,55698,1,0,0:0:0:0:
329,192,55908,1,0,0:0:0:0:
329,192,56013,1,0,0:0:0:0:
329,192,56223,1,0,0:0:0:0:
329,192,56328,1,0,0:0:0:0:
329,192,56537,1,0,0:0:0:0:
329,192,56747,1,0,0:0:0:0:
329,192,56852,1,0,0:0:0:0:
256,192,57062,1,0,0:0:0:0:
109,192,57062,128,0,57901:0:0:0:0:
256,192,57167,1,0,0:0:0:0:
256,192,57377,1,0,0:0:0:0:
256,192,57586,1,0,0:0:0:0:
256,192,57691,1,0,0:0:0:0:
182,192,57901,1,0,0:0:0:0:
329,192,57901,128,0,60418:0:0:0:0:
182,192,58006,1,0,0:0:0:0:
182,192,58216,1,0,0:0:0:0:
182,192,58425,1,0,0:0:0:0:
182,192,58530,1,0,0:0:0:0:
109,192,58740,1,0,0:0:0:0:
109,192,58845,1,0,0:0:0:0:
109,192,59055,1,0,0:0:0:0:
109,192,59265,1,0,0:0:0:0:
109,192,59370,1,0,0:0:0:0:
36,192,59579,1,0,0:0:0:0:
36,192,59684,1,0,0:0:0:0:
36,192,59894,1,0,0:0:0:0:
36,192,60104,1,0,0:0:0:0:
36,192,60209,1,0,0:0:0:0:
182,192,60418,1,0,0:0:0:0:
475,192,60418,128,0,61258:0:0:0:0:
182,192,60523,1,0,0:0:0:0:
182,192,60733,1,0,0:0:0:0:
182,192,60943,1,0,0:0:0:0:
182,192,61048,1,0,0:0:0:0:
36,192,61258,128,0,62936:0:0:0:0:
329,192,61258,128,0,62097:0:0:0:0:
109,192,61258,1,0,0:0:0:0:
402,192,61258,1,0,0:0:0:0:
109,192,61363,1,0,0:0:0:0:
256,192,61572,1,0,0:0:0:0:
109,192,61572,1,0,0:0:0:0:
182,192,61677,1,0,0:0:0:0:
475,192,61677,1,0,0:0:0:0:
256,192,61677,1,0,0:0:0:0:
109,192,61782,1,0,0:0:0:0:
109,192,61887,1,0,0:0:0:0:
402,192,61887,1,0,0:0:0:0:
256,192,62097,128,0,62936:0:0:0:0:
475,192,62097,1,0,0:0:0:0:
182,192,62097,1,0,0:0:0:0:
182,192,62202,1,0,0:0:0:0:
182,192,62411,1,0,0:0:0:0:
329,192,62411,1,0,0:0:0:0:
329,192,62516,1,0,0:0:0:0:
402,192,62516,1,0,0:0:0:0:
109,192,62516,1,0,0:0:0:0:
182,192,62621,1,0,0:0:0:0:
182,192,62726,1,0,0:0:0:0:
475,192,62726,1,0,0:0:0:0:
475,192,62936,128,0,64614:0:0:0:0:
182,192,62936,128,0,63775:0:0:0:0:
329,192,62936,1,0,0:0:0:0:
109,192,62936,1,0,0:0:0:0:
329,192,63041,1,0,0:0:0:0:
329,192,63251,1,0,0:0:0:0:
36,192,63251,1,0,0:0:0:0:
36,192,63356,1,0,0:0:0:0:
256,192,63356,1,0,0:0:0:0:
402,192,63356,1,0,0:0:0:0:
329,192,63460,1,0,0:0:0:0:
109,192,63565,1,0,0:0:0:0:
329,192,63565,1,0,0:0:0:0:
36,192,63775,128,0,64614:0:0:0:0:
256,192,63775,1,0,0:0:0:0:
402,192,63775,1,0,0:0:0:0:
402,192,63880,1,0,0:0:0:0:
402,192,64090,1,0,0:0:0:0:
109,192,64090,1,0,0:0:0:0:
109,192,64195,1,0,0:0:0:0:
329,192,64195,1,0,0:0:0:0:
182,192,64195,1,0,0:0:0:0:
402,192,64300,1,0,0:0:0:0:
256,192,64405,1,0,0:0:0:0:
402,192,64405,1,0,0:0:0:0:
109,192,64614,128,0,66293:0:0:0:0:
329,192,64614,128,0,65453:0:0:0:0:
182,192,64614,1,0,0:0:0:0:
402,192,64614,1,0,0:0:0:0:
182,192,64719,1,0,0:0:0:0:
182,192,64929,1,0,0:0:0:0:
475,192,64929,1,0,0:0:0:0:
36,192,65034,1,0,0:0:0:0:
475,192,65034,1,0,0:0:0:0:
402,192,65034,1,0,0:0:0:0:
182,192,65139,1,0,0:0:0:0:
402,192,65244,1,0,0:0:0:0:
182,192,65244,1,0,0:0:0:0:
256,192,65453,128,0,66293:0:0:0:0:
36,192,65453,1,0,0:0:0:0:
475,192,65453,1,0,0:0:0:0:
36,192,65558,1,0,0:0:0:0:
36,192,65768,1,0,0:0:0:0:
329,192,65768,1,0,0:0:0:0:
182,192,65873,1,0,0:0:0:0:
402,192,65873,1,0,0:0:0:0:
329,192,65873,1,0,0:0:0:0:
36,192,65978,1,0,0:0:0:0:
36,192,66083,1,0,0:0:0:0:
475,192,66083,1,0,0:0:0:0:
329,192,66293,128,0,67971:0:0:0:0:
182,192,66293,128,0,66607:0:0:0:0:
36,192,66293,1,0,0:0:0:0:
402,192,66293,1,0,0:0:0:0:
402,192,66398,1,0,0:0:0:0:
109,192,66607,128,0,66922:0:0:0:0:
256,192,66607,1,0,0:0:0:0:
402,192,66607,1,0,0:0:0:0:
256,192,66712,1,0,0:0:0:0:
475,192,66712,1,0,0:0:0:0:
36,192,66712,1,0,0:0:0:0:
402,192,66817,1,0,0:0:0:0:
36,192,66922,128,0,67132:0:0:0:0:
402,192,66922,1,0,0:0:0:0:
182,192,66922,1,0,0:0:0:0:
475,192,67132,128,0,67971:0:0:0:0:
256,192,67132,1,0,0:0:0:0:
109,192,67132,1,0,0:0:0:0:
256,192,67237,1,0,0:0:0:0:
36,192,67446,1,0,0:0:0:0:
256,192,67446,1,0,0:0:0:0:
402,192,67551,1,0,0:0:0:0:
256,192,67656,1,0,0:0:0:0:
109,192,67656,1,0,0:0:0:0:
182,192,67761,1,0,0:0:0:0:
36,192,67761,1,0,0:0:0:0:
256,192,67761,1,0,0:0:0:0:
36,192,67971,128,0,69649:0:0:0:0:
182,192,67971,128,0,68810:0:0:0:0:
402,192,67971,128,0,68810:0:0:0:0:
109,192,67971,1,0,0:0:0:0:
256,192,67971,1,0,0:0:0:0:
329,192,68076,1,0,0:0:0:0:
475,192,68181,1,0,0:0:0:0:
109,192,68286,1,0,0:0:0:0:
329,192,68286,1,0,0:0:0:0:
109,192,68391,1,0,0:0:0:0:
256,192,68391,1,0,0:0:0:0:
475,192,68391,1,0,0:0:0:0:
329,192,68495,1,0,0:0:0:0:
109,192,68600,1,0,0:0:0:0:
256,192,68600,1,0,0:0:0:0:
329,192,68810,128,0,69649:0:0:0:0:
109,192,68810,128,0,70488:0:0:0:0:
256,192,68810,1,0,0:0:0:0:
475,192,68810,1,0,0:0:0:0:
402,192,68915,1,0,0:0:0:0:
182,192,69020,1,0,0:0:0:0:
475,192,69125,1,0,0:0:0:0:
256,192,69125,1,0,0:0:0:0:
402,192,69230,1,0,0:0:0:0:
256,192,69230,1,0,0:0:0:0:
182,192,69230,1,0,0:0:0:0:
475,192,69335,1,0,0:0:0:0:
402,192,69439,1,0,0:0:0:0:
256,192,69439,1,0,0:0:0:0:
475,192,69649,128,0,71328:0:0:0:0:
256,192,69649,128,0,70488:0:0:0:0:
182,192,69649,1,0,0:0:0:0:
402,192,69649,1,0,0:0:0:0:
329,192,69754,1,0,0:0:0:0:
36,192,69859,1,0,0:0:0:0:
182,192,69964,1,0,0:0:0:0:
329,192,69964,1,0,0:0:0:0:
36,192,70069,1,0,0:0:0:0:
182,192,70069,1,0,0:0:0:0:
402,192,70069,1,0,0:0:0:0:
329,192,70174,1,0,0:0:0:0:
402,192,70279,1,0,0:0:0:0:
36,192,70279,1,0,0:0:0:0:
329,192,70488,128,0,72167:0:0:0:0:
36,192,70488,128,0,71328:0:0:0:0:
182,192,70488,1,0,0:0:0:0:
402,192,70488,1,0,0:0:0:0:
256,192,70593,1,0,0:0:0:0:
109,192,70698,1,0,0:0:0:0:
182,192,70803,1,0,0:0:0:0:
256,192,70803,1,0,0:0:0:0:
109,192,70908,1,0,0:0:0:0:
182,192,70908,1,0,0:0:0:0:
402,192,70908,1,0,0:0:0:0:
256,192,71013,1,0,0:0:0:0:
402,192,71118,1,0,0:0:0:0:
109,192,71118,1,0,0:0:0:0:
182,192,71328,128,0,72167:0:0:0:0:
402,192,71328,128,0,73006:0:0:0:0:
109,192,71328,1,0,0:0:0:0:
256,192,71328,1,0,0:0:0:0:
36,192,71432,1,0,0:0:0:0:
475,192,71537,1,0,0:0:0:0:
256,192,71642,1,0,0:0:0:0:
109,192,71642,1,0,0:0:0:0:
36,192,71747,1,0,0:0:0:0:
109,192,71747,1,0,0:0:0:0:
475,192,71747,1,0,0:0:0:0:
256,192,71852,1,0,0:0:0:0:
109,192,71957,1,0,0:0:0:0:
475,192,71957,1,0,0:0:0:0:
36,192,72167,128,0,73845:0:0:0:0:
109,192,72167,128,0,73006:0:0:0:0:
256,192,72167,1,0,0:0:0:0:
475,192,72167,1,0,0:0:0:0:
182,192,72272,1,0,0:0:0:0:
475,192,72377,1,0,0:0:0:0:
256,192,72481,1,0,0:0:0:0:
329,192,72481,1,0,0:0:0:0:
182,192,72586,1,0,0:0:0:0:
256,192,72586,1,0,0:0:0:0:
475,192,72586,1,0,0:0:0:0:
329,192,72691,1,0,0:0:0:0:
182,192,72796,1,0,0:0:0:0:
475,192,72796,1,0,0:0:0:0:
256,192,73006,128,0,73845:0:0:0:0:
475,192,73006,128,0,73845:0:0:0:0:
182,192,73006,1,0,0:0:0:0:
329,192,73006,1,0,0:0:0:0:
402,192,73111,1,0,0:0:0:0:
109,192,73216,1,0,0:0:0:0:
182,192,73321,1,0,0:0:0:0:
329,192,73321,1,0,0:0:0:0:
329,192,73425,1,0,0:0:0:0:
402,192,73425,1,0,0:0:0:0:
109,192,73425,1,0,0:0:0:0:
182,192,73530,1,0,0:0:0:0:
109,192,73635,1,0,0:0:0:0:
329,192,73635,1,0,0:0:0:0:
182,192,73845,1,0,0:0:0:0:
329,192,73845,1,0,0:0:0:0:
402,192,73845,1,0,0:0:0:0:
109,192,73950,1,0,0:0:0:0:
402,192,73950,1,0,0:0:0:0:
182,192,73950,1,0,0:0:0:0:
36,192,74055,1,0,0:0:0:0:
256,192,74055,1,0,0:0:0:0:
475,192,74055,1,0,0:0:0:0:
475,192,74160,1,0,0:0:0:0:
402,192,74160,1,0,0:0:0:0:
36,192,74160,1,0,0:0:0:0:
109,192,74265,1,0,0:0:0:0:
182,192,74265,1,0,0:0:0:0:
329,192,74265,1,0,0:0:0:0:
109,192,74370,1,0,0:0:0:0:
329,192,74370,1,0,0:0:0:0:
402,192,74370,1,0,0:0:0:0:
36,192,74474,1,0,0:0:0:0:
475,192,74474,1,0,0:0:0:0:
182,192,74474,1,0,0:0:0:0:
36,192,74579,1,0,0:0:0:0:
256,192,74579,1,0,0:0:0:0:
475,192,74579,1,0,0:0:0:0:
475,192,76362,1,0,0:0:0:0:
36,192,76362,1,0,0:0:0:0:
182,192,76466,1,0,0:0:0:0:
329,192,76466,1,0,0:0:0:0:
402,192,76571,1,0,0:0:0:0:
109,192,76571,1,0,0:0:0:0:
36,192,76676,1,0,0:0:0:0:
475,192,76676,1,0,0:0:0:0:
109,192,76781,1,0,0:0:0:0:
402,192,76781,1,0,0:0:0:0:
182,192,76886,1,0,0:0:0:0:
329,192,76886,1,0,0:0:0:0:
475,192,76991,1,0,0:0:0:0:
36,192,76991,1,0,0:0:0:0:
182,192,77096,1,0,0:0:0:0:
329,192,77096,1,0,0:0:0:0:
402,192,77201,1,0,0:0:0:0:
109,192,77201,1,0,0:0:0:0:
182,192,77306,1,0,0:0:0:0:
329,192,77306,1,0,0:0:0:0:
36,192,77410,1,0,0:0:0:0:
475,192,77410,1,0,0:0:0:0:
109,192,77515,1,0,0:0:0:0:
402,192,77515,1,0,0:0:0:0:
182,192,77620,1,0,0:0:0:0:
329,192,77620,1,0,0:0:0:0:
109,192,77725,1,0,0:0:0:0:
402,192,77725,1,0,0:0:0:0:
36,192,77830,1,0,0:0:0:0:
475,192,77830,1,0,0:0:0:0:
329,192,77935,1,0,0:0:0:0:
182,192,77935,1,0,0:0:0:0:
182,192,79718,1,0,0:0:0:0:
475,192,79718,1,0,0:0:0:0:
36,192,79822,1,0,0:0:0:0:
329,192,79822,1,0,0:0:0:0:
109,192,79927,1,0,0:0:0:0:
402,192,79927,1,0,0:0:0:0:
36,192,80032,1,0,0:0:0:0:
329,192,80032,1,0,0:0:0:0:
182,192,80137,1,0,0:0:0:0:
475,192,80137,1,0,0:0:0:0:
109,192,80242,1,0,0:0:0:0:
402,192,80242,1,0,0:0:0:0:
36,192,80347,1,0,0:0:0:0:
329,192,80347,1,0,0:0:0:0:
182,192,80452,1,0,0:0:0:0:
475,192,80452,1,0,0:0:0:0:
36,192,80557,1,0,0:0:0:0:
329,192,80557,1,0,0:0:0:0:
109,192,80662,1,0,0:0:0:0:
402,192,80662,1,0,0:0:0:0:
36,192,80766,1,0,0:0:0:0:
329,192,80766,1,0,0:0:0:0:
182,192,80871,1,0,0:0:0:0:
475,192,80871,1,0,0:0:0:0:
109,192,80976,1,0,0:0:0:0:
402,192,80976,1,0,0:0:0:0:
36,192,81081,1,0,0:0:0:0:
329,192,81081,1,0,0:0:0:0:
182,192,81186,1,0,0:0:0:0:
475,192,81186,1,0,0:0:0:0:
36,192,81291,1,0,0:0:0:0:
329,192,81291,1,0,0:0:0:0:
256,192,83076,1,0,0:0:0:0:
475,192,83076,1,0,0:0:0:0:
109,192,83180,1,0,0:0:0:0:
329,192,83180,1,0,0:0:0:0:
182,192,83285,1,0,0:0:0:0:
402,192,83285,1,0,0:0:0:0:
36,192,83390,1,0,0:0:0:0:
256,192,83390,1,0,0:0:0:0:
182,192,83495,1,0,0:0:0:0:
402,192,83495,1,0,0:0:0:0:
109,192,83600,1,0,0:0:0:0:
329,192,83600,1,0,0:0:0:0:
256,192,83705,1,0,0:0:0:0:
475,192,83705,1,0,0:0:0:0:
109,192,83810,1,0,0:0:0:0:
329,192,83810,1,0,0:0:0:0:
182,192,83915,1,0,0:0:0:0:
402,192,83915,1,0,0:0:0:0:
36,192,84020,1,0,0:0:0:0:
256,192,84020,1,0,0:0:0:0:
109,192,84124,1,0,0:0:0:0:
329,192,84124,1,0,0:0:0:0:
256,192,84229,1,0,0:0:0:0:
475,192,84229,1,0,0:0:0:0:
109,192,84334,1,0,0:0:0:0:
329,192,84334,1,0,0:0:0:0:
182,192,84439,1,0,0:0:0:0:
402,192,84439,1,0,0:0:0:0:
36,192,84544,1,0,0:0:0:0:
256,192,84544,1,0,0:0:0:0:
109,192,84649,1,0,0:0:0:0:
329,192,84649,1,0,0:0:0:0:
475,192,86432,1,0,0:0:0:0:
109,192,86432,1,0,0:0:0:0:
182,192,86536,1,0,0:0:0:0:
402,192,86536,1,0,0:0:0:0:
36,192,86641,1,0,0:0:0:0:
256,192,86641,1,0,0:0:0:0:
109,192,86746,1,0,0:0:0:0:
329,192,86746,1,0,0:0:0:0:
182,192,86851,1,0,0:0:0:0:
475,192,86851,1,0,0:0:0:0:
36,192,86956,1,0,0:0:0:0:
402,192,86956,1,0,0:0:0:0:
182,192,87061,1,0,0:0:0:0:
329,192,87061,1,0,0:0:0:0:
109,192,87166,1,0,0:0:0:0:
475,192,87166,1,0,0:0:0:0:
402,192,87271,1,0,0:0:0:0:
256,192,87271,1,0,0:0:0:0:
36,192,87376,1,0,0:0:0:0:
329,192,87376,1,0,0:0:0:0:
182,192,87480,1,0,0:0:0:0:
475,192,87480,1,0,0:0:0:0:
109,192,87585,1,0,0:0:0:0:
402,192,87585,1,0,0:0:0:0:
36,192,87690,1,0,0:0:0:0:
256,192,87690,1,0,0:0:0:0:
182,192,87795,1,0,0:0:0:0:
475,192,87795,1,0,0:0:0:0:
109,192,87900,1,0,0:0:0:0:
402,192,87900,1,0,0:0:0:0:
182,192,88005,1,0,0:0:0:0:
329,192,88005,1,0,0:0:0:0:
109,192,88110,128,0,88214:0:0:0:0:
402,192,88110,128,0,88214:0:0:0:0:
182,192,88214,1,0,0:0:0:0:
475,192,88214,1,0,0:0:0:0:
475,192,88424,1,0,0:0:0:0:
182,192,88424,1,0,0:0:0:0:
36,192,88739,1,0,0:0:0:0:
256,192,88739,1,0,0:0:0:0:
402,192,88739,1,0,0:0:0:0:
109,192,88949,128,0,89054:0:0:0:0:
329,192,88949,128,0,89054:0:0:0:0:
182,192,89054,128,0,89263:0:0:0:0:
402,192,89054,128,0,89263:0:0:0:0:
256,192,89263,1,0,0:0:0:0:
36,192,89263,1,0,0:0:0:0:
256,192,89578,1,0,0:0:0:0:
475,192,89578,1,0,0:0:0:0:
109,192,89578,1,0,0:0:0:0:
182,192,89788,128,0,89893:0:0:0:0:
329,192,89788,128,0,89893:0:0:0:0:
109,192,89893,1,0,0:0:0:0:
402,192,89893,1,0,0:0:0:0:
402,192,90103,1,0,0:0:0:0:
109,192,90103,1,0,0:0:0:0:
36,192,90417,1,0,0:0:0:0:
256,192,90417,1,0,0:0:0:0:
475,192,90417,1,0,0:0:0:0:
182,192,90627,128,0,90732:0:0:0:0:
402,192,90627,128,0,90732:0:0:0:0:
329,192,90732,128,0,90942:0:0:0:0:
109,192,90732,128,0,90942:0:0:0:0:
256,192,90942,1,0,0:0:0:0:
475,192,90942,1,0,0:0:0:0:
402,192,91151,1,0,0:0:0:0:
182,192,91151,1,0,0:0:0:0:
36,192,91151,1,0,0:0:0:0:
36,192,91256,128,0,91466:0:0:0:0:
256,192,91256,128,0,91466:0:0:0:0:
109,192,91466,128,0,91571:0:0:0:0:
329,192,91466,128,0,91571:0:0:0:0:
182,192,91571,128,0,91781:0:0:0:0:
402,192,91571,128,0,91781:0:0:0:0:
109,192,91781,1,0,0:0:0:0:
329,192,91781,1,0,0:0:0:0:
182,192,92096,1,0,0:0:0:0:
475,192,92096,1,0,0:0:0:0:
109,192,92096,1,0,0:0:0:0:
36,192,92305,128,0,92410:0:0:0:0:
256,192,92305,128,0,92410:0:0:0:0:
182,192,92410,128,0,92620:0:0:0:0:
402,192,92410,128,0,92620:0:0:0:0:
109,192,92620,1,0,0:0:0:0:
329,192,92620,1,0,0:0:0:0:
182,192,92935,1,0,0:0:0:0:
475,192,92935,1,0,0:0:0:0:
256,192,92935,1,0,0:0:0:0:
109,192,93144,128,0,93249:0:0:0:0:
329,192,93144,128,0,93249:0:0:0:0:
182,192,93249,1,0,0:0:0:0:
475,192,93249,1,0,0:0:0:0:
475,192,93459,1,0,0:0:0:0:
182,192,93459,1,0,0:0:0:0:
256,192,93774,1,0,0:0:0:0:
402,192,93774,1,0,0:0:0:0:
109,192,93774,1,0,0:0:0:0:
36,192,93984,128,0,94089:0:0:0:0:
329,192,93984,128,0,94089:0:0:0:0:
109,192,94089,1,0,0:0:0:0:
402,192,94089,1,0,0:0:0:0:
109,192,94193,1,0,0:0:0:0:
402,192,94193,1,0,0:0:0:0:
109,192,94298,1,0,0:0:0:0:
402,192,94298,1,0,0:0:0:0:
329,192,94508,1,0,0:0:0:0:
182,192,94508,1,0,0:0:0:0:
36,192,94508,1,0,0:0:0:0:
36,192,94613,128,0,94823:0:0:0:0:
256,192,94613,128,0,94823:0:0:0:0:
109,192,94823,128,0,94928:0:0:0:0:
402,192,94823,128,0,94928:0:0:0:0:
182,192,94928,1,0,0:0:0:0:
475,192,94928,1,0,0:0:0:0:
182,192,95137,1,0,0:0:0:0:
475,192,95137,1,0,0:0:0:0:
402,192,95347,1,0,0:0:0:0:
329,192,95347,1,0,0:0:0:0:
109,192,95347,1,0,0:0:0:0:
329,192,95452,128,0,95662:0:0:0:0:
36,192,95452,128,0,95662:0:0:0:0:
109,192,95662,128,0,95767:0:0:0:0:
256,192,95662,128,0,95767:0:0:0:0:
182,192,95767,1,0,0:0:0:0:
329,192,95767,1,0,0:0:0:0:
329,192,95977,1,0,0:0:0:0:
182,192,95977,1,0,0:0:0:0:
36,192,96186,1,0,0:0:0:0:
256,192,96186,1,0,0:0:0:0:
402,192,96186,1,0,0:0:0:0:
182,192,96291,128,0,96501:0:0:0:0:
402,192,96291,128,0,96501:0:0:0:0:
329,192,96501,128,0,96606:0:0:0:0:
109,192,96501,128,0,96606:0:0:0:0:
36,192,96606,128,0,96816:0:0:0:0:
256,192,96606,128,0,96816:0:0:0:0:
182,192,96816,1,0,0:0:0:0:
475,192,96816,1,0,0:0:0:0:
109,192,97026,1,0,0:0:0:0:
402,192,97026,1,0,0:0:0:0:
36,192,97026,1,0,0:0:0:0:
36,192,97130,128,0,97340:0:0:0:0:
256,192,97130,128,0,97340:0:0:0:0:
182,192,97340,128,0,97445:0:0:0:0:
402,192,97340,128,0,97445:0:0:0:0:
256,192,97445,128,0,97655:0:0:0:0:
475,192,97445,128,0,97655:0:0:0:0:
329,192,97655,1,0,0:0:0:0:
36,192,97655,1,0,0:0:0:0:
109,192,97865,1,0,0:0:0:0:
402,192,97865,1,0,0:0:0:0:
256,192,97865,1,0,0:0:0:0:
256,192,97970,128,0,98179:0:0:0:0:
475,192,97970,128,0,98179:0:0:0:0:
182,192,98179,128,0,98284:0:0:0:0:
329,192,98179,128,0,98284:0:0:0:0:
109,192,98284,1,0,0:0:0:0:
402,192,98284,1,0,0:0:0:0:
402,192,98494,1,0,0:0:0:0:
109,192,98494,1,0,0:0:0:0:
36,192,98704,1,0,0:0:0:0:
402,192,98704,1,0,0:0:0:0:
256,192,98704,1,0,0:0:0:0:
182,192,98809,128,0,99019:0:0:0:0:
402,192,98809,128,0,99019:0:0:0:0:
256,192,99019,128,0,99123:0:0:0:0:
36,192,99019,128,0,99123:0:0:0:0:
109,192,99123,1,0,0:0:0:0:
329,192,99123,1,0,0:0:0:0:
329,192,99333,1,0,0:0:0:0:
109,192,99333,1,0,0:0:0:0:
475,192,99543,1,0,0:0:0:0:
256,192,99543,1,0,0:0:0:0:
36,192,99543,1,0,0:0:0:0:
36,192,99648,128,0,99858:0:0:0:0:
182,192,99648,128,0,99858:0:0:0:0:
109,192,99858,128,0,99963:0:0:0:0:
402,192,99858,128,0,99963:0:0:0:0:
475,192,99963,1,0,0:0:0:0:
329,192,99963,1,0,0:0:0:0:
475,192,100172,1,0,0:0:0:0:
329,192,100172,1,0,0:0:0:0:
402,192,100382,1,0,0:0:0:0:
109,192,100382,1,0,0:0:0:0:
329,192,100382,1,0,0:0:0:0:
475,192,100487,1,0,0:0:0:0:
256,192,100487,1,0,0:0:0:0:
109,192,100487,1,0,0:0:0:0:
256,192,100592,1,0,0:0:0:0:
36,192,100592,1,0,0:0:0:0:
402,192,100592,1,0,0:0:0:0:
329,192,100697,1,0,0:0:0:0:
182,192,100697,1,0,0:0:0:0:
36,192,100697,1,0,0:0:0:0:
402,192,100802,1,0,0:0:0:0:
256,192,100802,1,0,0:0:0:0:
182,192,100802,1,0,0:0:0:0:
109,192,100907,1,0,0:0:0:0:
402,192,100907,1,0,0:0:0:0:
329,192,100907,1,0,0:0:0:0:
475,192,100907,1,0,0:0:0:0:
182,192,101012,1,0,0:0:0:0:
109,192,101012,1,0,0:0:0:0:
475,192,101012,1,0,0:0:0:0:
36,192,101012,1,0,0:0:0:0:
