osu file format v14

[General]
AudioFilename: audio.mp3
AudioLeadIn: 0
PreviewTime: 34405
Countdown: 1
SampleSet: Soft
StackLeniency: 0.7
Mode: 3
LetterboxInBreaks: 0
SpecialStyle: 0
WidescreenStoryboard: 1

[Editor]
DistanceSpacing: 0.8
BeatDivisor: 8
GridSize: 4
TimelineZoom: 1.3

[Metadata]
Title:cloud
TitleUnicode:cloud
Artist:EZFG
ArtistUnicode:EZFG
Creator:Ciel
Version:Grounded
Source:
Tags:
BeatmapID:1178426
BeatmapSetID:556863

[Difficulty]
HPDrainRate:8.7
CircleSize:7
OverallDifficulty:8
ApproachRate:5
SliderMultiplier:1.4
SliderTickRate:1

[Events]
//Background and Video events
0,0,"Starwalt+Design.png",0,0
//Break Periods
//Storyboard Layer 0 (Background)
//Storyboard Layer 1 (Fail)
//Storyboard Layer 2 (Pass)
//Storyboard Layer 3 (Foreground)
//Storyboard Sound Samples

[TimingPoints]
0,419.58041958042,4,2,0,5,1,0
34405,419.58041958042,4,2,0,5,1,0

[HitObjects]
402,193,0,128,0,314:0:0:0:0:
256,193,0,1,0,0:0:0:0:
36,193,0,1,0,0:0:0:0:
36,193,314,1,0,0:0:0:0:
256,193,314,1,0,0:0:0:0:
402,193,839,128,0,1153:0:0:0:0:
36,193,839,1,0,0:0:0:0:
256,193,839,1,0,0:0:0:0:
36,193,1153,1,0,0:0:0:0:
256,193,1153,1,0,0:0:0:0:
256,192,1678,1,0,0:0:0:0:
402,192,1678,128,0,1993:0:0:0:0:
36,192,1678,1,0,0:0:0:0:
256,192,1993,1,0,0:0:0:0:
36,192,1993,1,0,0:0:0:0:
36,192,2517,1,0,0:0:0:0:
402,192,2517,128,0,2832:0:0:0:0:
256,192,2517,1,0,0:0:0:0:
36,192,2832,1,0,0:0:0:0:
256,192,2832,1,0,0:0:0:0:
36,192,3356,1,0,0:0:0:0:
402,192,3356,128,0,3671:0:0:0:0:
256,192,3356,1,0,0:0:0:0:
182,192,3356,1,0,0:0:0:0:
109,192,3566,1,0,0:0:0:0:
36,192,3671,1,0,0:0:0:0:
256,192,3671,1,0,0:0:0:0:
182,192,3986,1,0,0:0:0:0:
256,192,4195,1,0,0:0:0:0:
402,192,4195,128,0,4510:0:0:0:0:
36,192,4195,1,0,0:0:0:0:
182,192,4195,1,0,0:0:0:0:
109,192,4405,1,0,0:0:0:0:
256,192,4510,1,0,0:0:0:0:
36,192,4510,1,0,0:0:0:0:
182,192,4720,1,0,0:0:0:0:
182,192,4825,1,0,0:0:0:0:
256,192,5034,1,0,0:0:0:0:
402,192,5034,128,0,5349:0:0:0:0:
36,192,5034,1,0,0:0:0:0:
182,192,5034,1,0,0:0:0:0:
109,192,5244,1,0,0:0:0:0:
256,192,5349,1,0,0:0:0:0:
36,192,5349,1,0,0:0:0:0:
182,192,5664,1,0,0:0:0:0:
36,192,5874,1,0,0:0:0:0:
475,192,5874,128,0,6188:0:0:0:0:
329,192,5874,1,0,0:0:0:0:
109,192,5874,1,0,0:0:0:0:
109,192,5979,1,0,0:0:0:0:
36,192,6188,1,0,0:0:0:0:
256,192,6188,1,0,0:0:0:0:
402,192,6188,1,0,0:0:0:0:
402,192,6713,128,0,7552:0:0:0:0:
109,192,6713,128,0,7027:0:0:0:0:
256,192,6713,128,0,7027:0:0:0:0:
475,192,6713,1,0,0:0:0:0:
36,192,7027,128,0,7342:0:0:0:0:
182,192,7027,128,0,7342:0:0:0:0:
329,192,7027,1,0,0:0:0:0:
109,192,7342,128,0,7552:0:0:0:0:
329,192,7342,128,0,7552:0:0:0:0:
256,192,7342,1,0,0:0:0:0:
36,192,7552,128,0,8391:0:0:0:0:
182,192,7552,128,0,7867:0:0:0:0:
475,192,7552,128,0,7867:0:0:0:0:
256,192,7552,1,0,0:0:0:0:
109,192,7867,128,0,8181:0:0:0:0:
256,192,7867,128,0,8181:0:0:0:0:
402,192,7867,1,0,0:0:0:0:
182,192,8181,128,0,8391:0:0:0:0:
329,192,8181,128,0,8391:0:0:0:0:
475,192,8181,1,0,0:0:0:0:
475,192,8391,128,0,9230:0:0:0:0:
402,192,8391,128,0,8706:0:0:0:0:
109,192,8391,128,0,8706:0:0:0:0:
256,192,8391,1,0,0:0:0:0:
256,192,8706,128,0,9020:0:0:0:0:
36,192,8706,128,0,9020:0:0:0:0:
182,192,8706,1,0,0:0:0:0:
182,192,9020,128,0,9230:0:0:0:0:
329,192,9020,128,0,9230:0:0:0:0:
402,192,9020,1,0,0:0:0:0:
109,192,9230,128,0,10069:0:0:0:0:
256,192,9230,128,0,9545:0:0:0:0:
402,192,9230,128,0,9545:0:0:0:0:
36,192,9230,1,0,0:0:0:0:
182,192,9545,128,0,9860:0:0:0:0:
475,192,9545,128,0,9860:0:0:0:0:
329,192,9545,1,0,0:0:0:0:
329,192,9860,128,0,10069:0:0:0:0:
256,192,9860,128,0,10069:0:0:0:0:
402,192,9860,1,0,0:0:0:0:
475,192,10069,128,0,10909:0:0:0:0:
36,192,10069,128,0,10384:0:0:0:0:
402,192,10069,128,0,10384:0:0:0:0:
182,192,10069,1,0,0:0:0:0:
182,192,10384,128,0,10699:0:0:0:0:
256,192,10384,128,0,10699:0:0:0:0:
329,192,10384,1,0,0:0:0:0:
109,192,10699,128,0,10909:0:0:0:0:
329,192,10699,128,0,10909:0:0:0:0:
402,192,10699,1,0,0:0:0:0:
36,192,10909,128,0,11748:0:0:0:0:
402,192,10909,128,0,11223:0:0:0:0:
182,192,10909,128,0,11223:0:0:0:0:
256,192,10909,1,0,0:0:0:0:
256,192,11223,128,0,11538:0:0:0:0:
329,192,11223,128,0,11538:0:0:0:0:
109,192,11223,1,0,0:0:0:0:
109,192,11538,128,0,11748:0:0:0:0:
475,192,11538,128,0,11748:0:0:0:0:
402,192,11538,1,0,0:0:0:0:
402,192,11748,128,0,12587:0:0:0:0:
182,192,11748,128,0,12062:0:0:0:0:
329,192,11748,128,0,12062:0:0:0:0:
256,192,11748,1,0,0:0:0:0:
36,192,12062,128,0,12377:0:0:0:0:
109,192,12062,128,0,12377:0:0:0:0:
475,192,12062,1,0,0:0:0:0:
256,192,12377,128,0,12587:0:0:0:0:
329,192,12377,128,0,12587:0:0:0:0:
182,192,12377,1,0,0:0:0:0:
109,192,12587,128,0,13006:0:0:0:0:
475,192,12587,128,0,12902:0:0:0:0:
182,192,12587,128,0,12902:0:0:0:0:
36,192,12587,1,0,0:0:0:0:
256,192,12902,128,0,13006:0:0:0:0:
402,192,12902,128,0,13006:0:0:0:0:
329,192,12902,1,0,0:0:0:0:
36,192,13111,1,0,0:0:0:0:
109,192,13111,1,0,0:0:0:0:
402,192,13216,1,0,0:0:0:0:
475,192,13216,1,0,0:0:0:0:
475,192,13426,128,0,13741:0:0:0:0:
36,192,13426,128,0,13741:0:0:0:0:
256,192,13426,128,0,13741:0:0:0:0:
109,192,13426,1,0,0:0:0:0:
329,192,13741,128,0,14055:0:0:0:0:
402,192,13741,128,0,14055:0:0:0:0:
109,192,13741,128,0,14055:0:0:0:0:
182,192,13741,1,0,0:0:0:0:
182,192,14055,128,0,14265:0:0:0:0:
256,192,14055,128,0,14265:0:0:0:0:
475,192,14055,128,0,14265:0:0:0:0:
36,192,14055,1,0,0:0:0:0:
36,192,14265,128,0,14580:0:0:0:0:
109,192,14265,1,0,0:0:0:0:
329,192,14265,128,0,14580:0:0:0:0:
402,192,14265,128,0,14580:0:0:0:0:
109,192,14580,128,0,14895:0:0:0:0:
475,192,14580,128,0,14895:0:0:0:0:
256,192,14580,128,0,14895:0:0:0:0:
182,192,14580,1,0,0:0:0:0:
182,192,14895,128,0,15104:0:0:0:0:
36,192,14895,128,0,15104:0:0:0:0:
402,192,14895,128,0,15104:0:0:0:0:
329,192,14895,1,0,0:0:0:0:
475,192,15104,128,0,15419:0:0:0:0:
329,192,15104,128,0,15419:0:0:0:0:
109,192,15104,128,0,15419:0:0:0:0:
256,192,15104,1,0,0:0:0:0:
402,192,15419,128,0,15734:0:0:0:0:
256,192,15419,128,0,15734:0:0:0:0:
36,192,15419,128,0,15734:0:0:0:0:
182,192,15419,1,0,0:0:0:0:
329,192,15734,128,0,15944:0:0:0:0:
109,192,15734,128,0,15944:0:0:0:0:
182,192,15734,128,0,15944:0:0:0:0:
36,192,15944,128,0,16258:0:0:0:0:
256,192,15944,128,0,16258:0:0:0:0:
402,192,15944,128,0,16258:0:0:0:0:
475,192,15944,1,0,0:0:0:0:
109,192,16258,128,0,16573:0:0:0:0:
475,192,16258,128,0,16573:0:0:0:0:
182,192,16258,1,0,0:0:0:0:
329,192,16258,128,0,16573:0:0:0:0:
182,192,16573,128,0,16783:0:0:0:0:
256,192,16573,128,0,16783:0:0:0:0:
402,192,16573,128,0,16783:0:0:0:0:
36,192,16573,1,0,0:0:0:0:
475,192,16783,128,0,17097:0:0:0:0:
36,192,16783,128,0,17097:0:0:0:0:
109,192,16783,1,0,0:0:0:0:
329,192,16783,128,0,17097:0:0:0:0:
402,192,17097,128,0,17412:0:0:0:0:
109,192,17097,128,0,17412:0:0:0:0:
182,192,17097,128,0,17412:0:0:0:0:
256,192,17097,1,0,0:0:0:0:
329,192,17412,128,0,17622:0:0:0:0:
36,192,17412,128,0,17622:0:0:0:0:
475,192,17412,128,0,17622:0:0:0:0:
256,192,17412,1,0,0:0:0:0:
182,192,17622,128,0,17937:0:0:0:0:
256,192,17622,128,0,17937:0:0:0:0:
109,192,17622,1,0,0:0:0:0:
402,192,17622,128,0,17937:0:0:0:0:
109,192,17937,128,0,18251:0:0:0:0:
329,192,17937,128,0,18251:0:0:0:0:
475,192,17937,128,0,18251:0:0:0:0:
36,192,17937,1,0,0:0:0:0:
36,192,18251,128,0,18461:0:0:0:0:
182,192,18251,128,0,18461:0:0:0:0:
402,192,18251,128,0,18461:0:0:0:0:
256,192,18251,1,0,0:0:0:0:
329,192,18461,128,0,18776:0:0:0:0:
109,192,18461,128,0,18776:0:0:0:0:
256,192,18461,128,0,18776:0:0:0:0:
475,192,18461,1,0,0:0:0:0:
402,192,18776,128,0,19090:0:0:0:0:
36,192,18776,128,0,19090:0:0:0:0:
182,192,18776,128,0,19090:0:0:0:0:
475,192,18776,1,0,0:0:0:0:
475,192,19090,128,0,19300:0:0:0:0:
329,192,19090,128,0,19300:0:0:0:0:
109,192,19090,128,0,19300:0:0:0:0:
256,192,19090,1,0,0:0:0:0:
36,192,19300,128,0,19615:0:0:0:0:
182,192,19300,128,0,19615:0:0:0:0:
256,192,19300,128,0,19615:0:0:0:0:
402,192,19300,1,0,0:0:0:0:
109,192,19615,128,0,19930:0:0:0:0:
402,192,19615,128,0,19930:0:0:0:0:
475,192,19615,128,0,19930:0:0:0:0:
329,192,19615,1,0,0:0:0:0:
182,192,19930,128,0,20139:0:0:0:0:
329,192,19930,128,0,20139:0:0:0:0:
256,192,19930,128,0,20139:0:0:0:0:
36,192,19930,1,0,0:0:0:0:
475,192,20139,128,0,20979:0:0:0:0:
36,192,20139,128,0,20454:0:0:0:0:
109,192,20139,128,0,20244:0:0:0:0:
402,192,20139,128,0,20454:0:0:0:0:
329,192,20454,128,0,20769:0:0:0:0:
109,192,20454,128,0,20769:0:0:0:0:
256,192,20454,128,0,20559:0:0:0:0:
182,192,20769,128,0,20979:0:0:0:0:
256,192,20769,128,0,20979:0:0:0:0:
402,192,20769,128,0,20874:0:0:0:0:
36,192,20979,128,0,21818:0:0:0:0:
109,192,20979,128,0,21293:0:0:0:0:
402,192,20979,128,0,21293:0:0:0:0:
329,192,20979,128,0,21083:0:0:0:0:
475,192,21293,128,0,21608:0:0:0:0:
256,192,21293,128,0,21608:0:0:0:0:
182,192,21293,128,0,21398:0:0:0:0:
329,192,21608,128,0,21818:0:0:0:0:
402,192,21608,128,0,21818:0:0:0:0:
109,192,21608,128,0,21713:0:0:0:0:
475,192,21818,128,0,22657:0:0:0:0:
109,192,21818,128,0,22132:0:0:0:0:
256,192,21818,128,0,22132:0:0:0:0:
182,192,21818,128,0,21923:0:0:0:0:
329,192,22132,128,0,22447:0:0:0:0:
36,192,22132,128,0,22447:0:0:0:0:
402,192,22132,128,0,22237:0:0:0:0:
109,192,22447,128,0,22552:0:0:0:0:
256,192,22447,128,0,22657:0:0:0:0:
402,192,22447,128,0,22657:0:0:0:0:
36,192,22657,128,0,23496:0:0:0:0:
109,192,22657,128,0,22972:0:0:0:0:
329,192,22657,128,0,22972:0:0:0:0:
182,192,22657,128,0,22762:0:0:0:0:
402,192,22972,128,0,23286:0:0:0:0:
256,192,22972,128,0,23286:0:0:0:0:
182,192,22972,128,0,23076:0:0:0:0:
109,192,23286,128,0,23496:0:0:0:0:
329,192,23286,128,0,23496:0:0:0:0:
475,192,23286,128,0,23391:0:0:0:0:
402,192,23496,128,0,24335:0:0:0:0:
182,192,23496,128,0,23811:0:0:0:0:
475,192,23496,128,0,23811:0:0:0:0:
256,192,23496,128,0,23601:0:0:0:0:
256,192,23811,128,0,24125:0:0:0:0:
36,192,23811,128,0,24125:0:0:0:0:
109,192,23811,128,0,23916:0:0:0:0:
475,192,24125,128,0,24335:0:0:0:0:
182,192,24125,128,0,24230:0:0:0:0:
329,192,24125,128,0,24335:0:0:0:0:
109,192,24335,128,0,25174:0:0:0:0:
182,192,24335,128,0,24650:0:0:0:0:
36,192,24335,128,0,24440:0:0:0:0:
256,192,24335,128,0,24650:0:0:0:0:
36,192,24650,128,0,24965:0:0:0:0:
329,192,24650,128,0,24965:0:0:0:0:
402,192,24650,128,0,24755:0:0:0:0:
402,192,24965,128,0,25174:0:0:0:0:
256,192,24965,128,0,25069:0:0:0:0:
182,192,24965,128,0,25174:0:0:0:0:
329,192,25174,128,0,26013:0:0:0:0:
256,192,25174,128,0,25489:0:0:0:0:
475,192,25174,128,0,25279:0:0:0:0:
36,192,25174,128,0,25489:0:0:0:0:
475,192,25489,128,0,25804:0:0:0:0:
182,192,25489,128,0,25804:0:0:0:0:
109,192,25489,128,0,25594:0:0:0:0:
256,192,25804,128,0,25909:0:0:0:0:
36,192,25804,128,0,26013:0:0:0:0:
402,192,25804,128,0,26013:0:0:0:0:
182,192,26013,128,0,26433:0:0:0:0:
475,192,26013,128,0,26328:0:0:0:0:
256,192,26013,128,0,26328:0:0:0:0:
109,192,26013,128,0,26118:0:0:0:0:
402,192,26328,128,0,26433:0:0:0:0:
109,192,26328,128,0,26433:0:0:0:0:
36,192,26328,128,0,26433:0:0:0:0:
402,192,26538,1,0,0:0:0:0:
475,192,26538,1,0,0:0:0:0:
36,192,26643,1,0,0:0:0:0:
109,192,26643,1,0,0:0:0:0:
475,192,26853,128,0,27482:0:0:0:0:
36,192,26853,128,0,27167:0:0:0:0:
109,192,26853,128,0,26958:0:0:0:0:
256,192,26853,128,0,26958:0:0:0:0:
402,192,27167,128,0,27692:0:0:0:0:
329,192,27167,128,0,27272:0:0:0:0:
182,192,27167,128,0,27482:0:0:0:0:
109,192,27167,128,0,27272:0:0:0:0:
329,192,27482,128,0,28006:0:0:0:0:
256,192,27482,128,0,27692:0:0:0:0:
36,192,27482,128,0,27587:0:0:0:0:
109,192,27482,128,0,27587:0:0:0:0:
475,192,27692,128,0,27797:0:0:0:0:
109,192,27692,128,0,27797:0:0:0:0:
36,192,27692,128,0,28321:0:0:0:0:
182,192,27692,128,0,28006:0:0:0:0:
109,192,28006,128,0,28531:0:0:0:0:
402,192,28006,128,0,28321:0:0:0:0:
475,192,28006,128,0,28111:0:0:0:0:
256,192,28006,128,0,28111:0:0:0:0:
182,192,28321,128,0,28846:0:0:0:0:
329,192,28321,128,0,28426:0:0:0:0:
475,192,28321,128,0,28426:0:0:0:0:
256,192,28321,128,0,28531:0:0:0:0:
402,192,28531,128,0,29160:0:0:0:0:
475,192,28531,128,0,28846:0:0:0:0:
329,192,28531,128,0,28636:0:0:0:0:
36,192,28531,128,0,28636:0:0:0:0:
329,192,28846,128,0,29370:0:0:0:0:
109,192,28846,128,0,29160:0:0:0:0:
36,192,28846,128,0,28951:0:0:0:0:
256,192,28846,128,0,28951:0:0:0:0:
256,192,29160,128,0,29685:0:0:0:0:
36,192,29160,128,0,29370:0:0:0:0:
182,192,29160,128,0,29265:0:0:0:0:
475,192,29160,128,0,29265:0:0:0:0:
109,192,29370,128,0,30000:0:0:0:0:
182,192,29370,128,0,29475:0:0:0:0:
475,192,29370,128,0,29685:0:0:0:0:
402,192,29370,128,0,29475:0:0:0:0:
182,192,29685,128,0,30209:0:0:0:0:
36,192,29685,128,0,29790:0:0:0:0:
329,192,29685,128,0,29790:0:0:0:0:
402,192,29685,128,0,30000:0:0:0:0:
256,192,30000,128,0,30524:0:0:0:0:
36,192,30000,128,0,30209:0:0:0:0:
329,192,30000,128,0,30104:0:0:0:0:
475,192,30000,128,0,30104:0:0:0:0:
475,192,30209,128,0,30839:0:0:0:0:
402,192,30209,128,0,30314:0:0:0:0:
329,192,30209,128,0,30314:0:0:0:0:
109,192,30209,128,0,30524:0:0:0:0:
402,192,30524,128,0,31048:0:0:0:0:
329,192,30524,128,0,30629:0:0:0:0:
182,192,30524,128,0,30839:0:0:0:0:
36,192,30524,128,0,30629:0:0:0:0:
329,192,30839,128,0,31363:0:0:0:0:
109,192,30839,128,0,31048:0:0:0:0:
36,192,30839,128,0,30944:0:0:0:0:
256,192,30839,128,0,30944:0:0:0:0:
182,192,31048,128,0,31678:0:0:0:0:
256,192,31048,128,0,31363:0:0:0:0:
36,192,31048,128,0,31153:0:0:0:0:
475,192,31048,128,0,31153:0:0:0:0:
109,192,31363,128,0,31888:0:0:0:0:
36,192,31363,128,0,31468:0:0:0:0:
402,192,31363,128,0,31468:0:0:0:0:
475,192,31363,128,0,31678:0:0:0:0:
36,192,31678,128,0,32202:0:0:0:0:
256,192,31678,128,0,31888:0:0:0:0:
402,192,31678,128,0,31783:0:0:0:0:
329,192,31678,128,0,31783:0:0:0:0:
329,192,31888,128,0,32517:0:0:0:0:
182,192,31888,128,0,32202:0:0:0:0:
402,192,31888,128,0,31993:0:0:0:0:
475,192,31888,128,0,31993:0:0:0:0:
402,192,32202,128,0,32727:0:0:0:0:
256,192,32202,128,0,32517:0:0:0:0:
109,192,32202,128,0,32307:0:0:0:0:
475,192,32202,128,0,32307:0:0:0:0:
475,192,32517,128,0,33041:0:0:0:0:
182,192,32517,128,0,32727:0:0:0:0:
109,192,32517,128,0,32622:0:0:0:0:
36,192,32517,128,0,32622:0:0:0:0:
36,192,32727,128,0,33356:0:0:0:0:
109,192,32727,128,0,32832:0:0:0:0:
256,192,32727,128,0,33041:0:0:0:0:
329,192,32727,128,0,32832:0:0:0:0:
109,192,33041,128,0,33566:0:0:0:0:
182,192,33041,128,0,33146:0:0:0:0:
329,192,33041,128,0,33356:0:0:0:0:
402,192,33041,128,0,33146:0:0:0:0:
182,192,33356,128,0,33566:0:0:0:0:
256,192,33356,128,0,33461:0:0:0:0:
475,192,33356,128,0,33566:0:0:0:0:
402,192,33356,128,0,33461:0:0:0:0:
329,192,33566,1,0,0:0:0:0:
402,192,33566,1,0,0:0:0:0:
329,192,33881,1,0,0:0:0:0:
402,192,33881,1,0,0:0:0:0:
36,192,33986,1,0,0:0:0:0:
109,192,33986,1,0,0:0:0:0:
36,192,34090,1,0,0:0:0:0:
109,192,34090,1,0,0:0:0:0:
402,192,34195,1,0,0:0:0:0:
329,192,34300,1,0,0:0:0:0:
256,192,34405,128,0,34457:0:0:0:0:
36,192,34405,128,0,34457:0:0:0:0:
109,192,34405,1,0,0:0:0:0:
256,192,34509,128,0,34562:0:0:0:0:
36,192,34509,128,0,34562:0:0:0:0:
402,192,34719,128,0,34772:0:0:0:0:
182,192,34719,128,0,34772:0:0:0:0:
475,192,34719,1,0,0:0:0:0:
402,192,34929,128,0,34981:0:0:0:0:
182,192,34929,128,0,34981:0:0:0:0:
329,192,34929,1,0,0:0:0:0:
402,192,35034,128,0,35086:0:0:0:0:
182,192,35034,128,0,35086:0:0:0:0:
256,192,35034,1,0,0:0:0:0:
256,192,35244,128,0,35296:0:0:0:0:
109,192,35244,1,0,0:0:0:0:
36,192,35244,128,0,35296:0:0:0:0:
256,192,35349,128,0,35401:0:0:0:0:
36,192,35349,128,0,35401:0:0:0:0:
402,192,35558,128,0,35611:0:0:0:0:
182,192,35558,128,0,35611:0:0:0:0:
329,192,35558,1,0,0:0:0:0:
36,192,36083,128,0,36135:0:0:0:0:
256,192,36083,128,0,36135:0:0:0:0:
109,192,36083,1,0,0:0:0:0:
256,192,36188,128,0,36240:0:0:0:0:
36,192,36188,128,0,36240:0:0:0:0:
402,192,36398,128,0,36450:0:0:0:0:
182,192,36398,128,0,36450:0:0:0:0:
475,192,36398,1,0,0:0:0:0:
182,192,36607,128,0,36660:0:0:0:0:
402,192,36607,128,0,36660:0:0:0:0:
329,192,36607,1,0,0:0:0:0:
182,192,36712,128,0,36765:0:0:0:0:
402,192,36712,128,0,36765:0:0:0:0:
256,192,36712,1,0,0:0:0:0:
256,192,36922,128,0,36974:0:0:0:0:
109,192,36922,128,0,36974:0:0:0:0:
36,192,36922,1,0,0:0:0:0:
109,192,37027,128,0,37079:0:0:0:0:
256,192,37027,128,0,37079:0:0:0:0:
36,192,37237,128,0,37289:0:0:0:0:
402,192,37237,128,0,37289:0:0:0:0:
475,192,37237,1,0,0:0:0:0:
402,192,37446,128,0,37499:0:0:0:0:
36,192,37446,128,0,37499:0:0:0:0:
182,192,37446,1,0,0:0:0:0:
402,192,37551,128,0,37604:0:0:0:0:
36,192,37551,128,0,37604:0:0:0:0:
256,192,37551,1,0,0:0:0:0:
182,192,37761,128,0,37814:0:0:0:0:
329,192,37761,128,0,37814:0:0:0:0:
36,192,37761,1,0,0:0:0:0:
182,192,37866,128,0,37918:0:0:0:0:
329,192,37866,128,0,37918:0:0:0:0:
109,192,38076,128,0,38128:0:0:0:0:
475,192,38076,128,0,38128:0:0:0:0:
402,192,38076,1,0,0:0:0:0:
475,192,38286,128,0,38338:0:0:0:0:
109,192,38286,128,0,38338:0:0:0:0:
256,192,38286,1,0,0:0:0:0:
109,192,38391,128,0,38600:0:0:0:0:
475,192,38391,128,0,38600:0:0:0:0:
329,192,38391,1,0,0:0:0:0:
256,192,38600,128,0,38653:0:0:0:0:
36,192,38600,128,0,38653:0:0:0:0:
402,192,38600,1,0,0:0:0:0:
36,192,38705,128,0,38758:0:0:0:0:
256,192,38705,128,0,38758:0:0:0:0:
402,192,38705,1,0,0:0:0:0:
256,192,38810,128,0,38863:0:0:0:0:
36,192,38810,128,0,38863:0:0:0:0:
402,192,38810,1,0,0:0:0:0:
475,192,38915,128,0,38967:0:0:0:0:
109,192,38915,128,0,38967:0:0:0:0:
329,192,38915,1,0,0:0:0:0:
36,192,39125,1,0,0:0:0:0:
182,192,39125,1,0,0:0:0:0:
329,192,39230,1,0,0:0:0:0:
475,192,39230,1,0,0:0:0:0:
256,192,39230,1,0,0:0:0:0:
402,192,39439,128,0,39492:0:0:0:0:
182,192,39439,128,0,39492:0:0:0:0:
109,192,39439,1,0,0:0:0:0:
402,192,39544,128,0,39597:0:0:0:0:
182,192,39544,128,0,39597:0:0:0:0:
329,192,39754,128,0,39807:0:0:0:0:
475,192,39754,128,0,39807:0:0:0:0:
36,192,39754,1,0,0:0:0:0:
256,192,39964,128,0,40016:0:0:0:0:
109,192,39964,128,0,40016:0:0:0:0:
402,192,39964,1,0,0:0:0:0:
109,192,40069,128,0,40121:0:0:0:0:
256,192,40069,128,0,40121:0:0:0:0:
329,192,40069,1,0,0:0:0:0:
36,192,40279,128,0,40331:0:0:0:0:
256,192,40279,128,0,40331:0:0:0:0:
182,192,40279,1,0,0:0:0:0:
256,192,40384,128,0,40436:0:0:0:0:
36,192,40384,128,0,40436:0:0:0:0:
475,192,40384,1,0,0:0:0:0:
182,192,40593,128,0,40646:0:0:0:0:
402,192,40593,128,0,40646:0:0:0:0:
109,192,40593,1,0,0:0:0:0:
329,192,40803,1,0,0:0:0:0:
475,192,40803,1,0,0:0:0:0:
256,192,40908,1,0,0:0:0:0:
182,192,40908,1,0,0:0:0:0:
36,192,40908,1,0,0:0:0:0:
329,192,41118,128,0,41170:0:0:0:0:
109,192,41118,1,0,0:0:0:0:
182,192,41118,1,0,0:0:0:0:
402,192,41223,128,0,41275:0:0:0:0:
109,192,41223,1,0,0:0:0:0:
256,192,41223,1,0,0:0:0:0:
402,192,41432,128,0,41485:0:0:0:0:
36,192,41432,1,0,0:0:0:0:
256,192,41432,1,0,0:0:0:0:
402,192,41642,128,0,41695:0:0:0:0:
109,192,41642,1,0,0:0:0:0:
182,192,41642,1,0,0:0:0:0:
329,192,41747,128,0,41800:0:0:0:0:
36,192,41747,1,0,0:0:0:0:
182,192,41747,1,0,0:0:0:0:
256,192,41852,128,0,41905:0:0:0:0:
182,192,41957,128,0,42009:0:0:0:0:
402,192,41957,1,0,0:0:0:0:
475,192,41957,1,0,0:0:0:0:
109,192,42062,128,0,42114:0:0:0:0:
402,192,42062,1,0,0:0:0:0:
256,192,42062,1,0,0:0:0:0:
109,192,42272,128,0,42324:0:0:0:0:
36,192,42272,1,0,0:0:0:0:
329,192,42272,1,0,0:0:0:0:
109,192,42481,128,0,42534:0:0:0:0:
329,192,42481,1,0,0:0:0:0:
475,192,42481,1,0,0:0:0:0:
182,192,42586,128,0,42639:0:0:0:0:
402,192,42586,1,0,0:0:0:0:
475,192,42586,1,0,0:0:0:0:
256,192,42691,128,0,42744:0:0:0:0:
329,192,42796,128,0,42849:0:0:0:0:
36,192,42796,1,0,0:0:0:0:
109,192,42796,1,0,0:0:0:0:
475,192,42901,128,0,42953:0:0:0:0:
182,192,42901,1,0,0:0:0:0:
36,192,42901,1,0,0:0:0:0:
475,192,43111,128,0,43163:0:0:0:0:
109,192,43111,1,0,0:0:0:0:
256,192,43111,1,0,0:0:0:0:
475,192,43321,128,0,43373:0:0:0:0:
256,192,43321,1,0,0:0:0:0:
182,192,43321,1,0,0:0:0:0:
329,192,43425,128,0,43478:0:0:0:0:
182,192,43425,1,0,0:0:0:0:
36,192,43425,1,0,0:0:0:0:
256,192,43530,128,0,43583:0:0:0:0:
182,192,43635,128,0,43688:0:0:0:0:
329,192,43635,1,0,0:0:0:0:
402,192,43635,1,0,0:0:0:0:
36,192,43740,128,0,43793:0:0:0:0:
329,192,43740,1,0,0:0:0:0:
475,192,43740,1,0,0:0:0:0:
36,192,43950,128,0,44002:0:0:0:0:
256,192,43950,1,0,0:0:0:0:
402,192,43950,1,0,0:0:0:0:
36,192,44160,128,0,44212:0:0:0:0:
256,192,44160,1,0,0:0:0:0:
402,192,44160,1,0,0:0:0:0:
182,192,44265,128,0,44317:0:0:0:0:
402,192,44265,1,0,0:0:0:0:
475,192,44265,1,0,0:0:0:0:
256,192,44370,128,0,44422:0:0:0:0:
36,192,44370,1,0,0:0:0:0:
402,192,44474,128,0,44527:0:0:0:0:
329,192,44474,1,0,0:0:0:0:
109,192,44474,1,0,0:0:0:0:
475,192,44579,128,0,44632:0:0:0:0:
329,192,44579,1,0,0:0:0:0:
182,192,44579,1,0,0:0:0:0:
475,192,44789,128,0,44842:0:0:0:0:
256,192,44789,1,0,0:0:0:0:
36,192,44789,1,0,0:0:0:0:
475,192,44999,128,0,45051:0:0:0:0:
36,192,44999,1,0,0:0:0:0:
182,192,44999,1,0,0:0:0:0:
402,192,45104,128,0,45156:0:0:0:0:
109,192,45104,1,0,0:0:0:0:
182,192,45104,1,0,0:0:0:0:
256,192,45209,128,0,45261:0:0:0:0:
109,192,45314,128,0,45366:0:0:0:0:
329,192,45314,1,0,0:0:0:0:
475,192,45314,1,0,0:0:0:0:
36,192,45418,128,0,45471:0:0:0:0:
402,192,45418,1,0,0:0:0:0:
475,192,45418,1,0,0:0:0:0:
36,192,45628,128,0,45681:0:0:0:0:
182,192,45628,1,0,0:0:0:0:
402,192,45628,1,0,0:0:0:0:
36,192,45838,128,0,45891:0:0:0:0:
182,192,45838,1,0,0:0:0:0:
329,192,45838,1,0,0:0:0:0:
109,192,45943,128,0,45995:0:0:0:0:
329,192,45943,1,0,0:0:0:0:
402,192,45943,1,0,0:0:0:0:
256,192,46048,128,0,46100:0:0:0:0:
329,192,46153,128,0,46205:0:0:0:0:
182,192,46153,1,0,0:0:0:0:
36,192,46153,128,0,47831:0:0:0:0:
475,192,46153,128,0,47831:0:0:0:0:
109,192,46153,1,0,0:0:0:0:
402,192,46258,128,0,46310:0:0:0:0:
109,192,46258,1,0,0:0:0:0:
256,192,46258,1,0,0:0:0:0:
402,192,46467,128,0,46520:0:0:0:0:
182,192,46467,1,0,0:0:0:0:
329,192,46467,1,0,0:0:0:0:
402,192,46677,128,0,46730:0:0:0:0:
256,192,46677,1,0,0:0:0:0:
182,192,46677,1,0,0:0:0:0:
329,192,46782,128,0,46835:0:0:0:0:
109,192,46782,1,0,0:0:0:0:
182,192,46782,1,0,0:0:0:0:
256,192,46887,128,0,46939:0:0:0:0:
109,192,46887,1,0,0:0:0:0:
402,192,46887,1,0,0:0:0:0:
402,192,46992,1,0,0:0:0:0:
329,192,46992,1,0,0:0:0:0:
182,192,46992,128,0,47044:0:0:0:0:
329,192,47097,1,0,0:0:0:0:
256,192,47097,1,0,0:0:0:0:
109,192,47097,128,0,47149:0:0:0:0:
109,192,47202,1,0,0:0:0:0:
182,192,47202,128,0,47254:0:0:0:0:
402,192,47202,1,0,0:0:0:0:
182,192,47307,1,0,0:0:0:0:
256,192,47307,1,0,0:0:0:0:
329,192,47307,128,0,47359:0:0:0:0:
256,192,47411,1,0,0:0:0:0:
402,192,47411,1,0,0:0:0:0:
109,192,47411,128,0,47464:0:0:0:0:
182,192,47516,1,0,0:0:0:0:
329,192,47516,1,0,0:0:0:0:
402,192,47516,128,0,47569:0:0:0:0:
256,192,47621,1,0,0:0:0:0:
109,192,47621,1,0,0:0:0:0:
329,192,47621,128,0,47674:0:0:0:0:
182,192,47726,1,0,0:0:0:0:
402,192,47726,1,0,0:0:0:0:
109,192,47726,128,0,47779:0:0:0:0:
329,192,47831,1,0,0:0:0:0:
256,192,47831,128,0,48670:0:0:0:0:
182,192,48670,128,0,49509:0:0:0:0:
402,192,48670,1,0,0:0:0:0:
109,192,49509,128,0,50349:0:0:0:0:
329,192,49509,128,0,50349:0:0:0:0:
256,192,49509,1,0,0:0:0:0:
256,192,50349,128,0,51188:0:0:0:0:
36,192,50349,128,0,52027:0:0:0:0:
475,192,50349,1,0,0:0:0:0:
329,192,51188,128,0,52866:0:0:0:0:
475,192,51188,128,0,52027:0:0:0:0:
109,192,51188,1,0,0:0:0:0:
402,192,52027,128,0,53705:0:0:0:0:
109,192,52027,128,0,52866:0:0:0:0:
182,192,52027,1,0,0:0:0:0:
256,192,52866,128,0,54544:0:0:0:0:
36,192,52866,128,0,53705:0:0:0:0:
475,192,52866,1,0,0:0:0:0:
329,192,53705,128,0,54544:0:0:0:0:
109,192,53705,128,0,54544:0:0:0:0:
182,192,53705,1,0,0:0:0:0:
402,192,54544,1,0,0:0:0:0:
36,192,54544,128,0,57062:0:0:0:0:
402,192,54649,1,0,0:0:0:0:
402,192,54859,1,0,0:0:0:0:
402,192,55069,1,0,0:0:0:0:
402,192,55174,1,0,0:0:0:0:
329,192,55384,1,0,0:0:0:0:
329,192,55488,1,0,0:0:0:0:
329,192,55698,1,0,0:0:0:0:
329,192,55908,1,0,0:0:0:0:
329,192,56013,1,0,0:0:0:0:
329,192,56223,1,0,0:0:0:0:
329,192,56328,1,0,0:0:0:0:
329,192,56537,1,0,0:0:0:0:
329,192,56747,1,0,0:0:0:0:
329,192,56852,1,0,0:0:0:0:
256,192,57062,1,0,0:0:0:0:
109,192,57062,128,0,57901:0:0:0:0:
256,192,57167,1,0,0:0:0:0:
256,192,57377,1,0,0:0:0:0:
256,192,57586,1,0,0:0:0:0:
256,192,57691,1,0,0:0:0:0:
182,192,57901,1,0,0:0:0:0:
329,192,57901,128,0,60418:0:0:0:0:
182,192,58006,1,0,0:0:0:0:
182,192,58216,1,0,0:0:0:0:
182,192,58425,1,0,0:0:0:0:
182,192,58530,1,0,0:0:0:0:
109,192,58740,1,0,0:0:0:0:
109,192,58845,1,0,0:0:0:0:
109,192,59055,1,0,0:0:0:0:
109,192,59265,1,0,0:0:0:0:
109,192,59370,1,0,0:0:0:0:
36,192,59579,1,0,0:0:0:0:
36,192,59684,1,0,0:0:0:0:
36,192,59894,1,0,0:0:0:0:
36,192,60104,1,0,0:0:0:0:
36,192,60209,1,0,0:0:0:0:
182,192,60418,1,0,0:0:0:0:
475,192,60418,128,0,61258:0:0:0:0:
182,192,60523,1,0,0:0:0:0:
182,192,60733,1,0,0:0:0:0:
182,192,60943,1,0,0:0:0:0:
182,192,61048,1,0,0:0:0:0:
36,192,61258,128,0,62936:0:0:0:0:
329,192,61258,128,0,62097:0:0:0:0:
256,192,61258,1,0,0:0:0:0:
402,192,61258,1,0,0:0:0:0:
109,192,61363,1,0,0:0:0:0:
182,192,61467,1,0,0:0:0:0:
256,192,61572,1,0,0:0:0:0:
402,192,61572,1,0,0:0:0:0:
109,192,61677,1,0,0:0:0:0:
182,192,61677,1,0,0:0:0:0:
402,192,61677,1,0,0:0:0:0:
475,192,61782,1,0,0:0:0:0:
256,192,61887,1,0,0:0:0:0:
182,192,61887,1,0,0:0:0:0:
256,192,62097,128,0,62936:0:0:0:0:
402,192,62097,1,0,0:0:0:0:
109,192,62097,1,0,0:0:0:0:
182,192,62202,1,0,0:0:0:0:
475,192,62307,1,0,0:0:0:0:
109,192,62411,1,0,0:0:0:0:
329,192,62411,1,0,0:0:0:0:
329,192,62516,1,0,0:0:0:0:
475,192,62516,1,0,0:0:0:0:
182,192,62516,1,0,0:0:0:0:
109,192,62621,1,0,0:0:0:0:
182,192,62726,1,0,0:0:0:0:
402,192,62726,1,0,0:0:0:0:
475,192,62936,128,0,64614:0:0:0:0:
182,192,62936,128,0,63775:0:0:0:0:
402,192,62936,1,0,0:0:0:0:
109,192,62936,1,0,0:0:0:0:
329,192,63041,1,0,0:0:0:0:
36,192,63146,1,0,0:0:0:0:
402,192,63251,1,0,0:0:0:0:
109,192,63251,1,0,0:0:0:0:
36,192,63356,1,0,0:0:0:0:
256,192,63356,1,0,0:0:0:0:
402,192,63356,1,0,0:0:0:0:
329,192,63460,1,0,0:0:0:0:
109,192,63565,1,0,0:0:0:0:
256,192,63565,1,0,0:0:0:0:
36,192,63775,128,0,64614:0:0:0:0:
109,192,63775,1,0,0:0:0:0:
402,192,63775,1,0,0:0:0:0:
256,192,63880,1,0,0:0:0:0:
329,192,63985,1,0,0:0:0:0:
182,192,64090,1,0,0:0:0:0:
109,192,64090,1,0,0:0:0:0:
182,192,64195,1,0,0:0:0:0:
402,192,64195,1,0,0:0:0:0:
256,192,64195,1,0,0:0:0:0:
329,192,64300,1,0,0:0:0:0:
109,192,64405,1,0,0:0:0:0:
256,192,64405,1,0,0:0:0:0:
109,192,64614,128,0,66293:0:0:0:0:
329,192,64614,128,0,65453:0:0:0:0:
182,192,64614,1,0,0:0:0:0:
402,192,64614,1,0,0:0:0:0:
256,192,64719,1,0,0:0:0:0:
36,192,64824,1,0,0:0:0:0:
182,192,64929,1,0,0:0:0:0:
402,192,64929,1,0,0:0:0:0:
402,192,65034,1,0,0:0:0:0:
475,192,65034,1,0,0:0:0:0:
256,192,65034,1,0,0:0:0:0:
36,192,65139,1,0,0:0:0:0:
475,192,65244,1,0,0:0:0:0:
182,192,65244,1,0,0:0:0:0:
256,192,65453,128,0,66293:0:0:0:0:
36,192,65453,1,0,0:0:0:0:
475,192,65453,1,0,0:0:0:0:
402,192,65558,1,0,0:0:0:0:
182,192,65663,1,0,0:0:0:0:
36,192,65768,1,0,0:0:0:0:
329,192,65768,1,0,0:0:0:0:
182,192,65873,1,0,0:0:0:0:
475,192,65873,1,0,0:0:0:0:
329,192,65873,1,0,0:0:0:0:
402,192,65978,1,0,0:0:0:0:
36,192,66083,1,0,0:0:0:0:
475,192,66083,1,0,0:0:0:0:
329,192,66293,128,0,67971:0:0:0:0:
182,192,66293,128,0,66607:0:0:0:0:
36,192,66293,1,0,0:0:0:0:
402,192,66293,1,0,0:0:0:0:
256,192,66398,1,0,0:0:0:0:
36,192,66502,1,0,0:0:0:0:
109,192,66607,128,0,66922:0:0:0:0:
256,192,66607,1,0,0:0:0:0:
475,192,66607,1,0,0:0:0:0:
256,192,66712,1,0,0:0:0:0:
402,192,66712,1,0,0:0:0:0:
36,192,66712,1,0,0:0:0:0:
182,192,66817,1,0,0:0:0:0:
36,192,66922,128,0,67132:0:0:0:0:
475,192,66922,1,0,0:0:0:0:
256,192,66922,1,0,0:0:0:0:
475,192,67132,128,0,67971:0:0:0:0:
182,192,67132,1,0,0:0:0:0:
402,192,67132,1,0,0:0:0:0:
109,192,67237,1,0,0:0:0:0:
402,192,67342,1,0,0:0:0:0:
36,192,67446,1,0,0:0:0:0:
256,192,67446,1,0,0:0:0:0:
109,192,67551,1,0,0:0:0:0:
182,192,67656,1,0,0:0:0:0:
402,192,67656,1,0,0:0:0:0:
182,192,67761,1,0,0:0:0:0:
36,192,67761,1,0,0:0:0:0:
256,192,67761,1,0,0:0:0:0:
36,192,67971,128,0,69649:0:0:0:0:
182,192,67971,128,0,68810:0:0:0:0:
402,192,67971,128,0,68810:0:0:0:0:
109,192,67971,1,0,0:0:0:0:
256,192,67971,1,0,0:0:0:0:
329,192,68076,1,0,0:0:0:0:
475,192,68181,1,0,0:0:0:0:
109,192,68286,1,0,0:0:0:0:
329,192,68286,1,0,0:0:0:0:
109,192,68391,1,0,0:0:0:0:
256,192,68391,1,0,0:0:0:0:
475,192,68391,1,0,0:0:0:0:
329,192,68495,1,0,0:0:0:0:
109,192,68600,1,0,0:0:0:0:
256,192,68600,1,0,0:0:0:0:
329,192,68810,128,0,69649:0:0:0:0:
109,192,68810,128,0,70488:0:0:0:0:
256,192,68810,1,0,0:0:0:0:
475,192,68810,1,0,0:0:0:0:
402,192,68915,1,0,0:0:0:0:
182,192,69020,1,0,0:0:0:0:
475,192,69125,1,0,0:0:0:0:
256,192,69125,1,0,0:0:0:0:
402,192,69230,1,0,0:0:0:0:
256,192,69230,1,0,0:0:0:0:
182,192,69230,1,0,0:0:0:0:
475,192,69335,1,0,0:0:0:0:
402,192,69439,1,0,0:0:0:0:
256,192,69439,1,0,0:0:0:0:
475,192,69649,128,0,71328:0:0:0:0:
256,192,69649,128,0,70488:0:0:0:0:
182,192,69649,1,0,0:0:0:0:
402,192,69649,1,0,0:0:0:0:
329,192,69754,1,0,0:0:0:0:
36,192,69859,1,0,0:0:0:0:
182,192,69964,1,0,0:0:0:0:
329,192,69964,1,0,0:0:0:0:
36,192,70069,1,0,0:0:0:0:
182,192,70069,1,0,0:0:0:0:
402,192,70069,1,0,0:0:0:0:
329,192,70174,1,0,0:0:0:0:
402,192,70279,1,0,0:0:0:0:
36,192,70279,1,0,0:0:0:0:
329,192,70488,128,0,72167:0:0:0:0:
36,192,70488,128,0,71328:0:0:0:0:
182,192,70488,1,0,0:0:0:0:
402,192,70488,1,0,0:0:0:0:
256,192,70593,1,0,0:0:0:0:
109,192,70698,1,0,0:0:0:0:
182,192,70803,1,0,0:0:0:0:
256,192,70803,1,0,0:0:0:0:
109,192,70908,1,0,0:0:0:0:
182,192,70908,1,0,0:0:0:0:
402,192,70908,1,0,0:0:0:0:
256,192,71013,1,0,0:0:0:0:
402,192,71118,1,0,0:0:0:0:
109,192,71118,1,0,0:0:0:0:
182,192,71328,128,0,72167:0:0:0:0:
402,192,71328,128,0,73006:0:0:0:0:
109,192,71328,1,0,0:0:0:0:
256,192,71328,1,0,0:0:0:0:
36,192,71432,1,0,0:0:0:0:
475,192,71537,1,0,0:0:0:0:
256,192,71642,1,0,0:0:0:0:
109,192,71642,1,0,0:0:0:0:
36,192,71747,1,0,0:0:0:0:
109,192,71747,1,0,0:0:0:0:
475,192,71747,1,0,0:0:0:0:
256,192,71852,1,0,0:0:0:0:
109,192,71957,1,0,0:0:0:0:
475,192,71957,1,0,0:0:0:0:
36,192,72167,128,0,73845:0:0:0:0:
109,192,72167,128,0,73006:0:0:0:0:
256,192,72167,1,0,0:0:0:0:
475,192,72167,1,0,0:0:0:0:
182,192,72272,1,0,0:0:0:0:
475,192,72377,1,0,0:0:0:0:
256,192,72481,1,0,0:0:0:0:
329,192,72481,1,0,0:0:0:0:
182,192,72586,1,0,0:0:0:0:
256,192,72586,1,0,0:0:0:0:
475,192,72586,1,0,0:0:0:0:
329,192,72691,1,0,0:0:0:0:
182,192,72796,1,0,0:0:0:0:
475,192,72796,1,0,0:0:0:0:
256,192,73006,128,0,73845:0:0:0:0:
475,192,73006,128,0,73845:0:0:0:0:
182,192,73006,1,0,0:0:0:0:
329,192,73006,1,0,0:0:0:0:
402,192,73111,1,0,0:0:0:0:
109,192,73216,1,0,0:0:0:0:
182,192,73321,1,0,0:0:0:0:
329,192,73321,1,0,0:0:0:0:
329,192,73425,1,0,0:0:0:0:
402,192,73425,1,0,0:0:0:0:
109,192,73425,1,0,0:0:0:0:
182,192,73530,1,0,0:0:0:0:
109,192,73635,1,0,0:0:0:0:
329,192,73635,1,0,0:0:0:0:
182,192,73845,1,0,0:0:0:0:
329,192,73845,1,0,0:0:0:0:
402,192,73845,1,0,0:0:0:0:
109,192,73950,1,0,0:0:0:0:
402,192,73950,1,0,0:0:0:0:
256,192,73950,1,0,0:0:0:0:
182,192,74055,1,0,0:0:0:0:
329,192,74055,1,0,0:0:0:0:
402,192,74055,1,0,0:0:0:0:
109,192,74160,1,0,0:0:0:0:
256,192,74160,1,0,0:0:0:0:
402,192,74160,1,0,0:0:0:0:
36,192,74265,1,0,0:0:0:0:
182,192,74265,1,0,0:0:0:0:
475,192,74265,1,0,0:0:0:0:
36,192,74370,1,0,0:0:0:0:
256,192,74370,1,0,0:0:0:0:
402,192,74370,1,0,0:0:0:0:
36,192,74474,1,0,0:0:0:0:
475,192,74474,1,0,0:0:0:0:
182,192,74474,1,0,0:0:0:0:
36,192,74579,1,0,0:0:0:0:
256,192,74579,1,0,0:0:0:0:
402,192,74579,1,0,0:0:0:0:
475,192,76363,1,0,0:0:0:0:
36,192,76363,1,0,0:0:0:0:
182,192,76467,1,0,0:0:0:0:
329,192,76467,1,0,0:0:0:0:
402,192,76572,1,0,0:0:0:0:
109,192,76572,1,0,0:0:0:0:
36,192,76677,1,0,0:0:0:0:
475,192,76677,1,0,0:0:0:0:
109,192,76782,1,0,0:0:0:0:
402,192,76782,1,0,0:0:0:0:
182,192,76887,1,0,0:0:0:0:
329,192,76887,1,0,0:0:0:0:
475,192,76992,1,0,0:0:0:0:
36,192,76992,1,0,0:0:0:0:
182,192,77097,1,0,0:0:0:0:
329,192,77097,1,0,0:0:0:0:
402,192,77202,1,0,0:0:0:0:
109,192,77202,1,0,0:0:0:0:
182,192,77307,1,0,0:0:0:0:
329,192,77307,1,0,0:0:0:0:
36,192,77411,1,0,0:0:0:0:
475,192,77411,1,0,0:0:0:0:
109,192,77516,1,0,0:0:0:0:
402,192,77516,1,0,0:0:0:0:
182,192,77621,1,0,0:0:0:0:
329,192,77621,1,0,0:0:0:0:
109,192,77726,1,0,0:0:0:0:
402,192,77726,1,0,0:0:0:0:
36,192,77831,1,0,0:0:0:0:
475,192,77831,1,0,0:0:0:0:
329,192,77936,1,0,0:0:0:0:
182,192,77936,1,0,0:0:0:0:
182,192,79719,1,0,0:0:0:0:
475,192,79719,1,0,0:0:0:0:
36,192,79824,1,0,0:0:0:0:
329,192,79824,1,0,0:0:0:0:
109,192,79929,1,0,0:0:0:0:
402,192,79929,1,0,0:0:0:0:
36,192,80034,1,0,0:0:0:0:
329,192,80034,1,0,0:0:0:0:
182,192,80139,1,0,0:0:0:0:
475,192,80139,1,0,0:0:0:0:
109,192,80244,1,0,0:0:0:0:
402,192,80244,1,0,0:0:0:0:
36,192,80349,1,0,0:0:0:0:
329,192,80349,1,0,0:0:0:0:
182,192,80453,1,0,0:0:0:0:
475,192,80453,1,0,0:0:0:0:
36,192,80558,1,0,0:0:0:0:
329,192,80558,1,0,0:0:0:0:
109,192,80663,1,0,0:0:0:0:
402,192,80663,1,0,0:0:0:0:
36,192,80768,1,0,0:0:0:0:
329,192,80768,1,0,0:0:0:0:
182,192,80873,1,0,0:0:0:0:
475,192,80873,1,0,0:0:0:0:
109,192,80978,1,0,0:0:0:0:
402,192,80978,1,0,0:0:0:0:
36,192,81083,1,0,0:0:0:0:
329,192,81083,1,0,0:0:0:0:
182,192,81188,1,0,0:0:0:0:
475,192,81188,1,0,0:0:0:0:
36,192,81293,1,0,0:0:0:0:
329,192,81293,1,0,0:0:0:0:
256,192,83076,1,0,0:0:0:0:
475,192,83076,1,0,0:0:0:0:
109,192,83181,1,0,0:0:0:0:
329,192,83181,1,0,0:0:0:0:
182,192,83286,1,0,0:0:0:0:
402,192,83286,1,0,0:0:0:0:
36,192,83391,1,0,0:0:0:0:
256,192,83391,1,0,0:0:0:0:
182,192,83495,1,0,0:0:0:0:
402,192,83495,1,0,0:0:0:0:
109,192,83600,1,0,0:0:0:0:
329,192,83600,1,0,0:0:0:0:
256,192,83705,1,0,0:0:0:0:
475,192,83705,1,0,0:0:0:0:
109,192,83810,1,0,0:0:0:0:
329,192,83810,1,0,0:0:0:0:
182,192,83915,1,0,0:0:0:0:
402,192,83915,1,0,0:0:0:0:
36,192,84020,1,0,0:0:0:0:
256,192,84020,1,0,0:0:0:0:
109,192,84125,1,0,0:0:0:0:
329,192,84125,1,0,0:0:0:0:
256,192,84230,1,0,0:0:0:0:
475,192,84230,1,0,0:0:0:0:
109,192,84335,1,0,0:0:0:0:
329,192,84335,1,0,0:0:0:0:
182,192,84439,1,0,0:0:0:0:
402,192,84439,1,0,0:0:0:0:
36,192,84544,1,0,0:0:0:0:
256,192,84544,1,0,0:0:0:0:
109,192,84649,1,0,0:0:0:0:
329,192,84649,1,0,0:0:0:0:
475,192,86432,1,0,0:0:0:0:
109,192,86432,1,0,0:0:0:0:
402,192,86537,1,0,0:0:0:0:
182,192,86537,1,0,0:0:0:0:
256,192,86642,1,0,0:0:0:0:
36,192,86642,1,0,0:0:0:0:
109,192,86747,1,0,0:0:0:0:
329,192,86747,1,0,0:0:0:0:
182,192,86852,1,0,0:0:0:0:
475,192,86852,1,0,0:0:0:0:
36,192,86957,1,0,0:0:0:0:
402,192,86957,1,0,0:0:0:0:
182,192,87062,1,0,0:0:0:0:
329,192,87062,1,0,0:0:0:0:
109,192,87167,1,0,0:0:0:0:
475,192,87167,1,0,0:0:0:0:
256,192,87272,1,0,0:0:0:0:
402,192,87272,1,0,0:0:0:0:
36,192,87377,1,0,0:0:0:0:
329,192,87377,1,0,0:0:0:0:
182,192,87481,1,0,0:0:0:0:
475,192,87481,1,0,0:0:0:0:
109,192,87586,1,0,0:0:0:0:
402,192,87586,1,0,0:0:0:0:
36,192,87691,1,0,0:0:0:0:
256,192,87691,1,0,0:0:0:0:
182,192,87796,1,0,0:0:0:0:
475,192,87796,1,0,0:0:0:0:
109,192,87901,1,0,0:0:0:0:
402,192,87901,1,0,0:0:0:0:
182,192,88006,1,0,0:0:0:0:
329,192,88006,1,0,0:0:0:0:
109,192,88111,128,0,88216:0:0:0:0:
402,192,88111,128,0,88216:0:0:0:0:
182,192,88216,128,0,88268:0:0:0:0:
475,192,88216,128,0,88268:0:0:0:0:
182,192,88425,128,0,88478:0:0:0:0:
475,192,88425,128,0,88478:0:0:0:0:
36,192,88740,1,0,0:0:0:0:
256,192,88740,1,0,0:0:0:0:
402,192,88740,1,0,0:0:0:0:
109,192,88950,128,0,89055:0:0:0:0:
329,192,88950,128,0,89055:0:0:0:0:
182,192,89055,128,0,89265:0:0:0:0:
402,192,89055,128,0,89265:0:0:0:0:
256,192,89265,128,0,89317:0:0:0:0:
36,192,89265,128,0,89317:0:0:0:0:
256,192,89579,1,0,0:0:0:0:
475,192,89579,1,0,0:0:0:0:
109,192,89579,1,0,0:0:0:0:
182,192,89789,128,0,89894:0:0:0:0:
329,192,89789,128,0,89894:0:0:0:0:
109,192,89894,128,0,89946:0:0:0:0:
402,192,89894,128,0,89946:0:0:0:0:
402,192,90104,128,0,90156:0:0:0:0:
109,192,90104,128,0,90156:0:0:0:0:
36,192,90418,1,0,0:0:0:0:
256,192,90418,1,0,0:0:0:0:
475,192,90418,1,0,0:0:0:0:
182,192,90628,128,0,90733:0:0:0:0:
402,192,90628,128,0,90733:0:0:0:0:
329,192,90733,128,0,90943:0:0:0:0:
109,192,90733,128,0,90943:0:0:0:0:
256,192,90943,128,0,90995:0:0:0:0:
475,192,90943,128,0,90995:0:0:0:0:
402,192,91153,1,0,0:0:0:0:
182,192,91153,1,0,0:0:0:0:
36,192,91153,1,0,0:0:0:0:
36,192,91258,128,0,91467:0:0:0:0:
256,192,91258,128,0,91467:0:0:0:0:
109,192,91467,128,0,91572:0:0:0:0:
329,192,91467,128,0,91572:0:0:0:0:
182,192,91572,128,0,91782:0:0:0:0:
402,192,91572,128,0,91782:0:0:0:0:
329,192,91782,128,0,91835:0:0:0:0:
109,192,91782,128,0,91835:0:0:0:0:
182,192,92097,1,0,0:0:0:0:
475,192,92097,1,0,0:0:0:0:
109,192,92097,1,0,0:0:0:0:
36,192,92307,128,0,92411:0:0:0:0:
256,192,92307,128,0,92411:0:0:0:0:
182,192,92411,128,0,92621:0:0:0:0:
402,192,92411,128,0,92621:0:0:0:0:
109,192,92621,128,0,92674:0:0:0:0:
329,192,92621,128,0,92674:0:0:0:0:
182,192,92936,1,0,0:0:0:0:
475,192,92936,1,0,0:0:0:0:
256,192,92936,1,0,0:0:0:0:
109,192,93146,128,0,93251:0:0:0:0:
329,192,93146,128,0,93251:0:0:0:0:
182,192,93251,128,0,93303:0:0:0:0:
475,192,93251,128,0,93303:0:0:0:0:
182,192,93460,128,0,93513:0:0:0:0:
475,192,93460,128,0,93513:0:0:0:0:
256,192,93775,1,0,0:0:0:0:
402,192,93775,1,0,0:0:0:0:
109,192,93775,1,0,0:0:0:0:
36,192,93985,128,0,94090:0:0:0:0:
329,192,93985,128,0,94090:0:0:0:0:
109,192,94090,128,0,94142:0:0:0:0:
402,192,94090,128,0,94142:0:0:0:0:
109,192,94195,128,0,94247:0:0:0:0:
402,192,94195,128,0,94247:0:0:0:0:
109,192,94300,128,0,94352:0:0:0:0:
402,192,94300,128,0,94352:0:0:0:0:
329,192,94509,1,0,0:0:0:0:
182,192,94509,1,0,0:0:0:0:
36,192,94509,1,0,0:0:0:0:
36,192,94614,128,0,94824:0:0:0:0:
256,192,94614,128,0,94824:0:0:0:0:
109,192,94824,128,0,94929:0:0:0:0:
402,192,94824,128,0,94929:0:0:0:0:
182,192,94929,128,0,94981:0:0:0:0:
475,192,94929,128,0,94981:0:0:0:0:
182,192,95139,128,0,95191:0:0:0:0:
475,192,95139,128,0,95191:0:0:0:0:
402,192,95349,1,0,0:0:0:0:
329,192,95349,1,0,0:0:0:0:
109,192,95349,1,0,0:0:0:0:
329,192,95453,128,0,95663:0:0:0:0:
36,192,95453,128,0,95663:0:0:0:0:
109,192,95663,128,0,95768:0:0:0:0:
256,192,95663,128,0,95768:0:0:0:0:
182,192,95768,128,0,95821:0:0:0:0:
329,192,95768,128,0,95821:0:0:0:0:
182,192,95978,128,0,96030:0:0:0:0:
329,192,95978,128,0,96030:0:0:0:0:
36,192,96188,1,0,0:0:0:0:
256,192,96188,1,0,0:0:0:0:
402,192,96188,1,0,0:0:0:0:
182,192,96293,128,0,96502:0:0:0:0:
402,192,96293,128,0,96502:0:0:0:0:
329,192,96502,128,0,96607:0:0:0:0:
109,192,96502,128,0,96607:0:0:0:0:
36,192,96607,128,0,96817:0:0:0:0:
256,192,96607,128,0,96817:0:0:0:0:
182,192,96817,128,0,96870:0:0:0:0:
475,192,96817,128,0,96870:0:0:0:0:
109,192,97027,1,0,0:0:0:0:
402,192,97027,1,0,0:0:0:0:
36,192,97027,1,0,0:0:0:0:
36,192,97132,128,0,97342:0:0:0:0:
256,192,97132,128,0,97342:0:0:0:0:
182,192,97342,128,0,97446:0:0:0:0:
402,192,97342,128,0,97446:0:0:0:0:
256,192,97446,128,0,97656:0:0:0:0:
475,192,97446,128,0,97656:0:0:0:0:
329,192,97656,1,0,0:0:0:0:
36,192,97656,1,0,0:0:0:0:
109,192,97866,1,0,0:0:0:0:
402,192,97866,1,0,0:0:0:0:
256,192,97866,1,0,0:0:0:0:
256,192,97971,128,0,98181:0:0:0:0:
475,192,97971,128,0,98181:0:0:0:0:
182,192,98181,128,0,98286:0:0:0:0:
329,192,98181,128,0,98286:0:0:0:0:
109,192,98286,128,0,98338:0:0:0:0:
402,192,98286,128,0,98338:0:0:0:0:
402,192,98495,128,0,98548:0:0:0:0:
109,192,98495,128,0,98548:0:0:0:0:
36,192,98705,1,0,0:0:0:0:
402,192,98705,1,0,0:0:0:0:
256,192,98705,1,0,0:0:0:0:
182,192,98810,128,0,99020:0:0:0:0:
402,192,98810,128,0,99020:0:0:0:0:
256,192,99020,128,0,99125:0:0:0:0:
36,192,99020,128,0,99125:0:0:0:0:
109,192,99125,128,0,99177:0:0:0:0:
329,192,99125,128,0,99177:0:0:0:0:
109,192,99335,128,0,99387:0:0:0:0:
329,192,99335,128,0,99387:0:0:0:0:
475,192,99544,1,0,0:0:0:0:
256,192,99544,1,0,0:0:0:0:
36,192,99544,1,0,0:0:0:0:
36,192,99649,128,0,99859:0:0:0:0:
182,192,99649,128,0,99859:0:0:0:0:
109,192,99859,128,0,99964:0:0:0:0:
402,192,99859,128,0,99964:0:0:0:0:
329,192,99964,128,0,100016:0:0:0:0:
475,192,99964,128,0,100016:0:0:0:0:
329,192,100174,128,0,100226:0:0:0:0:
475,192,100174,128,0,100226:0:0:0:0:
402,192,100384,1,0,0:0:0:0:
109,192,100384,1,0,0:0:0:0:
329,192,100384,1,0,0:0:0:0:
475,192,100488,1,0,0:0:0:0:
256,192,100488,1,0,0:0:0:0:
109,192,100488,1,0,0:0:0:0:
256,192,100593,1,0,0:0:0:0:
36,192,100593,1,0,0:0:0:0:
402,192,100593,1,0,0:0:0:0:
36,192,100698,128,0,100751:0:0:0:0:
329,192,100698,1,0,0:0:0:0:
182,192,100698,1,0,0:0:0:0:
182,192,100803,128,0,100856:0:0:0:0:
402,192,100803,1,0,0:0:0:0:
256,192,100803,1,0,0:0:0:0:
329,192,100908,128,0,100960:0:0:0:0:
109,192,100908,1,0,0:0:0:0:
402,192,100908,1,0,0:0:0:0:
475,192,101013,128,0,101065:0:0:0:0:
182,192,101013,1,0,0:0:0:0:
109,192,101013,1,0,0:0:0:0:
