osu file format v14

[General]
AudioFilename: audio.ogg
AudioLeadIn: 0
PreviewTime: 88643
Countdown: 0
SampleSet: Soft
StackLeniency: 0.7
Mode: 3
LetterboxInBreaks: 0
SpecialStyle: 0
WidescreenStoryboard: 1

[Editor]
DistanceSpacing: 0.8
BeatDivisor: 4
GridSize: 16
TimelineZoom: 1.7

[Metadata]
Title:Glucagon
TitleUnicode:グルカゴン
Artist:EZFG
ArtistUnicode:EZFG
Creator:Critical_Star
Version:4K Insane
Source:
Tags:electronic japanese vocaloid techno gurukagon 2015 巡音ルカ megurine luka v2 V4X vocaloid chordjack schopfer
BeatmapID:4231304
BeatmapSetID:2030433

[Difficulty]
HPDrainRate:7.8
CircleSize:4
OverallDifficulty:7.8
ApproachRate:5
SliderMultiplier:1.4
SliderTickRate:1

[Events]
//Background and Video events
0,0,"luka.jpg",0,0
//Break Periods
//Storyboard Layer 0 (Background)
//Storyboard Layer 1 (Fail)
//Storyboard Layer 2 (Pass)
//Storyboard Layer 3 (Foreground)
//Storyboard Layer 4 (Overlay)
//Storyboard Sound Samples

[TimingPoints]
1052,437.956204379562,4,2,1,50,1,0
43095,-100,4,2,1,50,0,1
56672,-100,4,2,1,50,0,0
88643,-100,4,2,1,50,0,1
102219,-100,4,2,1,50,0,0
156964,-100,4,2,1,50,0,1
174044,-100,4,2,1,50,0,0

[HitObjects]
320,192,1052,5,0,0:0:0:0:
64,192,1161,1,0,0:0:0:0:
320,192,1270,1,0,0:0:0:0:
64,192,1380,1,0,0:0:0:0:
320,192,1489,1,0,0:0:0:0:
64,192,1599,1,0,0:0:0:0:
320,192,1708,1,0,0:0:0:0:
64,192,1818,1,0,0:0:0:0:
448,192,1927,1,0,0:0:0:0:
192,192,2037,1,0,0:0:0:0:
448,192,2146,1,0,0:0:0:0:
192,192,2256,1,0,0:0:0:0:
448,192,2365,1,0,0:0:0:0:
192,192,2475,1,0,0:0:0:0:
448,192,2584,1,0,0:0:0:0:
192,192,2694,1,0,0:0:0:0:
320,192,2803,1,0,0:0:0:0:
64,192,2913,1,0,0:0:0:0:
320,192,3022,1,0,0:0:0:0:
64,192,3132,1,0,0:0:0:0:
320,192,3241,1,0,0:0:0:0:
64,192,3351,1,0,0:0:0:0:
320,192,3460,1,0,0:0:0:0:
64,192,3570,1,0,0:0:0:0:
448,192,3679,1,0,0:0:0:0:
192,192,3789,1,0,0:0:0:0:
448,192,3898,1,0,0:0:0:0:
192,192,4008,1,0,0:0:0:0:
448,192,4117,1,0,0:0:0:0:
192,192,4227,1,0,0:0:0:0:
448,192,4336,1,0,0:0:0:0:
192,192,4446,1,0,0:0:0:0:
64,192,4555,1,0,0:0:0:0:
448,192,4665,1,0,0:0:0:0:
64,192,4774,1,0,0:0:0:0:
448,192,4884,1,0,0:0:0:0:
64,192,4993,1,0,0:0:0:0:
448,192,5103,1,0,0:0:0:0:
64,192,5212,1,0,0:0:0:0:
448,192,5322,1,0,0:0:0:0:
192,192,5431,1,0,0:0:0:0:
320,192,5541,1,0,0:0:0:0:
192,192,5650,1,0,0:0:0:0:
320,192,5760,1,0,0:0:0:0:
192,192,5869,1,0,0:0:0:0:
320,192,5979,1,0,0:0:0:0:
192,192,6088,1,0,0:0:0:0:
320,192,6197,1,0,0:0:0:0:
64,192,6307,1,0,0:0:0:0:
448,192,6416,1,0,0:0:0:0:
64,192,6526,1,0,0:0:0:0:
448,192,6635,1,0,0:0:0:0:
64,192,6745,1,0,0:0:0:0:
448,192,6854,1,0,0:0:0:0:
64,192,6964,1,0,0:0:0:0:
448,192,7073,1,0,0:0:0:0:
192,192,7183,1,0,0:0:0:0:
320,192,7292,1,0,0:0:0:0:
192,192,7402,1,0,0:0:0:0:
320,192,7511,1,0,0:0:0:0:
448,192,7621,1,0,0:0:0:0:
64,192,7621,1,0,0:0:0:0:
448,192,8059,1,0,0:0:0:0:
192,192,8059,1,0,0:0:0:0:
448,192,8168,1,0,0:0:0:0:
192,192,8278,1,0,0:0:0:0:
64,192,8387,1,0,0:0:0:0:
448,192,8497,1,0,0:0:0:0:
320,192,8497,1,0,0:0:0:0:
320,192,8606,1,0,0:0:0:0:
64,192,8716,1,0,0:0:0:0:
192,192,8825,1,0,0:0:0:0:
448,192,8825,1,0,0:0:0:0:
320,192,8935,1,0,0:0:0:0:
64,192,8935,1,0,0:0:0:0:
64,192,9044,1,0,0:0:0:0:
320,192,9154,1,0,0:0:0:0:
448,192,9154,1,0,0:0:0:0:
64,192,9263,1,0,0:0:0:0:
192,192,9373,1,0,0:0:0:0:
448,192,9373,1,0,0:0:0:0:
192,192,9482,1,0,0:0:0:0:
320,192,9592,1,0,0:0:0:0:
64,192,9701,1,0,0:0:0:0:
448,192,9811,1,0,0:0:0:0:
192,192,9811,1,0,0:0:0:0:
448,192,9920,1,0,0:0:0:0:
192,192,10030,1,0,0:0:0:0:
64,192,10139,1,0,0:0:0:0:
448,192,10249,1,0,0:0:0:0:
320,192,10249,1,0,0:0:0:0:
320,192,10358,1,0,0:0:0:0:
64,192,10468,1,0,0:0:0:0:
192,192,10577,1,0,0:0:0:0:
448,192,10577,1,0,0:0:0:0:
320,192,10687,1,0,0:0:0:0:
64,192,10687,1,0,0:0:0:0:
64,192,10796,1,0,0:0:0:0:
320,192,10906,1,0,0:0:0:0:
448,192,10906,1,0,0:0:0:0:
64,192,11015,1,0,0:0:0:0:
192,192,11124,1,0,0:0:0:0:
448,192,11124,1,0,0:0:0:0:
192,192,11234,1,0,0:0:0:0:
320,192,11343,1,0,0:0:0:0:
64,192,11453,1,0,0:0:0:0:
192,192,11562,1,0,0:0:0:0:
448,192,11562,1,0,0:0:0:0:
448,192,11672,1,0,0:0:0:0:
64,192,11781,1,0,0:0:0:0:
320,192,11891,1,0,0:0:0:0:
192,192,12000,1,0,0:0:0:0:
448,192,12000,1,0,0:0:0:0:
192,192,12110,1,0,0:0:0:0:
448,192,12219,1,0,0:0:0:0:
64,192,12329,1,0,0:0:0:0:
192,192,12329,1,0,0:0:0:0:
448,192,12438,1,0,0:0:0:0:
320,192,12438,1,0,0:0:0:0:
320,192,12548,1,0,0:0:0:0:
64,192,12657,1,0,0:0:0:0:
192,192,12657,1,0,0:0:0:0:
320,192,12767,1,0,0:0:0:0:
448,192,12876,1,0,0:0:0:0:
64,192,12876,1,0,0:0:0:0:
64,192,12986,1,0,0:0:0:0:
320,192,13095,1,0,0:0:0:0:
192,192,13205,1,0,0:0:0:0:
320,192,13314,1,0,0:0:0:0:
64,192,13314,1,0,0:0:0:0:
64,192,13424,1,0,0:0:0:0:
448,192,13533,1,0,0:0:0:0:
192,192,13643,1,0,0:0:0:0:
320,192,13752,1,0,0:0:0:0:
64,192,13752,1,0,0:0:0:0:
320,192,13862,1,0,0:0:0:0:
64,192,13971,1,0,0:0:0:0:
448,192,14081,1,0,0:0:0:0:
320,192,14081,1,0,0:0:0:0:
64,192,14190,1,0,0:0:0:0:
192,192,14190,1,0,0:0:0:0:
192,192,14300,1,0,0:0:0:0:
448,192,14409,1,0,0:0:0:0:
320,192,14409,1,0,0:0:0:0:
192,192,14519,1,0,0:0:0:0:
64,192,14628,1,0,0:0:0:0:
448,192,14628,1,0,0:0:0:0:
448,192,14738,1,0,0:0:0:0:
192,192,14847,1,0,0:0:0:0:
320,192,14957,1,0,0:0:0:0:
448,192,15066,1,0,0:0:0:0:
64,192,15066,1,0,0:0:0:0:
64,192,15176,1,0,0:0:0:0:
320,192,15285,1,0,0:0:0:0:
192,192,15395,1,0,0:0:0:0:
64,192,15504,1,0,0:0:0:0:
448,192,15504,1,0,0:0:0:0:
448,192,15614,1,0,0:0:0:0:
192,192,15723,1,0,0:0:0:0:
448,192,15833,1,0,0:0:0:0:
64,192,15833,1,0,0:0:0:0:
192,192,15942,1,0,0:0:0:0:
192,192,16051,1,0,0:0:0:0:
448,192,16161,1,0,0:0:0:0:
320,192,16161,1,0,0:0:0:0:
64,192,16270,1,0,0:0:0:0:
320,192,16380,1,0,0:0:0:0:
192,192,16380,1,0,0:0:0:0:
320,192,16489,1,0,0:0:0:0:
64,192,16599,1,0,0:0:0:0:
320,192,16708,1,0,0:0:0:0:
64,192,16818,1,0,0:0:0:0:
448,192,16818,1,0,0:0:0:0:
448,192,16927,1,0,0:0:0:0:
192,192,17037,1,0,0:0:0:0:
320,192,17146,1,0,0:0:0:0:
448,192,17256,1,0,0:0:0:0:
64,192,17256,1,0,0:0:0:0:
64,192,17365,1,0,0:0:0:0:
320,192,17475,1,0,0:0:0:0:
64,192,17584,1,0,0:0:0:0:
448,192,17584,1,0,0:0:0:0:
320,192,17694,1,0,0:0:0:0:
320,192,17803,1,0,0:0:0:0:
64,192,17913,1,0,0:0:0:0:
192,192,17913,1,0,0:0:0:0:
448,192,18022,1,0,0:0:0:0:
192,192,18132,1,0,0:0:0:0:
320,192,18132,1,0,0:0:0:0:
192,192,18241,1,0,0:0:0:0:
448,192,18351,1,0,0:0:0:0:
192,192,18460,1,0,0:0:0:0:
64,192,18570,1,0,0:0:0:0:
320,192,18570,1,0,0:0:0:0:
320,192,18679,1,0,0:0:0:0:
64,192,18789,1,0,0:0:0:0:
192,192,18898,1,0,0:0:0:0:
448,192,19008,1,0,0:0:0:0:
320,192,19008,1,0,0:0:0:0:
448,192,19117,1,0,0:0:0:0:
64,192,19227,1,0,0:0:0:0:
448,192,19336,1,0,0:0:0:0:
192,192,19336,1,0,0:0:0:0:
64,192,19446,1,0,0:0:0:0:
320,192,19446,1,0,0:0:0:0:
64,192,19555,1,0,0:0:0:0:
448,192,19665,1,0,0:0:0:0:
320,192,19665,1,0,0:0:0:0:
64,192,19774,1,0,0:0:0:0:
448,192,19884,1,0,0:0:0:0:
192,192,19884,1,0,0:0:0:0:
192,192,19993,1,0,0:0:0:0:
320,192,20103,1,0,0:0:0:0:
64,192,20212,1,0,0:0:0:0:
448,192,20322,1,0,0:0:0:0:
192,192,20322,1,0,0:0:0:0:
192,192,20431,1,0,0:0:0:0:
448,192,20541,1,0,0:0:0:0:
320,192,20650,1,0,0:0:0:0:
64,192,20760,1,0,0:0:0:0:
192,192,20760,1,0,0:0:0:0:
64,192,20869,1,0,0:0:0:0:
448,192,20979,1,0,0:0:0:0:
64,192,21088,1,0,0:0:0:0:
320,192,21088,1,0,0:0:0:0:
448,192,21197,1,0,0:0:0:0:
192,192,21197,1,0,0:0:0:0:
448,192,21307,1,0,0:0:0:0:
64,192,21416,1,0,0:0:0:0:
192,192,21416,1,0,0:0:0:0:
448,192,21526,1,0,0:0:0:0:
64,192,21635,1,0,0:0:0:0:
320,192,21635,1,0,0:0:0:0:
320,192,21745,1,0,0:0:0:0:
192,192,21854,1,0,0:0:0:0:
448,192,21964,1,0,0:0:0:0:
320,192,22073,1,0,0:0:0:0:
64,192,22073,1,0,0:0:0:0:
320,192,22292,1,0,0:0:0:0:
192,192,22511,1,0,0:0:0:0:
448,192,22511,1,0,0:0:0:0:
64,192,22621,1,0,0:0:0:0:
320,192,22730,1,0,0:0:0:0:
448,192,22840,1,0,0:0:0:0:
192,192,22840,1,0,0:0:0:0:
64,192,22949,1,0,0:0:0:0:
320,192,23059,1,0,0:0:0:0:
448,192,23168,1,0,0:0:0:0:
64,192,23168,1,0,0:0:0:0:
192,192,23278,1,0,0:0:0:0:
448,192,23387,1,0,0:0:0:0:
320,192,23387,1,0,0:0:0:0:
320,192,23497,1,0,0:0:0:0:
192,192,23606,1,0,0:0:0:0:
192,192,23716,1,0,0:0:0:0:
64,192,23825,1,0,0:0:0:0:
448,192,23825,1,0,0:0:0:0:
448,192,23935,1,0,0:0:0:0:
192,192,24044,1,0,0:0:0:0:
448,192,24154,1,0,0:0:0:0:
64,192,24263,1,0,0:0:0:0:
320,192,24263,1,0,0:0:0:0:
320,192,24373,1,0,0:0:0:0:
64,192,24482,1,0,0:0:0:0:
64,192,24592,1,0,0:0:0:0:
320,192,24592,1,0,0:0:0:0:
448,192,24701,1,0,0:0:0:0:
192,192,24811,1,0,0:0:0:0:
448,192,24920,1,0,0:0:0:0:
64,192,24920,1,0,0:0:0:0:
320,192,25030,1,0,0:0:0:0:
192,192,25139,1,0,0:0:0:0:
64,192,25139,1,0,0:0:0:0:
192,192,25249,1,0,0:0:0:0:
320,192,25358,1,0,0:0:0:0:
320,192,25468,1,0,0:0:0:0:
448,192,25577,1,0,0:0:0:0:
64,192,25577,1,0,0:0:0:0:
192,192,25687,1,0,0:0:0:0:
448,192,25796,1,0,0:0:0:0:
192,192,25906,1,0,0:0:0:0:
320,192,26015,1,0,0:0:0:0:
64,192,26015,1,0,0:0:0:0:
64,192,26124,1,0,0:0:0:0:
320,192,26234,1,0,0:0:0:0:
320,192,26343,1,0,0:0:0:0:
64,192,26343,1,0,0:0:0:0:
448,192,26453,1,0,0:0:0:0:
192,192,26562,1,0,0:0:0:0:
448,192,26672,1,0,0:0:0:0:
64,192,26672,1,0,0:0:0:0:
320,192,26781,1,0,0:0:0:0:
192,192,26891,1,0,0:0:0:0:
64,192,26891,1,0,0:0:0:0:
64,192,27000,1,0,0:0:0:0:
320,192,27110,1,0,0:0:0:0:
320,192,27219,1,0,0:0:0:0:
448,192,27329,1,0,0:0:0:0:
192,192,27329,1,0,0:0:0:0:
448,192,27438,1,0,0:0:0:0:
192,192,27548,1,0,0:0:0:0:
320,192,27657,1,0,0:0:0:0:
64,192,27767,1,0,0:0:0:0:
448,192,27767,1,0,0:0:0:0:
64,192,27876,1,0,0:0:0:0:
448,192,27986,1,0,0:0:0:0:
64,192,28095,1,0,0:0:0:0:
192,192,28205,1,0,0:0:0:0:
320,192,28205,1,0,0:0:0:0:
192,192,28314,1,0,0:0:0:0:
448,192,28424,1,0,0:0:0:0:
192,192,28533,1,0,0:0:0:0:
64,192,28643,1,0,0:0:0:0:
448,192,28643,1,0,0:0:0:0:
64,192,28752,1,0,0:0:0:0:
320,192,28862,1,0,0:0:0:0:
320,192,28971,1,0,0:0:0:0:
192,192,29081,1,0,0:0:0:0:
448,192,29081,1,0,0:0:0:0:
192,192,29300,1,0,0:0:0:0:
448,192,29409,1,0,0:0:0:0:
320,192,29519,1,0,0:0:0:0:
64,192,29519,1,0,0:0:0:0:
320,192,29628,1,0,0:0:0:0:
64,192,29738,1,0,0:0:0:0:
64,192,29847,1,0,0:0:0:0:
320,192,29847,1,0,0:0:0:0:
448,192,29957,1,0,0:0:0:0:
192,192,30066,1,0,0:0:0:0:
64,192,30176,1,0,0:0:0:0:
448,192,30176,1,0,0:0:0:0:
320,192,30285,1,0,0:0:0:0:
64,192,30395,1,0,0:0:0:0:
192,192,30395,1,0,0:0:0:0:
192,192,30504,1,0,0:0:0:0:
320,192,30614,1,0,0:0:0:0:
320,192,30723,1,0,0:0:0:0:
448,192,30833,1,0,0:0:0:0:
64,192,30833,1,0,0:0:0:0:
64,192,30942,1,0,0:0:0:0:
320,192,31051,1,0,0:0:0:0:
64,192,31161,1,0,0:0:0:0:
448,192,31270,1,0,0:0:0:0:
192,192,31270,1,0,0:0:0:0:
192,192,31380,1,0,0:0:0:0:
448,192,31489,1,0,0:0:0:0:
448,192,31599,1,0,0:0:0:0:
192,192,31599,1,0,0:0:0:0:
64,192,31708,1,0,0:0:0:0:
320,192,31818,1,0,0:0:0:0:
64,192,31927,1,0,0:0:0:0:
448,192,31927,1,0,0:0:0:0:
192,192,32037,1,0,0:0:0:0:
320,192,32146,1,0,0:0:0:0:
448,192,32146,1,0,0:0:0:0:
320,192,32256,1,0,0:0:0:0:
192,192,32365,1,0,0:0:0:0:
192,192,32475,1,0,0:0:0:0:
64,192,32584,1,0,0:0:0:0:
448,192,32584,1,0,0:0:0:0:
320,192,32694,1,0,0:0:0:0:
64,192,32803,1,0,0:0:0:0:
64,192,32913,1,0,0:0:0:0:
192,192,33022,1,0,0:0:0:0:
448,192,33022,1,0,0:0:0:0:
448,192,33132,1,0,0:0:0:0:
192,192,33241,1,0,0:0:0:0:
192,192,33351,1,0,0:0:0:0:
448,192,33351,1,0,0:0:0:0:
64,192,33460,1,0,0:0:0:0:
320,192,33570,1,0,0:0:0:0:
64,192,33679,1,0,0:0:0:0:
448,192,33679,1,0,0:0:0:0:
192,192,33789,1,0,0:0:0:0:
320,192,33898,1,0,0:0:0:0:
448,192,33898,1,0,0:0:0:0:
320,192,34008,1,0,0:0:0:0:
192,192,34117,1,0,0:0:0:0:
192,192,34227,1,0,0:0:0:0:
64,192,34336,1,0,0:0:0:0:
320,192,34336,1,0,0:0:0:0:
64,192,34446,1,0,0:0:0:0:
320,192,34555,1,0,0:0:0:0:
192,192,34665,1,0,0:0:0:0:
448,192,34774,1,0,0:0:0:0:
64,192,34774,1,0,0:0:0:0:
448,192,34884,1,0,0:0:0:0:
64,192,34993,1,0,0:0:0:0:
448,192,35103,1,0,0:0:0:0:
320,192,35103,1,0,0:0:0:0:
192,192,35212,1,0,0:0:0:0:
64,192,35212,1,0,0:0:0:0:
192,192,35322,1,0,0:0:0:0:
448,192,35431,1,0,0:0:0:0:
192,192,35541,1,0,0:0:0:0:
64,192,35650,1,0,0:0:0:0:
448,192,35650,1,0,0:0:0:0:
320,192,35869,1,0,0:0:0:0:
192,192,35869,1,0,0:0:0:0:
448,192,36088,1,0,0:0:0:0:
64,192,36088,1,0,0:0:0:0:
64,192,36307,1,0,0:0:0:0:
448,192,36526,1,0,0:0:0:0:
320,192,36526,1,0,0:0:0:0:
192,192,36635,1,0,0:0:0:0:
448,192,36745,1,0,0:0:0:0:
64,192,36854,1,0,0:0:0:0:
320,192,36854,1,0,0:0:0:0:
192,192,36964,1,0,0:0:0:0:
448,192,37073,1,0,0:0:0:0:
320,192,37183,1,0,0:0:0:0:
64,192,37183,1,0,0:0:0:0:
192,192,37292,1,0,0:0:0:0:
320,192,37402,1,0,0:0:0:0:
448,192,37402,1,0,0:0:0:0:
448,192,37511,1,0,0:0:0:0:
192,192,37621,1,0,0:0:0:0:
192,192,37730,1,0,0:0:0:0:
64,192,37840,1,0,0:0:0:0:
448,192,37840,1,0,0:0:0:0:
64,192,37949,1,0,0:0:0:0:
320,192,38059,1,0,0:0:0:0:
320,192,38168,1,0,0:0:0:0:
64,192,38278,1,0,0:0:0:0:
192,192,38278,1,0,0:0:0:0:
64,192,38387,1,0,0:0:0:0:
320,192,38497,1,0,0:0:0:0:
320,192,38606,1,0,0:0:0:0:
64,192,38606,1,0,0:0:0:0:
448,192,38716,1,0,0:0:0:0:
448,192,38825,1,0,0:0:0:0:
192,192,38935,1,0,0:0:0:0:
320,192,38935,1,0,0:0:0:0:
448,192,39044,1,0,0:0:0:0:
192,192,39154,1,0,0:0:0:0:
64,192,39154,1,0,0:0:0:0:
192,192,39263,1,0,0:0:0:0:
320,192,39373,1,0,0:0:0:0:
320,192,39482,1,0,0:0:0:0:
64,192,39592,1,0,0:0:0:0:
448,192,39592,1,0,0:0:0:0:
448,192,39701,1,0,0:0:0:0:
64,192,39811,1,0,0:0:0:0:
64,192,39920,1,0,0:0:0:0:
320,192,40030,1,0,0:0:0:0:
448,192,40030,1,0,0:0:0:0:
448,192,40139,1,0,0:0:0:0:
192,192,40249,1,0,0:0:0:0:
192,192,40358,1,0,0:0:0:0:
448,192,40358,1,0,0:0:0:0:
320,192,40468,1,0,0:0:0:0:
320,192,40577,1,0,0:0:0:0:
64,192,40687,1,0,0:0:0:0:
192,192,40687,1,0,0:0:0:0:
64,192,40796,1,0,0:0:0:0:
448,192,40906,1,0,0:0:0:0:
320,192,40906,1,0,0:0:0:0:
192,192,41124,1,0,0:0:0:0:
320,192,41124,1,0,0:0:0:0:
192,192,41343,1,0,0:0:0:0:
64,192,41343,1,0,0:0:0:0:
320,192,41453,1,0,0:0:0:0:
64,192,41562,1,0,0:0:0:0:
320,192,41672,1,0,0:0:0:0:
192,192,41781,1,0,0:0:0:0:
448,192,41781,1,0,0:0:0:0:
64,192,41891,1,0,0:0:0:0:
320,192,42000,1,0,0:0:0:0:
64,192,42110,1,0,0:0:0:0:
192,192,42110,1,0,0:0:0:0:
320,192,42219,1,0,0:0:0:0:
448,192,42219,1,0,0:0:0:0:
192,192,42329,1,0,0:0:0:0:
448,192,42438,1,0,0:0:0:0:
64,192,42438,1,0,0:0:0:0:
192,192,42548,1,0,0:0:0:0:
320,192,42657,1,0,0:0:0:0:
64,192,42657,1,0,0:0:0:0:
192,192,43095,1,0,0:0:0:0:
448,192,43095,1,0,0:0:0:0:
448,192,43205,1,0,0:0:0:0:
192,192,43314,1,0,0:0:0:0:
192,192,43424,1,0,0:0:0:0:
448,192,43533,1,0,0:0:0:0:
320,192,43533,1,0,0:0:0:0:
320,192,43643,1,0,0:0:0:0:
64,192,43752,1,0,0:0:0:0:
448,192,43862,1,0,0:0:0:0:
64,192,43862,1,0,0:0:0:0:
320,192,43971,1,0,0:0:0:0:
192,192,43971,1,0,0:0:0:0:
320,192,44081,1,0,0:0:0:0:
448,192,44190,1,0,0:0:0:0:
192,192,44190,1,0,0:0:0:0:
192,192,44300,1,0,0:0:0:0:
448,192,44409,1,0,0:0:0:0:
64,192,44409,1,0,0:0:0:0:
448,192,44519,1,0,0:0:0:0:
192,192,44628,1,0,0:0:0:0:
192,192,44738,1,0,0:0:0:0:
64,192,44847,1,0,0:0:0:0:
320,192,44847,1,0,0:0:0:0:
320,192,44957,1,0,0:0:0:0:
64,192,45066,1,0,0:0:0:0:
448,192,45066,1,0,0:0:0:0:
64,192,45176,1,0,0:0:0:0:
448,192,45285,1,0,0:0:0:0:
320,192,45285,1,0,0:0:0:0:
448,192,45395,1,0,0:0:0:0:
192,192,45504,1,0,0:0:0:0:
64,192,45504,1,0,0:0:0:0:
192,192,45614,1,0,0:0:0:0:
448,192,45614,1,0,0:0:0:0:
320,192,45723,1,0,0:0:0:0:
64,192,45723,1,0,0:0:0:0:
320,192,45833,1,0,0:0:0:0:
192,192,45942,1,0,0:0:0:0:
64,192,45942,1,0,0:0:0:0:
64,192,46051,1,0,0:0:0:0:
448,192,46161,1,0,0:0:0:0:
320,192,46161,1,0,0:0:0:0:
192,192,46380,1,0,0:0:0:0:
320,192,46380,1,0,0:0:0:0:
448,192,46599,1,0,0:0:0:0:
64,192,46599,1,0,0:0:0:0:
64,192,46708,1,0,0:0:0:0:
320,192,46818,1,0,0:0:0:0:
320,192,46927,1,0,0:0:0:0:
64,192,47037,1,0,0:0:0:0:
192,192,47037,1,0,0:0:0:0:
192,192,47146,1,0,0:0:0:0:
448,192,47256,1,0,0:0:0:0:
64,192,47365,1,0,0:0:0:0:
448,192,47365,1,0,0:0:0:0:
192,192,47475,1,0,0:0:0:0:
320,192,47475,1,0,0:0:0:0:
192,192,47584,1,0,0:0:0:0:
64,192,47694,1,0,0:0:0:0:
320,192,47694,1,0,0:0:0:0:
320,192,47803,1,0,0:0:0:0:
64,192,47913,1,0,0:0:0:0:
448,192,47913,1,0,0:0:0:0:
64,192,48022,1,0,0:0:0:0:
320,192,48132,1,0,0:0:0:0:
320,192,48241,1,0,0:0:0:0:
448,192,48351,1,0,0:0:0:0:
192,192,48351,1,0,0:0:0:0:
192,192,48460,1,0,0:0:0:0:
448,192,48570,1,0,0:0:0:0:
64,192,48570,1,0,0:0:0:0:
448,192,48679,1,0,0:0:0:0:
64,192,48789,1,0,0:0:0:0:
192,192,48789,1,0,0:0:0:0:
64,192,48898,1,0,0:0:0:0:
320,192,49008,1,0,0:0:0:0:
448,192,49008,1,0,0:0:0:0:
320,192,49117,1,0,0:0:0:0:
64,192,49117,1,0,0:0:0:0:
192,192,49227,1,0,0:0:0:0:
448,192,49227,1,0,0:0:0:0:
192,192,49336,1,0,0:0:0:0:
320,192,49446,1,0,0:0:0:0:
448,192,49446,1,0,0:0:0:0:
448,192,49555,1,0,0:0:0:0:
64,192,49665,1,0,0:0:0:0:
192,192,49665,1,0,0:0:0:0:
320,192,49884,1,0,0:0:0:0:
192,192,49884,1,0,0:0:0:0:
448,192,50103,1,0,0:0:0:0:
320,192,50103,1,0,0:0:0:0:
448,192,50212,1,0,0:0:0:0:
64,192,50322,1,0,0:0:0:0:
64,192,50431,1,0,0:0:0:0:
448,192,50541,1,0,0:0:0:0:
192,192,50541,1,0,0:0:0:0:
448,192,50650,1,0,0:0:0:0:
192,192,50760,1,0,0:0:0:0:
192,192,50869,1,0,0:0:0:0:
64,192,50869,1,0,0:0:0:0:
320,192,50979,1,0,0:0:0:0:
448,192,50979,1,0,0:0:0:0:
320,192,51088,1,0,0:0:0:0:
64,192,51197,1,0,0:0:0:0:
448,192,51197,1,0,0:0:0:0:
64,192,51307,1,0,0:0:0:0:
320,192,51416,1,0,0:0:0:0:
192,192,51416,1,0,0:0:0:0:
320,192,51526,1,0,0:0:0:0:
192,192,51635,1,0,0:0:0:0:
192,192,51745,1,0,0:0:0:0:
448,192,51854,1,0,0:0:0:0:
64,192,51854,1,0,0:0:0:0:
448,192,51964,1,0,0:0:0:0:
320,192,52073,1,0,0:0:0:0:
192,192,52073,1,0,0:0:0:0:
320,192,52183,1,0,0:0:0:0:
64,192,52292,1,0,0:0:0:0:
448,192,52292,1,0,0:0:0:0:
64,192,52402,1,0,0:0:0:0:
192,192,52511,1,0,0:0:0:0:
320,192,52511,1,0,0:0:0:0:
192,192,52621,1,0,0:0:0:0:
448,192,52621,1,0,0:0:0:0:
320,192,52730,1,0,0:0:0:0:
64,192,52730,1,0,0:0:0:0:
320,192,52840,1,0,0:0:0:0:
64,192,52949,1,0,0:0:0:0:
192,192,52949,1,0,0:0:0:0:
192,192,53059,1,0,0:0:0:0:
448,192,53059,1,0,0:0:0:0:
64,192,53168,1,0,0:0:0:0:
320,192,53168,1,0,0:0:0:0:
448,192,53387,1,0,0:0:0:0:
192,192,53387,1,0,0:0:0:0:
320,192,53606,1,0,0:0:0:0:
64,192,53606,1,0,0:0:0:0:
64,192,53716,1,0,0:0:0:0:
448,192,53825,1,0,0:0:0:0:
64,192,53825,1,0,0:0:0:0:
192,192,53935,1,0,0:0:0:0:
320,192,54044,1,0,0:0:0:0:
448,192,54044,1,0,0:0:0:0:
320,192,54154,1,0,0:0:0:0:
64,192,54263,1,0,0:0:0:0:
320,192,54263,1,0,0:0:0:0:
448,192,54373,1,0,0:0:0:0:
192,192,54482,1,0,0:0:0:0:
64,192,54482,1,0,0:0:0:0:
192,192,54592,1,0,0:0:0:0:
448,192,54701,1,0,0:0:0:0:
192,192,54701,1,0,0:0:0:0:
320,192,54811,1,0,0:0:0:0:
64,192,54920,1,0,0:0:0:0:
448,192,54920,1,0,0:0:0:0:
448,192,55030,1,0,0:0:0:0:
448,192,55139,1,0,0:0:0:0:
192,192,55139,1,0,0:0:0:0:
320,192,55249,1,0,0:0:0:0:
192,192,55358,1,0,0:0:0:0:
64,192,55358,1,0,0:0:0:0:
64,192,55468,1,0,0:0:0:0:
64,192,55577,1,0,0:0:0:0:
448,192,55577,1,0,0:0:0:0:
192,192,55687,1,0,0:0:0:0:
448,192,55796,1,0,0:0:0:0:
320,192,55796,1,0,0:0:0:0:
320,192,55906,1,0,0:0:0:0:
64,192,56015,1,0,0:0:0:0:
192,192,56015,1,0,0:0:0:0:
448,192,56124,1,0,0:0:0:0:
320,192,56124,1,0,0:0:0:0:
192,192,56234,1,0,0:0:0:0:
64,192,56234,1,0,0:0:0:0:
192,192,56343,1,0,0:0:0:0:
64,192,56343,1,0,0:0:0:0:
448,192,56453,1,0,0:0:0:0:
320,192,56453,1,0,0:0:0:0:
320,192,56562,1,0,0:0:0:0:
448,192,56562,1,0,0:0:0:0:
192,192,56672,1,0,0:0:0:0:
64,192,56672,1,0,0:0:0:0:
448,192,56672,1,0,0:0:0:0:
448,192,57110,1,0,0:0:0:0:
192,192,57219,1,0,0:0:0:0:
448,192,57329,1,0,0:0:0:0:
320,192,57438,1,0,0:0:0:0:
448,192,57548,1,0,0:0:0:0:
192,192,57657,1,0,0:0:0:0:
448,192,57767,1,0,0:0:0:0:
320,192,57876,1,0,0:0:0:0:
448,192,57986,1,0,0:0:0:0:
192,192,58095,1,0,0:0:0:0:
448,192,58205,1,0,0:0:0:0:
320,192,58314,1,0,0:0:0:0:
448,192,58424,1,0,0:0:0:0:
64,192,58862,1,0,0:0:0:0:
320,192,58971,1,0,0:0:0:0:
64,192,59081,1,0,0:0:0:0:
192,192,59190,1,0,0:0:0:0:
64,192,59300,1,0,0:0:0:0:
320,192,59409,1,0,0:0:0:0:
64,192,59519,1,0,0:0:0:0:
192,192,59628,1,0,0:0:0:0:
64,192,59738,1,0,0:0:0:0:
320,192,59847,1,0,0:0:0:0:
64,192,59957,1,0,0:0:0:0:
192,192,60066,1,0,0:0:0:0:
64,192,60176,1,0,0:0:0:0:
448,192,60614,1,0,0:0:0:0:
192,192,60614,1,0,0:0:0:0:
448,192,60723,1,0,0:0:0:0:
192,192,60833,1,0,0:0:0:0:
64,192,60942,1,0,0:0:0:0:
448,192,61051,1,0,0:0:0:0:
320,192,61051,1,0,0:0:0:0:
320,192,61161,1,0,0:0:0:0:
64,192,61270,1,0,0:0:0:0:
192,192,61380,1,0,0:0:0:0:
448,192,61380,1,0,0:0:0:0:
320,192,61489,1,0,0:0:0:0:
64,192,61489,1,0,0:0:0:0:
64,192,61599,1,0,0:0:0:0:
320,192,61708,1,0,0:0:0:0:
448,192,61708,1,0,0:0:0:0:
64,192,61818,1,0,0:0:0:0:
192,192,61927,1,0,0:0:0:0:
448,192,61927,1,0,0:0:0:0:
192,192,62037,1,0,0:0:0:0:
320,192,62146,1,0,0:0:0:0:
64,192,62256,1,0,0:0:0:0:
448,192,62365,1,0,0:0:0:0:
192,192,62365,1,0,0:0:0:0:
448,192,62475,1,0,0:0:0:0:
192,192,62584,1,0,0:0:0:0:
64,192,62694,1,0,0:0:0:0:
448,192,62803,1,0,0:0:0:0:
320,192,62803,1,0,0:0:0:0:
320,192,62913,1,0,0:0:0:0:
64,192,63022,1,0,0:0:0:0:
192,192,63132,1,0,0:0:0:0:
448,192,63132,1,0,0:0:0:0:
320,192,63241,1,0,0:0:0:0:
64,192,63241,1,0,0:0:0:0:
64,192,63351,1,0,0:0:0:0:
320,192,63460,1,0,0:0:0:0:
448,192,63460,1,0,0:0:0:0:
64,192,63570,1,0,0:0:0:0:
192,192,63679,1,0,0:0:0:0:
448,192,63679,1,0,0:0:0:0:
192,192,63789,1,0,0:0:0:0:
320,192,63898,1,0,0:0:0:0:
64,192,64008,1,0,0:0:0:0:
192,192,64117,1,0,0:0:0:0:
448,192,64117,1,0,0:0:0:0:
448,192,64227,1,0,0:0:0:0:
64,192,64336,1,0,0:0:0:0:
320,192,64446,1,0,0:0:0:0:
192,192,64555,1,0,0:0:0:0:
448,192,64555,1,0,0:0:0:0:
192,192,64665,1,0,0:0:0:0:
448,192,64774,1,0,0:0:0:0:
64,192,64884,1,0,0:0:0:0:
192,192,64884,1,0,0:0:0:0:
448,192,64993,1,0,0:0:0:0:
320,192,64993,1,0,0:0:0:0:
320,192,65103,1,0,0:0:0:0:
64,192,65212,1,0,0:0:0:0:
192,192,65212,1,0,0:0:0:0:
320,192,65322,1,0,0:0:0:0:
448,192,65431,1,0,0:0:0:0:
64,192,65431,1,0,0:0:0:0:
64,192,65541,1,0,0:0:0:0:
320,192,65650,1,0,0:0:0:0:
192,192,65760,1,0,0:0:0:0:
320,192,65869,1,0,0:0:0:0:
64,192,65869,1,0,0:0:0:0:
64,192,65979,1,0,0:0:0:0:
448,192,66088,1,0,0:0:0:0:
192,192,66197,1,0,0:0:0:0:
320,192,66307,1,0,0:0:0:0:
64,192,66307,1,0,0:0:0:0:
320,192,66416,1,0,0:0:0:0:
64,192,66526,1,0,0:0:0:0:
448,192,66635,1,0,0:0:0:0:
320,192,66635,1,0,0:0:0:0:
64,192,66745,1,0,0:0:0:0:
192,192,66745,1,0,0:0:0:0:
192,192,66854,1,0,0:0:0:0:
448,192,66964,1,0,0:0:0:0:
320,192,66964,1,0,0:0:0:0:
192,192,67073,1,0,0:0:0:0:
64,192,67183,1,0,0:0:0:0:
448,192,67183,1,0,0:0:0:0:
448,192,67292,1,0,0:0:0:0:
192,192,67402,1,0,0:0:0:0:
64,192,67402,1,0,0:0:0:0:
320,192,67511,1,0,0:0:0:0:
448,192,67621,1,0,0:0:0:0:
192,192,67621,1,0,0:0:0:0:
192,192,67840,1,0,0:0:0:0:
64,192,68059,1,0,0:0:0:0:
64,192,68168,1,0,0:0:0:0:
448,192,68278,1,0,0:0:0:0:
192,192,68387,1,0,0:0:0:0:
64,192,68606,1,0,0:0:0:0:
320,192,68716,1,0,0:0:0:0:
64,192,68825,1,0,0:0:0:0:
448,192,69373,1,0,0:0:0:0:
448,192,69482,1,0,0:0:0:0:
320,192,69592,1,0,0:0:0:0:
192,192,69701,1,0,0:0:0:0:
448,192,69811,1,0,0:0:0:0:
192,192,69920,1,0,0:0:0:0:
64,192,70030,1,0,0:0:0:0:
320,192,70139,1,0,0:0:0:0:
192,192,70249,1,0,0:0:0:0:
448,192,70358,1,0,0:0:0:0:
64,192,70468,1,0,0:0:0:0:
320,192,70577,1,0,0:0:0:0:
448,192,70687,1,0,0:0:0:0:
64,192,71124,1,0,0:0:0:0:
64,192,71234,1,0,0:0:0:0:
320,192,71343,1,0,0:0:0:0:
192,192,71453,1,0,0:0:0:0:
448,192,71562,1,0,0:0:0:0:
192,192,71672,1,0,0:0:0:0:
448,192,71781,1,0,0:0:0:0:
320,192,71891,1,0,0:0:0:0:
64,192,71891,1,0,0:0:0:0:
320,192,72219,1,0,0:0:0:0:
64,192,72219,1,0,0:0:0:0:
192,192,72438,1,0,0:0:0:0:
448,192,72438,1,0,0:0:0:0:
192,192,72876,1,0,0:0:0:0:
192,192,72986,1,0,0:0:0:0:
448,192,73095,1,0,0:0:0:0:
320,192,73205,1,0,0:0:0:0:
64,192,73314,1,0,0:0:0:0:
320,192,73424,1,0,0:0:0:0:
64,192,73533,1,0,0:0:0:0:
192,192,73643,1,0,0:0:0:0:
448,192,73752,1,0,0:0:0:0:
64,192,73862,1,0,0:0:0:0:
448,192,73971,1,0,0:0:0:0:
320,192,74081,1,0,0:0:0:0:
192,192,74190,1,0,0:0:0:0:
64,192,74628,1,0,0:0:0:0:
64,192,74738,1,0,0:0:0:0:
320,192,74847,1,0,0:0:0:0:
448,192,74957,1,0,0:0:0:0:
64,192,75066,1,0,0:0:0:0:
192,192,75176,1,0,0:0:0:0:
448,192,75285,1,0,0:0:0:0:
64,192,75395,1,0,0:0:0:0:
320,192,75614,1,0,0:0:0:0:
64,192,75723,1,0,0:0:0:0:
448,192,75833,1,0,0:0:0:0:
320,192,75942,1,0,0:0:0:0:
192,192,76380,1,0,0:0:0:0:
192,192,76489,1,0,0:0:0:0:
448,192,76599,1,0,0:0:0:0:
320,192,76708,1,0,0:0:0:0:
64,192,76818,1,0,0:0:0:0:
320,192,76927,1,0,0:0:0:0:
448,192,77037,1,0,0:0:0:0:
192,192,77146,1,0,0:0:0:0:
64,192,77365,1,0,0:0:0:0:
448,192,77475,1,0,0:0:0:0:
64,192,77584,1,0,0:0:0:0:
192,192,77694,1,0,0:0:0:0:
320,192,77913,1,0,0:0:0:0:
192,192,78132,1,0,0:0:0:0:
192,192,78241,1,0,0:0:0:0:
448,192,78351,1,0,0:0:0:0:
320,192,78460,1,0,0:0:0:0:
64,192,78570,1,0,0:0:0:0:
320,192,78679,1,0,0:0:0:0:
64,192,78789,1,0,0:0:0:0:
192,192,78898,1,0,0:0:0:0:
64,192,79117,1,0,0:0:0:0:
320,192,79227,1,0,0:0:0:0:
192,192,79336,1,0,0:0:0:0:
448,192,79446,1,0,0:0:0:0:
64,192,79884,1,0,0:0:0:0:
192,192,79884,1,0,0:0:0:0:
64,192,80103,1,0,0:0:0:0:
192,192,80103,1,0,0:0:0:0:
448,192,80322,1,0,0:0:0:0:
64,192,80322,1,0,0:0:0:0:
320,192,80431,1,0,0:0:0:0:
192,192,80541,1,0,0:0:0:0:
448,192,80650,1,0,0:0:0:0:
64,192,80760,1,0,0:0:0:0:
320,192,80760,1,0,0:0:0:0:
448,192,80869,1,0,0:0:0:0:
64,192,80979,1,0,0:0:0:0:
320,192,81088,1,0,0:0:0:0:
64,192,81197,1,0,0:0:0:0:
448,192,81197,1,0,0:0:0:0:
192,192,81307,1,0,0:0:0:0:
448,192,81416,1,0,0:0:0:0:
320,192,81526,1,0,0:0:0:0:
448,192,81635,1,0,0:0:0:0:
64,192,81635,1,0,0:0:0:0:
64,192,81854,1,0,0:0:0:0:
448,192,82073,1,0,0:0:0:0:
320,192,82073,1,0,0:0:0:0:
192,192,82183,1,0,0:0:0:0:
448,192,82292,1,0,0:0:0:0:
64,192,82402,1,0,0:0:0:0:
320,192,82402,1,0,0:0:0:0:
192,192,82511,1,0,0:0:0:0:
448,192,82621,1,0,0:0:0:0:
320,192,82730,1,0,0:0:0:0:
64,192,82730,1,0,0:0:0:0:
192,192,82840,1,0,0:0:0:0:
320,192,82949,1,0,0:0:0:0:
448,192,82949,1,0,0:0:0:0:
448,192,83059,1,0,0:0:0:0:
192,192,83168,1,0,0:0:0:0:
192,192,83278,1,0,0:0:0:0:
64,192,83387,1,0,0:0:0:0:
448,192,83387,1,0,0:0:0:0:
64,192,83497,1,0,0:0:0:0:
320,192,83606,1,0,0:0:0:0:
320,192,83716,1,0,0:0:0:0:
64,192,83825,1,0,0:0:0:0:
192,192,83825,1,0,0:0:0:0:
64,192,83935,1,0,0:0:0:0:
320,192,84044,1,0,0:0:0:0:
320,192,84154,1,0,0:0:0:0:
64,192,84154,1,0,0:0:0:0:
448,192,84263,1,0,0:0:0:0:
448,192,84373,1,0,0:0:0:0:
192,192,84482,1,0,0:0:0:0:
320,192,84482,1,0,0:0:0:0:
448,192,84592,1,0,0:0:0:0:
192,192,84701,1,0,0:0:0:0:
64,192,84701,1,0,0:0:0:0:
192,192,84811,1,0,0:0:0:0:
320,192,84920,1,0,0:0:0:0:
320,192,85030,1,0,0:0:0:0:
64,192,85139,1,0,0:0:0:0:
448,192,85139,1,0,0:0:0:0:
448,192,85249,1,0,0:0:0:0:
64,192,85358,1,0,0:0:0:0:
64,192,85468,1,0,0:0:0:0:
320,192,85577,1,0,0:0:0:0:
448,192,85577,1,0,0:0:0:0:
448,192,85687,1,0,0:0:0:0:
192,192,85796,1,0,0:0:0:0:
192,192,85906,1,0,0:0:0:0:
448,192,85906,1,0,0:0:0:0:
320,192,86015,1,0,0:0:0:0:
320,192,86124,1,0,0:0:0:0:
64,192,86234,1,0,0:0:0:0:
192,192,86234,1,0,0:0:0:0:
64,192,86343,1,0,0:0:0:0:
448,192,86453,1,0,0:0:0:0:
320,192,86453,1,0,0:0:0:0:
192,192,86672,1,0,0:0:0:0:
320,192,86672,1,0,0:0:0:0:
192,192,86891,1,0,0:0:0:0:
64,192,86891,1,0,0:0:0:0:
320,192,87000,1,0,0:0:0:0:
64,192,87110,1,0,0:0:0:0:
320,192,87219,1,0,0:0:0:0:
192,192,87329,1,0,0:0:0:0:
448,192,87329,1,0,0:0:0:0:
64,192,87438,1,0,0:0:0:0:
320,192,87548,1,0,0:0:0:0:
64,192,87657,1,0,0:0:0:0:
192,192,87657,1,0,0:0:0:0:
320,192,87767,1,0,0:0:0:0:
448,192,87767,1,0,0:0:0:0:
192,192,87876,1,0,0:0:0:0:
448,192,87986,1,0,0:0:0:0:
64,192,87986,1,0,0:0:0:0:
192,192,88095,1,0,0:0:0:0:
320,192,88205,1,0,0:0:0:0:
64,192,88205,1,0,0:0:0:0:
320,192,88643,1,0,0:0:0:0:
64,192,88643,1,0,0:0:0:0:
448,192,88643,1,0,0:0:0:0:
64,192,88752,1,0,0:0:0:0:
320,192,88862,1,0,0:0:0:0:
320,192,88971,1,0,0:0:0:0:
64,192,89081,1,0,0:0:0:0:
192,192,89081,1,0,0:0:0:0:
192,192,89190,1,0,0:0:0:0:
448,192,89300,1,0,0:0:0:0:
64,192,89409,1,0,0:0:0:0:
448,192,89409,1,0,0:0:0:0:
192,192,89519,1,0,0:0:0:0:
320,192,89519,1,0,0:0:0:0:
192,192,89628,1,0,0:0:0:0:
64,192,89738,1,0,0:0:0:0:
320,192,89738,1,0,0:0:0:0:
320,192,89847,1,0,0:0:0:0:
64,192,89957,1,0,0:0:0:0:
448,192,89957,1,0,0:0:0:0:
64,192,90066,1,0,0:0:0:0:
320,192,90176,1,0,0:0:0:0:
320,192,90285,1,0,0:0:0:0:
448,192,90395,1,0,0:0:0:0:
192,192,90395,1,0,0:0:0:0:
192,192,90504,1,0,0:0:0:0:
448,192,90614,1,0,0:0:0:0:
64,192,90614,1,0,0:0:0:0:
448,192,90723,1,0,0:0:0:0:
64,192,90833,1,0,0:0:0:0:
192,192,90833,1,0,0:0:0:0:
64,192,90942,1,0,0:0:0:0:
320,192,91051,1,0,0:0:0:0:
448,192,91051,1,0,0:0:0:0:
320,192,91161,1,0,0:0:0:0:
64,192,91161,1,0,0:0:0:0:
192,192,91270,1,0,0:0:0:0:
448,192,91270,1,0,0:0:0:0:
192,192,91380,1,0,0:0:0:0:
320,192,91489,1,0,0:0:0:0:
448,192,91489,1,0,0:0:0:0:
448,192,91599,1,0,0:0:0:0:
64,192,91708,1,0,0:0:0:0:
192,192,91708,1,0,0:0:0:0:
320,192,91927,1,0,0:0:0:0:
192,192,91927,1,0,0:0:0:0:
64,192,92146,1,0,0:0:0:0:
448,192,92146,1,0,0:0:0:0:
448,192,92256,1,0,0:0:0:0:
192,192,92365,1,0,0:0:0:0:
192,192,92475,1,0,0:0:0:0:
448,192,92584,1,0,0:0:0:0:
320,192,92584,1,0,0:0:0:0:
320,192,92694,1,0,0:0:0:0:
64,192,92803,1,0,0:0:0:0:
448,192,92913,1,0,0:0:0:0:
64,192,92913,1,0,0:0:0:0:
320,192,93022,1,0,0:0:0:0:
192,192,93022,1,0,0:0:0:0:
320,192,93132,1,0,0:0:0:0:
448,192,93241,1,0,0:0:0:0:
192,192,93241,1,0,0:0:0:0:
192,192,93351,1,0,0:0:0:0:
448,192,93460,1,0,0:0:0:0:
64,192,93460,1,0,0:0:0:0:
448,192,93570,1,0,0:0:0:0:
192,192,93679,1,0,0:0:0:0:
192,192,93789,1,0,0:0:0:0:
64,192,93898,1,0,0:0:0:0:
320,192,93898,1,0,0:0:0:0:
320,192,94008,1,0,0:0:0:0:
64,192,94117,1,0,0:0:0:0:
192,192,94117,1,0,0:0:0:0:
64,192,94227,1,0,0:0:0:0:
448,192,94336,1,0,0:0:0:0:
320,192,94336,1,0,0:0:0:0:
448,192,94446,1,0,0:0:0:0:
192,192,94555,1,0,0:0:0:0:
64,192,94555,1,0,0:0:0:0:
192,192,94665,1,0,0:0:0:0:
448,192,94665,1,0,0:0:0:0:
320,192,94774,1,0,0:0:0:0:
64,192,94774,1,0,0:0:0:0:
320,192,94884,1,0,0:0:0:0:
192,192,94993,1,0,0:0:0:0:
64,192,94993,1,0,0:0:0:0:
64,192,95103,1,0,0:0:0:0:
448,192,95212,1,0,0:0:0:0:
320,192,95212,1,0,0:0:0:0:
192,192,95431,1,0,0:0:0:0:
320,192,95431,1,0,0:0:0:0:
64,192,95650,1,0,0:0:0:0:
192,192,95650,1,0,0:0:0:0:
64,192,95760,1,0,0:0:0:0:
448,192,95869,1,0,0:0:0:0:
448,192,95979,1,0,0:0:0:0:
64,192,96088,1,0,0:0:0:0:
320,192,96088,1,0,0:0:0:0:
64,192,96197,1,0,0:0:0:0:
320,192,96307,1,0,0:0:0:0:
320,192,96416,1,0,0:0:0:0:
448,192,96416,1,0,0:0:0:0:
192,192,96526,1,0,0:0:0:0:
64,192,96526,1,0,0:0:0:0:
192,192,96635,1,0,0:0:0:0:
448,192,96745,1,0,0:0:0:0:
64,192,96745,1,0,0:0:0:0:
448,192,96854,1,0,0:0:0:0:
192,192,96964,1,0,0:0:0:0:
320,192,96964,1,0,0:0:0:0:
192,192,97073,1,0,0:0:0:0:
320,192,97183,1,0,0:0:0:0:
320,192,97292,1,0,0:0:0:0:
64,192,97402,1,0,0:0:0:0:
448,192,97402,1,0,0:0:0:0:
64,192,97511,1,0,0:0:0:0:
192,192,97621,1,0,0:0:0:0:
320,192,97621,1,0,0:0:0:0:
192,192,97730,1,0,0:0:0:0:
448,192,97840,1,0,0:0:0:0:
64,192,97840,1,0,0:0:0:0:
448,192,97949,1,0,0:0:0:0:
320,192,98059,1,0,0:0:0:0:
192,192,98059,1,0,0:0:0:0:
320,192,98168,1,0,0:0:0:0:
64,192,98168,1,0,0:0:0:0:
192,192,98278,1,0,0:0:0:0:
448,192,98278,1,0,0:0:0:0:
192,192,98387,1,0,0:0:0:0:
448,192,98497,1,0,0:0:0:0:
320,192,98497,1,0,0:0:0:0:
320,192,98606,1,0,0:0:0:0:
64,192,98606,1,0,0:0:0:0:
448,192,98716,1,0,0:0:0:0:
192,192,98716,1,0,0:0:0:0:
64,192,98935,1,0,0:0:0:0:
192,192,98935,1,0,0:0:0:0:
320,192,99154,1,0,0:0:0:0:
448,192,99154,1,0,0:0:0:0:
448,192,99263,1,0,0:0:0:0:
64,192,99373,1,0,0:0:0:0:
448,192,99373,1,0,0:0:0:0:
320,192,99482,1,0,0:0:0:0:
192,192,99592,1,0,0:0:0:0:
64,192,99592,1,0,0:0:0:0:
192,192,99701,1,0,0:0:0:0:
448,192,99811,1,0,0:0:0:0:
192,192,99811,1,0,0:0:0:0:
64,192,99920,1,0,0:0:0:0:
320,192,100030,1,0,0:0:0:0:
448,192,100030,1,0,0:0:0:0:
320,192,100139,1,0,0:0:0:0:
64,192,100249,1,0,0:0:0:0:
320,192,100249,1,0,0:0:0:0:
192,192,100358,1,0,0:0:0:0:
448,192,100468,1,0,0:0:0:0:
64,192,100468,1,0,0:0:0:0:
64,192,100577,1,0,0:0:0:0:
64,192,100687,1,0,0:0:0:0:
320,192,100687,1,0,0:0:0:0:
192,192,100796,1,0,0:0:0:0:
320,192,100906,1,0,0:0:0:0:
448,192,100906,1,0,0:0:0:0:
448,192,101015,1,0,0:0:0:0:
448,192,101124,1,0,0:0:0:0:
64,192,101124,1,0,0:0:0:0:
320,192,101234,1,0,0:0:0:0:
64,192,101343,1,0,0:0:0:0:
192,192,101343,1,0,0:0:0:0:
192,192,101453,1,0,0:0:0:0:
448,192,101562,1,0,0:0:0:0:
320,192,101562,1,0,0:0:0:0:
64,192,101672,1,0,0:0:0:0:
192,192,101672,1,0,0:0:0:0:
320,192,101781,1,0,0:0:0:0:
448,192,101781,1,0,0:0:0:0:
320,192,101891,1,0,0:0:0:0:
448,192,101891,1,0,0:0:0:0:
64,192,102000,1,0,0:0:0:0:
192,192,102000,1,0,0:0:0:0:
192,192,102110,1,0,0:0:0:0:
64,192,102110,1,0,0:0:0:0:
320,192,102219,1,0,0:0:0:0:
448,192,102219,1,0,0:0:0:0:
64,192,102219,1,0,0:0:0:0:
64,192,102657,1,0,0:0:0:0:
320,192,102767,1,0,0:0:0:0:
64,192,102876,1,0,0:0:0:0:
192,192,102986,1,0,0:0:0:0:
64,192,103095,1,0,0:0:0:0:
320,192,103205,1,0,0:0:0:0:
64,192,103314,1,0,0:0:0:0:
192,192,103424,1,0,0:0:0:0:
64,192,103533,1,0,0:0:0:0:
320,192,103643,1,0,0:0:0:0:
64,192,103752,1,0,0:0:0:0:
192,192,103862,1,0,0:0:0:0:
64,192,103971,1,0,0:0:0:0:
448,192,104409,1,0,0:0:0:0:
192,192,104519,1,0,0:0:0:0:
448,192,104628,1,0,0:0:0:0:
320,192,104738,1,0,0:0:0:0:
448,192,104847,1,0,0:0:0:0:
192,192,104957,1,0,0:0:0:0:
448,192,105066,1,0,0:0:0:0:
320,192,105176,1,0,0:0:0:0:
448,192,105285,1,0,0:0:0:0:
192,192,105395,1,0,0:0:0:0:
448,192,105504,1,0,0:0:0:0:
320,192,105614,1,0,0:0:0:0:
448,192,105723,1,0,0:0:0:0:
64,192,106161,1,0,0:0:0:0:
448,192,106161,1,0,0:0:0:0:
64,192,107913,1,0,0:0:0:0:
448,192,107913,1,0,0:0:0:0:
64,192,108132,1,0,0:0:0:0:
192,192,108241,1,0,0:0:0:0:
448,192,108351,1,0,0:0:0:0:
320,192,108351,1,0,0:0:0:0:
448,192,108570,1,0,0:0:0:0:
192,192,108679,1,0,0:0:0:0:
64,192,108679,1,0,0:0:0:0:
448,192,108789,1,0,0:0:0:0:
192,192,109008,1,0,0:0:0:0:
448,192,109008,1,0,0:0:0:0:
448,192,109227,1,0,0:0:0:0:
64,192,109227,1,0,0:0:0:0:
320,192,109446,1,0,0:0:0:0:
448,192,109665,1,0,0:0:0:0:
64,192,109665,1,0,0:0:0:0:
448,192,109884,1,0,0:0:0:0:
320,192,109993,1,0,0:0:0:0:
64,192,110103,1,0,0:0:0:0:
192,192,110103,1,0,0:0:0:0:
64,192,110322,1,0,0:0:0:0:
320,192,110431,1,0,0:0:0:0:
448,192,110431,1,0,0:0:0:0:
64,192,110541,1,0,0:0:0:0:
320,192,110760,1,0,0:0:0:0:
64,192,110760,1,0,0:0:0:0:
64,192,110979,1,0,0:0:0:0:
448,192,110979,1,0,0:0:0:0:
192,192,111197,1,0,0:0:0:0:
448,192,111416,1,0,0:0:0:0:
64,192,111416,1,0,0:0:0:0:
64,192,111635,1,0,0:0:0:0:
192,192,111745,1,0,0:0:0:0:
320,192,111854,1,0,0:0:0:0:
448,192,111854,1,0,0:0:0:0:
448,192,112073,1,0,0:0:0:0:
64,192,112183,1,0,0:0:0:0:
192,192,112183,1,0,0:0:0:0:
448,192,112292,1,0,0:0:0:0:
448,192,112511,1,0,0:0:0:0:
192,192,112511,1,0,0:0:0:0:
64,192,112730,1,0,0:0:0:0:
448,192,112730,1,0,0:0:0:0:
320,192,112949,1,0,0:0:0:0:
64,192,113168,1,0,0:0:0:0:
448,192,113168,1,0,0:0:0:0:
448,192,113387,1,0,0:0:0:0:
320,192,113497,1,0,0:0:0:0:
64,192,113606,1,0,0:0:0:0:
192,192,113606,1,0,0:0:0:0:
64,192,113825,1,0,0:0:0:0:
320,192,113935,1,0,0:0:0:0:
448,192,113935,1,0,0:0:0:0:
64,192,114044,1,0,0:0:0:0:
320,192,114263,1,0,0:0:0:0:
64,192,114263,1,0,0:0:0:0:
64,192,114482,1,0,0:0:0:0:
448,192,114482,1,0,0:0:0:0:
192,192,114701,1,0,0:0:0:0:
448,192,114920,1,0,0:0:0:0:
64,192,114920,1,0,0:0:0:0:
64,192,115139,1,0,0:0:0:0:
192,192,115249,1,0,0:0:0:0:
320,192,115358,1,0,0:0:0:0:
448,192,115358,1,0,0:0:0:0:
320,192,115577,1,0,0:0:0:0:
64,192,115687,1,0,0:0:0:0:
448,192,115687,1,0,0:0:0:0:
320,192,115796,1,0,0:0:0:0:
320,192,116015,1,0,0:0:0:0:
192,192,116015,1,0,0:0:0:0:
64,192,116234,1,0,0:0:0:0:
320,192,116234,1,0,0:0:0:0:
192,192,116453,1,0,0:0:0:0:
448,192,116672,1,0,0:0:0:0:
64,192,116672,1,0,0:0:0:0:
448,192,116891,1,0,0:0:0:0:
320,192,117000,1,0,0:0:0:0:
192,192,117110,1,0,0:0:0:0:
64,192,117110,1,0,0:0:0:0:
192,192,117329,1,0,0:0:0:0:
64,192,117438,1,0,0:0:0:0:
448,192,117438,1,0,0:0:0:0:
192,192,117548,1,0,0:0:0:0:
192,192,117767,1,0,0:0:0:0:
320,192,117767,1,0,0:0:0:0:
448,192,117986,1,0,0:0:0:0:
192,192,117986,1,0,0:0:0:0:
320,192,118205,1,0,0:0:0:0:
448,192,118424,1,0,0:0:0:0:
64,192,118424,1,0,0:0:0:0:
64,192,118643,1,0,0:0:0:0:
192,192,118752,1,0,0:0:0:0:
320,192,118862,1,0,0:0:0:0:
448,192,118862,1,0,0:0:0:0:
320,192,119081,1,0,0:0:0:0:
64,192,119190,1,0,0:0:0:0:
448,192,119190,1,0,0:0:0:0:
320,192,119300,1,0,0:0:0:0:
320,192,119519,1,0,0:0:0:0:
192,192,119519,1,0,0:0:0:0:
64,192,119738,1,0,0:0:0:0:
320,192,119738,1,0,0:0:0:0:
192,192,119957,1,0,0:0:0:0:
448,192,120176,1,0,0:0:0:0:
64,192,120176,1,0,0:0:0:0:
448,192,120395,1,0,0:0:0:0:
320,192,120504,1,0,0:0:0:0:
192,192,120614,1,0,0:0:0:0:
64,192,120614,1,0,0:0:0:0:
192,192,120833,1,0,0:0:0:0:
64,192,120942,1,0,0:0:0:0:
448,192,120942,1,0,0:0:0:0:
192,192,121051,1,0,0:0:0:0:
192,192,121270,1,0,0:0:0:0:
320,192,121270,1,0,0:0:0:0:
448,192,121489,1,0,0:0:0:0:
192,192,121489,1,0,0:0:0:0:
320,192,121708,1,0,0:0:0:0:
64,192,121927,1,0,0:0:0:0:
192,192,121927,1,0,0:0:0:0:
448,192,121927,1,0,0:0:0:0:
192,192,122365,1,0,0:0:0:0:
320,192,122365,1,0,0:0:0:0:
448,192,122365,1,0,0:0:0:0:
64,192,122694,1,0,0:0:0:0:
448,192,122694,1,0,0:0:0:0:
192,192,122913,1,0,0:0:0:0:
192,192,123022,1,0,0:0:0:0:
64,192,123022,1,0,0:0:0:0:
448,192,123132,1,0,0:0:0:0:
320,192,123241,1,0,0:0:0:0:
64,192,123241,1,0,0:0:0:0:
448,192,123351,1,0,0:0:0:0:
192,192,123460,1,0,0:0:0:0:
64,192,123570,1,0,0:0:0:0:
448,192,123570,1,0,0:0:0:0:
320,192,123789,1,0,0:0:0:0:
448,192,123898,1,0,0:0:0:0:
320,192,123898,1,0,0:0:0:0:
64,192,124008,1,0,0:0:0:0:
448,192,124117,1,0,0:0:0:0:
192,192,124117,1,0,0:0:0:0:
64,192,124227,1,0,0:0:0:0:
320,192,124336,1,0,0:0:0:0:
448,192,124446,1,0,0:0:0:0:
64,192,124446,1,0,0:0:0:0:
192,192,124555,1,0,0:0:0:0:
320,192,124665,1,0,0:0:0:0:
64,192,124774,1,0,0:0:0:0:
192,192,124774,1,0,0:0:0:0:
320,192,124884,1,0,0:0:0:0:
448,192,124993,1,0,0:0:0:0:
64,192,124993,1,0,0:0:0:0:
192,192,125212,1,0,0:0:0:0:
320,192,125212,1,0,0:0:0:0:
448,192,125431,1,0,0:0:0:0:
320,192,125431,1,0,0:0:0:0:
64,192,125431,1,0,0:0:0:0:
320,192,125869,1,0,0:0:0:0:
192,192,125869,1,0,0:0:0:0:
64,192,125869,1,0,0:0:0:0:
448,192,126197,1,0,0:0:0:0:
64,192,126197,1,0,0:0:0:0:
320,192,126416,1,0,0:0:0:0:
320,192,126526,1,0,0:0:0:0:
448,192,126526,1,0,0:0:0:0:
64,192,126635,1,0,0:0:0:0:
192,192,126745,1,0,0:0:0:0:
448,192,126745,1,0,0:0:0:0:
64,192,126854,1,0,0:0:0:0:
320,192,126964,1,0,0:0:0:0:
448,192,127073,1,0,0:0:0:0:
64,192,127073,1,0,0:0:0:0:
192,192,127183,1,0,0:0:0:0:
320,192,127292,1,0,0:0:0:0:
448,192,127292,1,0,0:0:0:0:
192,192,127511,1,0,0:0:0:0:
320,192,127511,1,0,0:0:0:0:
192,192,127730,1,0,0:0:0:0:
64,192,127730,1,0,0:0:0:0:
64,192,127949,1,0,0:0:0:0:
448,192,127949,1,0,0:0:0:0:
448,192,128168,1,0,0:0:0:0:
320,192,128168,1,0,0:0:0:0:
64,192,128278,1,0,0:0:0:0:
192,192,128278,1,0,0:0:0:0:
64,192,128497,1,0,0:0:0:0:
448,192,128497,1,0,0:0:0:0:
320,192,128716,1,0,0:0:0:0:
192,192,128716,1,0,0:0:0:0:
64,192,128935,1,0,0:0:0:0:
192,192,128935,1,0,0:0:0:0:
448,192,128935,1,0,0:0:0:0:
192,192,129373,1,0,0:0:0:0:
320,192,129373,1,0,0:0:0:0:
448,192,129373,1,0,0:0:0:0:
64,192,129701,1,0,0:0:0:0:
448,192,129701,1,0,0:0:0:0:
192,192,129920,1,0,0:0:0:0:
192,192,130030,1,0,0:0:0:0:
64,192,130030,1,0,0:0:0:0:
448,192,130139,1,0,0:0:0:0:
320,192,130249,1,0,0:0:0:0:
64,192,130249,1,0,0:0:0:0:
448,192,130358,1,0,0:0:0:0:
192,192,130468,1,0,0:0:0:0:
64,192,130577,1,0,0:0:0:0:
448,192,130577,1,0,0:0:0:0:
320,192,130796,1,0,0:0:0:0:
448,192,130906,1,0,0:0:0:0:
320,192,130906,1,0,0:0:0:0:
64,192,131015,1,0,0:0:0:0:
448,192,131124,1,0,0:0:0:0:
192,192,131124,1,0,0:0:0:0:
64,192,131234,1,0,0:0:0:0:
320,192,131343,1,0,0:0:0:0:
448,192,131453,1,0,0:0:0:0:
64,192,131453,1,0,0:0:0:0:
192,192,131562,1,0,0:0:0:0:
320,192,131672,1,0,0:0:0:0:
64,192,131781,1,0,0:0:0:0:
192,192,131781,1,0,0:0:0:0:
320,192,131891,1,0,0:0:0:0:
448,192,132000,1,0,0:0:0:0:
64,192,132000,1,0,0:0:0:0:
192,192,132219,1,0,0:0:0:0:
320,192,132219,1,0,0:0:0:0:
448,192,132438,1,0,0:0:0:0:
320,192,132438,1,0,0:0:0:0:
64,192,132438,1,0,0:0:0:0:
320,192,132876,1,0,0:0:0:0:
192,192,132876,1,0,0:0:0:0:
64,192,132876,1,0,0:0:0:0:
448,192,133205,1,0,0:0:0:0:
64,192,133205,1,0,0:0:0:0:
320,192,133424,1,0,0:0:0:0:
320,192,133533,1,0,0:0:0:0:
448,192,133533,1,0,0:0:0:0:
64,192,133643,1,0,0:0:0:0:
192,192,133752,1,0,0:0:0:0:
448,192,133752,1,0,0:0:0:0:
64,192,133862,1,0,0:0:0:0:
320,192,133971,1,0,0:0:0:0:
64,192,134081,1,0,0:0:0:0:
192,192,134190,1,0,0:0:0:0:
448,192,134190,1,0,0:0:0:0:
448,192,134409,1,0,0:0:0:0:
320,192,134409,1,0,0:0:0:0:
64,192,134628,1,0,0:0:0:0:
192,192,134628,1,0,0:0:0:0:
320,192,134847,1,0,0:0:0:0:
64,192,134847,1,0,0:0:0:0:
448,192,135066,1,0,0:0:0:0:
192,192,135066,1,0,0:0:0:0:
320,192,135285,1,0,0:0:0:0:
448,192,135285,1,0,0:0:0:0:
320,192,135504,1,0,0:0:0:0:
64,192,135504,1,0,0:0:0:0:
192,192,135723,1,0,0:0:0:0:
64,192,135723,1,0,0:0:0:0:
320,192,135942,1,0,0:0:0:0:
448,192,135942,1,0,0:0:0:0:
64,192,135942,1,0,0:0:0:0:
320,192,136161,1,0,0:0:0:0:
192,192,136161,1,0,0:0:0:0:
64,192,136380,1,0,0:0:0:0:
448,192,136380,1,0,0:0:0:0:
448,192,136489,1,0,0:0:0:0:
192,192,136599,1,0,0:0:0:0:
192,192,136708,1,0,0:0:0:0:
320,192,136818,1,0,0:0:0:0:
64,192,136818,1,0,0:0:0:0:
320,192,136927,1,0,0:0:0:0:
448,192,137037,1,0,0:0:0:0:
192,192,137037,1,0,0:0:0:0:
448,192,137256,1,0,0:0:0:0:
192,192,137256,1,0,0:0:0:0:
192,192,137365,1,0,0:0:0:0:
320,192,137475,1,0,0:0:0:0:
64,192,137475,1,0,0:0:0:0:
320,192,137694,1,0,0:0:0:0:
448,192,137694,1,0,0:0:0:0:
192,192,137913,1,0,0:0:0:0:
448,192,138132,1,0,0:0:0:0:
192,192,138351,1,0,0:0:0:0:
320,192,138570,1,0,0:0:0:0:
192,192,138789,1,0,0:0:0:0:
448,192,139008,1,0,0:0:0:0:
320,192,139227,1,0,0:0:0:0:
192,192,139446,1,0,0:0:0:0:
320,192,139665,1,0,0:0:0:0:
64,192,139884,1,0,0:0:0:0:
320,192,140103,1,0,0:0:0:0:
192,192,140322,1,0,0:0:0:0:
320,192,140541,1,0,0:0:0:0:
64,192,140760,1,0,0:0:0:0:
192,192,140979,1,0,0:0:0:0:
448,192,141197,1,0,0:0:0:0:
192,192,141416,1,0,0:0:0:0:
448,192,141635,1,0,0:0:0:0:
320,192,141854,1,0,0:0:0:0:
448,192,142073,1,0,0:0:0:0:
192,192,142292,1,0,0:0:0:0:
448,192,142511,1,0,0:0:0:0:
320,192,142730,1,0,0:0:0:0:
64,192,142949,1,0,0:0:0:0:
320,192,143168,1,0,0:0:0:0:
64,192,143387,1,0,0:0:0:0:
192,192,143606,1,0,0:0:0:0:
64,192,143825,1,0,0:0:0:0:
320,192,144044,1,0,0:0:0:0:
64,192,144263,1,0,0:0:0:0:
192,192,144482,1,0,0:0:0:0:
320,192,144701,1,0,0:0:0:0:
448,192,144701,1,0,0:0:0:0:
64,192,144811,1,0,0:0:0:0:
320,192,144920,1,0,0:0:0:0:
192,192,145030,1,0,0:0:0:0:
64,192,145139,1,0,0:0:0:0:
448,192,145139,1,0,0:0:0:0:
320,192,145249,1,0,0:0:0:0:
192,192,145358,1,0,0:0:0:0:
448,192,145468,1,0,0:0:0:0:
320,192,145577,1,0,0:0:0:0:
64,192,145577,1,0,0:0:0:0:
192,192,145687,1,0,0:0:0:0:
320,192,145796,1,0,0:0:0:0:
64,192,145906,1,0,0:0:0:0:
192,192,146015,1,0,0:0:0:0:
448,192,146015,1,0,0:0:0:0:
64,192,146124,1,0,0:0:0:0:
320,192,146234,1,0,0:0:0:0:
448,192,146343,1,0,0:0:0:0:
192,192,146453,1,0,0:0:0:0:
64,192,146453,1,0,0:0:0:0:
448,192,146562,1,0,0:0:0:0:
192,192,146672,1,0,0:0:0:0:
320,192,146781,1,0,0:0:0:0:
448,192,146891,1,0,0:0:0:0:
64,192,146891,1,0,0:0:0:0:
192,192,147000,1,0,0:0:0:0:
320,192,147110,1,0,0:0:0:0:
64,192,147219,1,0,0:0:0:0:
448,192,147329,1,0,0:0:0:0:
192,192,147329,1,0,0:0:0:0:
320,192,147438,1,0,0:0:0:0:
192,192,147548,1,0,0:0:0:0:
448,192,147657,1,0,0:0:0:0:
320,192,147767,1,0,0:0:0:0:
64,192,147767,1,0,0:0:0:0:
448,192,147876,1,0,0:0:0:0:
192,192,147986,1,0,0:0:0:0:
64,192,148095,1,0,0:0:0:0:
320,192,148205,1,0,0:0:0:0:
448,192,148205,1,0,0:0:0:0:
192,192,148314,1,0,0:0:0:0:
448,192,148424,1,0,0:0:0:0:
320,192,148533,1,0,0:0:0:0:
64,192,148643,1,0,0:0:0:0:
192,192,148643,1,0,0:0:0:0:
448,192,148752,1,0,0:0:0:0:
320,192,148862,1,0,0:0:0:0:
64,192,148971,1,0,0:0:0:0:
448,192,149081,1,0,0:0:0:0:
192,192,149081,1,0,0:0:0:0:
320,192,149190,1,0,0:0:0:0:
192,192,149300,1,0,0:0:0:0:
320,192,149409,1,0,0:0:0:0:
64,192,149519,1,0,0:0:0:0:
448,192,149519,1,0,0:0:0:0:
192,192,149628,1,0,0:0:0:0:
448,192,149738,1,0,0:0:0:0:
320,192,149847,1,0,0:0:0:0:
64,192,149957,1,0,0:0:0:0:
448,192,149957,1,0,0:0:0:0:
192,192,149957,1,0,0:0:0:0:
320,192,150176,1,0,0:0:0:0:
192,192,150285,1,0,0:0:0:0:
448,192,150395,1,0,0:0:0:0:
64,192,150395,1,0,0:0:0:0:
320,192,150395,1,0,0:0:0:0:
192,192,150614,1,0,0:0:0:0:
320,192,150723,1,0,0:0:0:0:
448,192,150833,1,0,0:0:0:0:
64,192,150833,1,0,0:0:0:0:
192,192,150833,1,0,0:0:0:0:
320,192,151052,1,0,0:0:0:0:
192,192,151161,1,0,0:0:0:0:
448,192,151270,1,0,0:0:0:0:
320,192,151270,1,0,0:0:0:0:
64,192,151270,1,0,0:0:0:0:
192,192,151489,1,0,0:0:0:0:
320,192,151599,1,0,0:0:0:0:
192,192,151708,1,0,0:0:0:0:
64,192,151708,1,0,0:0:0:0:
448,192,151708,1,0,0:0:0:0:
448,192,151927,1,0,0:0:0:0:
320,192,152037,1,0,0:0:0:0:
192,192,152146,1,0,0:0:0:0:
64,192,152146,1,0,0:0:0:0:
448,192,152146,1,0,0:0:0:0:
64,192,152365,1,0,0:0:0:0:
192,192,152475,1,0,0:0:0:0:
320,192,152584,1,0,0:0:0:0:
448,192,152584,1,0,0:0:0:0:
64,192,152584,1,0,0:0:0:0:
448,192,152803,1,0,0:0:0:0:
320,192,152913,1,0,0:0:0:0:
448,192,153022,1,0,0:0:0:0:
192,192,153022,1,0,0:0:0:0:
64,192,153022,1,0,0:0:0:0:
192,192,153241,1,0,0:0:0:0:
320,192,153351,1,0,0:0:0:0:
192,192,153460,1,0,0:0:0:0:
64,192,153460,1,0,0:0:0:0:
448,192,153460,1,0,0:0:0:0:
64,192,153679,1,0,0:0:0:0:
192,192,153679,1,0,0:0:0:0:
320,192,153789,1,0,0:0:0:0:
192,192,153898,1,0,0:0:0:0:
64,192,153898,1,0,0:0:0:0:
448,192,153898,1,0,0:0:0:0:
192,192,154117,1,0,0:0:0:0:
320,192,154117,1,0,0:0:0:0:
64,192,154227,1,0,0:0:0:0:
192,192,154336,1,0,0:0:0:0:
320,192,154336,1,0,0:0:0:0:
448,192,154336,1,0,0:0:0:0:
320,192,154555,1,0,0:0:0:0:
448,192,154555,1,0,0:0:0:0:
192,192,154665,1,0,0:0:0:0:
320,192,154774,1,0,0:0:0:0:
448,192,154774,1,0,0:0:0:0:
64,192,154774,1,0,0:0:0:0:
448,192,154993,1,0,0:0:0:0:
192,192,154993,1,0,0:0:0:0:
320,192,155103,1,0,0:0:0:0:
192,192,155212,1,0,0:0:0:0:
64,192,155212,1,0,0:0:0:0:
448,192,155322,1,0,0:0:0:0:
192,192,155431,1,0,0:0:0:0:
448,192,155541,1,0,0:0:0:0:
320,192,155650,1,0,0:0:0:0:
64,192,155650,1,0,0:0:0:0:
448,192,155760,1,0,0:0:0:0:
192,192,155869,1,0,0:0:0:0:
448,192,155979,1,0,0:0:0:0:
64,192,156088,1,0,0:0:0:0:
320,192,156088,1,0,0:0:0:0:
320,192,156307,1,0,0:0:0:0:
64,192,156307,1,0,0:0:0:0:
448,192,156526,1,0,0:0:0:0:
192,192,156526,1,0,0:0:0:0:
192,192,156745,1,0,0:0:0:0:
320,192,156745,1,0,0:0:0:0:
448,192,156964,1,0,0:0:0:0:
320,192,156964,1,0,0:0:0:0:
448,192,157073,1,0,0:0:0:0:
192,192,157183,1,0,0:0:0:0:
64,192,157183,1,0,0:0:0:0:
192,192,157292,1,0,0:0:0:0:
448,192,157402,1,0,0:0:0:0:
320,192,157402,1,0,0:0:0:0:
448,192,157511,1,0,0:0:0:0:
64,192,157621,1,0,0:0:0:0:
192,192,157621,1,0,0:0:0:0:
64,192,157730,1,0,0:0:0:0:
448,192,157840,1,0,0:0:0:0:
320,192,157840,1,0,0:0:0:0:
320,192,157949,1,0,0:0:0:0:
192,192,158059,1,0,0:0:0:0:
448,192,158059,1,0,0:0:0:0:
192,192,158168,1,0,0:0:0:0:
64,192,158278,1,0,0:0:0:0:
320,192,158278,1,0,0:0:0:0:
320,192,158387,1,0,0:0:0:0:
192,192,158497,1,0,0:0:0:0:
448,192,158497,1,0,0:0:0:0:
192,192,158606,1,0,0:0:0:0:
448,192,158716,1,0,0:0:0:0:
64,192,158716,1,0,0:0:0:0:
448,192,158825,1,0,0:0:0:0:
64,192,158935,1,0,0:0:0:0:
192,192,158935,1,0,0:0:0:0:
64,192,159044,1,0,0:0:0:0:
448,192,159154,1,0,0:0:0:0:
320,192,159154,1,0,0:0:0:0:
448,192,159263,1,0,0:0:0:0:
64,192,159373,1,0,0:0:0:0:
192,192,159373,1,0,0:0:0:0:
64,192,159482,1,0,0:0:0:0:
320,192,159592,1,0,0:0:0:0:
448,192,159592,1,0,0:0:0:0:
320,192,159701,1,0,0:0:0:0:
192,192,159811,1,0,0:0:0:0:
64,192,159811,1,0,0:0:0:0:
192,192,159920,1,0,0:0:0:0:
448,192,160030,1,0,0:0:0:0:
64,192,160030,1,0,0:0:0:0:
320,192,160249,1,0,0:0:0:0:
192,192,160358,1,0,0:0:0:0:
448,192,160468,1,0,0:0:0:0:
64,192,160468,1,0,0:0:0:0:
448,192,160577,1,0,0:0:0:0:
64,192,160687,1,0,0:0:0:0:
320,192,160687,1,0,0:0:0:0:
64,192,160796,1,0,0:0:0:0:
448,192,160906,1,0,0:0:0:0:
192,192,160906,1,0,0:0:0:0:
448,192,161015,1,0,0:0:0:0:
64,192,161124,1,0,0:0:0:0:
320,192,161124,1,0,0:0:0:0:
64,192,161234,1,0,0:0:0:0:
192,192,161343,1,0,0:0:0:0:
448,192,161343,1,0,0:0:0:0:
192,192,161453,1,0,0:0:0:0:
320,192,161562,1,0,0:0:0:0:
64,192,161562,1,0,0:0:0:0:
320,192,161672,1,0,0:0:0:0:
64,192,161781,1,0,0:0:0:0:
448,192,161781,1,0,0:0:0:0:
64,192,161891,1,0,0:0:0:0:
320,192,162000,1,0,0:0:0:0:
192,192,162000,1,0,0:0:0:0:
320,192,162110,1,0,0:0:0:0:
64,192,162219,1,0,0:0:0:0:
448,192,162219,1,0,0:0:0:0:
64,192,162329,1,0,0:0:0:0:
192,192,162438,1,0,0:0:0:0:
320,192,162438,1,0,0:0:0:0:
192,192,162548,1,0,0:0:0:0:
448,192,162657,1,0,0:0:0:0:
64,192,162657,1,0,0:0:0:0:
448,192,162767,1,0,0:0:0:0:
320,192,162876,1,0,0:0:0:0:
192,192,162876,1,0,0:0:0:0:
320,192,162986,1,0,0:0:0:0:
64,192,163095,1,0,0:0:0:0:
448,192,163095,1,0,0:0:0:0:
64,192,163205,1,0,0:0:0:0:
448,192,163314,1,0,0:0:0:0:
320,192,163314,1,0,0:0:0:0:
448,192,163424,1,0,0:0:0:0:
192,192,163533,1,0,0:0:0:0:
64,192,163533,1,0,0:0:0:0:
192,192,163752,1,0,0:0:0:0:
320,192,163752,1,0,0:0:0:0:
448,192,163971,1,0,0:0:0:0:
320,192,163971,1,0,0:0:0:0:
448,192,164081,1,0,0:0:0:0:
192,192,164190,1,0,0:0:0:0:
64,192,164190,1,0,0:0:0:0:
192,192,164300,1,0,0:0:0:0:
448,192,164409,1,0,0:0:0:0:
320,192,164409,1,0,0:0:0:0:
448,192,164519,1,0,0:0:0:0:
64,192,164628,1,0,0:0:0:0:
192,192,164628,1,0,0:0:0:0:
64,192,164738,1,0,0:0:0:0:
448,192,164847,1,0,0:0:0:0:
320,192,164847,1,0,0:0:0:0:
320,192,164957,1,0,0:0:0:0:
192,192,165066,1,0,0:0:0:0:
448,192,165066,1,0,0:0:0:0:
192,192,165176,1,0,0:0:0:0:
64,192,165285,1,0,0:0:0:0:
320,192,165285,1,0,0:0:0:0:
320,192,165395,1,0,0:0:0:0:
192,192,165504,1,0,0:0:0:0:
448,192,165504,1,0,0:0:0:0:
192,192,165614,1,0,0:0:0:0:
448,192,165723,1,0,0:0:0:0:
64,192,165723,1,0,0:0:0:0:
448,192,165833,1,0,0:0:0:0:
64,192,165942,1,0,0:0:0:0:
192,192,165942,1,0,0:0:0:0:
64,192,166052,1,0,0:0:0:0:
448,192,166161,1,0,0:0:0:0:
320,192,166161,1,0,0:0:0:0:
448,192,166270,1,0,0:0:0:0:
64,192,166380,1,0,0:0:0:0:
192,192,166380,1,0,0:0:0:0:
64,192,166489,1,0,0:0:0:0:
320,192,166599,1,0,0:0:0:0:
448,192,166599,1,0,0:0:0:0:
320,192,166708,1,0,0:0:0:0:
192,192,166818,1,0,0:0:0:0:
64,192,166818,1,0,0:0:0:0:
192,192,166927,1,0,0:0:0:0:
448,192,167037,1,0,0:0:0:0:
64,192,167037,1,0,0:0:0:0:
320,192,167256,1,0,0:0:0:0:
448,192,167256,1,0,0:0:0:0:
192,192,167365,1,0,0:0:0:0:
320,192,167475,1,0,0:0:0:0:
64,192,167475,1,0,0:0:0:0:
64,192,167584,1,0,0:0:0:0:
448,192,167694,1,0,0:0:0:0:
64,192,167694,1,0,0:0:0:0:
192,192,167803,1,0,0:0:0:0:
320,192,167913,1,0,0:0:0:0:
448,192,167913,1,0,0:0:0:0:
320,192,168022,1,0,0:0:0:0:
64,192,168132,1,0,0:0:0:0:
320,192,168132,1,0,0:0:0:0:
448,192,168241,1,0,0:0:0:0:
192,192,168351,1,0,0:0:0:0:
64,192,168351,1,0,0:0:0:0:
192,192,168460,1,0,0:0:0:0:
448,192,168570,1,0,0:0:0:0:
192,192,168570,1,0,0:0:0:0:
320,192,168679,1,0,0:0:0:0:
64,192,168789,1,0,0:0:0:0:
448,192,168789,1,0,0:0:0:0:
448,192,168898,1,0,0:0:0:0:
448,192,169008,1,0,0:0:0:0:
192,192,169008,1,0,0:0:0:0:
320,192,169117,1,0,0:0:0:0:
192,192,169227,1,0,0:0:0:0:
64,192,169227,1,0,0:0:0:0:
64,192,169336,1,0,0:0:0:0:
64,192,169446,1,0,0:0:0:0:
448,192,169446,1,0,0:0:0:0:
192,192,169555,1,0,0:0:0:0:
448,192,169665,1,0,0:0:0:0:
320,192,169665,1,0,0:0:0:0:
320,192,169774,1,0,0:0:0:0:
64,192,169884,1,0,0:0:0:0:
320,192,169884,1,0,0:0:0:0:
448,192,169993,1,0,0:0:0:0:
192,192,170103,1,0,0:0:0:0:
64,192,170103,1,0,0:0:0:0:
192,192,170212,1,0,0:0:0:0:
192,192,170322,1,0,0:0:0:0:
448,192,170322,1,0,0:0:0:0:
320,192,170431,1,0,0:0:0:0:
192,192,170541,1,0,0:0:0:0:
64,192,170541,1,0,0:0:0:0:
192,192,170760,1,0,0:0:0:0:
320,192,170760,1,0,0:0:0:0:
320,192,170979,1,0,0:0:0:0:
448,192,170979,1,0,0:0:0:0:
448,192,171088,1,0,0:0:0:0:
64,192,171197,1,0,0:0:0:0:
448,192,171197,1,0,0:0:0:0:
320,192,171307,1,0,0:0:0:0:
192,192,171416,1,0,0:0:0:0:
64,192,171416,1,0,0:0:0:0:
192,192,171526,1,0,0:0:0:0:
448,192,171635,1,0,0:0:0:0:
192,192,171635,1,0,0:0:0:0:
64,192,171745,1,0,0:0:0:0:
320,192,171854,1,0,0:0:0:0:
448,192,171854,1,0,0:0:0:0:
320,192,171964,1,0,0:0:0:0:
64,192,172073,1,0,0:0:0:0:
320,192,172073,1,0,0:0:0:0:
192,192,172183,1,0,0:0:0:0:
448,192,172292,1,0,0:0:0:0:
64,192,172292,1,0,0:0:0:0:
64,192,172402,1,0,0:0:0:0:
64,192,172511,1,0,0:0:0:0:
320,192,172511,1,0,0:0:0:0:
192,192,172621,1,0,0:0:0:0:
320,192,172730,1,0,0:0:0:0:
448,192,172730,1,0,0:0:0:0:
448,192,172840,1,0,0:0:0:0:
448,192,172949,1,0,0:0:0:0:
64,192,172949,1,0,0:0:0:0:
320,192,173059,1,0,0:0:0:0:
64,192,173168,1,0,0:0:0:0:
192,192,173168,1,0,0:0:0:0:
192,192,173278,1,0,0:0:0:0:
448,192,173387,1,0,0:0:0:0:
320,192,173387,1,0,0:0:0:0:
192,192,173497,1,0,0:0:0:0:
64,192,173497,1,0,0:0:0:0:
320,192,173606,1,0,0:0:0:0:
448,192,173606,1,0,0:0:0:0:
320,192,173716,1,0,0:0:0:0:
448,192,173716,1,0,0:0:0:0:
192,192,173825,1,0,0:0:0:0:
64,192,173825,1,0,0:0:0:0:
192,192,173935,1,0,0:0:0:0:
64,192,173935,1,0,0:0:0:0:
64,192,174044,1,0,0:0:0:0:
448,192,174044,1,0,0:0:0:0:
320,192,174044,1,0,0:0:0:0:
448,192,174482,1,0,0:0:0:0:
192,192,174592,1,0,0:0:0:0:
448,192,174701,1,0,0:0:0:0:
320,192,174811,1,0,0:0:0:0:
448,192,174920,1,0,0:0:0:0:
192,192,175030,1,0,0:0:0:0:
448,192,175139,1,0,0:0:0:0:
320,192,175249,1,0,0:0:0:0:
448,192,175358,1,0,0:0:0:0:
192,192,175468,1,0,0:0:0:0:
448,192,175577,1,0,0:0:0:0:
320,192,175687,1,0,0:0:0:0:
448,192,175796,1,0,0:0:0:0:
192,192,175906,1,0,0:0:0:0:
448,192,176015,1,0,0:0:0:0:
320,192,176124,1,0,0:0:0:0:
64,192,176234,1,0,0:0:0:0:
192,192,176343,1,0,0:0:0:0:
64,192,176453,1,0,0:0:0:0:
320,192,176562,1,0,0:0:0:0:
64,192,176672,1,0,0:0:0:0:
192,192,176781,1,0,0:0:0:0:
64,192,176891,1,0,0:0:0:0:
320,192,177000,1,0,0:0:0:0:
64,192,177110,1,0,0:0:0:0:
192,192,177219,1,0,0:0:0:0:
64,192,177329,1,0,0:0:0:0:
320,192,177438,1,0,0:0:0:0:
64,192,177548,1,0,0:0:0:0:
192,192,177657,1,0,0:0:0:0:
64,192,177767,1,0,0:0:0:0:
320,192,177876,1,0,0:0:0:0:
192,192,177986,1,0,0:0:0:0:
448,192,178095,1,0,0:0:0:0:
192,192,178205,1,0,0:0:0:0:
320,192,178314,1,0,0:0:0:0:
192,192,178424,1,0,0:0:0:0:
448,192,178533,1,0,0:0:0:0:
192,192,178643,1,0,0:0:0:0:
320,192,178752,1,0,0:0:0:0:
192,192,178862,1,0,0:0:0:0:
448,192,178971,1,0,0:0:0:0:
192,192,179081,1,0,0:0:0:0:
320,192,179190,1,0,0:0:0:0:
192,192,179300,1,0,0:0:0:0:
448,192,179409,1,0,0:0:0:0:
192,192,179519,1,0,0:0:0:0:
64,192,179628,1,0,0:0:0:0:
320,192,179738,1,0,0:0:0:0:
192,192,179847,1,0,0:0:0:0:
320,192,179957,1,0,0:0:0:0:
64,192,180066,1,0,0:0:0:0:
320,192,180176,1,0,0:0:0:0:
192,192,180285,1,0,0:0:0:0:
320,192,180395,1,0,0:0:0:0:
64,192,180504,1,0,0:0:0:0:
320,192,180614,1,0,0:0:0:0:
192,192,180723,1,0,0:0:0:0:
320,192,180833,1,0,0:0:0:0:
64,192,180942,1,0,0:0:0:0:
320,192,181052,1,0,0:0:0:0:
448,192,181489,1,0,0:0:0:0:
192,192,181489,1,0,0:0:0:0:
448,192,181599,1,0,0:0:0:0:
192,192,181708,1,0,0:0:0:0:
64,192,181818,1,0,0:0:0:0:
448,192,181927,1,0,0:0:0:0:
320,192,181927,1,0,0:0:0:0:
320,192,182037,1,0,0:0:0:0:
64,192,182146,1,0,0:0:0:0:
192,192,182256,1,0,0:0:0:0:
448,192,182256,1,0,0:0:0:0:
320,192,182365,1,0,0:0:0:0:
64,192,182365,1,0,0:0:0:0:
64,192,182475,1,0,0:0:0:0:
320,192,182584,1,0,0:0:0:0:
448,192,182584,1,0,0:0:0:0:
64,192,182694,1,0,0:0:0:0:
192,192,182803,1,0,0:0:0:0:
448,192,182803,1,0,0:0:0:0:
192,192,182913,1,0,0:0:0:0:
320,192,183022,1,0,0:0:0:0:
64,192,183132,1,0,0:0:0:0:
448,192,183241,1,0,0:0:0:0:
192,192,183241,1,0,0:0:0:0:
448,192,183351,1,0,0:0:0:0:
192,192,183460,1,0,0:0:0:0:
64,192,183570,1,0,0:0:0:0:
448,192,183679,1,0,0:0:0:0:
320,192,183679,1,0,0:0:0:0:
320,192,183789,1,0,0:0:0:0:
64,192,183898,1,0,0:0:0:0:
192,192,184008,1,0,0:0:0:0:
448,192,184008,1,0,0:0:0:0:
320,192,184117,1,0,0:0:0:0:
64,192,184117,1,0,0:0:0:0:
64,192,184227,1,0,0:0:0:0:
320,192,184336,1,0,0:0:0:0:
448,192,184336,1,0,0:0:0:0:
64,192,184446,1,0,0:0:0:0:
192,192,184555,1,0,0:0:0:0:
448,192,184555,1,0,0:0:0:0:
192,192,184665,1,0,0:0:0:0:
320,192,184774,1,0,0:0:0:0:
64,192,184884,1,0,0:0:0:0:
192,192,184993,1,0,0:0:0:0:
448,192,184993,1,0,0:0:0:0:
448,192,185103,1,0,0:0:0:0:
64,192,185212,1,0,0:0:0:0:
320,192,185322,1,0,0:0:0:0:
192,192,185431,1,0,0:0:0:0:
448,192,185431,1,0,0:0:0:0:
192,192,185541,1,0,0:0:0:0:
448,192,185650,1,0,0:0:0:0:
64,192,185760,1,0,0:0:0:0:
192,192,185760,1,0,0:0:0:0:
448,192,185869,1,0,0:0:0:0:
320,192,185869,1,0,0:0:0:0:
320,192,185979,1,0,0:0:0:0:
64,192,186088,1,0,0:0:0:0:
192,192,186088,1,0,0:0:0:0:
320,192,186197,1,0,0:0:0:0:
448,192,186307,1,0,0:0:0:0:
64,192,186307,1,0,0:0:0:0:
64,192,186416,1,0,0:0:0:0:
320,192,186526,1,0,0:0:0:0:
192,192,186635,1,0,0:0:0:0:
320,192,186745,1,0,0:0:0:0:
64,192,186745,1,0,0:0:0:0:
64,192,186854,1,0,0:0:0:0:
448,192,186964,1,0,0:0:0:0:
192,192,187073,1,0,0:0:0:0:
320,192,187183,1,0,0:0:0:0:
64,192,187183,1,0,0:0:0:0:
320,192,187292,1,0,0:0:0:0:
64,192,187402,1,0,0:0:0:0:
448,192,187511,1,0,0:0:0:0:
320,192,187511,1,0,0:0:0:0:
64,192,187621,1,0,0:0:0:0:
192,192,187621,1,0,0:0:0:0:
192,192,187730,1,0,0:0:0:0:
448,192,187840,1,0,0:0:0:0:
320,192,187840,1,0,0:0:0:0:
192,192,187949,1,0,0:0:0:0:
64,192,188059,1,0,0:0:0:0:
448,192,188059,1,0,0:0:0:0:
448,192,188168,1,0,0:0:0:0:
192,192,188278,1,0,0:0:0:0:
320,192,188387,1,0,0:0:0:0:
448,192,188497,1,0,0:0:0:0:
64,192,188497,1,0,0:0:0:0:
64,192,188606,1,0,0:0:0:0:
320,192,188716,1,0,0:0:0:0:
192,192,188825,1,0,0:0:0:0:
64,192,188935,1,0,0:0:0:0:
448,192,188935,1,0,0:0:0:0:
448,192,189044,1,0,0:0:0:0:
192,192,189154,1,0,0:0:0:0:
448,192,189263,1,0,0:0:0:0:
64,192,189263,1,0,0:0:0:0:
192,192,189373,1,0,0:0:0:0:
192,192,189482,1,0,0:0:0:0:
448,192,189592,1,0,0:0:0:0:
320,192,189592,1,0,0:0:0:0:
64,192,189701,1,0,0:0:0:0:
320,192,189811,1,0,0:0:0:0:
192,192,189811,1,0,0:0:0:0:
320,192,189920,1,0,0:0:0:0:
64,192,190030,1,0,0:0:0:0:
320,192,190139,1,0,0:0:0:0:
64,192,190249,1,0,0:0:0:0:
448,192,190249,1,0,0:0:0:0:
448,192,190358,1,0,0:0:0:0:
192,192,190468,1,0,0:0:0:0:
320,192,190577,1,0,0:0:0:0:
448,192,190687,1,0,0:0:0:0:
64,192,190687,1,0,0:0:0:0:
64,192,190796,1,0,0:0:0:0:
320,192,190906,1,0,0:0:0:0:
64,192,191015,1,0,0:0:0:0:
448,192,191015,1,0,0:0:0:0:
320,192,191124,1,0,0:0:0:0:
320,192,191234,1,0,0:0:0:0:
64,192,191343,1,0,0:0:0:0:
192,192,191343,1,0,0:0:0:0:
448,192,191453,1,0,0:0:0:0:
192,192,191562,1,0,0:0:0:0:
320,192,191562,1,0,0:0:0:0:
192,192,191672,1,0,0:0:0:0:
448,192,191781,1,0,0:0:0:0:
192,192,191891,1,0,0:0:0:0:
64,192,192000,1,0,0:0:0:0:
320,192,192000,1,0,0:0:0:0:
320,192,192110,1,0,0:0:0:0:
64,192,192219,1,0,0:0:0:0:
192,192,192329,1,0,0:0:0:0:
448,192,192438,1,0,0:0:0:0:
320,192,192438,1,0,0:0:0:0:
448,192,192548,1,0,0:0:0:0:
64,192,192657,1,0,0:0:0:0:
448,192,192767,1,0,0:0:0:0:
192,192,192767,1,0,0:0:0:0:
64,192,192876,1,0,0:0:0:0:
320,192,192876,1,0,0:0:0:0:
64,192,192986,1,0,0:0:0:0:
448,192,193095,1,0,0:0:0:0:
320,192,193095,1,0,0:0:0:0:
64,192,193205,1,0,0:0:0:0:
448,192,193314,1,0,0:0:0:0:
192,192,193314,1,0,0:0:0:0:
192,192,193424,1,0,0:0:0:0:
320,192,193533,1,0,0:0:0:0:
64,192,193643,1,0,0:0:0:0:
448,192,193752,1,0,0:0:0:0:
192,192,193752,1,0,0:0:0:0:
192,192,193862,1,0,0:0:0:0:
448,192,193971,1,0,0:0:0:0:
320,192,194081,1,0,0:0:0:0:
64,192,194190,1,0,0:0:0:0:
192,192,194190,1,0,0:0:0:0:
64,192,194300,1,0,0:0:0:0:
448,192,194409,5,0,0:0:0:0:
64,192,194519,1,0,0:0:0:0:
320,192,194519,1,0,0:0:0:0:
448,192,194628,1,0,0:0:0:0:
192,192,194628,1,0,0:0:0:0:
448,192,194738,1,0,0:0:0:0:
64,192,194847,1,0,0:0:0:0:
192,192,194847,1,0,0:0:0:0:
448,192,194957,1,0,0:0:0:0:
64,192,195066,1,0,0:0:0:0:
320,192,195066,1,0,0:0:0:0:
320,192,195176,1,0,0:0:0:0:
192,192,195285,1,0,0:0:0:0:
448,192,195395,1,0,0:0:0:0:
320,192,195504,5,0,0:0:0:0:
64,192,195504,1,0,0:0:0:0:
320,192,195723,1,0,0:0:0:0:
448,192,195833,1,0,0:0:0:0:
192,192,195942,1,0,0:0:0:0:
64,192,195942,1,0,0:0:0:0:
192,192,196052,1,0,0:0:0:0:
64,192,196270,1,0,0:0:0:0:
320,192,196270,1,0,0:0:0:0:
448,192,196380,1,0,0:0:0:0:
64,192,196489,1,0,0:0:0:0:
448,192,196599,1,0,0:0:0:0:
64,192,196599,1,0,0:0:0:0:
320,192,196708,1,0,0:0:0:0:
192,192,196818,1,0,0:0:0:0:
64,192,196818,1,0,0:0:0:0:
448,192,196927,1,0,0:0:0:0:
64,192,197037,1,0,0:0:0:0:
320,192,197146,1,0,0:0:0:0:
192,192,197256,1,0,0:0:0:0:
448,192,197256,1,0,0:0:0:0:
192,192,197475,1,0,0:0:0:0:
64,192,197584,1,0,0:0:0:0:
320,192,197694,1,0,0:0:0:0:
448,192,197694,1,0,0:0:0:0:
320,192,197803,1,0,0:0:0:0:
448,192,198022,1,0,0:0:0:0:
192,192,198022,1,0,0:0:0:0:
64,192,198132,1,0,0:0:0:0:
448,192,198241,1,0,0:0:0:0:
64,192,198351,1,0,0:0:0:0:
448,192,198351,1,0,0:0:0:0:
192,192,198460,1,0,0:0:0:0:
448,192,198570,1,0,0:0:0:0:
320,192,198570,1,0,0:0:0:0:
64,192,198679,1,0,0:0:0:0:
320,192,198789,1,0,0:0:0:0:
192,192,198898,1,0,0:0:0:0:
448,192,199008,1,0,0:0:0:0:
64,192,199008,1,0,0:0:0:0:
448,192,199227,1,0,0:0:0:0:
320,192,199336,1,0,0:0:0:0:
192,192,199446,1,0,0:0:0:0:
64,192,199446,1,0,0:0:0:0:
192,192,199555,1,0,0:0:0:0:
64,192,199774,1,0,0:0:0:0:
320,192,199774,1,0,0:0:0:0:
448,192,199884,1,0,0:0:0:0:
64,192,199993,1,0,0:0:0:0:
448,192,200103,1,0,0:0:0:0:
64,192,200103,1,0,0:0:0:0:
320,192,200212,1,0,0:0:0:0:
192,192,200322,1,0,0:0:0:0:
64,192,200322,1,0,0:0:0:0:
448,192,200431,1,0,0:0:0:0:
64,192,200541,1,0,0:0:0:0:
320,192,200650,1,0,0:0:0:0:
192,192,200760,1,0,0:0:0:0:
448,192,200760,1,0,0:0:0:0:
192,192,200979,1,0,0:0:0:0:
64,192,201088,1,0,0:0:0:0:
320,192,201197,1,0,0:0:0:0:
448,192,201197,1,0,0:0:0:0:
320,192,201307,1,0,0:0:0:0:
448,192,201526,1,0,0:0:0:0:
192,192,201526,1,0,0:0:0:0:
64,192,201635,1,0,0:0:0:0:
448,192,201745,1,0,0:0:0:0:
64,192,201854,1,0,0:0:0:0:
448,192,201854,1,0,0:0:0:0:
192,192,201964,1,0,0:0:0:0:
448,192,202073,1,0,0:0:0:0:
320,192,202073,1,0,0:0:0:0:
64,192,202183,1,0,0:0:0:0:
320,192,202292,1,0,0:0:0:0:
448,192,202292,1,0,0:0:0:0:
64,192,202402,1,0,0:0:0:0:
