osu file format v14

[General]
AudioFilename: unable.mp3
AudioLeadIn: 0
PreviewTime: 44262
Countdown: 1
SampleSet: None
StackLeniency: 0.7
Mode: 0
LetterboxInBreaks: 0
WidescreenStoryboard: 0

[Editor]
Bookmarks: 7898,9376,29716,44262,58807,66080,80626,95171,109716,127898
DistanceSpacing: 1.9
BeatDivisor: 4
GridSize: 4
TimelineZoom: 1.6

[Metadata]
Title:Dekinai Sagi
TitleUnicode:デキナイ詐欺
Artist:EZFG
ArtistUnicode:EZFG
Creator:vipto
Version:Deceive
Source:
Tags:VY2 Camui Gackpo
BeatmapID:1169564
BeatmapSetID:552203

[Difficulty]
HPDrainRate:7
CircleSize:4
OverallDifficulty:8
ApproachRate:8.5
SliderMultiplier:1.8
SliderTickRate:1

[Events]
//Background and Video events
0,0,"music3.jpg",0,0
//Break Periods
//Storyboard Layer 0 (Background)
//Storyboard Layer 1 (Fail)
//Storyboard Layer 2 (Pass)
//Storyboard Layer 3 (Foreground)
//Storyboard Sound Samples

[TimingPoints]
626,454.545454545455,4,3,0,75,1,0
7898,-100,4,3,0,75,0,0
8807,-90.9090909090909,4,3,0,75,0,0
9716,-83.3333333333333,4,3,0,75,0,0
10626,-76.9230769230769,4,3,0,75,0,0
11535,-83.3333333333333,4,3,0,75,0,0
12444,-90.9090909090909,4,3,0,75,0,0
13353,-100,4,3,0,75,0,0
14489,-50,4,3,0,75,0,0
15171,-100,4,3,0,75,0,0
29716,-200,4,3,0,75,0,0
44262,-100,4,3,0,75,0,1
58807,-100,4,3,0,75,0,0
80626,-200,4,3,0,75,0,0
95171,-100,4,3,0,75,0,1
109716,-100,4,3,0,75,0,0
118807,-200,4,3,0,75,0,0

[Colours]
Combo1 : 255,58,23
Combo2 : 0,124,185

[HitObjects]
70,302,626,6,0,L|57:194,1,90
163,239,1080,2,0,P|220:177|317:179,1,180
265,274,1762,1,0,0:0:0:0:
409,219,1989,2,0,P|429:183|448:122,1,90
475,329,2444,2,0,L|284:339,1,180
187,344,3126,1,0,0:0:0:0:
187,344,3580,1,0,0:0:0:0:
154,187,3807,2,0,L|189:88,1,90
274,42,4262,6,0,B|321:23|360:40|360:40|404:60|449:41,1,180
492,140,4944,2,0,L|483:324,1,180
378,347,5626,2,0,P|334:335|282:295,1,90
229,133,6080,1,0,0:0:0:0:
297,310,6535,2,0,L|451:298,1,135
463,297,6989,1,0,0:0:0:0:
463,297,7216,1,0,0:0:0:0:
385,175,7444,2,0,L|295:181,1,90
140,238,7898,6,0,L|140:148,1,90
40,196,8353,1,0,0:0:0:0:
40,196,8580,1,0,0:0:0:0:
169,242,8807,6,0,L|169:143,1,99.0000030212403
40,196,9262,1,0,0:0:0:0:
40,196,9489,1,0,0:0:0:0:
201,246,9716,6,0,L|201:138,1,107.999996704102
40,196,10171,1,0,0:0:0:0:
40,196,10398,1,0,0:0:0:0:
235,251,10626,6,0,L|235:134,1,116.999994644165
40,196,11080,1,0,0:0:0:0:
40,196,11307,1,0,0:0:0:0:
267,138,11535,6,0,L|267:246,1,107.999996704102
424,192,11989,1,0,0:0:0:0:
424,192,12217,1,0,0:0:0:0:
296,143,12444,6,0,L|296:242,1,99.0000030212403
424,192,12898,1,0,0:0:0:0:
424,192,13126,1,0,0:0:0:0:
325,147,13353,6,0,L|325:237,1,90
424,192,13807,2,0,L|424:356,1,135
424,327,14262,1,0,0:0:0:0:
256,351,14489,2,0,B|255:270|255:270|146:270|146:270|146:357|146:357,1,270
146,351,14944,1,0,0:0:0:0:
44,188,15171,6,0,L|44:60,1,90
183,30,15626,2,0,L|183:122,1,90
276,173,16080,1,0,0:0:0:0:
183,227,16307,1,0,0:0:0:0:
368,116,16535,2,0,L|468:53,1,90
276,173,16989,5,0,0:0:0:0:
183,120,17216,1,0,0:0:0:0:
369,228,17444,2,0,L|471:288,1,90
363,341,17898,1,0,0:0:0:0:
363,341,18012,1,0,0:0:0:0:
363,341,18126,1,0,0:0:0:0:
464,184,18353,1,0,0:0:0:0:
426,17,18580,1,0,0:0:0:0:
295,126,18807,2,0,L|194:140,1,90
110,331,19262,2,0,L|211:317,1,90
306,304,19716,5,0,0:0:0:0:
306,304,19830,1,0,0:0:0:0:
306,304,19944,1,0,0:0:0:0:
110,331,20171,1,0,0:0:0:0:
193,181,20398,1,0,0:0:0:0:
93,138,20626,6,0,L|-11:93,1,90
193,181,21080,1,0,0:0:0:0:
311,58,21307,1,0,0:0:0:0:
330,141,21421,1,0,0:0:0:0:
349,224,21535,2,0,L|318:316,1,90
330,141,21989,1,0,0:0:0:0:
430,311,22216,1,0,0:0:0:0:
222,307,22444,6,0,L|123:307,1,90
48,158,22898,1,0,0:0:0:0:
132,307,23126,1,0,0:0:0:0:
214,157,23353,6,0,L|255:52,1,90
416,57,23807,2,0,L|375:162,1,90
312,297,24262,5,0,0:0:0:0:
214,157,24489,2,0,L|163:72,1,90
60,213,24944,1,0,0:0:0:0:
198,313,25171,2,0,L|300:264,1,90
432,197,25626,1,0,0:0:0:0:
505,351,25853,1,0,0:0:0:0:
432,197,26080,6,0,L|388:95,1,90
226,90,26535,2,0,L|270:192,1,90
307,270,26989,1,0,0:0:0:0:
307,270,27216,1,0,0:0:0:0:
91,150,27444,2,0,L|56:68,1,90
203,296,27898,6,0,P|162:283|129:311,1,90
307,270,28353,2,0,B|325:223|284:184|313:124,1,135
326,106,28807,1,0,0:0:0:0:
307,270,29035,1,0,0:0:0:0:
227,285,29148,1,0,0:0:0:0:
147,300,29262,1,0,0:0:0:0:
385,256,29489,1,0,0:0:0:0:
80,192,29716,6,0,L|31:104,1,90
36,113,30398,1,0,0:0:0:0:
192,192,30626,2,0,L|143:104,1,90
148,113,31307,1,0,0:0:0:0:
304,192,31535,2,0,L|255:104,1,90
260,113,32216,1,0,0:0:0:0:
416,192,32444,2,0,L|373:116,1,67.5
383,132,32898,1,0,0:0:0:0:
382,133,33126,1,0,0:0:0:0:
191,264,33353,6,0,P|152:279|97:295,1,90
105,292,34035,1,0,0:0:0:0:
225,191,34262,6,0,P|231:149|245:94,1,90
243,102,34944,1,0,0:0:0:0:
272,257,35171,6,0,P|304:283|345:322,1,90
225,191,35853,1,0,0:0:0:0:
191,264,35967,1,0,0:0:0:0:
272,257,36081,1,0,0:0:0:0:
217,57,36307,1,0,0:0:0:0:
378,118,36535,2,0,L|437:97,1,45
140,141,36989,6,0,P|90:155|51:174,1,90
140,141,37671,1,0,0:0:0:0:
324,168,37898,2,0,P|283:151|239:143,1,90
324,168,38580,1,0,0:0:0:0:
431,323,38807,2,0,P|415:281|386:232,1,90
431,323,39489,1,0,0:0:0:0:
450,56,39716,2,0,P|443:86|438:122,1,67.5
437,122,40171,1,0,0:0:0:0:
431,323,40398,1,0,0:0:0:0:
291,255,40626,6,0,P|273:210|255:154,1,90
364,58,41307,1,0,0:0:0:0:
441,40,41421,1,0,0:0:0:0:
422,116,41535,1,0,0:0:0:0:
291,255,41762,1,0,0:0:0:0:
453,273,41989,1,0,0:0:0:0:
291,255,42216,1,0,0:0:0:0:
212,263,42330,1,0,0:0:0:0:
133,271,42444,6,0,L|70:257,1,45
30,79,42898,2,0,L|93:93,1,45
180,110,43353,1,0,0:0:0:0:
285,130,43580,1,0,0:0:0:0:
390,150,43807,1,0,0:0:0:0:
496,171,44035,1,0,0:0:0:0:
301,323,44262,5,0,0:0:0:0:
220,336,44376,1,0,0:0:0:0:
291,298,44489,1,0,0:0:0:0:
427,228,44716,1,0,0:0:0:0:
498,190,44829,1,0,0:0:0:0:
417,203,44943,1,0,0:0:0:0:
273,149,45171,2,0,L|255:42,1,90
404,13,45626,1,0,0:0:0:0:
482,30,45739,1,0,0:0:0:0:
401,42,45853,1,0,0:0:0:0:
258,60,46080,6,0,L|272:148,1,90
381,258,46535,1,0,0:0:0:0:
455,289,46648,1,0,0:0:0:0:
373,292,46762,1,0,0:0:0:0:
273,149,46989,1,0,0:0:0:0:
177,29,47216,1,0,0:0:0:0:
96,23,47330,1,0,0:0:0:0:
131,96,47444,1,0,0:0:0:0:
273,149,47671,1,0,0:0:0:0:
420,108,47898,5,0,0:0:0:0:
501,103,48012,1,0,0:0:0:0:
425,133,48126,1,0,0:0:0:0:
273,149,48353,2,0,L|259:238,1,90
113,284,48807,1,0,0:0:0:0:
32,289,48921,1,0,0:0:0:0:
108,259,49035,1,0,0:0:0:0:
259,238,49262,2,0,L|273:149,1,90
156,50,49716,5,0,0:0:0:0:
75,59,49830,1,0,0:0:0:0:
119,126,49944,1,0,0:0:0:0:
273,149,50171,2,0,L|385:154,1,90
409,86,50512,1,0,0:0:0:0:
425,249,50626,2,0,L|444:161,1,90
302,25,51080,2,0,L|283:113,1,90
138,163,51535,5,0,0:0:0:0:
56,160,51648,1,0,0:0:0:0:
134,185,51762,1,0,0:0:0:0:
269,254,51989,1,0,0:0:0:0:
351,257,52102,1,0,0:0:0:0:
273,232,52216,1,0,0:0:0:0:
149,323,52444,1,0,0:0:0:0:
67,320,52557,1,0,0:0:0:0:
145,345,52671,2,0,L|262:362,1,90
358,267,53126,1,0,0:0:0:0:
317,119,53353,5,0,0:0:0:0:
336,40,53466,1,0,0:0:0:0:
355,118,53580,1,0,0:0:0:0:
358,267,53807,1,0,0:0:0:0:
339,346,53920,1,0,0:0:0:0:
320,268,54034,1,0,0:0:0:0:
214,156,54262,2,0,L|110:135,1,90
35,233,54603,1,0,0:0:0:0:
35,233,54716,2,0,L|139:254,1,90
275,246,55171,5,0,0:0:0:0:
304,321,55285,1,0,0:0:0:0:
224,309,55398,1,0,0:0:0:0:
171,163,55626,2,0,L|189:55,1,90
301,65,55966,1,0,0:0:0:0:
301,65,56080,2,0,L|286:153,1,90
174,258,56535,2,0,L|79:284,1,90
13,302,56876,1,0,0:0:0:0:
23,226,56989,6,0,L|31:157,1,45
13,302,57216,1,0,0:0:0:0:
149,69,57444,1,0,0:0:0:0:
195,132,57557,1,0,0:0:0:0:
243,197,57671,1,0,0:0:0:0:
353,329,57898,2,0,L|345:202,1,90
336,64,58353,1,0,0:0:0:0:
437,189,58580,1,0,0:0:0:0:
353,329,58807,5,0,0:0:0:0:
281,339,59035,1,0,0:0:0:0:
209,349,59262,1,0,0:0:0:0:
137,359,59489,1,0,0:0:0:0:
19,312,59716,5,0,0:0:0:0:
91,302,59943,1,0,0:0:0:0:
163,292,60170,1,0,0:0:0:0:
235,282,60398,1,0,0:0:0:0:
335,205,60626,5,0,0:0:0:0:
263,215,60854,1,0,0:0:0:0:
191,225,61081,1,0,0:0:0:0:
119,235,61308,1,0,0:0:0:0:
2,188,61535,5,0,0:0:0:0:
74,178,61762,1,0,0:0:0:0:
146,168,61989,1,0,0:0:0:0:
218,158,62217,1,0,0:0:0:0:
359,251,62444,6,0,L|269:262,1,90
447,326,62898,2,0,P|475:245|427:156,1,180
340,114,63580,1,0,0:0:0:0:
276,201,63807,1,0,0:0:0:0:
176,75,64035,1,0,0:0:0:0:
118,18,64148,1,0,0:0:0:0:
97,96,64262,2,0,L|72:197,1,90
27,318,64716,1,0,0:0:0:0:
190,344,64944,5,0,0:0:0:0:
248,289,65057,1,0,0:0:0:0:
270,367,65171,1,0,0:0:0:0:
301,163,65398,1,0,0:0:0:0:
152,97,65626,1,0,0:0:0:0:
390,100,65853,1,0,0:0:0:0:
176,217,66080,6,0,L|70:212,1,90
200,336,66535,2,0,L|306:341,1,90
346,248,66989,1,0,0:0:0:0:
397,344,67216,1,0,0:0:0:0:
294,153,67444,2,0,L|315:42,1,90
208,241,67898,6,0,L|114:275,1,90
295,307,68353,1,0,0:0:0:0:
104,165,68580,1,0,0:0:0:0:
206,124,68807,2,0,P|258:137|303:169,1,90
349,308,69262,1,0,0:0:0:0:
406,108,69489,1,0,0:0:0:0:
246,341,69716,5,0,0:0:0:0:
467,323,69944,2,0,L|495:212,1,90
360,61,70398,2,0,L|332:172,1,90
290,294,70853,1,0,0:0:0:0:
188,180,71080,2,0,P|109:137|77:132,1,90
240,57,71535,6,0,L|360:50,1,90
426,181,71989,2,0,L|336:186,1,90
280,244,72330,1,0,0:0:0:0:
280,244,72444,2,0,P|260:203|260:157,1,90
424,329,72898,1,0,0:0:0:0:
424,329,73126,1,0,0:0:0:0:
222,283,73353,6,0,L|113:290,1,90
20,160,73807,2,0,L|109:154,1,90
223,147,74262,1,0,0:0:0:0:
159,59,74489,1,0,0:0:0:0:
330,141,74716,2,0,L|419:135,1,90
267,282,75171,5,0,0:0:0:0:
374,296,75398,2,0,L|475:308,1,90
267,282,75853,1,0,0:0:0:0:
160,267,76080,2,0,L|58:254,1,90
267,282,76535,1,0,0:0:0:0:
378,152,76762,1,0,0:0:0:0:
208,127,76989,6,0,P|172:99|134:58,1,90
378,152,77444,2,0,L|392:268,1,90
318,323,77898,1,0,0:0:0:0:
488,187,78126,1,0,0:0:0:0:
256,216,78353,2,0,L|151:192,1,90
62,172,78807,5,0,0:0:0:0:
136,93,79035,1,0,0:0:0:0:
198,299,79262,2,0,L|329:329,1,135
329,329,79716,1,0,0:0:0:0:
423,219,79944,1,0,0:0:0:0:
432,138,80057,1,0,0:0:0:0:
440,57,80171,1,0,0:0:0:0:
472,353,80398,1,0,0:0:0:0:
323,152,80626,6,0,L|330:57,1,90
329,62,81307,1,0,0:0:0:0:
219,187,81535,2,0,L|226:92,1,90
225,98,82216,1,0,0:0:0:0:
110,219,82444,2,0,L|117:124,1,90
116,130,83125,1,0,0:0:0:0:
211,289,83353,2,0,L|204:371,1,67.5
206,356,83807,1,0,0:0:0:0:
219,187,84035,1,0,0:0:0:0:
341,331,84262,6,0,P|392:350|457:356,1,90
426,355,84944,1,0,0:0:0:0:
371,231,85171,2,0,P|425:226|486:204,1,90
458,216,85853,1,0,0:0:0:0:
363,118,86080,2,0,P|403:96|438:67,1,90
280,109,86762,1,0,0:0:0:0:
197,100,86876,1,0,0:0:0:0:
117,89,86989,1,0,0:0:0:0:
19,207,87216,1,0,0:0:0:0:
123,325,87444,2,0,L|181:338,1,45
344,264,87898,6,0,P|370:216|370:167,1,90
372,181,88580,1,0,0:0:0:0:
149,232,88807,2,0,P|178:278|220:303,1,90
206,298,89489,1,0,0:0:0:0:
274,79,89716,2,0,P|219:81|177:105,1,90
188,96,90398,1,0,0:0:0:0:
82,225,90626,1,0,0:0:0:0:
211,329,90853,1,0,0:0:0:0:
292,314,90967,1,0,0:0:0:0:
371,301,91080,1,0,0:0:0:0:
79,349,91307,1,0,0:0:0:0:
58,211,91535,6,0,L|47:129,1,67.5
143,129,91989,2,0,L|148:173,1,45
159,256,92330,1,0,0:0:0:0:
240,151,92444,2,0,L|227:61,1,90
380,119,93126,1,0,0:0:0:0:
391,198,93239,1,0,0:0:0:0:
402,277,93353,6,0,P|393:313|376:336,1,45
152,329,93807,2,0,P|161:293|178:270,1,45
252,220,94262,1,0,0:0:0:0:
115,179,94489,1,0,0:0:0:0:
313,139,94716,1,0,0:0:0:0:
55,81,94944,1,0,0:0:0:0:
363,50,95171,5,0,0:0:0:0:
444,53,95285,1,0,0:0:0:0:
368,25,95398,1,0,0:0:0:0:
221,71,95626,1,0,0:0:0:0:
148,106,95739,1,0,0:0:0:0:
228,93,95853,1,0,0:0:0:0:
383,136,96080,2,0,L|510:174,1,90
251,184,96535,1,0,0:0:0:0:
178,219,96648,1,0,0:0:0:0:
258,206,96762,1,0,0:0:0:0:
469,161,96989,6,0,L|383:136,1,90
251,184,97444,1,0,0:0:0:0:
178,219,97557,1,0,0:0:0:0:
258,206,97671,1,0,0:0:0:0:
405,247,97898,1,0,0:0:0:0:
294,353,98126,1,0,0:0:0:0:
213,348,98239,1,0,0:0:0:0:
131,343,98353,1,0,0:0:0:0:
33,225,98580,1,0,0:0:0:0:
132,109,98807,5,0,0:0:0:0:
162,39,98921,1,0,0:0:0:0:
207,100,99035,1,0,0:0:0:0:
296,272,99262,2,0,L|206:272,1,90
305,100,99716,1,0,0:0:0:0:
350,39,99830,1,0,0:0:0:0:
380,109,99944,1,0,0:0:0:0:
296,272,100171,2,0,L|206:272,1,90
132,109,100626,5,0,0:0:0:0:
162,39,100740,1,0,0:0:0:0:
207,100,100854,1,0,0:0:0:0:
206,272,101080,2,0,L|170:354,1,90
256,354,101421,1,0,0:0:0:0:
341,354,101535,2,0,L|306:272,1,90
256,48,101989,2,0,L|256:168,1,90
410,192,102444,5,0,0:0:0:0:
484,223,102557,1,0,0:0:0:0:
430,161,102671,1,0,0:0:0:0:
256,48,102898,2,0,L|256:168,1,90
102,192,103353,1,0,0:0:0:0:
28,223,103466,1,0,0:0:0:0:
82,161,103580,1,0,0:0:0:0:
256,48,103807,2,0,L|256:168,1,90
226,285,104262,5,0,0:0:0:0:
174,347,104376,1,0,0:0:0:0:
252,362,104489,1,0,0:0:0:0:
364,210,104716,1,0,0:0:0:0:
418,150,104830,1,0,0:0:0:0:
440,228,104944,1,0,0:0:0:0:
249,158,105171,2,0,P|219:121|190:75,1,90
166,9,105512,1,0,0:0:0:0:
154,166,105626,2,0,P|124:212|93:243,1,90
219,346,106080,5,0,0:0:0:0:
299,338,106194,1,0,0:0:0:0:
379,331,106307,1,0,0:0:0:0:
475,211,106535,1,0,0:0:0:0:
475,211,106762,1,0,0:0:0:0:
379,331,106989,1,0,0:0:0:0:
299,338,107102,1,0,0:0:0:0:
219,346,107216,1,0,0:0:0:0:
72,299,107444,2,0,L|48:197,1,90
137,85,107898,5,0,0:0:0:0:
180,17,108012,1,0,0:0:0:0:
166,98,108126,1,0,0:0:0:0:
184,249,108353,1,0,0:0:0:0:
170,330,108467,1,0,0:0:0:0:
213,262,108581,1,0,0:0:0:0:
279,125,108807,1,0,0:0:0:0:
322,57,108921,1,0,0:0:0:0:
308,138,109035,1,0,0:0:0:0:
347,285,109262,1,0,0:0:0:0:
333,366,109376,1,0,0:0:0:0:
376,298,109490,1,0,0:0:0:0:
474,142,109716,5,0,0:0:0:0:
432,71,109944,1,0,0:0:0:0:
358,37,110171,1,0,0:0:0:0:
277,38,110398,1,0,0:0:0:0:
211,86,110626,1,0,0:0:0:0:
194,165,110853,1,0,0:0:0:0:
142,227,111080,1,0,0:0:0:0:
61,222,111307,1,0,0:0:0:0:
27,147,111535,6,0,P|45:85|113:138,1,180
56,338,112216,1,0,0:0:0:0:
56,338,112444,2,0,L|238:360,1,180
336,322,113126,1,0,0:0:0:0:
376,222,113353,5,0,0:0:0:0:
371,200,113466,1,0,0:0:0:0:
366,177,113580,1,0,0:0:0:0:
361,154,113694,1,0,0:0:0:0:
356,132,113807,2,0,L|333:14,1,90
233,209,114262,1,0,0:0:0:0:
228,187,114375,1,0,0:0:0:0:
223,164,114489,1,0,0:0:0:0:
218,141,114603,1,0,0:0:0:0:
213,119,114716,2,0,L|190:1,1,90
89,200,115171,6,0,L|52:13,1,180
54,23,115853,1,0,0:0:0:0:
7,257,116080,2,0,P|72:299|168:260,1,180
226,179,116762,1,0,0:0:0:0:
208,72,116989,6,0,P|324:136|331:198,1,180
226,179,117671,1,0,0:0:0:0:
124,142,117898,1,0,0:0:0:0:
144,248,118126,1,0,0:0:0:0:
144,248,118239,1,0,0:0:0:0:
144,248,118353,1,0,0:0:0:0:
208,72,118580,1,0,0:0:0:0:
332,172,118807,6,0,L|435:162,1,90
421,163,119489,1,0,0:0:0:0:
230,60,119716,2,0,L|140:51,1,90
140,51,120398,1,0,0:0:0:0:
25,240,120626,6,0,B|90:267|142:220|215:250,1,180
292,305,121762,2,0,P|320:318|340:325,1,45
492,331,122216,1,0,0:0:0:0:
383,203,122444,2,0,P|365:150|356:105,1,90
357,116,123126,1,0,0:0:0:0:
161,71,123353,2,0,P|187:95|211:107,1,45
195,99,123807,1,0,0:0:0:0:
31,50,124035,1,0,0:0:0:0:
117,233,124262,6,0,P|101:283|76:332,1,90
84,316,124944,1,0,0:0:0:0:
278,237,125171,2,0,P|263:208|245:186,1,45
62,88,125626,2,0,P|97:77|117:67,1,45
265,87,126080,5,0,0:0:0:0:
291,46,126194,1,0,0:0:0:0:
337,53,126308,1,0,0:0:0:0:
308,90,126421,1,0,0:0:0:0:
154,148,126649,5,0,0:0:0:0:
101,165,126763,1,0,0:0:0:0:
111,109,126876,1,0,0:0:0:0:
343,169,127103,5,0,0:0:0:0:
404,204,127217,1,0,0:0:0:0:
342,239,127330,1,0,0:0:0:0:
141,323,127558,5,0,0:0:0:0:
72,275,127672,1,0,0:0:0:0:
147,239,127785,1,0,0:0:0:0:
216,284,127898,1,0,0:0:0:0:
