osu file format v14

[General]
AudioFilename: audio.mp3
AudioLeadIn: 0
PreviewTime: 15
Countdown: 0
SampleSet: Soft
StackLeniency: 0.7
Mode: 3
LetterboxInBreaks: 0
SpecialStyle: 0
WidescreenStoryboard: 1

[Editor]
Bookmarks: 47071
DistanceSpacing: 0.6
BeatDivisor: 8
GridSize: 4
TimelineZoom: 1

[Metadata]
Title:Dear Hypnos
TitleUnicode:Dear Hypnos 【鏡音リン・レン】
Artist:EZFG feat. Kagamine Rin, Kagamine Len
ArtistUnicode:EZFG feat. Kagamine Rin, Kagamine Len
Creator:Holtzmann69
Version:Easy
Source:Kagamine Rin & Len
Tags:Dear Hypnos EZFG Kagamine Rin Kagamine Len VOCALOID
BeatmapID:2670172
BeatmapSetID:1285166

[Difficulty]
HPDrainRate:3
CircleSize:4
OverallDifficulty:5
ApproachRate:5
SliderMultiplier:1.4
SliderTickRate:1

[Events]
//Background and Video events
0,0,"CQSrTrVGTGE.jpg",0,0
//Break Periods
2,48762,50631
2,128858,131304
//Storyboard Layer 0 (Background)
//Storyboard Layer 1 (Fail)
//Storyboard Layer 2 (Pass)
//Storyboard Layer 3 (Foreground)
//Storyboard Layer 4 (Overlay)
//Storyboard Sound Samples

[TimingPoints]
1735.4207082118,384.615384615385,4,2,0,79,1,0

[HitObjects]
320,192,966,5,0,0:0:0:0:
192,192,966,1,0,0:0:0:0:
448,192,1495,1,0,0:0:0:0:
64,192,1495,1,0,0:0:0:0:
192,192,1927,1,0,0:0:0:0:
320,192,1927,1,0,0:0:0:0:
64,192,2312,1,0,0:0:0:0:
448,192,2312,1,0,0:0:0:0:
320,192,2696,1,0,0:0:0:0:
192,192,2696,1,0,0:0:0:0:
64,192,3033,1,0,0:0:0:0:
448,192,3081,1,0,0:0:0:0:
192,192,3466,1,0,0:0:0:0:
320,192,3466,1,0,0:0:0:0:
64,192,3754,1,0,0:0:0:0:
192,192,3898,1,0,0:0:0:0:
320,192,4043,1,0,0:0:0:0:
448,192,4187,1,0,0:0:0:0:
320,192,4331,1,0,0:0:0:0:
192,192,4427,1,0,0:0:0:0:
64,192,4523,1,0,0:0:0:0:
64,192,4812,1,0,0:0:0:0:
448,192,4812,1,0,0:0:0:0:
64,192,5677,1,0,0:0:0:0:
448,192,5677,1,0,0:0:0:0:
192,192,6110,1,0,0:0:0:0:
320,192,6110,1,0,0:0:0:0:
320,192,6206,1,0,0:0:0:0:
192,192,6206,1,0,0:0:0:0:
64,192,6495,1,0,0:0:0:0:
448,192,6495,1,0,0:0:0:0:
192,192,6927,1,0,0:0:0:0:
320,192,6927,1,0,0:0:0:0:
192,192,7360,1,0,0:0:0:0:
320,192,7600,1,0,0:0:0:0:
64,192,7841,1,0,0:0:0:0:
448,192,7841,1,0,0:0:0:0:
448,192,8129,128,0,11158:0:0:0:0:
192,192,8610,128,0,9043:0:0:0:0:
64,192,9187,128,0,9427:0:0:0:0:
192,192,9716,128,0,9956:0:0:0:0:
64,192,10293,128,0,10581:0:0:0:0:
192,192,10870,1,0,0:0:0:0:
192,192,11495,1,0,0:0:0:0:
320,192,11591,1,0,0:0:0:0:
192,192,11735,1,0,0:0:0:0:
64,192,11927,1,0,0:0:0:0:
448,192,11927,1,0,0:0:0:0:
64,192,12120,1,0,0:0:0:0:
448,192,12120,1,0,0:0:0:0:
448,192,12312,1,0,0:0:0:0:
64,192,12312,1,0,0:0:0:0:
448,192,12456,1,0,0:0:0:0:
64,192,12456,1,0,0:0:0:0:
192,192,12745,1,0,0:0:0:0:
320,192,12745,1,0,0:0:0:0:
192,192,12937,1,0,0:0:0:0:
320,192,12937,1,0,0:0:0:0:
192,192,13081,1,0,0:0:0:0:
320,192,13081,1,0,0:0:0:0:
320,192,13225,1,0,0:0:0:0:
192,192,13225,1,0,0:0:0:0:
64,192,13514,1,0,0:0:0:0:
448,192,13514,1,0,0:0:0:0:
64,192,13706,1,0,0:0:0:0:
448,192,13706,1,0,0:0:0:0:
448,192,13850,1,0,0:0:0:0:
64,192,13850,1,0,0:0:0:0:
64,192,14043,1,0,0:0:0:0:
448,192,14043,1,0,0:0:0:0:
64,192,14187,1,0,0:0:0:0:
448,192,14187,1,0,0:0:0:0:
320,192,14571,128,0,17841:0:0:0:0:
192,192,14956,1,0,0:0:0:0:
448,192,15196,128,0,15629:0:0:0:0:
64,192,15341,1,0,0:0:0:0:
64,192,15773,128,0,16302:0:0:0:0:
448,192,16446,128,0,16879:0:0:0:0:
64,192,17408,128,0,17841:0:0:0:0:
448,192,18225,1,0,0:0:0:0:
320,192,18225,1,0,0:0:0:0:
192,192,18418,1,0,0:0:0:0:
64,192,18418,1,0,0:0:0:0:
320,192,18610,1,0,0:0:0:0:
448,192,18610,1,0,0:0:0:0:
64,192,18995,1,0,0:0:0:0:
192,192,18995,1,0,0:0:0:0:
320,192,19187,1,0,0:0:0:0:
448,192,19187,1,0,0:0:0:0:
64,192,19331,1,0,0:0:0:0:
192,192,19331,1,0,0:0:0:0:
448,192,19812,1,0,0:0:0:0:
320,192,19812,1,0,0:0:0:0:
64,192,20004,1,0,0:0:0:0:
192,192,20004,1,0,0:0:0:0:
320,192,20196,1,0,0:0:0:0:
448,192,20196,1,0,0:0:0:0:
320,192,20389,1,0,0:0:0:0:
192,192,20389,1,0,0:0:0:0:
448,192,20725,1,0,0:0:0:0:
64,192,20725,1,0,0:0:0:0:
192,192,20725,1,0,0:0:0:0:
320,192,20725,1,0,0:0:0:0:
192,192,20870,1,0,0:0:0:0:
64,192,20870,1,0,0:0:0:0:
320,192,20870,1,0,0:0:0:0:
448,192,20870,1,0,0:0:0:0:
448,192,21254,128,0,24571:0:0:0:0:
320,192,21254,128,0,21735:0:0:0:0:
64,192,21735,128,0,22023:0:0:0:0:
320,192,22216,1,0,0:0:0:0:
192,192,22408,1,0,0:0:0:0:
320,192,22745,128,0,22937:0:0:0:0:
64,192,22841,1,0,0:0:0:0:
320,192,23418,1,0,0:0:0:0:
64,192,23898,1,0,0:0:0:0:
320,192,24331,1,0,0:0:0:0:
320,192,24716,1,0,0:0:0:0:
192,192,24716,1,0,0:0:0:0:
320,192,25052,1,0,0:0:0:0:
192,192,25052,1,0,0:0:0:0:
192,192,25245,1,0,0:0:0:0:
320,192,25245,1,0,0:0:0:0:
192,192,25389,1,0,0:0:0:0:
320,192,25389,1,0,0:0:0:0:
64,192,25725,1,0,0:0:0:0:
448,192,25725,1,0,0:0:0:0:
64,192,25918,1,0,0:0:0:0:
448,192,25918,1,0,0:0:0:0:
64,192,26062,1,0,0:0:0:0:
448,192,26062,1,0,0:0:0:0:
192,192,26495,1,0,0:0:0:0:
320,192,26495,1,0,0:0:0:0:
192,192,26735,1,0,0:0:0:0:
320,192,26735,1,0,0:0:0:0:
192,192,26879,1,0,0:0:0:0:
320,192,26879,1,0,0:0:0:0:
320,192,27023,1,0,0:0:0:0:
192,192,27023,1,0,0:0:0:0:
64,192,27456,1,0,0:0:0:0:
192,192,27456,1,0,0:0:0:0:
448,192,27456,1,0,0:0:0:0:
320,192,27456,1,0,0:0:0:0:
64,192,27696,1,0,0:0:0:0:
192,192,27696,1,0,0:0:0:0:
448,192,27696,1,0,0:0:0:0:
320,192,27696,1,0,0:0:0:0:
64,192,27985,128,0,28321:0:0:0:0:
448,192,27985,128,0,28321:0:0:0:0:
320,192,28081,1,0,0:0:0:0:
192,192,28273,1,0,0:0:0:0:
192,192,28658,128,0,28946:0:0:0:0:
320,192,28658,128,0,28946:0:0:0:0:
64,192,29379,1,0,0:0:0:0:
448,192,29379,1,0,0:0:0:0:
192,192,29764,1,0,0:0:0:0:
320,192,29764,1,0,0:0:0:0:
64,192,30100,128,0,31350:0:0:0:0:
448,192,30100,128,0,31350:0:0:0:0:
320,192,30196,1,0,0:0:0:0:
192,192,30533,1,0,0:0:0:0:
320,192,30918,1,0,0:0:0:0:
192,192,31254,1,0,0:0:0:0:
192,192,31879,1,0,0:0:0:0:
320,192,31879,1,0,0:0:0:0:
192,192,32071,1,0,0:0:0:0:
320,192,32071,1,0,0:0:0:0:
192,192,32216,1,0,0:0:0:0:
320,192,32216,1,0,0:0:0:0:
64,192,32552,1,0,0:0:0:0:
448,192,32552,1,0,0:0:0:0:
448,192,32745,1,0,0:0:0:0:
64,192,32745,1,0,0:0:0:0:
64,192,32889,1,0,0:0:0:0:
448,192,32889,1,0,0:0:0:0:
64,192,33273,1,0,0:0:0:0:
448,192,33370,1,0,0:0:0:0:
64,192,33466,1,0,0:0:0:0:
448,192,33562,1,0,0:0:0:0:
64,192,33658,1,0,0:0:0:0:
448,192,33754,1,0,0:0:0:0:
64,192,33850,1,0,0:0:0:0:
320,192,34187,1,0,0:0:0:0:
192,192,34187,1,0,0:0:0:0:
192,192,34379,1,0,0:0:0:0:
320,192,34379,1,0,0:0:0:0:
320,192,34523,1,0,0:0:0:0:
192,192,34523,1,0,0:0:0:0:
64,192,34812,128,0,35581:0:0:0:0:
448,192,35581,128,0,36350:0:0:0:0:
192,192,36350,128,0,37120:0:0:0:0:
320,192,36350,128,0,37120:0:0:0:0:
192,192,37408,1,0,0:0:0:0:
320,192,37408,1,0,0:0:0:0:
192,192,37600,1,0,0:0:0:0:
320,192,37600,1,0,0:0:0:0:
320,192,37793,1,0,0:0:0:0:
192,192,37793,1,0,0:0:0:0:
320,192,37937,1,0,0:0:0:0:
192,192,37937,1,0,0:0:0:0:
64,192,38273,1,0,0:0:0:0:
448,192,38273,1,0,0:0:0:0:
448,192,38610,1,0,0:0:0:0:
64,192,38610,1,0,0:0:0:0:
192,192,39043,128,0,39283:0:0:0:0:
320,192,39043,128,0,39283:0:0:0:0:
64,192,39523,1,0,0:0:0:0:
448,192,39523,1,0,0:0:0:0:
192,192,39956,1,0,0:0:0:0:
320,192,39956,1,0,0:0:0:0:
448,192,40389,1,0,0:0:0:0:
64,192,40389,1,0,0:0:0:0:
192,192,40870,1,0,0:0:0:0:
320,192,40870,1,0,0:0:0:0:
448,192,41206,1,0,0:0:0:0:
64,192,41206,1,0,0:0:0:0:
192,192,41639,128,0,42023:0:0:0:0:
320,192,41639,128,0,42023:0:0:0:0:
192,192,42023,1,0,0:0:0:0:
320,192,42023,1,0,0:0:0:0:
64,192,42456,128,0,42937:0:0:0:0:
448,192,42456,128,0,42937:0:0:0:0:
64,192,43321,1,0,0:0:0:0:
448,192,43321,1,0,0:0:0:0:
64,192,43514,1,0,0:0:0:0:
448,192,43514,1,0,0:0:0:0:
64,192,43706,1,0,0:0:0:0:
448,192,43706,1,0,0:0:0:0:
192,192,44187,1,0,0:0:0:0:
320,192,44187,1,0,0:0:0:0:
192,192,44379,1,0,0:0:0:0:
320,192,44379,1,0,0:0:0:0:
64,192,44764,128,0,45485:0:0:0:0:
448,192,45533,128,0,46350:0:0:0:0:
192,192,46591,128,0,48562:0:0:0:0:
320,192,46591,128,0,48562:0:0:0:0:
448,192,47120,128,0,47552:0:0:0:0:
64,192,47889,128,0,48370:0:0:0:0:
64,192,51831,5,0,0:0:0:0:
192,192,51831,1,0,0:0:0:0:
320,192,51831,1,0,0:0:0:0:
448,192,51831,1,0,0:0:0:0:
64,192,52023,1,0,0:0:0:0:
448,192,52023,1,0,0:0:0:0:
192,192,52023,1,0,0:0:0:0:
320,192,52023,1,0,0:0:0:0:
320,192,52168,1,0,0:0:0:0:
192,192,52168,1,0,0:0:0:0:
64,192,52168,1,0,0:0:0:0:
448,192,52168,1,0,0:0:0:0:
64,192,52504,128,0,57985:0:0:0:0:
448,192,52504,128,0,57985:0:0:0:0:
320,192,53129,1,0,0:0:0:0:
192,192,53418,1,0,0:0:0:0:
320,192,53898,1,0,0:0:0:0:
192,192,54427,1,0,0:0:0:0:
320,192,55245,1,0,0:0:0:0:
192,192,55870,1,0,0:0:0:0:
320,192,56495,1,0,0:0:0:0:
192,192,57168,1,0,0:0:0:0:
320,192,57745,1,0,0:0:0:0:
192,192,58177,1,0,0:0:0:0:
320,192,58177,1,0,0:0:0:0:
320,192,58370,128,0,65004:0:0:0:0:
192,192,58370,128,0,65004:0:0:0:0:
448,192,58658,128,0,58946:0:0:0:0:
64,192,59523,128,0,60148:0:0:0:0:
448,192,60485,128,0,61158:0:0:0:0:
64,192,61398,128,0,62168:0:0:0:0:
448,192,62648,128,0,63273:0:0:0:0:
64,192,63658,128,0,64187:0:0:0:0:
448,192,64187,128,0,64620:0:0:0:0:
64,192,65245,128,0,66927:0:0:0:0:
448,192,65245,128,0,66975:0:0:0:0:
320,192,65437,1,0,0:0:0:0:
192,192,65918,1,0,0:0:0:0:
320,192,66543,1,0,0:0:0:0:
320,192,67120,1,0,0:0:0:0:
192,192,67120,1,0,0:0:0:0:
320,192,67456,1,0,0:0:0:0:
64,192,67793,1,0,0:0:0:0:
448,192,67793,1,0,0:0:0:0:
320,192,68177,1,0,0:0:0:0:
192,192,68273,1,0,0:0:0:0:
64,192,68610,1,0,0:0:0:0:
448,192,68610,1,0,0:0:0:0:
192,192,69043,1,0,0:0:0:0:
320,192,69043,1,0,0:0:0:0:
64,192,69475,1,0,0:0:0:0:
448,192,69475,1,0,0:0:0:0:
192,192,69620,1,0,0:0:0:0:
320,192,69620,1,0,0:0:0:0:
64,192,69908,1,0,0:0:0:0:
448,192,69908,1,0,0:0:0:0:
192,192,70341,1,0,0:0:0:0:
320,192,70341,1,0,0:0:0:0:
192,192,70533,1,0,0:0:0:0:
320,192,70533,1,0,0:0:0:0:
192,192,70677,1,0,0:0:0:0:
320,192,70677,1,0,0:0:0:0:
320,192,70870,1,0,0:0:0:0:
192,192,70870,1,0,0:0:0:0:
448,192,71350,1,0,0:0:0:0:
64,192,71350,1,0,0:0:0:0:
64,192,71543,1,0,0:0:0:0:
448,192,71543,1,0,0:0:0:0:
448,192,71735,1,0,0:0:0:0:
64,192,71735,1,0,0:0:0:0:
192,192,72120,1,0,0:0:0:0:
320,192,72120,1,0,0:0:0:0:
448,192,72360,128,0,72841:0:0:0:0:
64,192,72360,128,0,72841:0:0:0:0:
320,192,72504,1,0,0:0:0:0:
192,192,72504,1,0,0:0:0:0:
448,192,73177,1,0,0:0:0:0:
64,192,73562,128,0,73995:0:0:0:0:
448,192,73562,128,0,73946:0:0:0:0:
320,192,73706,1,0,0:0:0:0:
192,192,73946,1,0,0:0:0:0:
320,192,74283,1,0,0:0:0:0:
192,192,74716,1,0,0:0:0:0:
448,192,75004,1,0,0:0:0:0:
192,192,75196,1,0,0:0:0:0:
320,192,75437,1,0,0:0:0:0:
64,192,75581,1,0,0:0:0:0:
448,192,75870,1,0,0:0:0:0:
192,192,76110,1,0,0:0:0:0:
320,192,76350,1,0,0:0:0:0:
64,192,76495,1,0,0:0:0:0:
448,192,76687,1,0,0:0:0:0:
192,192,76831,1,0,0:0:0:0:
320,192,77023,1,0,0:0:0:0:
64,192,77168,1,0,0:0:0:0:
448,192,77360,1,0,0:0:0:0:
64,192,77504,1,0,0:0:0:0:
192,192,77696,1,0,0:0:0:0:
320,192,77745,1,0,0:0:0:0:
192,192,77985,1,0,0:0:0:0:
320,192,78033,1,0,0:0:0:0:
64,192,78370,1,0,0:0:0:0:
448,192,78370,1,0,0:0:0:0:
192,192,78802,1,0,0:0:0:0:
320,192,78802,1,0,0:0:0:0:
192,192,79139,1,0,0:0:0:0:
320,192,79283,1,0,0:0:0:0:
192,192,79379,1,0,0:0:0:0:
64,192,79668,1,0,0:0:0:0:
448,192,79668,1,0,0:0:0:0:
320,192,80004,1,0,0:0:0:0:
192,192,80148,1,0,0:0:0:0:
448,192,80437,1,0,0:0:0:0:
64,192,80581,1,0,0:0:0:0:
320,192,80821,1,0,0:0:0:0:
192,192,80966,1,0,0:0:0:0:
448,192,81206,1,0,0:0:0:0:
64,192,81350,1,0,0:0:0:0:
448,192,81446,1,0,0:0:0:0:
64,192,81591,1,0,0:0:0:0:
448,192,81591,1,0,0:0:0:0:
448,192,81735,1,0,0:0:0:0:
64,192,81735,1,0,0:0:0:0:
320,192,82071,1,0,0:0:0:0:
192,192,82216,1,0,0:0:0:0:
448,192,82552,1,0,0:0:0:0:
64,192,82696,1,0,0:0:0:0:
320,192,82985,1,0,0:0:0:0:
192,192,83129,1,0,0:0:0:0:
448,192,83370,1,0,0:0:0:0:
64,192,83370,1,0,0:0:0:0:
320,192,83850,1,0,0:0:0:0:
192,192,83946,1,0,0:0:0:0:
64,192,84235,1,0,0:0:0:0:
192,192,84235,1,0,0:0:0:0:
320,192,84235,1,0,0:0:0:0:
448,192,84235,1,0,0:0:0:0:
64,192,84668,1,0,0:0:0:0:
320,192,84668,1,0,0:0:0:0:
448,192,84668,1,0,0:0:0:0:
192,192,84668,1,0,0:0:0:0:
64,192,85004,1,0,0:0:0:0:
192,192,85004,1,0,0:0:0:0:
320,192,85004,1,0,0:0:0:0:
448,192,85004,1,0,0:0:0:0:
64,192,85148,1,0,0:0:0:0:
448,192,85148,1,0,0:0:0:0:
192,192,85148,1,0,0:0:0:0:
320,192,85148,1,0,0:0:0:0:
448,192,85341,1,0,0:0:0:0:
320,192,85341,1,0,0:0:0:0:
192,192,85341,1,0,0:0:0:0:
64,192,85341,1,0,0:0:0:0:
64,192,85629,1,0,0:0:0:0:
448,192,85629,1,0,0:0:0:0:
64,192,86014,1,0,0:0:0:0:
320,192,86014,1,0,0:0:0:0:
192,192,86446,1,0,0:0:0:0:
448,192,86495,1,0,0:0:0:0:
64,192,86687,1,0,0:0:0:0:
448,192,86879,1,0,0:0:0:0:
64,192,87023,1,0,0:0:0:0:
320,192,87216,1,0,0:0:0:0:
64,192,87360,1,0,0:0:0:0:
448,192,87793,1,0,0:0:0:0:
64,192,87841,1,0,0:0:0:0:
320,192,88081,1,0,0:0:0:0:
64,192,88177,1,0,0:0:0:0:
320,192,88370,1,0,0:0:0:0:
192,192,88514,1,0,0:0:0:0:
320,192,88658,1,0,0:0:0:0:
192,192,89235,1,0,0:0:0:0:
64,192,89235,1,0,0:0:0:0:
320,192,89235,1,0,0:0:0:0:
448,192,89235,1,0,0:0:0:0:
448,192,89427,1,0,0:0:0:0:
64,192,89427,1,0,0:0:0:0:
320,192,89427,1,0,0:0:0:0:
192,192,89427,1,0,0:0:0:0:
192,192,89571,1,0,0:0:0:0:
64,192,89571,1,0,0:0:0:0:
320,192,89571,1,0,0:0:0:0:
448,192,89571,1,0,0:0:0:0:
64,192,90052,1,0,0:0:0:0:
192,192,90052,1,0,0:0:0:0:
320,192,90052,1,0,0:0:0:0:
448,192,90052,1,0,0:0:0:0:
64,192,90245,1,0,0:0:0:0:
192,192,90245,1,0,0:0:0:0:
320,192,90245,1,0,0:0:0:0:
448,192,90245,1,0,0:0:0:0:
64,192,90437,1,0,0:0:0:0:
448,192,90437,1,0,0:0:0:0:
320,192,90437,1,0,0:0:0:0:
192,192,90437,1,0,0:0:0:0:
64,192,90918,1,0,0:0:0:0:
192,192,90918,1,0,0:0:0:0:
448,192,90918,1,0,0:0:0:0:
320,192,90918,1,0,0:0:0:0:
64,192,91110,1,0,0:0:0:0:
192,192,91110,1,0,0:0:0:0:
320,192,91110,1,0,0:0:0:0:
448,192,91110,1,0,0:0:0:0:
64,192,91302,1,0,0:0:0:0:
448,192,91302,1,0,0:0:0:0:
320,192,91302,1,0,0:0:0:0:
192,192,91302,1,0,0:0:0:0:
320,192,91446,1,0,0:0:0:0:
448,192,91446,1,0,0:0:0:0:
320,192,91783,1,0,0:0:0:0:
192,192,91783,1,0,0:0:0:0:
320,192,91927,1,0,0:0:0:0:
192,192,91927,1,0,0:0:0:0:
448,192,92312,1,0,0:0:0:0:
64,192,92312,1,0,0:0:0:0:
320,192,92696,1,0,0:0:0:0:
192,192,92793,1,0,0:0:0:0:
448,192,93177,1,0,0:0:0:0:
64,192,93177,1,0,0:0:0:0:
320,192,93466,1,0,0:0:0:0:
448,192,93850,1,0,0:0:0:0:
64,192,93850,1,0,0:0:0:0:
320,192,94043,1,0,0:0:0:0:
192,192,94043,1,0,0:0:0:0:
64,192,94331,1,0,0:0:0:0:
448,192,94331,1,0,0:0:0:0:
448,192,94571,1,0,0:0:0:0:
64,192,94571,1,0,0:0:0:0:
320,192,94812,1,0,0:0:0:0:
192,192,94860,1,0,0:0:0:0:
448,192,95052,1,0,0:0:0:0:
64,192,95052,1,0,0:0:0:0:
192,192,95245,128,0,95485:0:0:0:0:
320,192,95245,128,0,95485:0:0:0:0:
64,192,95677,1,0,0:0:0:0:
448,192,95677,1,0,0:0:0:0:
320,192,96014,1,0,0:0:0:0:
192,192,96014,1,0,0:0:0:0:
64,192,96014,1,0,0:0:0:0:
448,192,96206,1,0,0:0:0:0:
320,192,96206,1,0,0:0:0:0:
192,192,96398,1,0,0:0:0:0:
320,192,96398,1,0,0:0:0:0:
192,192,96735,1,0,0:0:0:0:
320,192,96735,1,0,0:0:0:0:
320,192,96975,1,0,0:0:0:0:
192,192,96975,1,0,0:0:0:0:
320,192,97120,1,0,0:0:0:0:
192,192,97120,1,0,0:0:0:0:
192,192,97552,1,0,0:0:0:0:
320,192,97648,1,0,0:0:0:0:
192,192,97793,1,0,0:0:0:0:
320,192,97937,1,0,0:0:0:0:
192,192,98081,1,0,0:0:0:0:
64,192,98370,1,0,0:0:0:0:
448,192,98370,1,0,0:0:0:0:
64,192,98514,1,0,0:0:0:0:
448,192,98514,1,0,0:0:0:0:
448,192,98706,1,0,0:0:0:0:
64,192,98706,1,0,0:0:0:0:
320,192,99043,1,0,0:0:0:0:
192,192,99187,1,0,0:0:0:0:
64,192,99523,1,0,0:0:0:0:
448,192,99523,128,0,100966:0:0:0:0:
192,192,99956,1,0,0:0:0:0:
320,192,100196,1,0,0:0:0:0:
192,192,100341,1,0,0:0:0:0:
64,192,100677,1,0,0:0:0:0:
320,192,100821,1,0,0:0:0:0:
64,192,101158,128,0,102360:0:0:0:0:
448,192,101350,128,0,101735:0:0:0:0:
320,192,101687,1,0,0:0:0:0:
192,192,101927,1,0,0:0:0:0:
320,192,102168,1,0,0:0:0:0:
448,192,102552,1,0,0:0:0:0:
192,192,102648,1,0,0:0:0:0:
320,192,102841,1,0,0:0:0:0:
192,192,102985,1,0,0:0:0:0:
320,192,103129,1,0,0:0:0:0:
192,192,103321,1,0,0:0:0:0:
448,192,103610,1,0,0:0:0:0:
64,192,103610,1,0,0:0:0:0:
448,192,103850,1,0,0:0:0:0:
64,192,103850,1,0,0:0:0:0:
192,192,104331,1,0,0:0:0:0:
64,192,104331,1,0,0:0:0:0:
448,192,104331,1,0,0:0:0:0:
320,192,104331,1,0,0:0:0:0:
64,192,104523,1,0,0:0:0:0:
448,192,104523,1,0,0:0:0:0:
192,192,104523,1,0,0:0:0:0:
320,192,104523,1,0,0:0:0:0:
192,192,104716,1,0,0:0:0:0:
320,192,104716,1,0,0:0:0:0:
64,192,104716,1,0,0:0:0:0:
448,192,104716,1,0,0:0:0:0:
320,192,104860,1,0,0:0:0:0:
192,192,104860,1,0,0:0:0:0:
448,192,104860,1,0,0:0:0:0:
64,192,104860,1,0,0:0:0:0:
64,192,105245,1,0,0:0:0:0:
448,192,105245,1,0,0:0:0:0:
192,192,105245,1,0,0:0:0:0:
320,192,105245,1,0,0:0:0:0:
320,192,105485,1,0,0:0:0:0:
192,192,105485,1,0,0:0:0:0:
64,192,105485,1,0,0:0:0:0:
448,192,105485,1,0,0:0:0:0:
320,192,105629,1,0,0:0:0:0:
448,192,105629,1,0,0:0:0:0:
448,192,105870,1,0,0:0:0:0:
64,192,105870,1,0,0:0:0:0:
192,192,106206,1,0,0:0:0:0:
320,192,106398,1,0,0:0:0:0:
192,192,106591,1,0,0:0:0:0:
448,192,106735,1,0,0:0:0:0:
64,192,106927,1,0,0:0:0:0:
320,192,107120,1,0,0:0:0:0:
192,192,107216,1,0,0:0:0:0:
448,192,107552,1,0,0:0:0:0:
320,192,107745,1,0,0:0:0:0:
192,192,107841,1,0,0:0:0:0:
320,192,108033,1,0,0:0:0:0:
192,192,108129,1,0,0:0:0:0:
448,192,108321,1,0,0:0:0:0:
448,192,108562,1,0,0:0:0:0:
64,192,108610,1,0,0:0:0:0:
320,192,108802,1,0,0:0:0:0:
192,192,108850,1,0,0:0:0:0:
64,192,109091,1,0,0:0:0:0:
320,192,109091,1,0,0:0:0:0:
448,192,109331,1,0,0:0:0:0:
192,192,109331,1,0,0:0:0:0:
448,192,109571,1,0,0:0:0:0:
64,192,109571,1,0,0:0:0:0:
192,192,109860,1,0,0:0:0:0:
320,192,109860,1,0,0:0:0:0:
448,192,109860,1,0,0:0:0:0:
64,192,109860,1,0,0:0:0:0:
64,192,110052,1,0,0:0:0:0:
192,192,110052,1,0,0:0:0:0:
320,192,110052,1,0,0:0:0:0:
448,192,110052,1,0,0:0:0:0:
64,192,110341,1,0,0:0:0:0:
192,192,110485,1,0,0:0:0:0:
320,192,110629,1,0,0:0:0:0:
448,192,110773,1,0,0:0:0:0:
64,192,110918,1,0,0:0:0:0:
448,192,111110,1,0,0:0:0:0:
192,192,111110,1,0,0:0:0:0:
192,192,111495,1,0,0:0:0:0:
448,192,111495,1,0,0:0:0:0:
64,192,111495,1,0,0:0:0:0:
320,192,111783,1,0,0:0:0:0:
448,192,111975,1,0,0:0:0:0:
192,192,112120,1,0,0:0:0:0:
448,192,112312,1,0,0:0:0:0:
64,192,112456,128,0,113225:0:0:0:0:
192,192,112456,128,0,113225:0:0:0:0:
448,192,113273,128,0,113946:0:0:0:0:
320,192,113273,128,0,113946:0:0:0:0:
64,192,114283,1,0,0:0:0:0:
320,192,114427,1,0,0:0:0:0:
192,192,114523,1,0,0:0:0:0:
192,192,114764,128,0,115389:0:0:0:0:
320,192,114764,128,0,115389:0:0:0:0:
448,192,115581,1,0,0:0:0:0:
64,192,115581,1,0,0:0:0:0:
64,192,115773,1,0,0:0:0:0:
448,192,115773,1,0,0:0:0:0:
320,192,116014,1,0,0:0:0:0:
192,192,116158,1,0,0:0:0:0:
320,192,116302,1,0,0:0:0:0:
192,192,116495,1,0,0:0:0:0:
448,192,116639,1,0,0:0:0:0:
64,192,116735,1,0,0:0:0:0:
448,192,116927,1,0,0:0:0:0:
64,192,117120,1,0,0:0:0:0:
320,192,117312,1,0,0:0:0:0:
192,192,117408,1,0,0:0:0:0:
448,192,117745,1,0,0:0:0:0:
192,192,117745,128,0,118081:0:0:0:0:
448,192,117889,1,0,0:0:0:0:
448,192,118081,1,0,0:0:0:0:
64,192,118706,1,0,0:0:0:0:
448,192,119043,1,0,0:0:0:0:
64,192,119139,1,0,0:0:0:0:
448,192,119379,1,0,0:0:0:0:
320,192,119620,128,0,119908:0:0:0:0:
64,192,119812,1,0,0:0:0:0:
64,192,120293,1,0,0:0:0:0:
320,192,120485,1,0,0:0:0:0:
64,192,120677,1,0,0:0:0:0:
448,192,120677,1,0,0:0:0:0:
448,192,121110,1,0,0:0:0:0:
64,192,121110,1,0,0:0:0:0:
320,192,121446,1,0,0:0:0:0:
192,192,121543,1,0,0:0:0:0:
192,192,121879,1,0,0:0:0:0:
320,192,121879,1,0,0:0:0:0:
192,192,122168,1,0,0:0:0:0:
320,192,122168,1,0,0:0:0:0:
192,192,122360,1,0,0:0:0:0:
320,192,122360,1,0,0:0:0:0:
192,192,122552,128,0,123850:0:0:0:0:
320,192,122552,128,0,123850:0:0:0:0:
64,192,124139,128,0,125821:0:0:0:0:
448,192,124139,128,0,125821:0:0:0:0:
192,192,126062,128,0,128658:0:0:0:0:
320,192,126062,128,0,128658:0:0:0:0:
64,192,132504,132,0,134091:0:0:0:0:
448,192,132504,128,0,134091:0:0:0:0:
192,192,134475,128,0,136158:0:0:0:0:
320,192,134475,128,0,136158:0:0:0:0:
64,192,136302,1,0,0:0:0:0:
448,192,136302,1,0,0:0:0:0:
64,192,136495,128,0,139187:0:0:0:0:
448,192,136495,128,0,139187:0:0:0:0:
192,192,139475,128,0,141591:0:0:0:0:
320,192,139475,128,0,141591:0:0:0:0:
64,192,141831,128,0,143850:0:0:0:0:
448,192,141831,128,0,143850:0:0:0:0:
192,192,144043,1,0,0:0:0:0:
320,192,144043,1,0,0:0:0:0:
64,192,144331,1,0,0:0:0:0:
448,192,144331,1,0,0:0:0:0:
192,192,144716,1,0,0:0:0:0:
320,192,144716,1,0,0:0:0:0:
192,192,145052,1,0,0:0:0:0:
320,192,145052,1,0,0:0:0:0:
192,192,145293,1,0,0:0:0:0:
320,192,145533,1,0,0:0:0:0:
192,192,145773,1,0,0:0:0:0:
448,192,146110,1,0,0:0:0:0:
64,192,146110,1,0,0:0:0:0:
320,192,146446,1,0,0:0:0:0:
192,192,146639,1,0,0:0:0:0:
320,192,146879,1,0,0:0:0:0:
448,192,147408,1,0,0:0:0:0:
64,192,147408,1,0,0:0:0:0:
192,192,147745,1,0,0:0:0:0:
320,192,147985,1,0,0:0:0:0:
192,192,148225,1,0,0:0:0:0:
448,192,148514,1,0,0:0:0:0:
64,192,148514,1,0,0:0:0:0:
320,192,148754,1,0,0:0:0:0:
192,192,148995,1,0,0:0:0:0:
320,192,149331,1,0,0:0:0:0:
192,192,149475,1,0,0:0:0:0:
192,192,149764,128,0,156687:0:0:0:0:
320,192,149764,128,0,156687:0:0:0:0:
64,192,150293,128,0,150918:0:0:0:0:
448,192,151591,128,0,152456:0:0:0:0:
64,192,153225,128,0,153995:0:0:0:0:
64,192,154812,1,0,0:0:0:0:
448,192,155341,1,0,0:0:0:0:
64,192,155773,1,0,0:0:0:0:
448,192,156158,1,0,0:0:0:0:
64,192,156927,1,0,0:0:0:0:
448,192,156927,1,0,0:0:0:0:
192,192,157023,1,0,0:0:0:0:
320,192,157023,1,0,0:0:0:0:
