osu file format v14

[General]
AudioFilename: audio.mp3
AudioLeadIn: 0
PreviewTime: 66616
Countdown: 0
SampleSet: Normal
StackLeniency: 0.7
Mode: 1
LetterboxInBreaks: 0
WidescreenStoryboard: 1

[Editor]
DistanceSpacing: 1.2
BeatDivisor: 2
GridSize: 32
TimelineZoom: 2.2

[Metadata]
Title:Delta Decision (TV Size)
TitleUnicode:Delta Decision (TV Size)
Artist:EYKHA (CV: Sawashiro Miyuki), LOU (CV: Uchida Maaya), MERYL (CV: Terui Haruka)
ArtistUnicode:エィハ (CV: 沢城みゆき)、婁 (CV: 内田真礼)、メリル (CV: 照井春佳)
Creator:Cynplytholowazy
Version:Oni
Source:ケイオスドラゴン 赤竜戦役
Tags:jrock j-rock j rock japanese anime chaos dragon sekiryuu sen'eki seneki ending ed female vocalists vocals
BeatmapID:3502788
BeatmapSetID:1714263

[Difficulty]
HPDrainRate:6
CircleSize:10
OverallDifficulty:6
ApproachRate:10
SliderMultiplier:1.4
SliderTickRate:1

[Events]
//Background and Video events
0,0,"Delta Decision cropped.jpg",0,100
//Break Periods
//Storyboard Layer 0 (Background)
//Storyboard Layer 1 (Fail)
//Storyboard Layer 2 (Pass)
//Storyboard Layer 3 (Foreground)
//Storyboard Layer 4 (Overlay)
//Storyboard Sound Samples

[TimingPoints]
1833,324.324324324324,4,1,0,30,1,0
1833,-125,4,1,0,30,0,0
11968,-100,4,1,0,60,0,0
19995,-100,4,1,0,45,0,1
20073,-99.0712074303406,4,1,0,47,0,1
20154,-98.159509202454,4,1,0,49,0,1
20235,-97.2644376899696,4,1,0,51,0,1
20316,-96.3855421686747,4,1,0,52,0,1
20397,-95.5223880597015,4,1,0,54,0,1
20478,-94.6745562130178,4,1,0,56,0,1
20559,-93.841642228739,4,1,0,58,0,1
20640,-93.0232558139535,4,1,0,60,0,1
20721,-92.2190201729107,4,1,0,62,0,1
20802,-91.4285714285714,4,1,0,64,0,1
20884,-90.6515580736544,4,1,0,66,0,1
20965,-89.8876404494382,4,1,0,68,0,1
21046,-89.1364902506964,4,1,0,69,0,1
21127,-88.3977900552486,4,1,0,71,0,1
21208,-87.6712328767123,4,1,0,73,0,1
21289,-86.9565217391304,4,1,0,75,0,1
21373,-71.4285714285714,4,1,0,20,0,1
22589,-100,4,1,0,20,0,1
23562,-100,4,1,0,20,0,0
23805,-100,4,1,0,80,0,0
23887,-86.9565217391304,4,1,0,80,0,1
34265,-86.9565217391304,4,1,0,80,0,0
34427,-100,4,1,0,40,0,0
34748,-100,4,1,0,41,0,0
34911,-100,4,1,0,43,0,0
35073,-100,4,1,0,44,0,0
35235,-100,4,1,0,46,0,0
35397,-100,4,1,0,47,0,0
35559,-100,4,1,0,49,0,0
35721,-100,4,1,0,50,0,0
35884,-100,4,1,0,51,0,0
36046,-100,4,1,0,53,0,0
36208,-100,4,1,0,54,0,0
36370,-100,4,1,0,56,0,0
36532,-100,4,1,0,57,0,0
36694,-100,4,1,0,59,0,0
36857,-100,4,1,0,60,0,0
37100,-133.333333333333,4,1,0,30,0,0
46670,-100,4,1,0,60,0,0
57778,-133.333333333333,4,1,0,30,0,0
62643,-100,4,1,0,60,0,0
65400,-100,4,1,0,45,0,1
65478,-99.0712074303406,4,1,0,47,0,1
65559,-98.159509202454,4,1,0,49,0,1
65640,-97.2644376899696,4,1,0,51,0,1
65721,-96.3855421686747,4,1,0,52,0,1
65802,-95.5223880597015,4,1,0,54,0,1
65883,-94.6745562130178,4,1,0,56,0,1
65964,-93.841642228739,4,1,0,58,0,1
66045,-93.0232558139535,4,1,0,60,0,1
66126,-92.2190201729107,4,1,0,62,0,1
66207,-91.4285714285714,4,1,0,64,0,1
66289,-90.6515580736544,4,1,0,66,0,1
66370,-89.8876404494382,4,1,0,68,0,1
66451,-89.1364902506964,4,1,0,69,0,1
66532,-88.3977900552486,4,1,0,71,0,1
66613,-87.6712328767123,4,1,0,73,0,1
66697,-86.9565217391304,4,1,0,75,0,0
66860,-100,4,1,0,40,0,0
67832,-100,4,1,0,80,0,0
67995,-86.9565217391304,4,1,0,80,0,1
83562,-86.9565217391304,4,1,0,80,0,0
83724,-86.9565217391304,4,1,0,20,0,0
84697,-86.9565217391304,4,1,0,80,0,0
85022,-86.9565217391304,4,1,0,20,0,0
85346,-100,4,1,0,60,0,0
85670,-86.9565217391304,4,1,0,20,0,0
85995,-86.9565217391304,4,1,0,80,0,0
86157,-86.9565217391304,4,1,0,80,0,1
88589,-86.9565217391304,4,1,0,80,0,0

[HitObjects]
256,192,1833,5,6,0:0:0:0:
256,192,2157,1,0,0:0:0:0:
256,192,2319,1,2,0:0:0:0:
256,192,2643,1,0,0:0:0:0:
256,192,2805,1,0,0:0:0:0:
256,192,2968,1,2,0:0:0:0:
256,192,3292,1,0,0:0:0:0:
256,192,3616,1,2,0:0:0:0:
256,192,3941,1,2,0:0:0:0:
256,192,4265,1,0,0:0:0:0:
256,192,4427,1,2,0:0:0:0:
256,192,4751,1,0,0:0:0:0:
256,192,4914,1,2,0:0:0:0:
256,192,5238,1,0,0:0:0:0:
256,192,5400,1,0,0:0:0:0:
256,192,5562,1,2,0:0:0:0:
256,192,5887,1,0,0:0:0:0:
256,192,6211,1,2,0:0:0:0:
256,192,6535,1,2,0:0:0:0:
256,192,7022,1,2,0:0:0:0:
256,192,7346,1,0,0:0:0:0:
256,192,7508,1,2,0:0:0:0:
256,192,7832,1,0,0:0:0:0:
256,192,8157,1,2,0:0:0:0:
256,192,8481,1,0,0:0:0:0:
256,192,8805,1,2,0:0:0:0:
256,192,9130,1,2,0:0:0:0:
256,192,9454,1,0,0:0:0:0:
256,192,9616,1,2,0:0:0:0:
256,192,10589,1,2,0:0:0:0:
256,192,10751,1,2,0:0:0:0:
256,192,10914,1,0,0:0:0:0:
256,192,11400,1,0,0:0:0:0:
256,192,11562,1,2,0:0:0:0:
256,192,11724,1,0,0:0:0:0:
256,192,12049,1,0,0:0:0:0:
256,192,12130,1,0,0:0:0:0:
256,192,12211,1,6,0:0:0:0:
256,192,12535,1,0,0:0:0:0:
256,192,12697,1,2,0:0:0:0:
256,192,12860,1,0,0:0:0:0:
256,192,13022,1,0,0:0:0:0:
256,192,13184,1,2,0:0:0:0:
256,192,13265,1,2,0:0:0:0:
256,192,13346,1,0,0:0:0:0:
256,192,13508,1,2,0:0:0:0:
256,192,13670,1,2,0:0:0:0:
256,192,13832,1,0,0:0:0:0:
256,192,13995,1,0,0:0:0:0:
256,192,14157,1,2,0:0:0:0:
256,192,14319,1,0,0:0:0:0:
256,192,14481,1,2,0:0:0:0:
256,192,14643,1,2,0:0:0:0:
256,192,14724,1,2,0:0:0:0:
256,192,14805,1,0,0:0:0:0:
256,192,15130,1,0,0:0:0:0:
256,192,15292,1,2,0:0:0:0:
256,192,15454,1,0,0:0:0:0:
256,192,15616,1,0,0:0:0:0:
256,192,15778,1,2,0:0:0:0:
256,192,15941,1,0,0:0:0:0:
256,192,16103,1,2,0:0:0:0:
256,192,16265,1,2,0:0:0:0:
256,192,16427,1,0,0:0:0:0:
256,192,16589,1,2,0:0:0:0:
256,192,16751,1,0,0:0:0:0:
256,192,16914,1,0,0:0:0:0:
256,192,17076,1,2,0:0:0:0:
256,192,17400,1,6,0:0:0:0:
256,192,17724,1,0,0:0:0:0:
256,192,17887,1,2,0:0:0:0:
256,192,18049,1,0,0:0:0:0:
256,192,18211,1,0,0:0:0:0:
256,192,18373,1,2,0:0:0:0:
256,192,18535,1,0,0:0:0:0:
256,192,18697,1,2,0:0:0:0:
256,192,18860,1,2,0:0:0:0:
256,192,18941,1,2,0:0:0:0:
256,192,19022,1,0,0:0:0:0:
256,192,19184,1,0,0:0:0:0:
256,192,19346,1,2,0:0:0:0:
256,192,19508,1,0,0:0:0:0:
256,192,19589,1,0,0:0:0:0:
256,192,19670,1,2,0:0:0:0:
256,192,19832,1,2,0:0:0:0:
256,192,19995,1,0,0:0:0:0:
256,192,20076,1,0,0:0:0:0:
256,192,20157,1,0,0:0:0:0:
256,192,20238,1,0,0:0:0:0:
256,192,20319,1,2,0:0:0:0:
256,192,20481,1,0,0:0:0:0:
256,192,20643,1,2,0:0:0:0:
256,192,20724,1,0,0:0:0:0:
256,192,20805,1,2,0:0:0:0:
256,192,20887,1,2,0:0:0:0:
256,192,20968,1,0,0:0:0:0:
256,192,21130,1,2,0:0:0:0:
256,192,21211,1,2,0:0:0:0:
256,192,21292,1,4,0:0:0:0:
256,192,21454,8,4,23724,0:0:0:0:
256,192,23887,5,6,0:0:0:0:
256,192,24049,1,0,0:0:0:0:
256,192,24130,1,0,0:0:0:0:
256,192,24211,1,0,0:0:0:0:
256,192,24373,1,6,0:0:0:0:
256,192,24535,1,0,0:0:0:0:
256,192,24616,1,0,0:0:0:0:
256,192,24697,1,2,0:0:0:0:
256,192,24860,1,4,0:0:0:0:
256,192,25022,1,2,0:0:0:0:
256,192,25103,1,2,0:0:0:0:
256,192,25184,1,2,0:0:0:0:
256,192,25346,1,4,0:0:0:0:
256,192,25508,1,2,0:0:0:0:
256,192,25589,1,2,0:0:0:0:
256,192,25670,1,0,0:0:0:0:
256,192,25832,1,6,0:0:0:0:
256,192,26157,1,4,0:0:0:0:
256,192,26481,1,6,0:0:0:0:
256,192,26643,1,0,0:0:0:0:
256,192,26724,1,0,0:0:0:0:
256,192,26805,1,0,0:0:0:0:
256,192,26967,1,6,0:0:0:0:
256,192,27129,1,0,0:0:0:0:
256,192,27210,1,0,0:0:0:0:
256,192,27291,1,2,0:0:0:0:
256,192,27454,1,4,0:0:0:0:
256,192,27616,1,2,0:0:0:0:
256,192,27697,1,2,0:0:0:0:
256,192,27778,1,2,0:0:0:0:
256,192,27940,1,4,0:0:0:0:
256,192,28102,1,2,0:0:0:0:
256,192,28183,1,2,0:0:0:0:
256,192,28264,1,0,0:0:0:0:
256,192,28426,1,6,0:0:0:0:
256,192,28751,1,4,0:0:0:0:
256,192,29076,1,6,0:0:0:0:
256,192,29238,1,0,0:0:0:0:
256,192,29319,1,0,0:0:0:0:
256,192,29400,1,0,0:0:0:0:
256,192,29562,1,6,0:0:0:0:
256,192,29724,1,0,0:0:0:0:
256,192,29805,1,0,0:0:0:0:
256,192,29886,1,2,0:0:0:0:
256,192,30049,1,4,0:0:0:0:
256,192,30211,1,2,0:0:0:0:
256,192,30292,1,2,0:0:0:0:
256,192,30373,1,2,0:0:0:0:
256,192,30535,1,4,0:0:0:0:
256,192,30697,1,2,0:0:0:0:
256,192,30778,1,2,0:0:0:0:
256,192,30859,1,0,0:0:0:0:
256,192,31021,1,6,0:0:0:0:
256,192,31346,1,4,0:0:0:0:
256,192,31670,1,6,0:0:0:0:
256,192,31832,1,0,0:0:0:0:
256,192,31913,1,0,0:0:0:0:
256,192,31994,1,0,0:0:0:0:
256,192,32156,1,6,0:0:0:0:
256,192,32318,1,0,0:0:0:0:
256,192,32399,1,0,0:0:0:0:
256,192,32480,1,2,0:0:0:0:
256,192,32643,1,4,0:0:0:0:
256,192,32805,1,2,0:0:0:0:
256,192,32886,1,2,0:0:0:0:
256,192,32967,1,2,0:0:0:0:
256,192,33129,1,4,0:0:0:0:
256,192,33291,1,2,0:0:0:0:
256,192,33372,1,2,0:0:0:0:
256,192,33453,1,0,0:0:0:0:
256,192,33615,1,6,0:0:0:0:
256,192,33940,1,4,0:0:0:0:
256,192,34265,1,6,0:0:0:0:
256,192,34589,1,0,0:0:0:0:
256,192,34751,1,2,0:0:0:0:
256,192,35076,1,0,0:0:0:0:
256,192,35238,1,2,0:0:0:0:
256,192,35562,1,0,0:0:0:0:
256,192,35724,1,2,0:0:0:0:
256,192,36049,1,0,0:0:0:0:
256,192,36211,1,2,0:0:0:0:
256,192,36373,1,2,0:0:0:0:
256,192,36535,1,0,0:0:0:0:
256,192,36860,1,4,0:0:0:0:
256,192,38157,1,2,0:0:0:0:
256,192,38643,1,2,0:0:0:0:
256,192,39130,1,0,0:0:0:0:
256,192,39454,1,2,0:0:0:0:
256,192,40103,1,2,0:0:0:0:
256,192,40751,1,0,0:0:0:0:
256,192,41238,1,2,0:0:0:0:
256,192,41562,1,2,0:0:0:0:
256,192,41724,1,2,0:0:0:0:
256,192,41887,1,0,0:0:0:0:
256,192,42049,1,2,0:0:0:0:
256,192,43346,1,2,0:0:0:0:
256,192,43832,1,2,0:0:0:0:
256,192,44319,1,2,0:0:0:0:
256,192,44643,1,0,0:0:0:0:
256,192,45292,1,2,0:0:0:0:
256,192,45616,1,0,0:0:0:0:
256,192,45778,1,2,0:0:0:0:
256,192,45941,1,2,0:0:0:0:
256,192,46103,1,2,0:0:0:0:
256,192,46265,1,2,0:0:0:0:
256,192,46589,1,2,0:0:0:0:
256,192,46832,1,0,0:0:0:0:
256,192,46914,1,2,0:0:0:0:
256,192,47076,1,2,0:0:0:0:
256,192,47157,1,2,0:0:0:0:
256,192,47238,1,4,0:0:0:0:
256,192,47562,1,0,0:0:0:0:
256,192,47724,1,2,0:0:0:0:
256,192,47887,1,0,0:0:0:0:
256,192,48049,1,0,0:0:0:0:
256,192,48130,1,0,0:0:0:0:
256,192,48211,1,2,0:0:0:0:
256,192,48373,1,0,0:0:0:0:
256,192,48535,1,2,0:0:0:0:
256,192,48860,1,2,0:0:0:0:
256,192,49022,1,2,0:0:0:0:
256,192,49184,1,0,0:0:0:0:
256,192,49346,1,0,0:0:0:0:
256,192,49427,1,0,0:0:0:0:
256,192,49508,1,2,0:0:0:0:
256,192,49670,1,0,0:0:0:0:
256,192,49832,1,2,0:0:0:0:
256,192,50157,1,0,0:0:0:0:
256,192,50319,1,2,0:0:0:0:
256,192,50481,1,0,0:0:0:0:
256,192,50643,1,0,0:0:0:0:
256,192,50724,1,0,0:0:0:0:
256,192,50805,1,2,0:0:0:0:
256,192,50968,1,2,0:0:0:0:
256,192,51130,1,0,0:0:0:0:
256,192,51454,1,0,0:0:0:0:
256,192,51616,1,0,0:0:0:0:
256,192,51778,1,2,0:0:0:0:
256,192,51941,1,0,0:0:0:0:
256,192,52022,1,0,0:0:0:0:
256,192,52103,1,2,0:0:0:0:
256,192,52265,1,2,0:0:0:0:
256,192,52346,1,2,0:0:0:0:
256,192,52427,1,4,0:0:0:0:
256,192,52751,1,0,0:0:0:0:
256,192,52913,1,2,0:0:0:0:
256,192,53076,1,0,0:0:0:0:
256,192,53238,1,0,0:0:0:0:
256,192,53319,1,0,0:0:0:0:
256,192,53400,1,2,0:0:0:0:
256,192,53562,1,0,0:0:0:0:
256,192,53724,1,2,0:0:0:0:
256,192,54049,1,2,0:0:0:0:
256,192,54211,1,2,0:0:0:0:
256,192,54373,1,0,0:0:0:0:
256,192,54535,1,0,0:0:0:0:
256,192,54616,1,0,0:0:0:0:
256,192,54697,1,2,0:0:0:0:
256,192,54859,1,0,0:0:0:0:
256,192,55021,1,2,0:0:0:0:
256,192,55346,1,0,0:0:0:0:
256,192,55508,1,2,0:0:0:0:
256,192,55670,1,0,0:0:0:0:
256,192,55832,1,0,0:0:0:0:
256,192,55914,1,0,0:0:0:0:
256,192,55994,1,2,0:0:0:0:
256,192,56157,1,2,0:0:0:0:
256,192,56319,1,4,0:0:0:0:
256,192,56481,1,2,0:0:0:0:
256,192,56562,1,2,0:0:0:0:
256,192,56643,1,4,0:0:0:0:
256,192,56805,1,2,0:0:0:0:
256,192,56887,1,2,0:0:0:0:
256,192,56968,1,4,0:0:0:0:
256,192,57130,1,2,0:0:0:0:
256,192,57211,1,2,0:0:0:0:
256,192,57292,1,0,0:0:0:0:
256,192,57373,1,0,0:0:0:0:
256,192,57454,1,2,0:0:0:0:
256,192,57616,1,6,0:0:0:0:
256,192,58914,1,2,0:0:0:0:
256,192,60211,1,0,0:0:0:0:
256,192,61508,1,0,0:0:0:0:
256,192,62157,1,0,0:0:0:0:
256,192,62481,1,2,0:0:0:0:
256,192,62805,1,6,0:0:0:0:
256,192,62968,1,2,0:0:0:0:
256,192,63130,1,0,0:0:0:0:
256,192,63292,1,2,0:0:0:0:
256,192,63373,1,2,0:0:0:0:
256,192,63454,1,0,0:0:0:0:
256,192,63616,1,2,0:0:0:0:
256,192,63778,1,0,0:0:0:0:
256,192,63941,1,2,0:0:0:0:
256,192,64022,1,2,0:0:0:0:
256,192,64103,1,0,0:0:0:0:
256,192,64265,1,2,0:0:0:0:
256,192,64427,1,0,0:0:0:0:
256,192,64589,1,2,0:0:0:0:
256,192,64670,1,0,0:0:0:0:
256,192,64751,1,2,0:0:0:0:
256,192,64914,1,2,0:0:0:0:
256,192,65076,1,0,0:0:0:0:
256,192,65157,1,0,0:0:0:0:
256,192,65238,1,2,0:0:0:0:
256,192,65400,1,0,0:0:0:0:
256,192,65481,1,0,0:0:0:0:
256,192,65562,1,0,0:0:0:0:
256,192,65643,1,0,0:0:0:0:
256,192,65724,1,2,0:0:0:0:
256,192,65886,1,0,0:0:0:0:
256,192,65967,1,0,0:0:0:0:
256,192,66048,1,2,0:0:0:0:
256,192,66129,1,0,0:0:0:0:
256,192,66210,1,2,0:0:0:0:
256,192,66292,1,2,0:0:0:0:
256,192,66373,1,0,0:0:0:0:
256,192,66535,1,2,0:0:0:0:
256,192,66616,1,2,0:0:0:0:
256,192,66697,1,4,0:0:0:0:
256,192,67346,1,2,0:0:0:0:
256,192,67995,1,4,0:0:0:0:
256,192,68319,1,2,0:0:0:0:
256,192,68643,1,0,0:0:0:0:
256,192,68805,1,0,0:0:0:0:
256,192,68968,1,2,0:0:0:0:
256,192,69130,1,2,0:0:0:0:
256,192,69211,1,2,0:0:0:0:
256,192,69292,1,0,0:0:0:0:
256,192,69616,1,2,0:0:0:0:
256,192,69778,1,0,0:0:0:0:
256,192,69860,1,0,0:0:0:0:
256,192,69941,1,2,0:0:0:0:
256,192,70103,1,0,0:0:0:0:
256,192,70265,1,2,0:0:0:0:
256,192,70589,1,0,0:0:0:0:
256,192,70751,1,2,0:0:0:0:
256,192,70832,1,0,0:0:0:0:
256,192,70914,1,2,0:0:0:0:
256,192,71238,1,0,0:0:0:0:
256,192,71400,1,0,0:0:0:0:
256,192,71481,1,2,0:0:0:0:
256,192,71562,1,2,0:0:0:0:
256,192,71724,1,2,0:0:0:0:
256,192,71887,1,0,0:0:0:0:
256,192,72049,1,2,0:0:0:0:
256,192,72211,1,0,0:0:0:0:
256,192,72373,1,2,0:0:0:0:
256,192,72697,1,0,0:0:0:0:
256,192,72778,1,0,0:0:0:0:
256,192,72860,1,2,0:0:0:0:
256,192,73022,1,2,0:0:0:0:
256,192,73184,1,4,0:0:0:0:
256,192,73508,1,0,0:0:0:0:
256,192,73670,1,2,0:0:0:0:
256,192,73832,1,0,0:0:0:0:
256,192,73914,1,0,0:0:0:0:
256,192,73995,1,2,0:0:0:0:
256,192,74157,1,0,0:0:0:0:
256,192,74319,1,2,0:0:0:0:
256,192,74481,1,0,0:0:0:0:
256,192,74643,1,0,0:0:0:0:
256,192,74805,1,2,0:0:0:0:
256,192,74968,1,0,0:0:0:0:
256,192,75292,1,0,0:0:0:0:
256,192,75373,1,0,0:0:0:0:
256,192,75454,1,2,0:0:0:0:
256,192,75616,1,2,0:0:0:0:
256,192,75778,1,0,0:0:0:0:
256,192,75941,1,0,0:0:0:0:
256,192,76022,1,2,0:0:0:0:
256,192,76103,1,2,0:0:0:0:
256,192,76265,1,0,0:0:0:0:
256,192,76346,1,0,0:0:0:0:
256,192,76589,1,2,0:0:0:0:
256,192,76751,1,0,0:0:0:0:
256,192,76914,1,2,0:0:0:0:
256,192,76995,1,2,0:0:0:0:
256,192,77076,1,4,0:0:0:0:
256,192,77238,1,2,0:0:0:0:
256,192,77319,1,2,0:0:0:0:
256,192,77400,1,4,0:0:0:0:
256,192,77562,1,2,0:0:0:0:
256,192,77643,1,2,0:0:0:0:
256,192,77724,1,4,0:0:0:0:
256,192,77887,1,2,0:0:0:0:
256,192,77968,1,2,0:0:0:0:
256,192,78049,1,0,0:0:0:0:
256,192,78130,1,0,0:0:0:0:
256,192,78211,1,2,0:0:0:0:
256,192,78373,1,6,0:0:0:0:
256,192,78697,1,2,0:0:0:0:
256,192,79021,1,0,0:0:0:0:
256,192,79183,1,0,0:0:0:0:
256,192,79265,1,0,0:0:0:0:
256,192,79346,1,2,0:0:0:0:
256,192,79508,1,0,0:0:0:0:
256,192,79832,1,0,0:0:0:0:
256,192,79994,1,2,0:0:0:0:
256,192,80156,1,0,0:0:0:0:
256,192,80238,1,2,0:0:0:0:
256,192,80319,1,2,0:0:0:0:
256,192,80481,1,0,0:0:0:0:
256,192,80643,1,2,0:0:0:0:
256,192,80805,1,2,0:0:0:0:
256,192,80967,1,0,0:0:0:0:
256,192,81129,1,0,0:0:0:0:
256,192,81210,1,0,0:0:0:0:
256,192,81292,1,2,0:0:0:0:
256,192,81454,1,2,0:0:0:0:
256,192,81778,1,0,0:0:0:0:
256,192,81940,1,2,0:0:0:0:
256,192,82102,1,2,0:0:0:0:
256,192,82184,1,2,0:0:0:0:
256,192,82265,1,0,0:0:0:0:
256,192,82427,1,2,0:0:0:0:
256,192,82589,1,0,0:0:0:0:
256,192,82751,1,0,0:0:0:0:
256,192,82914,1,2,0:0:0:0:
256,192,83075,1,0,0:0:0:0:
256,192,83238,1,2,0:0:0:0:
256,192,83400,1,2,0:0:0:0:
256,192,83481,1,2,0:0:0:0:
256,192,83562,1,4,0:0:0:0:
256,192,84860,1,6,0:0:0:0:
256,192,85508,1,2,0:0:0:0:
256,192,86157,5,6,0:0:0:0:
256,192,86319,1,0,0:0:0:0:
256,192,86400,1,0,0:0:0:0:
256,192,86481,1,0,0:0:0:0:
256,192,86643,1,6,0:0:0:0:
256,192,86805,1,0,0:0:0:0:
256,192,86886,1,0,0:0:0:0:
256,192,86967,1,2,0:0:0:0:
256,192,87130,1,4,0:0:0:0:
256,192,87292,1,2,0:0:0:0:
256,192,87373,1,2,0:0:0:0:
256,192,87454,1,2,0:0:0:0:
256,192,87616,1,4,0:0:0:0:
256,192,87778,1,2,0:0:0:0:
256,192,87859,1,2,0:0:0:0:
256,192,87940,1,0,0:0:0:0:
256,192,88102,1,6,0:0:0:0:
256,192,88265,1,6,0:0:0:0:
256,192,88427,1,4,0:0:0:0:
256,192,88589,1,4,0:0:0:0:
