osu file format v14

[General]
AudioFilename: audio.mp3
AudioLeadIn: 0
PreviewTime: 66616
Countdown: 0
SampleSet: Normal
StackLeniency: 0.7
Mode: 1
LetterboxInBreaks: 0
WidescreenStoryboard: 0

[Editor]
DistanceSpacing: 1.5
BeatDivisor: 4
GridSize: 32
TimelineZoom: 2.2

[Metadata]
Title:Delta Decision (TV Size)
TitleUnicode:Delta Decision (TV Size)
Artist:EYKHA (CV: Sawashiro Miyuki), LOU (CV: Uchida Maaya), MERYL (CV: Terui Haruka)
ArtistUnicode:エィハ (CV: 沢城みゆき)、婁 (CV: 内田真礼)、メリル (CV: 照井春佳)
Creator:Cynplytholowazy
Version:Determination
Source:ケイオスドラゴン 赤竜戦役
Tags:jrock j-rock j rock japanese anime chaos dragon sekiryuu sen'eki seneki ending ed female vocalists vocals
BeatmapID:3502785
BeatmapSetID:1714263

[Difficulty]
HPDrainRate:5
CircleSize:10
OverallDifficulty:7
ApproachRate:10
SliderMultiplier:1.4
SliderTickRate:1

[Events]
//Background and Video events
0,0,"Delta Decision cropped.jpg",0,100
//Break Periods
//Storyboard Layer 0 (Background)
//Storyboard Layer 1 (Fail)
//Storyboard Layer 2 (Pass)
//Storyboard Layer 3 (Foreground)
//Storyboard Layer 4 (Overlay)
//Storyboard Sound Samples

[TimingPoints]
1833,324.324324324324,4,1,0,30,1,0
1992,-101.350225037506,4,1,0,30,0,0
2073,-102.039103801292,4,1,0,30,0,0
2154,-102.737411287597,4,1,0,30,0,0
2235,-103.445342407486,4,1,0,30,0,0
2316,-104.163097481583,4,1,0,30,0,0
2478,-105.628908964559,4,1,0,30,0,0
2640,-107.136563876652,4,1,0,30,0,0
2802,-108.687879871291,4,1,0,30,0,0
2884,-109.490365568161,4,1,0,30,0,0
2965,-110.294784580499,4,1,0,30,0,0
3127,-111.939611525361,4,1,0,30,0,0
3289,-113.634239790674,4,1,0,30,0,0
3451,-115.380965936047,4,1,0,30,0,0
3532,-116.274622298719,4,1,0,30,0,0
3613,-117.182229931579,4,1,0,30,0,0
3775,-119.040626529613,4,1,0,30,0,0
3938,-120.970951054517,4,1,0,30,0,0
4100,-122.952477249747,4,1,0,30,0,0
4262,-125,4,1,0,30,0,0
4424,-100,4,1,0,30,0,0
4586,-101.26434090377,4,1,0,30,0,0
4748,-102.561062366611,4,1,0,30,0,0
4829,-103.221957040573,4,1,0,30,0,0
4911,-103.899743754004,4,1,0,30,0,0
5073,-105.265292876846,4,1,0,30,0,0
5235,-106.667214731996,4,1,0,30,0,0
5397,-108.106982169638,4,1,0,30,0,0
5478,-108.84154013925,4,1,0,30,0,0
5559,-109.586148648649,4,1,0,30,0,0
5721,-111.10635382771,4,1,0,30,0,0
5884,-112.679114198871,4,1,0,30,0,0
6046,-114.28697260636,4,1,0,30,0,0
6127,-115.108232789212,4,1,0,30,0,0
6208,-115.94138146725,4,1,0,30,0,0
6370,-117.644392057303,4,1,0,30,0,0
6532,-119.398177970001,4,1,0,30,0,0
6694,-121.205044371789,4,1,0,30,0,0
7019,-100,4,1,0,30,0,0
7181,-101.350225037506,4,1,0,30,0,0
7343,-102.737411287597,4,1,0,30,0,0
7424,-103.445342407486,4,1,0,30,0,0
7505,-104.163097481583,4,1,0,30,0,0
7667,-105.628908964559,4,1,0,30,0,0
7829,-107.136563876652,4,1,0,30,0,0
7992,-108.697595423259,4,1,0,30,0,0
8073,-109.490365568161,4,1,0,30,0,0
8154,-110.294784580499,4,1,0,30,0,0
8316,-111.939611525361,4,1,0,30,0,0
8478,-113.634239790674,4,1,0,30,0,0
8640,-115.380965936047,4,1,0,30,0,0
8721,-116.274622298719,4,1,0,30,0,0
8802,-117.182229931579,4,1,0,30,0,0
8965,-119.05228118269,4,1,0,30,0,0
9127,-120.970951054517,4,1,0,30,0,0
9289,-122.952477249747,4,1,0,30,0,0
9451,-125,4,1,0,30,0,0
9613,-100,4,1,0,30,0,0
9775,-101.44733315465,4,1,0,30,0,0
9938,-102.946509519492,4,1,0,30,0,0
10019,-103.708101196456,4,1,0,30,0,0
10100,-104.481045270519,4,1,0,30,0,0
10262,-106.062021296469,4,1,0,30,0,0
10424,-107.69157814871,4,1,0,30,0,0
10586,-109.371989982662,4,1,0,30,0,0
10667,-110.232016309096,4,1,0,30,0,0
10748,-111.105675146771,4,1,0,30,0,0
10911,-112.906433330019,4,1,0,30,0,0
11073,-114.754926730672,4,1,0,30,0,0
11235,-116.664954279256,4,1,0,30,0,0
11316,-117.644011603813,4,1,0,30,0,0
11397,-118.639640580922,4,1,0,30,0,0
11559,-120.682325433096,4,1,0,30,0,0
11721,-122.796582675462,4,1,0,30,0,0
11884,-125,4,1,0,30,0,0
11968,-90.9090909090909,4,1,0,60,0,0
12208,-90.9090909090909,4,1,0,60,0,0
12370,-91.9872616127969,4,1,0,60,0,0
12451,-92.5359944029164,4,1,0,60,0,0
12532,-93.0913132061493,4,1,0,60,0,0
12613,-93.653337308538,4,1,0,60,0,0
12694,-94.2221888943047,4,1,0,60,0,0
12775,-94.7979931344072,4,1,0,60,0,0
12857,-95.3881191877016,4,1,0,60,0,0
12938,-95.9783065347745,4,1,0,60,0,0
13019,-96.5758425886784,4,1,0,60,0,0
13100,-97.1808654627016,4,1,0,60,0,0
13181,-97.7935167529284,4,1,0,60,0,0
13262,-98.4139416487174,4,1,0,60,0,0
13343,-99.0422890474126,4,1,0,60,0,0
13424,-99.6787116734759,4,1,0,60,0,0
13505,-100.323366202244,4,1,0,60,0,0
13586,-100.976413388516,4,1,0,60,0,0
13667,-101.638018200202,4,1,0,60,0,0
13748,-102.308349957253,4,1,0,60,0,0
13829,-102.987582476128,4,1,0,60,0,0
13911,-103.684449395552,4,1,0,60,0,0
13992,-104.382139148494,4,1,0,60,0,0
14073,-105.089281980513,4,1,0,60,0,0
14154,-105.806071323313,4,1,0,60,0,0
14235,-106.532705922252,4,1,0,60,0,0
14316,-107.269390020062,4,1,0,60,0,0
14397,-108.016333548248,4,1,0,60,0,0
14478,-108.773752326538,4,1,0,60,0,0
14559,-109.541868270782,4,1,0,60,0,0
14640,-110.320909609728,4,1,0,60,0,0
14721,-111.111111111111,4,1,0,60,0,0
14802,-90.9090909090909,4,1,0,60,0,0
14884,-91.4344103449491,4,1,0,60,0,0
14965,-91.9593181898721,4,1,0,60,0,0
15046,-92.4902876287558,4,1,0,60,0,0
15127,-93.0274242695824,4,1,0,60,0,0
15208,-93.5708361879349,4,1,0,60,0,0
15289,-94.1206339994922,4,1,0,60,0,0
15370,-94.6769309350943,4,1,0,60,0,0
15451,-95.2398429184864,4,1,0,60,0,0
15532,-95.8094886468525,4,1,0,60,0,0
15613,-96.3859896742562,4,1,0,60,0,0
15694,-96.9694704981129,4,1,0,60,0,0
15775,-97.5600586488214,4,1,0,60,0,0
15857,-98.1653111405334,4,1,0,60,0,0
15938,-98.7706009972215,4,1,0,60,0,0
16019,-99.3834016314963,4,1,0,60,0,0
16100,-100.003853713053,4,1,0,60,0,0
16181,-100.632101446465,4,1,0,60,0,0
16262,-101.268292682927,4,1,0,60,0,0
16343,-101.912579036249,4,1,0,60,0,0
16424,-102.56511600332,4,1,0,60,0,0
16505,-103.226063089224,4,1,0,60,0,0
16586,-103.895583937222,4,1,0,60,0,0
16667,-104.573846463832,4,1,0,60,0,0
16748,-105.261022999229,4,1,0,60,0,0
16829,-105.95729043322,4,1,0,60,0,0
16911,-106.671599457393,4,1,0,60,0,0
16992,-107.386716325264,4,1,0,60,0,0
17073,-108.111486064242,4,1,0,60,0,0
17154,-108.846105448597,4,1,0,60,0,0
17235,-109.590776637527,4,1,0,60,0,0
17316,-110.345707360633,4,1,0,60,0,0
17397,-86.9565217391304,4,1,0,60,0,0
17559,-87.9420715709938,4,1,0,60,0,0
17640,-88.44327176781,4,1,0,60,0,0
17721,-88.950217598981,4,1,0,60,0,0
17802,-89.4630084338636,4,1,0,60,0,0
17884,-89.9881877080574,4,1,0,60,0,0
17965,-90.5130513051305,4,1,0,60,0,0
18046,-91.0440734436678,4,1,0,60,0,0
18127,-91.5813631561692,4,1,0,60,0,0
18208,-92.1250320642017,4,1,0,60,0,0
18289,-92.6751944557084,4,1,0,60,0,0
18370,-93.2319673651029,4,1,0,60,0,0
18451,-93.7954706562698,4,1,0,60,0,0
18532,-94.365827108592,4,1,0,60,0,0
18613,-94.9431625061369,4,1,0,60,0,0
18694,-95.5276057301364,4,1,0,60,0,0
18775,-96.1192888549035,4,1,0,60,0,0
18857,-96.7257896964334,4,1,0,60,0,0
18938,-97.3324557667738,4,1,0,60,0,0
19019,-97.9467799119492,4,1,0,60,0,0
19100,-98.5689080572437,4,1,0,60,0,0
19181,-99.1989898591327,4,1,0,60,0,0
19262,-99.8371788253048,4,1,0,60,0,0
19343,-100.483632439346,4,1,0,60,0,0
19424,-101.138512290301,4,1,0,60,0,0
19505,-101.801984207329,4,1,0,60,0,0
19586,-102.474218399707,4,1,0,60,0,0
19667,-103.155389602396,4,1,0,60,0,0
19748,-103.845677227477,4,1,0,60,0,0
19829,-104.545265521687,4,1,0,60,0,0
19911,-105.263157894737,4,1,0,60,0,0
19995,-100,4,1,0,45,0,1
20073,-98.4627063959006,4,1,0,47,0,1
20154,-96.9719626168224,4,1,0,49,0,1
20235,-95.5256858773706,4,1,0,51,0,1
20316,-94.121915820029,4,1,0,52,0,1
20397,-92.7588056499195,4,1,0,54,0,1
20478,-91.4346140289038,4,1,0,56,0,1
20559,-90.1476976542137,4,1,0,58,0,1
20640,-88.8965044551062,4,1,0,60,0,1
20721,-87.6795673483184,4,1,0,62,0,1
20802,-86.4954984994998,4,1,0,64,0,1
20884,-85.3289473684211,4,1,0,66,0,1
20965,-84.2071092355137,4,1,0,68,0,1
21046,-83.1143864146107,4,1,0,69,0,1
21127,-82.0496599715325,4,1,0,71,0,1
21208,-81.0118675827608,4,1,0,73,0,1
21289,-66.6666666666667,4,1,0,75,0,1
21373,-50,4,1,0,20,0,1
22589,-100,4,1,0,20,0,1
23562,-100,4,1,0,20,0,0
23805,-100,4,1,0,80,0,0
23887,-71.4285714285714,4,1,0,80,0,1
24046,-75,4,1,0,80,0,1
24127,-76.9230769230769,4,1,0,80,0,1
24208,-78.9473684210526,4,1,0,80,0,1
24289,-81.0810810810811,4,1,0,80,0,1
24370,-71.4285714285714,4,1,0,80,0,1
24532,-74.9923005851555,4,1,0,80,0,1
24613,-76.9109286165508,4,1,0,80,0,1
24694,-78.9303079416532,4,1,0,80,0,1
24775,-81.0585885486019,4,1,0,80,0,1
24857,-71.4285714285714,4,1,0,80,0,1
25019,-75,4,1,0,80,0,1
25100,-76.9230769230769,4,1,0,80,0,1
25181,-78.9473684210526,4,1,0,80,0,1
25262,-81.0810810810811,4,1,0,80,0,1
25343,-71.4285714285714,4,1,0,80,0,1
25505,-75,4,1,0,80,0,1
25586,-76.9230769230769,4,1,0,80,0,1
25667,-78.9473684210526,4,1,0,80,0,1
25748,-81.0810810810811,4,1,0,80,0,1
25829,-71.4285714285714,4,1,0,80,0,1
25992,-74.0867579908676,4,1,0,80,0,1
26154,-76.932195353248,4,1,0,80,0,1
26316,-80.0049309664694,4,1,0,80,0,1
26397,-81.6352201257862,4,1,0,80,0,1
26478,-71.4285714285714,4,1,0,80,0,1
26640,-74.9923005851555,4,1,0,80,0,1
26721,-76.9109286165508,4,1,0,80,0,1
26802,-78.9303079416532,4,1,0,80,0,1
26884,-81.0855810855811,4,1,0,80,0,1
26965,-71.4285714285714,4,1,0,80,0,1
27127,-75,4,1,0,80,0,1
27208,-76.9230769230769,4,1,0,80,0,1
27289,-78.9473684210526,4,1,0,80,0,1
27370,-81.0810810810811,4,1,0,80,0,1
27451,-71.4285714285714,4,1,0,80,0,1
27613,-74.9923005851555,4,1,0,80,0,1
27694,-76.9109286165508,4,1,0,80,0,1
27775,-78.9303079416532,4,1,0,80,0,1
27857,-81.0855810855811,4,1,0,80,0,1
27938,-71.4285714285714,4,1,0,80,0,1
28100,-75,4,1,0,80,0,1
28181,-76.9230769230769,4,1,0,80,0,1
28262,-78.9473684210526,4,1,0,80,0,1
28343,-81.0810810810811,4,1,0,80,0,1
28424,-71.4285714285714,4,1,0,80,0,1
28586,-74.0698470668797,4,1,0,80,0,1
28667,-75.4651162790698,4,1,0,80,0,1
28748,-76.9139606541835,4,1,0,80,0,1
28911,-80.0049309664694,4,1,0,80,0,1
28992,-81.6352201257862,4,1,0,80,0,1
29073,-71.4285714285714,4,1,0,80,0,1
29235,-75,4,1,0,80,0,1
29316,-76.9230769230769,4,1,0,80,0,1
29397,-78.9473684210526,4,1,0,80,0,1
29478,-81.0810810810811,4,1,0,80,0,1
29559,-71.4285714285714,4,1,0,80,0,1
29721,-74.9923005851555,4,1,0,80,0,1
29802,-76.9109286165508,4,1,0,80,0,1
29884,-78.9559014267186,4,1,0,80,0,1
29965,-81.0855810855811,4,1,0,80,0,1
30046,-71.4285714285714,4,1,0,80,0,1
30208,-75,4,1,0,80,0,1
30289,-76.9230769230769,4,1,0,80,0,1
30370,-78.9473684210526,4,1,0,80,0,1
30451,-81.0810810810811,4,1,0,80,0,1
30532,-71.4285714285714,4,1,0,80,0,1
30694,-74.9923005851555,4,1,0,80,0,1
30775,-76.9109286165508,4,1,0,80,0,1
30857,-78.9559014267186,4,1,0,80,0,1
30938,-81.0855810855811,4,1,0,80,0,1
31019,-71.4285714285714,4,1,0,80,0,1
31181,-74.0740740740741,4,1,0,80,0,1
31343,-76.9230769230769,4,1,0,80,0,1
31505,-80,4,1,0,80,0,1
31667,-71.4285714285714,4,1,0,80,0,1
31829,-74.9923005851555,4,1,0,80,0,1
31911,-76.9352290679305,4,1,0,80,0,1
31992,-78.9559014267186,4,1,0,80,0,1
32073,-81.0855810855811,4,1,0,80,0,1
32154,-71.4285714285714,4,1,0,80,0,1
32316,-75,4,1,0,80,0,1
32397,-76.9230769230769,4,1,0,80,0,1
32478,-78.9473684210526,4,1,0,80,0,1
32559,-81.0810810810811,4,1,0,80,0,1
32640,-71.4285714285714,4,1,0,80,0,1
32802,-74.9923005851555,4,1,0,80,0,1
32884,-76.9352290679305,4,1,0,80,0,1
32965,-78.9559014267186,4,1,0,80,0,1
33046,-81.0855810855811,4,1,0,80,0,1
33127,-71.4285714285714,4,1,0,80,0,1
33289,-75,4,1,0,80,0,1
33370,-76.9230769230769,4,1,0,80,0,1
33451,-78.9473684210526,4,1,0,80,0,1
33532,-81.0810810810811,4,1,0,80,0,1
33613,-71.4285714285714,4,1,0,80,0,1
33775,-74.0698470668797,4,1,0,80,0,1
33857,-75.4826703884624,4,1,0,80,0,1
33938,-76.932195353248,4,1,0,80,0,1
34019,-78.4384819917815,4,1,0,80,0,1
34100,-80.0049309664694,4,1,0,80,0,1
34181,-81.6352201257862,4,1,0,80,0,1
34265,-83.3333333333333,4,1,0,80,0,0
34427,-83.3333333333333,4,1,0,40,0,0
34586,-111.111111111111,4,1,0,40,0,0
34748,-108.527131782946,4,1,0,41,0,0
34911,-106.060606060606,4,1,0,43,0,0
35073,-103.703703703704,4,1,0,44,0,0
35235,-101.449275362319,4,1,0,46,0,0
35397,-99.290780141844,4,1,0,47,0,0
35559,-97.2222222222222,4,1,0,49,0,0
35721,-95.2380952380952,4,1,0,50,0,0
35884,-93.3333333333333,4,1,0,51,0,0
36046,-91.5032679738562,4,1,0,53,0,0
36208,-89.7435897435897,4,1,0,54,0,0
36370,-88.0503144654088,4,1,0,56,0,0
36532,-86.4197530864198,4,1,0,57,0,0
36694,-84.8484848484848,4,1,0,59,0,0
36857,-83.3333333333333,4,1,0,60,0,0
37100,-100,4,1,0,30,0,0
37181,-100.74558173785,4,1,0,30,0,0
37262,-101.502364833534,4,1,0,30,0,0
37343,-102.270603625491,4,1,0,30,0,0
37505,-103.842504743833,4,1,0,30,0,0
37667,-105.463480439391,4,1,0,30,0,0
37829,-107.135865309319,4,1,0,30,0,0
37992,-108.872973241818,4,1,0,30,0,0
38073,-109.757320497393,4,1,0,30,0,0
38154,-110.656152057426,4,1,0,30,0,0
38316,-112.498715181416,4,1,0,30,0,0
38397,-113.44320066335,4,1,0,30,0,0
38478,-114.40367931431,4,1,0,30,0,0
38640,-116.374269005848,4,1,0,30,0,0
38802,-118.413934869631,4,1,0,30,0,0
38884,-119.473856565877,4,1,0,30,0,0
38965,-120.539647577093,4,1,0,30,0,0
39046,-121.624624958329,4,1,0,30,0,0
39127,-122.729311504822,4,1,0,30,0,0
39289,-125,4,1,0,30,0,0
39451,-100,4,1,0,30,0,0
39613,-101.349662584354,4,1,0,30,0,0
39694,-102.038248616004,4,1,0,30,0,0
39775,-102.736255383836,4,1,0,30,0,0
39857,-103.452674547155,4,1,0,30,0,0
39938,-104.170234629217,4,1,0,30,0,0
40100,-105.635637374088,4,1,0,30,0,0
40262,-107.142857142857,4,1,0,30,0,0
40424,-108.693709792709,4,1,0,30,0,0
40505,-109.486094860949,4,1,0,30,0,0
40586,-110.290117860381,4,1,0,30,0,0
40667,-111.106037081012,4,1,0,30,0,0
40748,-111.934118513066,4,1,0,30,0,0
40911,-113.638486688463,4,1,0,30,0,0
40992,-114.504894578313,4,1,0,30,0,0
41073,-115.384615384615,4,1,0,30,0,0
41235,-117.185242269531,4,1,0,30,0,0
41397,-119.042959193659,4,1,0,30,0,0
41478,-119.994081672914,4,1,0,30,0,0
41559,-120.960525007457,4,1,0,30,0,0
41640,-121.942662389735,4,1,0,30,0,0
41721,-122.940879231935,4,1,0,30,0,0
41884,-125,4,1,0,30,0,0
42046,-100,4,1,0,30,0,0
42208,-101.350225037506,4,1,0,30,0,0
42289,-102.039103801292,4,1,0,30,0,0
42370,-102.737411287597,4,1,0,30,0,0
42532,-104.163097481583,4,1,0,30,0,0
42694,-105.628908964559,4,1,0,30,0,0
42775,-106.377394803604,4,1,0,30,0,0
42857,-107.146004053221,4,1,0,30,0,0
42938,-107.916222932197,4,1,0,30,0,0
43019,-108.697595423259,4,1,0,30,0,0
43100,-109.490365568161,4,1,0,30,0,0
43181,-110.294784580499,4,1,0,30,0,0
43262,-111.111111111111,4,1,0,30,0,0
43343,-111.939611525361,4,1,0,30,0,0
43505,-113.634239790674,4,1,0,30,0,0
43586,-114.500941619586,4,1,0,30,0,0
43667,-115.380965936047,4,1,0,30,0,0
43829,-117.182229931579,4,1,0,30,0,0
43992,-119.05228118269,4,1,0,30,0,0
44073,-120.003947498273,4,1,0,30,0,0
44154,-120.970951054517,4,1,0,30,0,0
44235,-121.953665630328,4,1,0,30,0,0
44316,-122.952477249747,4,1,0,30,0,0
44478,-125,4,1,0,30,0,0
44640,-100,4,1,0,30,0,0
44802,-101.693143812709,4,1,0,30,0,0
44884,-102.572211680371,4,1,0,30,0,0
44965,-103.455608718767,4,1,0,30,0,0
45046,-104.354354354354,4,1,0,30,0,0
45127,-105.268852104295,4,1,0,30,0,0
45289,-107.146790001101,4,1,0,30,0,0
45451,-109.09294763987,4,1,0,30,0,0
45532,-110.092781172211,4,1,0,30,0,0
45613,-111.111111111111,4,1,0,30,0,0
45694,-112.148455509451,4,1,0,30,0,0
45775,-113.205351948807,4,1,0,30,0,0
45938,-115.393738140417,4,1,0,30,0,0
46100,-117.654171704958,4,1,0,30,0,0
46262,-120.004933399112,4,1,0,30,0,0
46424,-122.451547948653,4,1,0,30,0,0
46586,-125,4,1,0,30,0,0
46670,-125,4,1,0,60,0,0
46748,-100,4,1,0,60,0,0
46829,-98.3639668753787,4,1,0,60,0,0
46911,-96.7613749254918,4,1,0,60,0,0
47073,-93.7439846005775,4,1,0,60,0,0
47154,-92.3047763457164,4,1,0,60,0,0
47235,-90.9090909090909,4,1,0,60,0,0
47397,-92.0236113213259,4,1,0,60,0,0
47478,-92.5911825173228,4,1,0,60,0,0
47559,-93.1657983450812,4,1,0,60,0,0
47721,-94.3366951124903,4,1,0,60,0,0
47884,-95.5449045336686,4,1,0,60,0,0
47965,-96.1568875533765,4,1,0,60,0,0
48046,-96.7767608436132,4,1,0,60,0,0
48127,-97.4046779878244,4,1,0,60,0,0
48208,-98.0407965814722,4,1,0,60,0,0
48370,-99.3382893554448,4,1,0,60,0,0
48532,-100.670585313354,4,1,0,60,0,0
48694,-102.039103801292,4,1,0,60,0,0
48775,-102.737411287597,4,1,0,60,0,0
48857,-103.454143270376,4,1,0,60,0,0
49019,-104.899930986887,4,1,0,60,0,0
49181,-106.386701662292,4,1,0,60,0,0
49262,-107.146004053221,4,1,0,60,0,0
49343,-107.916222932197,4,1,0,60,0,0
49424,-108.697595423259,4,1,0,60,0,0
49505,-109.490365568161,4,1,0,60,0,0
49667,-111.111111111111,4,1,0,60,0,0
49829,-90.9090909090909,4,1,0,60,0,0
49992,-91.9593181898721,4,1,0,60,0,0
50073,-92.4902876287558,4,1,0,60,0,0
50154,-93.0274242695824,4,1,0,60,0,0
50316,-94.1206339994922,4,1,0,60,0,0
50478,-95.2398429184864,4,1,0,60,0,0
50559,-95.8094886468525,4,1,0,60,0,0
50640,-96.3859896742562,4,1,0,60,0,0
50721,-96.9694704981129,4,1,0,60,0,0
50802,-97.5600586488214,4,1,0,60,0,0
50965,-98.7706009972215,4,1,0,60,0,0
51046,-99.3834016314963,4,1,0,60,0,0
51127,-100.003853713053,4,1,0,60,0,0
51289,-101.268292682927,4,1,0,60,0,0
51370,-101.912579036249,4,1,0,60,0,0
51451,-102.56511600332,4,1,0,60,0,0
51613,-103.895583937222,4,1,0,60,0,0
51775,-105.261022999229,4,1,0,60,0,0
51857,-105.965943893177,4,1,0,60,0,0
51938,-106.671599457393,4,1,0,60,0,0
52019,-107.386716325264,4,1,0,60,0,0
52100,-108.111486064242,4,1,0,60,0,0
52181,-108.846105448597,4,1,0,60,0,0
52262,-109.590776637527,4,1,0,60,0,0
52343,-110.345707360633,4,1,0,60,0,0
52424,-90.9090909090909,4,1,0,60,0,0
52586,-92.0236113213259,4,1,0,60,0,0
52667,-92.5911825173228,4,1,0,60,0,0
52748,-93.1657983450812,4,1,0,60,0,0
52910,-94.3366951124903,4,1,0,60,0,0
53073,-95.5449045336686,4,1,0,60,0,0
53154,-96.1568875533765,4,1,0,60,0,0
53235,-96.7767608436132,4,1,0,60,0,0
53316,-97.4046779878244,4,1,0,60,0,0
53397,-98.0407965814722,4,1,0,60,0,0
53559,-99.3382893554448,4,1,0,60,0,0
53721,-100.670585313354,4,1,0,60,0,0
53883,-102.039103801292,4,1,0,60,0,0
53964,-102.737411287597,4,1,0,60,0,0
54046,-103.454143270376,4,1,0,60,0,0
54208,-104.899930986887,4,1,0,60,0,0
54370,-106.386701662292,4,1,0,60,0,0
54451,-107.146004053221,4,1,0,60,0,0
54532,-107.916222932197,4,1,0,60,0,0
54613,-108.697595423259,4,1,0,60,0,0
54694,-109.490365568161,4,1,0,60,0,0
54856,-111.111111111111,4,1,0,60,0,0
55019,-90.0900900900901,4,1,0,60,0,0
55181,-90.9090909090909,4,1,0,60,0,0
55262,-91.5027410512738,4,1,0,60,0,0
55343,-92.1041954069626,4,1,0,60,0,0
55505,-93.3311405312063,4,1,0,60,0,0
55667,-94.5912159346612,4,1,0,60,0,0
55748,-95.2340996811545,4,1,0,60,0,0
55829,-95.8857818704063,4,1,0,60,0,0
55910,-96.5464443688329,4,1,0,60,0,0
55991,-97.2162740899358,4,1,0,60,0,0
56154,-98.5927727588603,4,1,0,60,0,0
56235,-99.2914005773773,4,1,0,60,0,0
56316,-100,4,1,0,60,0,0
56478,-96.9719626168224,4,1,0,60,0,0
56559,-95.5256858773706,4,1,0,60,0,0
56640,-94.121915820029,4,1,0,60,0,0
56802,-91.4346140289038,4,1,0,60,0,0
56884,-90.1320361362057,4,1,0,60,0,0
56965,-88.8812746273771,4,1,0,60,0,0
57127,-86.48108018003,4,1,0,60,0,0
57208,-85.3289473684211,4,1,0,60,0,0
57289,-84.2071092355137,4,1,0,60,0,0
57370,-83.1143864146107,4,1,0,60,0,0
57451,-82.0496599715325,4,1,0,60,0,0
57532,-81.0118675827608,4,1,0,60,0,0
57613,-80,4,1,0,60,0,0
57778,-80,4,1,0,30,0,0
57938,-100,4,1,0,30,0,0
58262,-102.187809489511,4,1,0,30,0,0
58586,-104.473490427099,4,1,0,30,0,0
58911,-106.871307172618,4,1,0,30,0,0
59235,-109.37387072683,4,1,0,30,0,0
59559,-111.996447689765,4,1,0,30,0,0
59884,-114.756584601385,4,1,0,30,0,0
60208,-117.647058823529,4,1,0,30,0,0
60532,-120.686905204955,4,1,0,30,0,0
60857,-123.89815244385,4,1,0,30,0,0
61181,-127.274256398755,4,1,0,30,0,0
61505,-130.839505461252,4,1,0,30,0,0
61829,-134.610252913096,4,1,0,30,0,0
62154,-138.617489008305,4,1,0,30,0,0
62478,-142.857142857143,4,1,0,30,0,0
62643,-86.9565217391304,4,1,0,60,0,0
62964,-87.9420715709938,4,1,0,60,0,0
63045,-88.44327176781,4,1,0,60,0,0
63126,-88.950217598981,4,1,0,60,0,0
63207,-89.4630084338636,4,1,0,60,0,0
63289,-89.9881877080574,4,1,0,60,0,0
63370,-90.5130513051305,4,1,0,60,0,0
63451,-91.0440734436678,4,1,0,60,0,0
63532,-91.5813631561692,4,1,0,60,0,0
63613,-92.1250320642017,4,1,0,60,0,0
63694,-92.6751944557084,4,1,0,60,0,0
63775,-93.2319673651029,4,1,0,60,0,0
63856,-93.7954706562698,4,1,0,60,0,0
63937,-94.365827108592,4,1,0,60,0,0
64018,-94.9431625061369,4,1,0,60,0,0
64099,-95.5276057301364,4,1,0,60,0,0
64180,-96.1192888549035,4,1,0,60,0,0
64262,-96.7257896964334,4,1,0,60,0,0
64343,-97.3324557667738,4,1,0,60,0,0
64424,-97.9467799119492,4,1,0,60,0,0
64505,-98.5689080572437,4,1,0,60,0,0
64586,-99.1989898591327,4,1,0,60,0,0
64667,-99.8371788253048,4,1,0,60,0,0
64748,-100.483632439346,4,1,0,60,0,0
64829,-101.138512290301,4,1,0,60,0,0
64910,-101.801984207329,4,1,0,60,0,0
64991,-102.474218399707,4,1,0,60,0,0
65072,-103.155389602396,4,1,0,60,0,0
65153,-103.845677227477,4,1,0,60,0,0
65234,-104.545265521687,4,1,0,60,0,0
65316,-105.263157894737,4,1,0,60,0,0
65400,-100,4,1,0,45,0,1
65478,-98.4627063959006,4,1,0,47,0,1
65559,-96.9719626168224,4,1,0,49,0,1
65640,-95.5256858773706,4,1,0,51,0,1
65721,-94.121915820029,4,1,0,52,0,1
65802,-92.7588056499195,4,1,0,54,0,1
65883,-91.4346140289038,4,1,0,56,0,1
65964,-90.1476976542137,4,1,0,58,0,1
66045,-88.8965044551062,4,1,0,60,0,1
66126,-87.6795673483184,4,1,0,62,0,1
66207,-86.4954984994998,4,1,0,64,0,1
66289,-85.3289473684211,4,1,0,66,0,1
66370,-84.2071092355137,4,1,0,68,0,1
66451,-83.1143864146107,4,1,0,69,0,1
66532,-82.0496599715325,4,1,0,71,0,1
66613,-81.0118675827608,4,1,0,73,0,1
66697,-66.6666666666667,4,1,0,75,0,0
66860,-100,4,1,0,40,0,0
67832,-100,4,1,0,80,0,0
67995,-83.3333333333333,4,1,0,80,0,1
68154,-84.2098428775484,4,1,0,80,0,1
68235,-84.6550486260688,4,1,0,80,0,1
68316,-85.1049868766404,4,1,0,80,0,1
68478,-86.0193659636557,4,1,0,80,0,1
68640,-86.9536068651113,4,1,0,80,0,1
68721,-87.4283788338389,4,1,0,80,0,1
68802,-87.9083638335367,4,1,0,80,0,1
68884,-88.3996728462377,4,1,0,80,0,1
68965,-88.8904118977452,4,1,0,80,0,1
69127,-89.8884191558667,4,1,0,80,0,1
69208,-90.3958739894062,4,1,0,80,0,1
69289,-90.9090909090909,4,1,0,80,0,1
69451,-91.9532080822404,4,1,0,80,0,1
69613,-93.0215878935667,4,1,0,80,0,1
69694,-93.5651421151349,4,1,0,80,0,1
69775,-94.1150859879544,4,1,0,80,0,1
69938,-95.2415920105743,4,1,0,80,0,1
70100,-96.3882282996433,4,1,0,80,0,1
70181,-96.9719626168224,4,1,0,80,0,1
70262,-97.5628102903566,4,1,0,80,0,1
70424,-98.76637222053,4,1,0,80,0,1
70586,-83.3333333333333,4,1,0,80,0,1
70748,-84.2095015576324,4,1,0,80,0,1
70829,-84.6545312194167,4,1,0,80,0,1
70911,-85.1098720892096,4,1,0,80,0,1
71073,-86.0240005303985,4,1,0,80,0,1
71235,-86.9579786877555,4,1,0,80,0,1
71316,-87.4326145552561,4,1,0,80,0,1
71397,-87.9124601937801,4,1,0,80,0,1
71478,-88.3976018531135,4,1,0,80,0,1
71559,-88.8881276974721,4,1,0,80,0,1
71721,-89.8856944925528,4,1,0,80,0,1
71884,-90.9122757847534,4,1,0,80,0,1
72046,-91.9560595322466,4,1,0,80,0,1
72127,-92.4869912324471,4,1,0,80,0,1
72208,-93.0240894751936,4,1,0,80,0,1
72370,-94.1172203684898,4,1,0,80,0,1
72532,-95.2363476218438,4,1,0,80,0,1
72613,-95.8059514140146,4,1,0,80,0,1
72694,-96.3824097459516,4,1,0,80,0,1
72775,-96.9658470966296,4,1,0,80,0,1
72857,-97.5637265959847,4,1,0,80,0,1
73019,-98.7668417446906,4,1,0,80,0,1
73100,-99.3795955882353,4,1,0,80,0,1
73181,-83.3333333333333,4,1,0,80,0,1
73343,-84.2098428775484,4,1,0,80,0,1
73424,-84.6550486260688,4,1,0,80,0,1
73505,-85.1049868766404,4,1,0,80,0,1
73667,-86.0193659636557,4,1,0,80,0,1
73829,-86.9536068651113,4,1,0,80,0,1
73992,-87.9143225106758,4,1,0,80,0,1
74073,-88.3996728462377,4,1,0,80,0,1
74154,-88.8904118977452,4,1,0,80,0,1
74316,-89.8884191558667,4,1,0,80,0,1
74478,-90.9090909090909,4,1,0,80,0,1
74559,-91.4281686169463,4,1,0,80,0,1
74640,-91.9532080822404,4,1,0,80,0,1
74802,-93.0215878935667,4,1,0,80,0,1
74965,-94.121915820029,4,1,0,80,0,1
75127,-95.2415920105743,4,1,0,80,0,1
75289,-96.3882282996433,4,1,0,80,0,1
75370,-96.9719626168224,4,1,0,80,0,1
75451,-97.5628102903566,4,1,0,80,0,1
75613,-98.76637222053,4,1,0,80,0,1
75775,-83.3333333333333,4,1,0,80,0,1
75938,-84.2146240186855,4,1,0,80,0,1
76019,-84.6595356117923,4,1,0,80,0,1
76100,-85.1091731689725,4,1,0,80,0,1
76262,-86.0229306117039,4,1,0,80,0,1
76343,-86.4872068230277,4,1,0,80,0,1
76424,-86.9565217391304,4,1,0,80,0,1
76586,-87.9105993904504,4,1,0,80,0,1
76748,-88.8858453742382,4,1,0,80,0,1
76911,-89.8891966759003,4,1,0,80,0,1
76992,-90.3962671495229,4,1,0,80,0,1
77073,-90.9090909090909,4,1,0,80,0,1
77235,-88.8904118977452,4,1,0,80,0,1
77316,-87.9143225106758,4,1,0,80,0,1
77397,-86.959436808582,4,1,0,80,0,1
77559,-85.1105715598136,4,1,0,80,0,1
77640,-84.2153106941108,4,1,0,80,0,1
77721,-83.3386879136413,4,1,0,80,0,1
77884,-81.6287997986028,4,1,0,80,0,1
77965,-80.804934272008,4,1,0,80,0,1
78046,-79.9975328440141,4,1,0,80,0,1
78127,-79.206106870229,4,1,0,80,0,1
78208,-78.430186853722,4,1,0,80,0,1
78289,-77.6693215162584,4,1,0,80,0,1
78370,-76.9230769230769,4,1,0,80,0,1
78694,-85.1042896497442,4,1,0,80,0,1
78857,-86.0240005303985,4,1,0,80,0,1
78938,-86.4884682042394,4,1,0,80,0,1
79019,-86.9579786877555,4,1,0,80,0,1
79181,-87.9124601937801,4,1,0,80,0,1
79343,-88.8881276974721,4,1,0,80,0,1
79424,-89.3841278589143,4,1,0,80,0,1
79505,-89.8856944925528,4,1,0,80,0,1
79586,-90.3929218336352,4,1,0,80,0,1
79667,-90.9059062565683,4,1,0,80,0,1
79829,-91.9495429097867,4,1,0,80,0,1
79911,-92.4869912324471,4,1,0,80,0,1
79992,-93.0240894751936,4,1,0,80,0,1
80154,-94.1172203684898,4,1,0,80,0,1
80316,-95.2363476218438,4,1,0,80,0,1
80478,-96.3824097459516,4,1,0,80,0,1
80559,-96.9658470966296,4,1,0,80,0,1
80640,-97.5563909774436,4,1,0,80,0,1
80802,-98.7593240980362,4,1,0,80,0,1
80965,-83.3333333333333,4,1,0,80,0,1
81127,-84.2098428775484,4,1,0,80,0,1
81208,-84.6550486260688,4,1,0,80,0,1
81289,-85.1049868766404,4,1,0,80,0,1
81451,-86.0193659636557,4,1,0,80,0,1
81613,-86.9536068651113,4,1,0,80,0,1
81694,-87.4283788338389,4,1,0,80,0,1
81775,-87.9083638335367,4,1,0,80,0,1
81938,-88.8904118977452,4,1,0,80,0,1
82100,-89.8884191558667,4,1,0,80,0,1
82181,-90.3958739894062,4,1,0,80,0,1
82262,-90.9090909090909,4,1,0,80,0,1
82424,-91.9532080822404,4,1,0,80,0,1
82505,-92.4843126069595,4,1,0,80,0,1
82586,-93.0215878935667,4,1,0,80,0,1
82748,-94.1150859879544,4,1,0,80,0,1
82911,-95.2415920105743,4,1,0,80,0,1
82992,-95.8114796483711,4,1,0,80,0,1
83073,-96.3882282996433,4,1,0,80,0,1
83154,-96.9719626168224,4,1,0,80,0,1
83235,-97.5628102903566,4,1,0,80,0,1
83397,-98.76637222053,4,1,0,80,0,1
83478,-99.3793579036089,4,1,0,80,0,1
83562,-83.3333333333333,4,1,0,80,0,0
83724,-83.3333333333333,4,1,0,20,0,0
84697,-76.9230769230769,4,1,0,80,0,0
85022,-76.9230769230769,4,1,0,20,0,0
85346,-100,4,1,0,60,0,0
85670,-100,4,1,0,20,0,0
85995,-100,4,1,0,80,0,0
86157,-71.4285714285714,4,1,0,80,0,1
86316,-75,4,1,0,80,0,1
86397,-76.9230769230769,4,1,0,80,0,1
86478,-78.9473684210526,4,1,0,80,0,1
86559,-81.0810810810811,4,1,0,80,0,1
86640,-71.4285714285714,4,1,0,80,0,1
86802,-74.9923005851555,4,1,0,80,0,1
86883,-76.9109286165508,4,1,0,80,0,1
86964,-78.9303079416532,4,1,0,80,0,1
87045,-81.0585885486019,4,1,0,80,0,1
87127,-71.4285714285714,4,1,0,80,0,1
87289,-75,4,1,0,80,0,1
87370,-76.9230769230769,4,1,0,80,0,1
87451,-78.9473684210526,4,1,0,80,0,1
87532,-81.0810810810811,4,1,0,80,0,1
87613,-71.4285714285714,4,1,0,80,0,1
87775,-75,4,1,0,80,0,1
87856,-76.9230769230769,4,1,0,80,0,1
87937,-78.9473684210526,4,1,0,80,0,1
88018,-81.0810810810811,4,1,0,80,0,1
88099,-83.3333333333333,4,1,0,80,0,1
88262,-71.4285714285714,4,1,0,80,0,1
88424,-66.6666666666667,4,1,0,80,0,1
88589,-62.5,4,1,0,80,0,0

[HitObjects]
256,192,1833,5,6,0:0:0:0:
256,192,1995,1,2,0:0:0:0:
256,192,2076,1,0,0:0:0:0:
256,192,2157,1,2,0:0:0:0:
256,192,2238,1,2,0:0:0:0:
256,192,2319,1,0,0:0:0:0:
256,192,2481,1,2,0:0:0:0:
256,192,2643,1,0,0:0:0:0:
256,192,2805,1,2,0:0:0:0:
256,192,2887,1,0,0:0:0:0:
256,192,2968,1,2,0:0:0:0:
256,192,3130,1,0,0:0:0:0:
256,192,3292,1,2,0:0:0:0:
256,192,3454,1,0,0:0:0:0:
256,192,3535,1,2,0:0:0:0:
256,192,3616,1,0,0:0:0:0:
256,192,3778,1,2,0:0:0:0:
256,192,3941,1,2,0:0:0:0:
256,192,4103,1,2,0:0:0:0:
256,192,4265,1,2,0:0:0:0:
256,192,4427,1,0,0:0:0:0:
256,192,4589,1,2,0:0:0:0:
256,192,4751,1,2,0:0:0:0:
256,192,4832,1,2,0:0:0:0:
256,192,4914,1,0,0:0:0:0:
256,192,5076,1,2,0:0:0:0:
256,192,5238,1,2,0:0:0:0:
256,192,5400,1,0,0:0:0:0:
256,192,5481,1,2,0:0:0:0:
256,192,5562,1,0,0:0:0:0:
256,192,5724,1,2,0:0:0:0:
256,192,5887,1,0,0:0:0:0:
256,192,6049,1,2,0:0:0:0:
256,192,6130,1,0,0:0:0:0:
256,192,6211,1,0,0:0:0:0:
256,192,6373,1,2,0:0:0:0:
256,192,6535,1,2,0:0:0:0:
256,192,6697,1,0,0:0:0:0:
256,192,7022,1,2,0:0:0:0:
256,192,7184,1,0,0:0:0:0:
256,192,7346,1,2,0:0:0:0:
256,192,7427,1,2,0:0:0:0:
256,192,7508,1,0,0:0:0:0:
256,192,7670,1,2,0:0:0:0:
256,192,7832,1,2,0:0:0:0:
256,192,7995,1,0,0:0:0:0:
256,192,8076,1,2,0:0:0:0:
256,192,8157,1,0,0:0:0:0:
256,192,8319,1,2,0:0:0:0:
256,192,8481,1,0,0:0:0:0:
256,192,8643,1,2,0:0:0:0:
256,192,8724,1,0,0:0:0:0:
256,192,8805,1,2,0:0:0:0:
256,192,8968,1,2,0:0:0:0:
256,192,9130,1,2,0:0:0:0:
256,192,9292,1,0,0:0:0:0:
256,192,9454,1,0,0:0:0:0:
256,192,9616,1,2,0:0:0:0:
256,192,9778,1,0,0:0:0:0:
256,192,9941,1,2,0:0:0:0:
256,192,10022,1,2,0:0:0:0:
256,192,10103,1,0,0:0:0:0:
256,192,10265,1,2,0:0:0:0:
256,192,10427,1,2,0:0:0:0:
256,192,10589,1,0,0:0:0:0:
256,192,10670,1,2,0:0:0:0:
256,192,10751,1,0,0:0:0:0:
256,192,10914,1,2,0:0:0:0:
256,192,11076,1,0,0:0:0:0:
256,192,11238,1,2,0:0:0:0:
256,192,11319,1,2,0:0:0:0:
256,192,11400,1,0,0:0:0:0:
256,192,11562,1,2,0:0:0:0:
256,192,11724,1,0,0:0:0:0:
256,192,11887,1,2,0:0:0:0:
256,192,12049,1,0,0:0:0:0:
256,192,12130,1,0,0:0:0:0:
256,192,12211,1,6,0:0:0:0:
256,192,12373,1,0,0:0:0:0:
256,192,12454,1,0,0:0:0:0:
256,192,12535,1,2,0:0:0:0:
256,192,12616,1,0,0:0:0:0:
256,192,12697,1,0,0:0:0:0:
256,192,12778,1,0,0:0:0:0:
256,192,12860,1,2,0:0:0:0:
256,192,12941,1,2,0:0:0:0:
256,192,13022,1,0,0:0:0:0:
256,192,13103,1,0,0:0:0:0:
256,192,13184,1,2,0:0:0:0:
256,192,13265,1,0,0:0:0:0:
256,192,13346,1,2,0:0:0:0:
256,192,13427,1,2,0:0:0:0:
256,192,13508,1,0,0:0:0:0:
256,192,13589,1,0,0:0:0:0:
256,192,13670,1,2,0:0:0:0:
256,192,13751,1,0,0:0:0:0:
256,192,13832,1,2,0:0:0:0:
256,192,13914,1,2,0:0:0:0:
256,192,13995,1,0,0:0:0:0:
256,192,14076,1,0,0:0:0:0:
256,192,14157,1,2,0:0:0:0:
256,192,14238,1,2,0:0:0:0:
256,192,14319,1,0,0:0:0:0:
256,192,14400,1,0,0:0:0:0:
256,192,14481,1,2,0:0:0:0:
256,192,14562,1,0,0:0:0:0:
256,192,14643,1,2,0:0:0:0:
256,192,14724,1,0,0:0:0:0:
256,192,14805,1,2,0:0:0:0:
256,192,14887,1,2,0:0:0:0:
256,192,14968,1,0,0:0:0:0:
256,192,15049,1,0,0:0:0:0:
256,192,15130,1,2,0:0:0:0:
256,192,15211,1,0,0:0:0:0:
256,192,15292,1,2,0:0:0:0:
256,192,15373,1,0,0:0:0:0:
256,192,15454,1,0,0:0:0:0:
256,192,15535,1,0,0:0:0:0:
256,192,15616,1,2,0:0:0:0:
256,192,15697,1,0,0:0:0:0:
256,192,15778,1,2,0:0:0:0:
256,192,15860,1,0,0:0:0:0:
256,192,15941,1,2,0:0:0:0:
256,192,16022,1,2,0:0:0:0:
256,192,16103,1,0,0:0:0:0:
256,192,16184,1,0,0:0:0:0:
256,192,16265,1,2,0:0:0:0:
256,192,16346,1,0,0:0:0:0:
256,192,16427,1,2,0:0:0:0:
256,192,16508,1,2,0:0:0:0:
256,192,16589,1,0,0:0:0:0:
256,192,16670,1,0,0:0:0:0:
256,192,16751,1,2,0:0:0:0:
256,192,16832,1,0,0:0:0:0:
256,192,16914,1,2,0:0:0:0:
256,192,16995,1,0,0:0:0:0:
256,192,17076,1,2,0:0:0:0:
256,192,17157,1,2,0:0:0:0:
256,192,17238,1,0,0:0:0:0:
256,192,17319,1,0,0:0:0:0:
256,192,17400,1,6,0:0:0:0:
256,192,17562,1,0,0:0:0:0:
256,192,17643,1,0,0:0:0:0:
256,192,17724,1,2,0:0:0:0:
256,192,17805,1,0,0:0:0:0:
256,192,17887,1,2,0:0:0:0:
256,192,17968,1,0,0:0:0:0:
256,192,18049,1,2,0:0:0:0:
256,192,18130,1,2,0:0:0:0:
256,192,18211,1,0,0:0:0:0:
256,192,18292,1,0,0:0:0:0:
256,192,18373,1,2,0:0:0:0:
256,192,18454,1,0,0:0:0:0:
256,192,18535,1,2,0:0:0:0:
256,192,18616,1,2,0:0:0:0:
256,192,18697,1,0,0:0:0:0:
256,192,18778,1,0,0:0:0:0:
256,192,18860,1,0,0:0:0:0:
256,192,18941,1,0,0:0:0:0:
256,192,19022,1,2,0:0:0:0:
256,192,19103,1,2,0:0:0:0:
256,192,19184,1,0,0:0:0:0:
256,192,19265,1,0,0:0:0:0:
256,192,19346,1,2,0:0:0:0:
256,192,19427,1,0,0:0:0:0:
256,192,19508,1,0,0:0:0:0:
256,192,19589,1,0,0:0:0:0:
256,192,19670,1,2,0:0:0:0:
256,192,19751,1,2,0:0:0:0:
256,192,19832,1,0,0:0:0:0:
256,192,19914,1,0,0:0:0:0:
256,192,19995,1,0,0:0:0:0:
256,192,20076,1,2,0:0:0:0:
256,192,20157,1,2,0:0:0:0:
256,192,20238,1,2,0:0:0:0:
256,192,20319,1,0,0:0:0:0:
256,192,20400,1,2,0:0:0:0:
256,192,20481,1,2,0:0:0:0:
256,192,20562,1,2,0:0:0:0:
256,192,20643,1,0,0:0:0:0:
256,192,20724,1,2,0:0:0:0:
256,192,20805,1,2,0:0:0:0:
256,192,20887,1,2,0:0:0:0:
256,192,20968,1,0,0:0:0:0:
256,192,21049,1,2,0:0:0:0:
256,192,21130,1,2,0:0:0:0:
256,192,21211,1,2,0:0:0:0:
256,192,21292,1,4,0:0:0:0:
256,192,21454,12,0,23724,0:0:0:0:
256,192,23887,5,6,0:0:0:0:
256,192,24049,1,0,0:0:0:0:
256,192,24130,1,0,0:0:0:0:
256,192,24211,1,2,0:0:0:0:
256,192,24292,1,0,0:0:0:0:
256,192,24373,1,6,0:0:0:0:
256,192,24535,1,0,0:0:0:0:
256,192,24616,1,0,0:0:0:0:
256,192,24697,1,2,0:0:0:0:
256,192,24778,1,2,0:0:0:0:
256,192,24860,1,4,0:0:0:0:
256,192,25022,1,2,0:0:0:0:
256,192,25103,1,0,0:0:0:0:
256,192,25184,1,2,0:0:0:0:
256,192,25265,1,2,0:0:0:0:
256,192,25346,1,4,0:0:0:0:
256,192,25508,1,2,0:0:0:0:
256,192,25589,1,2,0:0:0:0:
256,192,25670,1,2,0:0:0:0:
256,192,25751,1,2,0:0:0:0:
256,192,25832,1,4,0:0:0:0:
256,192,25995,1,2,0:0:0:0:
256,192,26157,1,4,0:0:0:0:
256,192,26319,1,0,0:0:0:0:
256,192,26400,1,0,0:0:0:0:
256,192,26481,1,6,0:0:0:0:
256,192,26643,1,0,0:0:0:0:
256,192,26724,1,0,0:0:0:0:
256,192,26805,1,2,0:0:0:0:
256,192,26887,1,0,0:0:0:0:
256,192,26968,1,6,0:0:0:0:
256,192,27130,1,0,0:0:0:0:
256,192,27211,1,0,0:0:0:0:
256,192,27292,1,2,0:0:0:0:
256,192,27373,1,2,0:0:0:0:
256,192,27454,1,4,0:0:0:0:
256,192,27616,1,2,0:0:0:0:
256,192,27697,1,0,0:0:0:0:
256,192,27778,1,2,0:0:0:0:
256,192,27860,1,2,0:0:0:0:
256,192,27941,1,4,0:0:0:0:
256,192,28103,1,2,0:0:0:0:
256,192,28184,1,2,0:0:0:0:
256,192,28265,1,2,0:0:0:0:
256,192,28346,1,2,0:0:0:0:
256,192,28427,1,4,0:0:0:0:
256,192,28589,1,2,0:0:0:0:
256,192,28670,1,2,0:0:0:0:
256,192,28751,1,4,0:0:0:0:
256,192,28914,1,2,0:0:0:0:
256,192,28995,1,0,0:0:0:0:
256,192,29076,1,6,0:0:0:0:
256,192,29238,1,0,0:0:0:0:
256,192,29319,1,0,0:0:0:0:
256,192,29400,1,2,0:0:0:0:
256,192,29481,1,0,0:0:0:0:
256,192,29562,1,6,0:0:0:0:
256,192,29724,1,2,0:0:0:0:
256,192,29805,1,0,0:0:0:0:
256,192,29887,1,2,0:0:0:0:
256,192,29968,1,2,0:0:0:0:
256,192,30049,1,4,0:0:0:0:
256,192,30211,1,0,0:0:0:0:
256,192,30292,1,0,0:0:0:0:
256,192,30373,1,2,0:0:0:0:
256,192,30454,1,2,0:0:0:0:
256,192,30535,1,4,0:0:0:0:
256,192,30697,1,2,0:0:0:0:
256,192,30778,1,2,0:0:0:0:
256,192,30860,1,2,0:0:0:0:
256,192,30941,1,2,0:0:0:0:
256,192,31022,1,4,0:0:0:0:
256,192,31184,1,2,0:0:0:0:
256,192,31346,1,4,0:0:0:0:
256,192,31508,1,2,0:0:0:0:
256,192,31670,1,6,0:0:0:0:
256,192,31832,1,0,0:0:0:0:
256,192,31914,1,0,0:0:0:0:
256,192,31995,1,2,0:0:0:0:
256,192,32076,1,0,0:0:0:0:
256,192,32157,1,6,0:0:0:0:
256,192,32319,1,2,0:0:0:0:
256,192,32400,1,2,0:0:0:0:
256,192,32481,1,2,0:0:0:0:
256,192,32562,1,2,0:0:0:0:
256,192,32643,1,4,0:0:0:0:
256,192,32805,1,2,0:0:0:0:
256,192,32887,1,0,0:0:0:0:
256,192,32968,1,2,0:0:0:0:
256,192,33049,1,2,0:0:0:0:
256,192,33130,1,4,0:0:0:0:
256,192,33292,1,2,0:0:0:0:
256,192,33373,1,2,0:0:0:0:
256,192,33454,1,0,0:0:0:0:
256,192,33535,1,2,0:0:0:0:
256,192,33616,1,4,0:0:0:0:
256,192,33778,1,2,0:0:0:0:
256,192,33860,1,2,0:0:0:0:
256,192,33941,1,0,0:0:0:0:
256,192,34022,1,0,0:0:0:0:
256,192,34103,1,2,0:0:0:0:
256,192,34184,1,0,0:0:0:0:
256,192,34265,1,6,0:0:0:0:
256,192,34589,1,0,0:0:0:0:
256,192,34751,1,2,0:0:0:0:
256,192,34914,1,0,0:0:0:0:
256,192,35076,1,0,0:0:0:0:
256,192,35238,1,2,0:0:0:0:
256,192,35400,1,0,0:0:0:0:
256,192,35562,1,0,0:0:0:0:
256,192,35724,1,2,0:0:0:0:
256,192,35887,1,0,0:0:0:0:
256,192,36049,1,0,0:0:0:0:
256,192,36211,1,2,0:0:0:0:
256,192,36373,1,2,0:0:0:0:
256,192,36535,1,0,0:0:0:0:
256,192,36697,1,2,0:0:0:0:
256,192,36860,1,4,0:0:0:0:
256,192,37103,1,2,0:0:0:0:
256,192,37184,1,2,0:0:0:0:
256,192,37265,1,0,0:0:0:0:
256,192,37346,1,2,0:0:0:0:
256,192,37508,1,0,0:0:0:0:
256,192,37670,1,2,0:0:0:0:
256,192,37832,1,2,0:0:0:0:
256,192,37995,1,0,0:0:0:0:
256,192,38076,1,0,0:0:0:0:
256,192,38157,1,2,0:0:0:0:
256,192,38319,1,2,0:0:0:0:
256,192,38400,1,2,0:0:0:0:
256,192,38481,1,0,0:0:0:0:
256,192,38643,1,2,0:0:0:0:
256,192,38805,1,0,0:0:0:0:
256,192,38887,1,0,0:0:0:0:
256,192,38968,1,2,0:0:0:0:
256,192,39130,1,0,0:0:0:0:
256,192,39454,1,0,0:0:0:0:
256,192,39616,1,2,0:0:0:0:
256,192,39697,1,2,0:0:0:0:
256,192,39778,1,0,0:0:0:0:
256,192,39941,1,2,0:0:0:0:
256,192,40103,1,0,0:0:0:0:
256,192,40265,1,2,0:0:0:0:
256,192,40427,1,2,0:0:0:0:
256,192,40508,1,2,0:0:0:0:
256,192,40589,1,0,0:0:0:0:
256,192,40751,1,2,0:0:0:0:
256,192,40914,1,0,0:0:0:0:
256,192,40995,1,0,0:0:0:0:
256,192,41076,1,2,0:0:0:0:
256,192,41238,1,2,0:0:0:0:
256,192,41400,1,0,0:0:0:0:
256,192,41481,1,0,0:0:0:0:
256,192,41562,1,2,0:0:0:0:
256,192,41724,1,0,0:0:0:0:
256,192,42049,1,2,0:0:0:0:
256,192,42211,1,0,0:0:0:0:
256,192,42292,1,0,0:0:0:0:
256,192,42373,1,2,0:0:0:0:
256,192,42535,1,0,0:0:0:0:
256,192,42697,1,2,0:0:0:0:
256,192,42778,1,2,0:0:0:0:
256,192,42860,1,0,0:0:0:0:
256,192,43022,1,0,0:0:0:0:
256,192,43184,1,0,0:0:0:0:
256,192,43346,1,2,0:0:0:0:
256,192,43508,1,0,0:0:0:0:
256,192,43589,1,2,0:0:0:0:
256,192,43670,1,0,0:0:0:0:
256,192,43832,1,2,0:0:0:0:
256,192,43995,1,2,0:0:0:0:
256,192,44076,1,2,0:0:0:0:
256,192,44157,1,0,0:0:0:0:
256,192,44319,1,2,0:0:0:0:
256,192,44643,1,2,0:0:0:0:
256,192,44805,1,0,0:0:0:0:
256,192,44887,1,0,0:0:0:0:
256,192,44968,1,2,0:0:0:0:
256,192,45130,1,0,0:0:0:0:
256,192,45292,1,2,0:0:0:0:
256,192,45454,1,0,0:0:0:0:
256,192,45535,1,2,0:0:0:0:
256,192,45616,1,0,0:0:0:0:
256,192,45778,1,2,0:0:0:0:
256,192,45941,1,2,0:0:0:0:
256,192,46103,1,0,0:0:0:0:
256,192,46265,1,2,0:0:0:0:
256,192,46427,1,2,0:0:0:0:
256,192,46589,1,0,0:0:0:0:
256,192,46751,1,0,0:0:0:0:
256,192,46832,1,2,0:0:0:0:
256,192,46914,1,0,0:0:0:0:
256,192,47076,1,2,0:0:0:0:
256,192,47157,1,2,0:0:0:0:
256,192,47238,1,4,0:0:0:0:
256,192,47400,1,0,0:0:0:0:
256,192,47481,1,0,0:0:0:0:
256,192,47562,1,2,0:0:0:0:
256,192,47724,1,2,0:0:0:0:
256,192,47887,1,0,0:0:0:0:
256,192,47968,1,0,0:0:0:0:
256,192,48049,1,2,0:0:0:0:
256,192,48130,1,2,0:0:0:0:
256,192,48211,1,0,0:0:0:0:
256,192,48373,1,2,0:0:0:0:
256,192,48535,1,2,0:0:0:0:
256,192,48697,1,2,0:0:0:0:
256,192,48778,1,0,0:0:0:0:
256,192,48860,1,2,0:0:0:0:
256,192,49022,1,2,0:0:0:0:
256,192,49184,1,2,0:0:0:0:
256,192,49265,1,2,0:0:0:0:
256,192,49346,1,0,0:0:0:0:
256,192,49427,1,2,0:0:0:0:
256,192,49508,1,0,0:0:0:0:
256,192,49670,1,0,0:0:0:0:
256,192,49832,1,2,0:0:0:0:
256,192,49995,1,2,0:0:0:0:
256,192,50076,1,2,0:0:0:0:
256,192,50157,1,0,0:0:0:0:
256,192,50319,1,2,0:0:0:0:
256,192,50481,1,0,0:0:0:0:
256,192,50562,1,0,0:0:0:0:
256,192,50643,1,2,0:0:0:0:
256,192,50724,1,2,0:0:0:0:
256,192,50805,1,0,0:0:0:0:
256,192,50968,1,2,0:0:0:0:
256,192,51049,1,2,0:0:0:0:
256,192,51130,1,0,0:0:0:0:
256,192,51292,1,0,0:0:0:0:
256,192,51373,1,0,0:0:0:0:
256,192,51454,1,2,0:0:0:0:
256,192,51616,1,2,0:0:0:0:
256,192,51778,1,0,0:0:0:0:
256,192,51860,1,0,0:0:0:0:
256,192,51941,1,2,0:0:0:0:
256,192,52022,1,0,0:0:0:0:
256,192,52103,1,2,0:0:0:0:
256,192,52184,1,0,0:0:0:0:
256,192,52265,1,2,0:0:0:0:
256,192,52346,1,2,0:0:0:0:
256,192,52427,1,4,0:0:0:0:
256,192,52589,1,0,0:0:0:0:
256,192,52670,1,0,0:0:0:0:
256,192,52751,1,2,0:0:0:0:
256,192,52913,1,2,0:0:0:0:
256,192,53076,1,0,0:0:0:0:
256,192,53157,1,0,0:0:0:0:
256,192,53238,1,2,0:0:0:0:
256,192,53319,1,2,0:0:0:0:
256,192,53400,1,0,0:0:0:0:
256,192,53562,1,2,0:0:0:0:
256,192,53724,1,2,0:0:0:0:
256,192,53886,1,2,0:0:0:0:
256,192,53967,1,0,0:0:0:0:
256,192,54049,1,2,0:0:0:0:
256,192,54211,1,2,0:0:0:0:
256,192,54373,1,2,0:0:0:0:
256,192,54454,1,2,0:0:0:0:
256,192,54535,1,0,0:0:0:0:
256,192,54616,1,2,0:0:0:0:
256,192,54697,1,0,0:0:0:0:
256,192,54859,1,0,0:0:0:0:
256,192,55021,1,2,0:0:0:0:
256,192,55184,1,2,0:0:0:0:
256,192,55265,1,2,0:0:0:0:
256,192,55346,1,0,0:0:0:0:
256,192,55508,1,2,0:0:0:0:
256,192,55670,1,0,0:0:0:0:
256,192,55751,1,0,0:0:0:0:
256,192,55832,1,2,0:0:0:0:
256,192,55913,1,2,0:0:0:0:
256,192,55994,1,0,0:0:0:0:
256,192,56157,1,2,0:0:0:0:
256,192,56238,1,2,0:0:0:0:
256,192,56319,1,4,0:0:0:0:
256,192,56481,1,2,0:0:0:0:
256,192,56562,1,2,0:0:0:0:
256,192,56643,1,4,0:0:0:0:
256,192,56805,1,2,0:0:0:0:
256,192,56887,1,2,0:0:0:0:
256,192,56968,1,4,0:0:0:0:
256,192,57130,1,2,0:0:0:0:
256,192,57211,1,0,0:0:0:0:
256,192,57292,1,2,0:0:0:0:
256,192,57373,1,2,0:0:0:0:
256,192,57454,1,0,0:0:0:0:
256,192,57535,1,0,0:0:0:0:
256,192,57616,1,6,0:0:0:0:
256,192,57941,1,2,0:0:0:0:
256,192,58265,1,0,0:0:0:0:
256,192,58589,1,2,0:0:0:0:
256,192,58914,1,2,0:0:0:0:
256,192,59238,1,2,0:0:0:0:
256,192,59562,1,0,0:0:0:0:
256,192,59887,1,2,0:0:0:0:
256,192,60211,1,2,0:0:0:0:
256,192,60535,1,2,0:0:0:0:
256,192,60860,1,0,0:0:0:0:
256,192,61184,1,0,0:0:0:0:
256,192,61508,1,2,0:0:0:0:
256,192,61832,1,2,0:0:0:0:
256,192,62157,1,0,0:0:0:0:
256,192,62481,1,2,0:0:0:0:
256,192,62805,1,6,0:0:0:0:
256,192,62968,1,2,0:0:0:0:
256,192,63049,1,0,0:0:0:0:
256,192,63130,1,2,0:0:0:0:
256,192,63211,1,2,0:0:0:0:
256,192,63293,1,0,0:0:0:0:
256,192,63374,1,0,0:0:0:0:
256,192,63455,1,2,0:0:0:0:
256,192,63536,1,0,0:0:0:0:
256,192,63617,1,2,0:0:0:0:
256,192,63698,1,0,0:0:0:0:
256,192,63779,1,2,0:0:0:0:
256,192,63860,1,2,0:0:0:0:
256,192,63941,1,0,0:0:0:0:
256,192,64022,1,0,0:0:0:0:
256,192,64103,1,2,0:0:0:0:
256,192,64184,1,0,0:0:0:0:
256,192,64266,1,2,0:0:0:0:
256,192,64347,1,0,0:0:0:0:
256,192,64428,1,2,0:0:0:0:
256,192,64509,1,2,0:0:0:0:
256,192,64590,1,0,0:0:0:0:
256,192,64671,1,0,0:0:0:0:
256,192,64752,1,2,0:0:0:0:
256,192,64833,1,0,0:0:0:0:
256,192,64914,1,2,0:0:0:0:
256,192,64995,1,0,0:0:0:0:
256,192,65076,1,2,0:0:0:0:
256,192,65157,1,0,0:0:0:0:
256,192,65238,1,2,0:0:0:0:
256,192,65320,1,2,0:0:0:0:
256,192,65401,1,0,0:0:0:0:
256,192,65482,1,2,0:0:0:0:
256,192,65563,1,2,0:0:0:0:
256,192,65644,1,2,0:0:0:0:
256,192,65725,1,0,0:0:0:0:
256,192,65806,1,2,0:0:0:0:
256,192,65887,1,2,0:0:0:0:
256,192,65968,1,2,0:0:0:0:
256,192,66049,1,0,0:0:0:0:
256,192,66130,1,2,0:0:0:0:
256,192,66211,1,2,0:0:0:0:
256,192,66293,1,2,0:0:0:0:
256,192,66374,1,0,0:0:0:0:
256,192,66455,1,2,0:0:0:0:
256,192,66536,1,2,0:0:0:0:
256,192,66617,1,2,0:0:0:0:
256,192,66698,1,4,0:0:0:0:
256,192,67346,1,2,0:0:0:0:
256,192,67995,1,4,0:0:0:0:
256,192,68157,1,0,0:0:0:0:
256,192,68238,1,0,0:0:0:0:
256,192,68319,1,2,0:0:0:0:
256,192,68481,1,0,0:0:0:0:
256,192,68643,1,2,0:0:0:0:
256,192,68724,1,2,0:0:0:0:
256,192,68805,1,0,0:0:0:0:
256,192,68887,1,0,0:0:0:0:
256,192,68968,1,2,0:0:0:0:
256,192,69130,1,0,0:0:0:0:
256,192,69211,1,0,0:0:0:0:
256,192,69292,1,2,0:0:0:0:
256,192,69454,1,0,0:0:0:0:
256,192,69616,1,2,0:0:0:0:
256,192,69697,1,2,0:0:0:0:
256,192,69778,1,0,0:0:0:0:
256,192,69941,1,2,0:0:0:0:
256,192,70103,1,0,0:0:0:0:
256,192,70184,1,0,0:0:0:0:
256,192,70265,1,2,0:0:0:0:
256,192,70427,1,0,0:0:0:0:
256,192,70589,1,2,0:0:0:0:
256,192,70751,1,0,0:0:0:0:
256,192,70832,1,0,0:0:0:0:
256,192,70914,1,2,0:0:0:0:
256,192,71076,1,0,0:0:0:0:
256,192,71238,1,2,0:0:0:0:
256,192,71319,1,2,0:0:0:0:
256,192,71400,1,0,0:0:0:0:
256,192,71481,1,0,0:0:0:0:
256,192,71562,1,2,0:0:0:0:
256,192,71724,1,2,0:0:0:0:
256,192,71887,1,0,0:0:0:0:
256,192,72049,1,0,0:0:0:0:
256,192,72130,1,0,0:0:0:0:
256,192,72211,1,2,0:0:0:0:
256,192,72373,1,0,0:0:0:0:
256,192,72535,1,2,0:0:0:0:
256,192,72616,1,0,0:0:0:0:
256,192,72697,1,0,0:0:0:0:
256,192,72778,1,0,0:0:0:0:
256,192,72860,1,2,0:0:0:0:
256,192,73022,1,2,0:0:0:0:
256,192,73103,1,2,0:0:0:0:
256,192,73184,1,4,0:0:0:0:
256,192,73346,1,0,0:0:0:0:
256,192,73427,1,0,0:0:0:0:
256,192,73508,1,2,0:0:0:0:
256,192,73670,1,2,0:0:0:0:
256,192,73832,1,0,0:0:0:0:
256,192,73995,1,0,0:0:0:0:
256,192,74076,1,0,0:0:0:0:
256,192,74157,1,2,0:0:0:0:
256,192,74319,1,0,0:0:0:0:
256,192,74481,1,2,0:0:0:0:
256,192,74562,1,2,0:0:0:0:
256,192,74643,1,0,0:0:0:0:
256,192,74805,1,2,0:0:0:0:
256,192,74968,1,0,0:0:0:0:
256,192,75130,1,2,0:0:0:0:
256,192,75292,1,0,0:0:0:0:
256,192,75373,1,0,0:0:0:0:
256,192,75454,1,2,0:0:0:0:
256,192,75616,1,2,0:0:0:0:
256,192,75778,1,0,0:0:0:0:
256,192,75941,1,0,0:0:0:0:
256,192,76022,1,0,0:0:0:0:
256,192,76103,1,2,0:0:0:0:
256,192,76265,1,0,0:0:0:0:
256,192,76346,1,0,0:0:0:0:
256,192,76427,1,0,0:0:0:0:
256,192,76589,1,0,0:0:0:0:
256,192,76751,1,2,0:0:0:0:
256,192,76914,1,2,0:0:0:0:
256,192,76995,1,2,0:0:0:0:
256,192,77076,1,4,0:0:0:0:
256,192,77238,1,2,0:0:0:0:
256,192,77319,1,2,0:0:0:0:
256,192,77400,1,4,0:0:0:0:
256,192,77562,1,2,0:0:0:0:
256,192,77643,1,2,0:0:0:0:
256,192,77724,1,4,0:0:0:0:
256,192,77887,1,2,0:0:0:0:
256,192,77968,1,2,0:0:0:0:
256,192,78049,1,2,0:0:0:0:
256,192,78130,1,0,0:0:0:0:
256,192,78211,1,0,0:0:0:0:
256,192,78292,1,0,0:0:0:0:
256,192,78373,1,6,0:0:0:0:
256,192,78697,1,2,0:0:0:0:
256,192,78860,1,0,0:0:0:0:
256,192,78941,1,0,0:0:0:0:
256,192,79022,1,2,0:0:0:0:
256,192,79184,1,0,0:0:0:0:
256,192,79346,1,2,0:0:0:0:
256,192,79427,1,0,0:0:0:0:
256,192,79508,1,2,0:0:0:0:
256,192,79589,1,2,0:0:0:0:
256,192,79670,1,0,0:0:0:0:
256,192,79832,1,0,0:0:0:0:
256,192,79914,1,0,0:0:0:0:
256,192,79995,1,2,0:0:0:0:
256,192,80157,1,0,0:0:0:0:
256,192,80319,1,2,0:0:0:0:
256,192,80481,1,0,0:0:0:0:
256,192,80562,1,0,0:0:0:0:
256,192,80643,1,2,0:0:0:0:
256,192,80805,1,2,0:0:0:0:
256,192,80968,1,0,0:0:0:0:
256,192,81130,1,0,0:0:0:0:
256,192,81211,1,0,0:0:0:0:
256,192,81292,1,2,0:0:0:0:
256,192,81454,1,0,0:0:0:0:
256,192,81616,1,2,0:0:0:0:
256,192,81697,1,2,0:0:0:0:
256,192,81778,1,0,0:0:0:0:
256,192,81941,1,2,0:0:0:0:
256,192,82103,1,2,0:0:0:0:
256,192,82184,1,0,0:0:0:0:
256,192,82265,1,2,0:0:0:0:
256,192,82427,1,0,0:0:0:0:
256,192,82508,1,0,0:0:0:0:
256,192,82589,1,2,0:0:0:0:
256,192,82751,1,0,0:0:0:0:
256,192,82914,1,2,0:0:0:0:
256,192,82995,1,2,0:0:0:0:
256,192,83076,1,0,0:0:0:0:
256,192,83157,1,0,0:0:0:0:
256,192,83238,1,2,0:0:0:0:
256,192,83400,1,2,0:0:0:0:
256,192,83481,1,2,0:0:0:0:
256,192,83562,1,4,0:0:0:0:
256,192,84860,1,6,0:0:0:0:
256,192,85508,1,2,0:0:0:0:
256,192,86157,1,6,0:0:0:0:
256,192,86319,1,0,0:0:0:0:
256,192,86400,1,0,0:0:0:0:
256,192,86481,1,2,0:0:0:0:
256,192,86562,1,0,0:0:0:0:
256,192,86643,1,6,0:0:0:0:
256,192,86805,1,0,0:0:0:0:
256,192,86886,1,0,0:0:0:0:
256,192,86967,1,2,0:0:0:0:
256,192,87048,1,2,0:0:0:0:
256,192,87130,1,4,0:0:0:0:
256,192,87292,1,2,0:0:0:0:
256,192,87373,1,0,0:0:0:0:
256,192,87454,1,2,0:0:0:0:
256,192,87535,1,2,0:0:0:0:
256,192,87616,1,4,0:0:0:0:
256,192,87778,1,2,0:0:0:0:
256,192,87859,1,2,0:0:0:0:
256,192,87940,1,2,0:0:0:0:
256,192,88021,1,2,0:0:0:0:
256,192,88102,1,4,0:0:0:0:
256,192,88265,1,4,0:0:0:0:
256,192,88427,1,4,0:0:0:0:
256,192,88589,1,4,0:0:0:0:
