osu file format v14

[General]
AudioFilename: audio.mp3
AudioLeadIn: 0
PreviewTime: 66639
Countdown: 0
SampleSet: Soft
StackLeniency: 0.7
Mode: 2
LetterboxInBreaks: 0
WidescreenStoryboard: 0

[Editor]
Bookmarks: 11991,12639,16693,17342,24964,31612,51072,52045,56585,57558,66639
DistanceSpacing: 1.2
BeatDivisor: 2
GridSize: 8
TimelineZoom: 2.550001

[Metadata]
Title:Delta Decision
TitleUnicode:Delta Decision
Artist:EYKHA (CV : Sawashiro Miyuki) LOU (CV : Uchida Maaya) MERYL (CV : Terui Haruka)
ArtistUnicode:エィハ(CV:沢城みゆき) 婁 (CV:内田真礼) メリル(CV:照井春佳)
Creator:Summerleopard
Version:Cup
Source:ケイオスドラゴン 赤竜戦役
Tags:Chaos Dragon Ending anime piano murutattack Hi_Hello Sakary
BeatmapID:1381969
BeatmapSetID:651685

[Difficulty]
HPDrainRate:3
CircleSize:2.5
OverallDifficulty:6
ApproachRate:6
SliderMultiplier:1
SliderTickRate:1

[Events]
//Background and Video events
Video,0,"triangle.avi"
0,0,"bg2.jpg",0,0
//Break Periods
//Storyboard Layer 0 (Background)
//Storyboard Layer 1 (Fail)
//Storyboard Layer 2 (Pass)
//Storyboard Layer 3 (Foreground)
//Storyboard Layer 4 (Overlay)
//Storyboard Sound Samples

[TimingPoints]
1775,324.324324324324,4,2,0,45,1,0
1775,-100,4,2,1,45,0,0
11829,-100,4,3,0,60,0,0
23829,-100,4,3,0,85,0,1
33558,-100,4,1,0,45,0,1
34045,-100,4,3,0,70,0,0
37126,-100,4,2,0,40,0,0
41504,-100,4,2,0,50,0,0
41991,-100,4,2,0,40,0,0
47180,-100,4,3,0,70,0,0
57558,-100,4,2,0,45,0,0
62747,-100,4,3,0,75,0,0
67937,-100,4,2,1,65,0,1
76693,-100,4,2,1,60,0,0
78315,-100,4,2,1,65,0,1
85450,-100,4,2,1,65,0,0
86099,-100,4,2,1,65,0,1
88531,-100,4,2,1,30,0,0

[Colours]
Combo1 : 128,0,64
Combo2 : 128,128,192
Combo3 : 0,0,255
Combo4 : 242,24,57

[HitObjects]
149,173,1774,6,0,P|136:233|151:284,1,100
194,273,2261,2,0,L|318:274,1,100,2|0,0:0|0:0,0:0:0:0:
343,271,2747,1,0,0:0:0:0:
242,271,3072,2,0,L|142:270,1,100,2|0,0:0|0:0,0:0:0:0:
121,224,3558,2,0,L|122:102,1,100,2|2,0:0|0:0,0:0:0:0:
256,189,4369,6,0,B|244:120|244:120|164:120,1,150,2|0,0:0|0:0,0:0:0:0:
314,118,5342,1,2,0:0:0:0:
412,136,5666,2,0,B|412:192|412:192|308:191,2,150,2|2|0,0:0|0:0|0:0,0:0:0:0:
314,113,6964,6,0,L|194:113,1,100,2|0,0:0|0:0,0:0:0:0:
165,125,7450,2,0,L|110:306,1,150,2|0,0:0|0:0,0:0:0:0:
296,153,8261,2,0,L|312:273,1,100,2|0,0:0|0:0,0:0:0:0:
341,289,8747,2,0,L|515:298,1,150,2|0,0:0|0:0,0:0:0:0:
373,268,9558,6,0,B|223:268,2,150,2|2|0,0:0|0:0|0:0,0:0:0:0:
254,250,10855,2,0,P|192:225|191:131,2,150,2|0|0,0:0|0:0|0:0,0:0:0:0:
380,231,12153,6,0,L|277:231,1,100,4|0,2:0|0:0,0:0:0:0:
161,250,12802,1,0,0:0:0:0:
273,209,13126,1,0,0:0:0:0:
416,167,13450,6,0,L|417:66,1,100,4|8,0:0|0:0,0:0:0:0:
316,60,14099,2,0,L|424:60,1,100,0|8,0:0|0:0,0:0:0:0:
316,56,14747,5,4,0:0:0:0:
216,55,15071,1,8,0:0:0:0:
97,109,15396,2,0,L|210:108,1,100,0|8,0:0|0:0,0:0:0:0:
327,109,16045,6,0,B|227:111,1,100,0|8,0:0|0:0,0:0:0:0:
327,192,16693,1,4,0:0:0:0:
236,285,17017,1,8,0:0:0:0:
106,296,17342,5,4,2:0:0:0:
224,242,17666,2,0,L|88:242,2,100,8|4|8,0:0|0:0|0:0,0:0:0:0:
372,98,18639,6,0,L|509:54,1,100,2|8,0:0|0:0,0:0:0:0:
360,93,19288,2,0,L|257:74,1,100,2|8,0:0|0:0,0:0:0:0:
152,90,19937,5,8,0:0:0:0:
206,185,20261,1,0,0:0:0:0:
314,204,20585,1,0,1:0:0:0:
430,233,20910,6,0,L|430:290,2,50,0|0|4,1:0|1:0|0:0,0:0:0:0:
256,192,21883,1,0,0:0:0:0:
256,192,22207,12,0,23504,0:0:0:0:
144,104,23828,5,4,2:0:0:0:
193,106,23990,1,8,0:0:0:0:
364,107,24314,1,4,2:0:0:0:
314,108,24476,1,8,0:0:0:0:
193,174,24802,5,8,0:0:0:0:
144,170,24964,1,4,2:0:0:0:
312,175,25288,1,8,0:0:0:0:
362,175,25449,1,4,2:0:0:0:
190,164,25774,6,0,L|189:107,2,50,4|0|2,0:0|0:0|0:0,0:0:0:0:
289,176,26423,6,0,L|217:176,1,50,4|8,2:0|0:0,0:0:0:0:
138,276,26910,2,0,L|88:276,1,50,4|8,2:0|0:0,0:0:0:0:
237,277,27396,2,0,L|312:276,1,50,4|8,2:0|0:0,0:0:0:0:
410,234,27882,2,0,L|433:178,1,50,4|8,2:0|0:0,0:0:0:0:
225,141,28369,6,0,L|297:141,1,50,4|8,0:0|0:0,0:0:0:0:
324,143,28693,1,2,0:0:0:0:
186,140,29018,6,8,L|106:140,1,50,4|8,2:0|0:0,0:0:0:0:
44,179,29504,2,0,L|108:179,1,50,4|0,2:0|0:0,0:0:0:0:
148,262,29991,2,8,L|197:262,1,50,4|8,2:0|0:0,0:0:0:0:
317,260,30477,2,8,L|312:183,1,50,4|8,2:0|0:0,0:0:0:0:
198,176,30964,6,0,L|148:176,2,50,8|8|2,0:0|0:0|0:0,0:0:0:0:
104,101,31612,6,0,L|41:43,1,50,4|8,2:0|0:0,0:0:0:0:
186,79,32099,2,0,L|223:27,1,50,4|8,2:0|0:0,0:0:0:0:
334,46,32586,2,0,L|398:46,1,50,4|0,2:0|0:0,0:0:0:0:
489,102,33072,2,0,L|439:102,1,50,4|0,2:0|0:0,0:0:0:0:
256,161,33558,6,0,L|301:127,2,50,0|0|0,1:0|1:0|0:0,0:0:0:0:
151,160,34045,1,4,0:0:0:0:
256,192,34531,12,0,36802,0:0:0:0:
176,264,37126,6,0,P|129:227|188:111,1,200,0|0,3:0|3:0,0:0:0:0:
358,116,38099,2,0,P|394:202|383:269,1,150,0|2,0:0|0:0,0:0:0:0:
237,245,39072,2,0,B|128:256,1,100,2|0,0:0|0:0,0:0:0:0:
376,192,40045,6,0,B|488:192,1,100,0|0,3:0|0:0,0:0:0:0:
344,216,40693,2,0,L|168:216,1,150,2|2,0:0|0:0,0:0:0:0:
291,194,41504,5,0,0:0:0:0:
340,192,41666,1,0,0:0:0:0:
390,190,41828,1,0,0:0:0:0:
440,188,41991,1,2,0:0:0:0:
291,194,42315,6,0,P|227:202|149:252,1,150,0|0,3:0|0:0,0:0:0:0:
326,301,43288,1,2,0:0:0:0:
444,280,43612,2,0,L|449:212,1,50,0|0,3:0|0:0,0:0:0:0:
333,192,44099,1,2,0:0:0:0:
163,265,44585,6,0,P|121:178|222:113,1,200,2|0,0:0|0:0,0:0:0:0:
416,200,45883,5,2,0:0:0:0:
420,100,46207,1,0,0:0:0:0:
320,106,46531,2,0,L|443:93,1,100,4|8,3:0|3:0,3:0:0:0:
219,191,47180,6,0,L|101:191,1,100,4|8,2:0|0:0,0:0:0:0:
238,99,47829,2,0,L|138:99,1,100,0|8,0:0|0:0,0:0:0:0:
237,105,48477,2,0,L|405:105,2,150,2|8|0,0:0|0:0|0:0,0:0:0:0:
120,112,49774,6,0,L|240:112,1,100,4|8,0:0|0:0,0:0:0:0:
335,138,50422,2,0,L|283:244,1,100,0|8,0:0|0:0,0:0:0:0:
153,168,51072,6,0,L|-7:168,2,150,2|8|8,0:0|0:0|0:0,0:0:0:0:
283,163,52369,6,0,L|283:59,1,100,4|2,2:0|0:0,0:0:0:0:
384,107,53018,1,8,0:0:0:0:
291,166,53342,2,0,L|406:169,1,100
286,133,53991,5,0,0:0:0:0:
187,210,54315,1,8,0:0:0:0:
86,213,54639,6,0,L|198:213,1,100,4|0,0:0|0:0,0:0:0:0:
305,244,55288,2,8,L|417:244,1,100,8|4,0:0|0:0,0:0:0:0:
306,225,55937,1,8,0:0:0:0:
279,128,56261,1,0,0:0:0:0:
179,118,56586,6,8,L|349:118,1,150,8|4,0:0|0:0,0:0:0:0:
181,142,57558,6,0,P|96:216|225:277,1,300,4|0,0:0|3:0,0:0:0:0:
319,276,58856,2,0,P|328:153|172:149,1,300,2|0,0:0|3:0,0:0:0:0:
319,276,60153,6,0,P|395:168|277:109,1,300,2|2,0:0|0:0,0:0:0:0:
177,111,61450,5,2,0:0:0:0:
417,117,62099,1,2,0:0:0:0:
200,211,62747,6,0,L|216:99,1,100,2|8,2:0|0:0,0:0:0:0:
114,107,63396,2,0,L|234:107,1,100,0|8,0:0|0:0,0:0:0:0:
314,107,64045,2,0,L|434:107,1,100,2|8,2:0|0:0,0:0:0:0:
255,180,64693,2,0,L|136:175,1,100,0|8,0:0|0:0,0:0:0:0:
293,109,65342,6,0,L|405:69,1,100,4|4,0:0|0:0,0:0:0:0:
264,99,65991,1,0,0:0:0:0:
171,135,66315,1,8,0:0:0:0:
319,207,66639,2,0,L|82:255,1,200,4|2,0:0|0:0,0:0:0:0:
352,192,67937,6,4,L|464:192,1,100,12|8,0:0|0:0,0:0:0:0:
424,152,68423,1,2,0:0:0:0:
255,129,68910,1,8,0:0:0:0:
155,128,69234,1,2,0:0:0:0:
290,128,69558,6,0,L|401:128,1,100,8|2,0:0|0:0,0:0:0:0:
296,163,70207,1,8,0:0:0:0:
196,164,70531,6,0,P|116:164|116:57,1,200,4|2,0:0|0:0,0:0:0:0:
268,134,71504,1,8,0:0:0:0:
368,130,71829,2,0,L|208:82,2,150,8|2|2,0:0|0:0|0:0,0:0:0:0:
213,121,73126,6,0,L|213:237,1,100,4|8,0:0|0:0,0:0:0:0:
353,229,73774,2,0,L|356:115,1,100,0|8,0:0|0:0,0:0:0:0:
213,121,74423,2,0,L|113:121,1,100,2|8,0:0|0:0,0:0:0:0:
213,125,75072,1,2,0:0:0:0:
117,155,75396,1,0,0:0:0:0:
247,110,75720,6,0,L|347:110,1,100,12|8,0:0|0:0,0:0:0:0:
229,134,76369,2,0,L|125:134,1,100,8|8,0:0|0:0,0:0:0:0:
319,222,77018,6,2,L|319:108,1,100,4|8,0:0|0:0,0:0:0:0:
220,104,77666,2,0,L|114:113,1,100,8|8,3:0|3:0,0:0:0:0:
238,159,78315,6,0,L|338:159,1,100,6|8,0:0|0:0,0:0:0:0:
445,212,78964,2,0,L|325:212,1,100,0|8,0:0|0:0,0:0:0:0:
259,121,79612,2,2,L|371:121,1,100,2|8,0:0|0:0,0:0:0:0:
258,124,80261,1,2,0:0:0:0:
125,122,80585,6,2,L|125:255,1,100,8|2,0:0|0:0,0:0:0:0:
258,247,81234,1,8,0:0:0:0:
364,252,81558,2,2,L|409:138,1,100,0|10,0:0|0:0,0:0:0:0:
271,154,82207,5,8,0:0:0:0:
171,154,82531,1,2,0:0:0:0:
389,179,83180,1,8,0:0:0:0:
256,192,83504,1,4,0:0:0:0:
96,208,84153,6,2,L|96:328,1,100,8|0,0:0|0:0,0:0:0:0:
225,313,84802,1,4,0:0:0:0:
227,213,85126,1,2,0:0:0:0:
304,135,85450,2,2,P|407:131|450:193,1,150
412,208,86099,5,4,0:0:0:0:
304,229,86423,2,12,L|257:185,1,50,2|12,0:0|0:0,0:0:0:0:
157,183,86910,6,8,L|122:219,1,50,8|4,0:0|0:0,0:0:0:0:
337,67,87396,1,8,0:0:0:0:
387,67,87558,1,12,0:0:0:0:
223,118,87882,6,8,L|159:118,1,50,0|8,0:0|0:0,0:0:0:0:
123,141,88207,2,8,L|51:141,2,50,8|8|8,0:0|0:0|0:0,3:0:0:0:
