osu file format v14

[General]
AudioFilename: audio.mp3
AudioLeadIn: 0
PreviewTime: 66518
Countdown: 0
SampleSet: Normal
StackLeniency: 0.7
Mode: 1
LetterboxInBreaks: 0
WidescreenStoryboard: 1

[Editor]
DistanceSpacing: 0.8
BeatDivisor: 4
GridSize: 32
TimelineZoom: 1

[Metadata]
Title:Delta Decision
TitleUnicode:Delta Decision
Artist:EYKHA (CV : Sawashiro Miyuki) LOU (CV : Uchida Maaya) MERYL (CV : Terui Haruka)
ArtistUnicode:エィハ(CV:沢城みゆき) 婁 (CV:内田真礼) メリル(CV:照井春佳)
Creator:Protonori
Version:Futsuu
Source:ケイオスドラゴン赤竜戦役
Tags:chaos dragon sekiryuu seneki ending vulkin xtrem3x strickluke
BeatmapID:1420366
BeatmapSetID:671417

[Difficulty]
HPDrainRate:6
CircleSize:2
OverallDifficulty:4
ApproachRate:10
SliderMultiplier:1.4
SliderTickRate:1

[Events]
//Background and Video events
0,0,"delta3.jpg",0,0
//Break Periods
//Storyboard Layer 0 (Background)
//Storyboard Layer 1 (Fail)
//Storyboard Layer 2 (Pass)
//Storyboard Layer 3 (Foreground)
//Storyboard Sound Samples

[TimingPoints]
437,324.324324324324,4,1,0,40,1,8
11950,-100,4,1,0,60,0,0
17301,-100,4,1,0,80,0,0
23788,-100,4,1,0,100,0,1
34166,-100,4,1,0,100,0,0
34328,-100,4,1,0,75,0,0
37085,-100,4,1,0,40,0,0
47139,-100,4,1,0,80,0,0
57680,-100,4,1,0,60,0,0
62382,-100,4,1,0,70,0,0
67896,-100,4,1,0,80,0,1
83464,-100,4,1,0,90,0,0
83626,-100,4,1,0,60,0,0
86058,-100,4,1,0,100,0,1
88491,-100,4,1,0,100,0,0

[HitObjects]
256,192,1734,5,0,0:0:0:0:
256,192,2220,1,0,0:0:0:0:
256,192,2869,1,0,0:0:0:0:
256,192,3193,1,8,0:0:0:0:
256,192,3518,1,0,0:0:0:0:
256,192,4328,1,0,0:0:0:0:
256,192,4815,1,0,0:0:0:0:
256,192,5463,1,8,0:0:0:0:
256,192,5788,1,0,0:0:0:0:
256,192,6112,1,8,0:0:0:0:
256,192,6923,1,8,0:0:0:0:
256,192,7409,1,8,0:0:0:0:
256,192,8058,1,0,0:0:0:0:
256,192,8382,1,8,0:0:0:0:
256,192,8707,1,0,0:0:0:0:
256,192,9518,1,8,0:0:0:0:
256,192,10491,1,8,0:0:0:0:
256,192,10815,1,0,0:0:0:0:
256,192,11301,1,0,0:0:0:0:
256,192,11626,1,8,0:0:0:0:
256,192,12112,1,4,0:0:0:0:
256,192,12436,1,0,0:0:0:0:
256,192,12599,1,8,0:0:0:0:
256,192,12923,1,8,0:0:0:0:
256,192,13247,1,0,0:0:0:0:
256,192,13572,1,8,0:0:0:0:
256,192,13896,1,0,0:0:0:0:
256,192,14220,1,8,0:0:0:0:
256,192,14707,1,8,0:0:0:0:
256,192,15031,1,0,0:0:0:0:
256,192,15193,1,8,0:0:0:0:
256,192,15518,1,0,0:0:0:0:
256,192,15680,1,0,0:0:0:0:
256,192,15842,1,8,0:0:0:0:
256,192,16166,1,0,0:0:0:0:
256,192,16491,1,8,0:0:0:0:
256,192,16815,1,8,0:0:0:0:
256,192,17301,5,12,0:0:0:0:
256,192,17626,1,0,0:0:0:0:
256,192,17788,1,8,0:0:0:0:
256,192,18112,1,0,0:0:0:0:
256,192,18436,1,8,0:0:0:0:
256,192,18761,1,8,0:0:0:0:
256,192,19085,1,0,0:0:0:0:
256,192,19409,1,8,0:0:0:0:
256,192,19896,1,8,0:0:0:0:
256,192,20220,1,0,0:0:0:0:
256,192,20382,1,8,0:0:0:0:
256,192,20707,1,0,0:0:0:0:
256,192,20869,1,8,0:0:0:0:
256,192,21031,1,8,0:0:0:0:
256,192,21193,1,0,0:0:0:0:
256,192,21518,12,0,23464,0:0:0:0:
256,192,23788,5,4,0:0:0:0:
256,192,24274,1,4,0:0:0:0:
256,192,24761,1,4,0:0:0:0:
256,192,25247,1,4,0:0:0:0:
256,192,25734,1,12,0:0:0:0:
256,192,26382,1,4,0:0:0:0:
256,192,26869,1,4,0:0:0:0:
256,192,27355,1,4,0:0:0:0:
256,192,27842,1,4,0:0:0:0:
256,192,28328,1,8,0:0:0:0:
256,192,28653,1,8,0:0:0:0:
256,192,28977,1,4,0:0:0:0:
256,192,29464,1,4,0:0:0:0:
256,192,29950,1,4,0:0:0:0:
256,192,30436,1,4,0:0:0:0:
256,192,30923,1,12,0:0:0:0:
256,192,31572,1,4,0:0:0:0:
256,192,32058,1,4,0:0:0:0:
256,192,32545,1,4,0:0:0:0:
256,192,33031,1,4,0:0:0:0:
256,192,33518,1,12,0:0:0:0:
256,192,33842,1,12,0:0:0:0:
256,192,34166,1,4,0:0:0:0:
256,192,34653,1,8,0:0:0:0:
256,192,35139,1,8,0:0:0:0:
256,192,35626,1,8,0:0:0:0:
256,192,36112,5,8,0:0:0:0:
256,192,36436,1,8,0:0:0:0:
256,192,36761,1,0,0:0:0:0:
256,192,38058,1,0,0:0:0:0:
256,192,38545,1,8,0:0:0:0:
256,192,39031,1,0,0:0:0:0:
256,192,39355,1,0,0:0:0:0:
256,192,40653,1,0,0:0:0:0:
256,192,41139,1,8,0:0:0:0:
256,192,41626,1,0,0:0:0:0:
256,192,41950,1,8,0:0:0:0:
256,192,43247,1,0,0:0:0:0:
256,192,43734,1,8,0:0:0:0:
256,192,44220,1,0,0:0:0:0:
256,192,44545,1,0,0:0:0:0:
256,192,45193,1,0,0:0:0:0:
256,192,45842,1,8,0:0:0:0:
256,192,46491,1,8,0:0:0:0:
256,192,47139,1,4,0:0:0:0:
256,192,47464,1,8,0:0:0:0:
256,192,47788,1,0,0:0:0:0:
256,192,47950,1,0,0:0:0:0:
256,192,48112,1,8,0:0:0:0:
256,192,48436,1,0,0:0:0:0:
256,192,48923,1,8,0:0:0:0:
256,192,49409,1,0,0:0:0:0:
256,192,49734,1,8,0:0:0:0:
256,192,50058,1,0,0:0:0:0:
256,192,50382,1,8,0:0:0:0:
256,192,50545,1,0,0:0:0:0:
256,192,50707,1,8,0:0:0:0:
256,192,51031,1,0,0:0:0:0:
256,192,51355,1,8,0:0:0:0:
256,192,51680,1,0,0:0:0:0:
256,192,52328,1,4,0:0:0:0:
256,192,52653,1,8,0:0:0:0:
256,192,52977,1,0,0:0:0:0:
256,192,53139,1,0,0:0:0:0:
256,192,53301,1,8,0:0:0:0:
256,192,53626,1,0,0:0:0:0:
256,192,54112,1,8,0:0:0:0:
256,192,54599,1,0,0:0:0:0:
256,192,54923,1,8,0:0:0:0:
256,192,55247,1,0,0:0:0:0:
256,192,55572,1,8,0:0:0:0:
256,192,55734,1,0,0:0:0:0:
256,192,55896,1,8,0:0:0:0:
256,192,56220,1,4,0:0:0:0:
256,192,56707,1,4,0:0:0:0:
256,192,57193,1,12,0:0:0:0:
256,192,57518,1,8,0:0:0:0:
256,192,58815,1,8,0:0:0:0:
256,192,60112,1,8,0:0:0:0:
256,192,61409,1,0,0:0:0:0:
256,192,62058,1,8,0:0:0:0:
256,192,62707,1,0,0:0:0:0:
256,192,63031,1,8,0:0:0:0:
256,192,63355,1,0,0:0:0:0:
256,192,63518,1,8,0:0:0:0:
256,192,64004,1,0,0:0:0:0:
256,192,64328,1,8,0:0:0:0:
256,192,64653,1,8,0:0:0:0:
256,192,64815,1,0,0:0:0:0:
256,192,65301,1,8,0:0:0:0:
256,192,65626,1,0,0:0:0:0:
256,192,65788,1,8,0:0:0:0:
256,192,66112,1,0,0:0:0:0:
256,192,66274,1,8,0:0:0:0:
256,192,66436,1,8,0:0:0:0:
256,192,66599,1,0,0:0:0:0:
256,192,67247,1,8,0:0:0:0:
256,192,67896,5,4,0:0:0:0:
256,192,68545,1,0,0:0:0:0:
256,192,68869,1,0,0:0:0:0:
256,192,69031,1,8,0:0:0:0:
256,224,69518,1,0,0:0:0:0:
256,192,69842,1,8,0:0:0:0:
256,192,70166,1,8,0:0:0:0:
256,192,70491,1,0,0:0:0:0:
256,192,71139,1,0,0:0:0:0:
256,192,71464,1,8,0:0:0:0:
256,192,71626,5,0,0:0:0:0:
256,192,71950,1,8,0:0:0:0:
256,192,72274,1,0,0:0:0:0:
256,192,72761,1,8,0:0:0:0:
256,192,73085,1,4,0:0:0:0:
256,192,73409,1,8,0:0:0:0:
256,192,73572,1,0,0:0:0:0:
256,192,73896,1,0,0:0:0:0:
256,192,74220,1,8,0:0:0:0:
256,192,74869,1,8,0:0:0:0:
256,192,75193,1,8,0:0:0:0:
256,192,75680,1,0,0:0:0:0:
256,192,76166,1,0,0:0:0:0:
256,192,76491,1,0,0:0:0:0:
256,192,76977,1,12,0:0:0:0:
256,192,77464,5,12,0:0:0:0:
256,192,77788,1,12,0:0:0:0:
256,192,78274,1,4,0:0:0:0:
256,192,78761,1,8,0:0:0:0:
256,192,79247,1,8,0:0:0:0:
256,192,79409,1,0,0:0:0:0:
256,192,79734,1,8,0:0:0:0:
256,192,80058,1,8,0:0:0:0:
256,192,80382,5,0,0:0:0:0:
256,192,80869,1,0,0:0:0:0:
256,192,81193,1,0,0:0:0:0:
256,192,81355,1,8,0:0:0:0:
256,192,81680,1,0,0:0:0:0:
256,192,82004,1,8,0:0:0:0:
256,192,82491,1,0,0:0:0:0:
256,192,82815,1,0,0:0:0:0:
256,192,82977,1,0,0:0:0:0:
256,192,83139,1,8,0:0:0:0:
256,192,83464,1,4,0:0:0:0:
256,192,84112,1,8,0:0:0:0:
256,192,84761,1,4,0:0:0:0:
256,192,85409,1,8,0:0:0:0:
256,192,86058,1,4,0:0:0:0:
256,192,86545,1,4,0:0:0:0:
256,192,87031,1,4,0:0:0:0:
256,192,87518,1,4,0:0:0:0:
256,192,88004,1,12,0:0:0:0:
256,192,88328,1,12,0:0:0:0:
256,192,88491,1,12,0:0:0:0:
