osu file format v14

[General]
AudioFilename: firmament.mp3
AudioLeadIn: 0
PreviewTime: 62976
Countdown: 0
SampleSet: Soft
StackLeniency: 0.7
Mode: 0
LetterboxInBreaks: 0
WidescreenStoryboard: 0

[Editor]
DistanceSpacing: 1.5
BeatDivisor: 4
GridSize: 4
TimelineZoom: 2.1

[Metadata]
Title:Knight of Firmament
TitleUnicode:Knight of Firmament
Artist:EYE_XY feat. Yoneko
ArtistUnicode:EYE_XY feat. Yoneko
Creator:Pho
Version:Sanctum
Source:Cytus
Tags:eyemedia deemo rayark chapter k the chevalier holy iris rosabel remix xiao tian lmt
BeatmapID:707802
BeatmapSetID:317749

[Difficulty]
HPDrainRate:6.5
CircleSize:4.5
OverallDifficulty:8.5
ApproachRate:9
SliderMultiplier:1.9
SliderTickRate:1

[Events]
//Background and Video events
0,0,"bg.jpg",0,0
//Break Periods
//Storyboard Layer 0 (Background)
//Storyboard Layer 1 (Fail)
//Storyboard Layer 2 (Pass)
//Storyboard Layer 3 (Foreground)
//Storyboard Sound Samples

[TimingPoints]
1331.78596853388,387.096774193548,4,2,3,70,1,0
6751,-100,4,2,3,30,0,0
7138,-100,4,2,3,35,0,0
7331,-100,4,2,3,45,0,0
7525,-100,4,2,3,70,0,0
7815,-100,4,2,3,5,0,0
7912,-100,4,2,3,70,0,0
8396,-100,4,2,3,5,0,0
8493,-100,4,2,3,70,0,0
9364,-100,4,2,3,30,0,0
9654,-100,4,2,3,70,0,0
9944,-100,4,2,3,30,0,0
10235,-100,4,2,3,70,0,0
25331,-100,4,2,1,50,0,0
26299,-100,4,2,1,5,0,0
26396,-100,4,2,1,50,0,0
26589,-100,4,2,1,5,0,0
26686,-100,4,2,1,50,0,0
26783,-100,4,2,1,5,0,0
26880,-100,4,2,1,50,0,0
27073,-100,4,2,1,5,0,0
27170,-100,4,2,1,50,0,0
27364,-100,4,2,1,5,0,0
27460,-100,4,2,1,50,0,0
27702,-100,4,2,1,5,0,0
27944,-100,4,2,1,50,0,0
27993,-100,4,2,1,5,0,0
28235,-100,4,2,1,50,0,0
28283,-100,4,2,1,5,0,0
28622,-100,4,2,1,50,0,0
29396,-100,4,2,1,5,0,0
29493,-100,4,2,1,50,0,0
29686,-100,4,2,1,5,0,0
29735,-100,4,2,1,50,0,0
29880,-100,4,2,1,5,0,0
29976,-100,4,2,1,50,0,0
30170,-100,4,2,1,5,0,0
30267,-100,4,2,1,50,0,0
30460,-100,4,2,1,5,0,0
30557,-100,4,2,1,50,0,0
30654,-100,4,2,1,5,0,0
30751,-100,4,2,1,50,0,0
30799,-100,4,2,1,5,0,0
31041,-100,4,2,1,50,0,0
31089,-100,4,2,1,5,0,0
31331,-100,4,2,1,50,0,0
31380,-100,4,2,1,5,0,0
31718,-100,4,2,1,50,0,0
34815,-100,4,2,1,40,0,0
35396,-100,4,2,1,50,0,0
38493,-83.3333333333333,4,2,2,70,0,0
38686,-100,4,2,2,70,0,0
38976,-100,4,2,2,20,0,0
39073,-100,4,2,2,70,0,0
39170,-100,4,2,2,20,0,0
39267,-100,4,2,2,70,0,0
39751,-100,4,2,2,20,0,0
39847,-100,4,2,2,70,0,0
39944,-100,4,2,2,20,0,0
40041,-100,4,2,2,70,0,0
42073,-100,4,2,2,20,0,0
42170,-100,4,2,2,70,0,0
42267,-100,4,2,2,20,0,0
42364,-100,4,2,2,70,0,0
42847,-100,4,2,2,20,0,0
42944,-100,4,2,2,70,0,0
43041,-100,4,2,2,20,0,0
43138,-100,4,2,2,70,0,0
50880,-83.3333333333333,4,2,1,90,0,0
51073,-83.3333333333333,4,2,1,70,0,0
51170,-100,4,2,2,70,0,0
55525,-71.4285714285714,4,2,2,70,0,0
56105,-100,4,2,2,70,0,0
56686,-100,4,2,2,70,0,0
57267,-100,4,2,2,20,0,0
57364,-100,4,2,2,70,0,0
61138,-100,4,2,2,20,0,0
61235,-100,4,2,2,70,0,0
61428,-100,4,2,2,20,0,0
61525,-100,4,2,2,70,0,0
61912,-100,4,2,2,20,0,0
62009,-100,4,2,2,70,0,0
62396,-100,4,2,2,20,0,0
62493,-100,4,2,2,70,0,0
63267,-62.5,4,2,1,80,0,1
63364,-62.5,4,2,1,80,0,0
64525,-62.5,4,2,1,20,0,0
64622,-62.5,4,2,1,80,0,0
64718,-62.5,4,2,1,20,0,0
64815,-62.5,4,2,1,80,0,0
65299,-62.5,4,2,1,20,0,0
65396,-62.5,4,2,1,80,0,0
65493,-62.5,4,2,1,20,0,0
65589,-62.5,4,2,1,80,0,0
65880,-62.5,4,2,1,20,0,0
65976,-62.5,4,2,1,80,0,0
66267,-62.5,4,2,1,20,0,0
66364,-62.5,4,2,1,80,0,0
66847,-62.5,4,2,1,20,0,0
66944,-62.5,4,2,1,80,0,0
67041,-62.5,4,2,1,20,0,0
67138,-62.5,4,2,1,80,0,0
67718,-62.5,4,2,1,80,0,0
68299,-62.5,4,2,1,80,0,0
68396,-62.5,4,2,1,20,0,0
68493,-62.5,4,2,1,80,0,0
68783,-62.5,4,2,1,20,0,0
68880,-62.5,4,2,1,80,0,0
69944,-62.5,4,2,1,20,0,0
70041,-62.5,4,2,1,80,0,0
70138,-62.5,4,2,1,20,0,0
70235,-62.5,4,2,1,80,0,0
70718,-62.5,4,2,1,20,0,0
70815,-62.5,4,2,1,80,0,0
70912,-62.5,4,2,1,20,0,0
71009,-62.5,4,2,1,80,0,0
71299,-62.5,4,2,1,20,0,0
71396,-62.5,4,2,1,80,0,0
71686,-62.5,4,2,1,20,0,0
71783,-62.5,4,2,1,80,0,0
72073,-62.5,4,2,1,20,0,0
72170,-62.5,4,2,1,80,0,0
72460,-62.5,4,2,1,20,0,0
72557,-62.5,4,2,1,80,0,0
72654,-62.5,4,2,1,5,0,0
72751,-62.5,4,2,1,80,0,0
72847,-62.5,4,2,1,5,0,0
72944,-62.5,4,2,1,80,0,0
73428,-62.5,4,2,1,20,0,0
73525,-62.5,4,2,1,80,0,0
73622,-62.5,4,2,1,20,0,0
73718,-62.5,4,2,1,80,0,0
73815,-62.5,4,2,1,20,0,0
73912,-62.5,4,2,1,80,0,0
74009,-62.5,4,2,1,20,0,0
74105,-71.4285714285714,4,2,1,80,0,0
74880,-83.3333333333333,4,2,1,80,0,0
75073,-71.4285714285714,4,2,1,20,0,0
75267,-71.4285714285714,4,2,1,80,0,0
75654,253.69978858351,3,2,1,60,1,0
75654,-166.666666666667,4,2,1,60,0,0
77937,-200,4,2,1,60,0,0
78127,-166.666666666667,4,2,1,5,0,0
78190,-166.666666666667,4,2,1,60,0,0
78381,-166.666666666667,4,2,1,5,0,0
78444,-166.666666666667,4,2,1,60,0,0
78634,-166.666666666667,4,2,1,5,0,0
78698,-166.666666666667,4,2,1,60,0,0
80727,-133.333333333333,4,2,1,60,0,0
80918,-200,4,2,1,5,0,0
80981,-200,4,2,1,60,0,0
81235,-200,4,2,1,5,0,0
81489,-200,4,2,1,65,0,0
81742,-133.333333333333,3,2,1,90,0,0
81869,-133.333333333333,3,2,1,70,0,0
86943,-100,3,2,1,20,0,0
87070,256.959314775161,4,2,1,70,1,0
87841,387.096774193548,4,2,1,70,1,0
88034,-100,4,2,2,20,0,0
88131,-100,4,2,2,70,0,0
88808,-100,4,2,2,20,0,0
88905,-100,4,2,2,70,0,0
89099,-100,4,2,2,20,0,0
89195,-100,4,2,2,70,0,0
89292,-100,4,2,2,20,0,0
89389,-100,4,2,2,70,0,0
89582,-100,4,2,2,20,0,0
89679,-100,4,2,2,70,0,0
89873,-100,4,2,2,20,0,0
89970,-100,4,2,2,70,0,0
91131,-100,4,2,2,20,0,0
91228,-100,4,2,2,70,0,0
92002,-100,4,2,2,20,0,0
92099,-100,4,2,2,70,0,0
92486,-76.9230769230769,4,2,2,70,0,0
93260,-100,4,2,2,70,0,0
94034,-100,4,2,1,70,0,0
94228,-100,4,2,2,20,0,0
94324,-100,4,2,2,70,0,0
95776,-100,4,2,2,20,0,0
95873,-100,4,2,2,70,0,0
96066,-100,4,2,2,20,0,0
96163,-100,4,2,2,70,0,0
97034,-100,4,2,2,20,0,0
97131,-100,4,2,2,70,0,0
98679,-83.3333333333333,4,2,2,70,0,0
98970,-133.333333333333,4,2,2,70,0,0
99453,-83.3333333333333,4,2,2,70,0,0
100228,-62.5,4,2,1,80,0,1
100324,-62.5,4,2,1,80,0,0
104679,-62.5,4,2,1,80,0,0
105066,-62.5,4,2,1,80,0,0
106421,-62.5,4,2,1,80,0,0
107970,-83.3333333333333,4,2,1,80,0,0
109518,-62.5,4,2,1,80,0,0
110002,-62.5,4,2,1,20,0,0
110099,-62.5,4,2,1,80,0,0
110195,-62.5,4,2,1,20,0,0
110292,-62.5,4,2,1,80,0,0
110582,-62.5,4,2,1,20,0,0
110679,-62.5,4,2,1,80,0,0
110776,-62.5,4,2,1,20,0,0
110873,-62.5,4,2,1,80,0,0
110970,-62.5,4,2,1,20,0,0
111066,-62.5,4,2,1,80,0,0
112615,-58.8235294117647,4,2,1,80,0,1
112711,-58.8235294117647,4,2,1,80,0,0
116486,-66.6666666666667,4,2,1,80,0,0
117260,-83.3333333333333,4,2,1,80,0,0
118808,-58.8235294117647,4,2,1,90,0,0
118905,-58.8235294117647,4,2,1,80,0,0
121905,-66.6666666666667,4,2,1,80,0,0
122002,-66.6666666666667,4,2,1,20,0,0
122099,-66.6666666666667,4,2,1,80,0,0
122195,-66.6666666666667,4,2,1,20,0,0
122292,-66.6666666666667,4,2,1,80,0,0
122389,-66.6666666666667,4,2,1,20,0,0
122486,-66.6666666666667,4,2,1,80,0,0
122582,-66.6666666666667,4,2,1,20,0,0
122679,-58.8235294117647,4,2,1,80,0,0
122776,-58.8235294117647,4,2,1,20,0,0
122873,-58.8235294117647,4,2,1,80,0,0
122970,-58.8235294117647,4,2,1,20,0,0
123066,-58.8235294117647,4,2,1,80,0,0
123163,-58.8235294117647,4,2,1,20,0,0
123260,-58.8235294117647,4,2,1,80,0,0
123357,-58.8235294117647,4,2,1,20,0,0
123453,-58.8235294117647,4,2,1,80,0,0
124228,387.096774193548,4,2,1,80,1,0
125098,-100,4,2,1,50,0,0
125562,320,3,2,1,50,1,0
125797,-100,3,2,1,5,0,0
125882,338.983050847458,3,2,1,50,1,0
126559,347.826086956522,3,2,1,50,1,0
126559,-133.333333333333,3,2,1,50,0,0
126819,-133.333333333333,3,2,1,5,0,0
126906,-133.333333333333,3,2,1,50,0,0
129863,-133.333333333333,3,2,1,20,0,0
130037,379.746835443038,3,2,1,50,1,0
130037,-133.333333333333,3,2,1,50,0,0
130226,-133.333333333333,3,2,1,20,0,0
130416,428.571428571429,3,2,1,50,1,0
130844,513.918629550321,3,2,1,40,1,0
130844,-133.333333333333,3,2,1,40,0,0
131357,631.578947368421,3,2,1,40,1,0
131988,674.157303370787,3,2,1,40,1,0
132662,591.133004926108,3,2,1,40,1,0
133253,727.272727272727,3,2,1,40,1,0
133980,810.810810810811,3,2,1,40,1,0
135601,-100,3,2,1,20,0,0
136209,-100,3,2,1,5,0,0

[Colours]
Combo1 : 0,210,210
Combo2 : 151,221,255
Combo3 : 19,72,196

[HitObjects]
168,28,1331,5,14,0:2:0:0:
168,51,1428,1,0,0:0:0:0:
168,74,1525,1,0,0:0:0:0:
344,74,1718,1,0,0:0:0:0:
344,51,1815,1,0,0:0:0:0:
344,28,1912,1,0,0:0:0:0:
192,166,2880,5,2,0:0:0:0:
168,166,2976,1,0,0:0:0:0:
144,166,3073,1,0,0:0:0:0:
320,166,3267,1,0,0:0:0:0:
344,166,3363,1,0,0:0:0:0:
368,166,3460,1,0,0:0:0:0:
185,367,4428,5,2,0:0:0:0:
156,361,4525,1,0,0:0:0:0:
135,341,4622,1,0,0:0:0:0:
308,260,4815,1,0,0:0:0:0:
334,269,4912,1,0,0:0:0:0:
355,293,5009,1,0,0:0:0:0:
252,320,5202,1,0,0:0:0:0:
392,214,5396,1,0,0:0:0:0:
236,156,5589,1,0,0:0:0:0:
225,182,5686,1,0,0:0:0:0:
226,210,5783,1,0,0:0:0:0:
423,328,5976,5,2,0:0:0:0:
460,322,6073,1,0,0:0:0:0:
491,299,6170,1,0,0:0:0:0:
459,90,6363,1,0,0:0:0:0:
443,55,6460,1,0,0:0:0:0:
408,37,6557,1,0,0:0:0:0:
184,108,6751,6,8,L|224:88,5,31.6666666666667
256,80,7138,1,8,0:0:0:0:
319,112,7235,1,8,0:0:0:0:
327,182,7331,1,8,0:0:0:0:
267,221,7428,1,8,0:0:0:0:
203,194,7525,6,0,B|156:197|156:197|105:173|105:173|51:200,1,142.5,12|0,0:0|0:0,0:0:0:0:
64,201,7912,2,0,L|86:267,1,47.5
299,305,8105,2,0,B|345:308|345:308|396:284|396:284|451:311,1,142.5,8|0,0:0|0:0,0:0:0:0:
438,317,8493,2,0,L|416:383,1,47.5
402,200,8686,2,0,L|452:223,1,47.5,8|0,0:0|0:0,0:0:0:0:
321,234,8880,2,0,L|274:211,1,47.5
218,148,9073,6,0,P|213:113|234:54,1,95,8|0,0:0|0:0,0:0:0:0:
306,46,9364,1,0,0:0:0:0:
306,46,9460,1,0,0:0:0:0:
479,239,9654,2,0,P|485:195|463:137,1,95,8|0,0:0|0:0,0:0:0:0:
411,107,9944,1,0,0:0:0:0:
411,107,10041,1,0,0:0:0:0:
233,309,10235,2,0,P|217:275|202:261,1,47.5,8|0,0:0|0:0,0:0:0:0:
82,232,10428,2,0,P|117:227|136:219,1,47.5
252,171,10622,5,8,0:0:0:0:
272,134,10718,1,0,0:0:0:0:
264,91,10815,1,0,0:0:0:0:
230,64,10912,1,0,0:0:0:0:
187,60,11009,1,0,0:0:0:0:
154,87,11105,1,0,0:0:0:0:
141,128,11202,1,8,0:0:0:0:
318,318,11396,5,0,0:0:0:0:
354,341,11493,1,0,0:0:0:0:
396,340,11589,1,0,0:0:0:0:
434,321,11686,1,0,0:0:0:0:
457,286,11783,2,0,L|446:223,1,47.5,8|0,0:0|0:0,0:0:0:0:
349,177,11976,2,0,L|335:223,1,47.5
238,301,12170,6,0,P|216:290|198:275,1,47.5,8|0,0:0|0:0,0:0:0:0:
126,210,12364,2,0,P|91:226|68:250,1,47.5
238,195,12557,2,0,P|270:174|284:155,1,47.5
134,126,12751,2,0,P|116:106|111:68,1,47.5,8|0,0:0|0:0,0:0:0:0:
224,61,12944,6,0,L|237:124,1,47.5
168,191,13138,2,0,L|160:259,1,47.5
10,293,13331,2,0,L|-1:246,1,47.5,8|0,0:0|0:0,0:0:0:0:
61,149,13525,2,0,L|74:194,1,47.5
112,337,13718,5,12,0:0:0:0:
151,352,13815,1,0,0:0:0:0:
193,351,13912,1,0,0:0:0:0:
222,320,14009,1,0,0:0:0:0:
257,296,14105,1,0,0:0:0:0:
299,291,14202,1,0,0:0:0:0:
335,313,14299,1,0,0:0:0:0:
250,162,14493,6,0,P|247:185|254:210,1,47.5,2|0,0:0|0:0,0:0:0:0:
341,42,14686,2,0,P|362:32|380:14,1,47.5,2|0,0:0|0:0,0:0:0:0:
177,22,14880,1,2,0:0:0:0:
256,78,15073,1,0,0:0:0:0:
174,217,15267,6,0,L|179:240,1,23.75
345,229,15460,2,0,L|340:253,1,23.75
132,312,15654,2,0,L|140:334,1,23.75
373,355,15847,2,0,L|362:376,1,23.75
425,125,16041,6,0,P|402:129|382:140,1,47.5,2|0,0:0|0:0,0:0:0:0:
272,179,16235,2,0,P|292:200|322:211,1,47.5,2|0,0:0|0:0,0:0:0:0:
384,246,16428,1,2,0:0:0:0:
347,58,16622,1,0,0:0:0:0:
130,30,16815,5,8,0:0:0:0:
106,54,16912,1,0,0:0:0:0:
133,115,17009,1,0,0:0:0:0:
135,149,17105,1,0,0:0:0:0:
78,184,17202,1,0,0:0:0:0:
60,214,17299,1,0,0:0:0:0:
86,282,17396,1,0,0:0:0:0:
373,120,17589,5,2,0:0:0:0:
404,132,17686,1,0,0:0:0:0:
459,177,17783,1,2,0:0:0:0:
472,208,17880,1,0,0:0:0:0:
459,278,17976,1,2,0:0:0:0:
361,210,18170,1,0,0:0:0:0:
279,380,18364,5,2,0:0:0:0:
246,352,18460,1,0,0:0:0:0:
203,349,18557,1,2,0:0:0:0:
164,367,18653,1,0,0:0:0:0:
122,354,18751,1,2,0:0:0:0:
93,322,18847,1,0,0:0:0:0:
99,279,18944,2,0,P|96:250|87:231,1,47.5,2|0,0:0|0:0,0:0:0:0:
12,134,19138,2,0,P|58:157|107:147,1,95,2|0,0:0|0:0,0:0:0:0:
116,138,19428,1,0,0:0:0:0:
134,124,19525,5,10,0:0:0:0:
179,110,19622,1,8,0:0:0:0:
230,112,19718,1,8,0:0:0:0:
274,147,19815,1,8,0:0:0:0:
334,185,19912,5,14,0:2:0:0:
405,177,20009,1,0,0:0:0:0:
446,120,20105,1,0,0:0:0:0:
438,49,20202,1,0,0:0:0:0:
380,6,20299,2,0,P|357:72|363:109,1,95,0|2,0:0|0:0,0:0:0:0:
419,202,20686,2,0,P|480:201|528:187,1,95,2|0,0:0|0:0,0:0:0:0:
304,309,21073,1,2,0:0:0:0:
304,309,21170,1,0,0:0:0:0:
304,309,21267,1,0,0:0:0:0:
44,246,21460,5,2,0:0:0:0:
82,228,21557,1,0,0:0:0:0:
125,231,21654,1,0,0:0:0:0:
267,180,21847,1,0,0:0:0:0:
288,143,21944,1,0,0:0:0:0:
287,100,22041,1,2,0:0:0:0:
151,138,22235,1,2,0:0:0:0:
294,259,22428,1,0,0:0:0:0:
266,60,22622,1,2,0:0:0:0:
187,264,22815,1,0,0:0:0:0:
391,237,23009,5,2,0:0:0:0:
391,237,23105,1,0,0:0:0:0:
391,237,23202,1,0,0:0:0:0:
370,119,23396,1,0,0:0:0:0:
104,110,23589,5,0,0:0:0:0:
283,191,23783,1,2,0:0:0:0:
283,191,23880,1,0,0:0:0:0:
283,191,23976,1,0,0:0:0:0:
150,10,24170,1,0,0:0:0:0:
238,368,24364,5,0,0:0:0:0:
448,66,24557,1,14,0:0:0:0:
448,66,25331,2,0,L|455:182,2,95
360,216,25912,1,0,0:0:0:0:
301,155,26105,6,0,P|235:156|203:180,1,95,2|0,0:0|0:0,0:0:0:0:
196,181,26396,2,0,P|156:136|154:75,1,95,2|0,0:0|0:0,0:0:0:0:
207,57,26686,2,0,P|232:56|273:71,1,47.5
284,229,26880,2,0,L|263:337,1,95,2|0,0:0|0:0,0:0:0:0:
245,307,27170,2,0,P|201:293|157:309,1,95,2|0,0:0|0:0,0:0:0:0:
118,372,27460,2,0,P|98:355|80:319,1,47.5
32,254,27654,6,0,L|33:277,1,23.75,2|0,0:0|0:0,0:0:0:0:
164,162,27944,2,0,L|174:140,1,23.75
12,72,28235,2,0,L|23:98,1,23.75,2|0,0:0|0:0,0:0:0:0:
220,263,28622,2,0,P|275:284|326:280,2,95
248,96,29202,6,0,L|267:200,1,95,2|0,0:0|0:0,0:0:0:0:
250,182,29493,2,0,P|304:165|367:186,1,95,2|0,0:0|0:0,0:0:0:0:
392,266,29783,2,0,L|405:220,1,47.5
506,192,29976,2,0,L|483:86,1,95,2|0,0:0|0:0,0:0:0:0:
503,75,30267,2,0,P|452:101|391:82,1,95,2|0,0:0|0:0,0:0:0:0:
346,42,30557,2,0,L|327:102,1,47.5
264,200,30751,6,0,L|248:180,1,23.75,2|0,0:0|0:0,0:0:0:0:
70,258,31041,2,0,L|82:229,1,23.75
0,79,31331,2,0,L|23:90,1,23.75,2|0,0:0|0:0,0:0:0:0:
450,287,31718,5,0,0:0:0:0:
411,199,31912,1,0,0:0:0:0:
317,181,32105,1,0,0:0:0:0:
242,241,32299,6,0,L|202:255,5,31.6666666666667,2|0|0|0|0|0,0:0|0:0|0:0|0:0|0:0|0:0,0:0:0:0:
168,313,32686,2,0,L|131:296,5,31.6666666666667
53,297,33073,2,0,L|34:337,5,31.6666666666667,2|0|0|0|0|0,0:0|0:0|0:0|0:0|0:0|0:0,0:0:0:0:
99,226,33460,2,0,L|87:181,5,31.6666666666667
44,140,33847,5,2,0:0:0:0:
80,117,33944,1,0,0:0:0:0:
122,109,34041,1,0,0:0:0:0:
163,120,34138,1,0,0:0:0:0:
197,145,34235,1,2,0:0:0:0:
234,165,34331,1,0,0:0:0:0:
276,171,34428,1,0,0:0:0:0:
317,161,34525,1,0,0:0:0:0:
347,130,34622,1,2,0:0:0:0:
279,0,34815,6,0,P|261:51|272:94,2,95
477,130,35396,2,0,L|488:183,1,47.5,2|0,0:0|0:0,0:0:0:0:
472,302,35589,1,0,0:0:0:0:
472,302,35686,2,0,P|450:250|373:210,1,142.5,2|0,0:0|0:0,0:0:0:0:
224,340,36170,2,0,L|170:355,1,47.5,2|0,0:0|0:0,0:0:0:0:
109,314,36364,1,0,0:0:0:0:
109,314,36460,2,0,P|76:265|124:155,1,142.5,2|0,0:0|0:0,0:0:0:0:
180,167,36944,6,0,L|219:180,5,31.6666666666667,2|0|0|0|0|0,0:0|0:0|0:0|0:0|0:0|0:0,0:0:0:0:
290,159,37331,1,0,0:0:0:0:
308,141,37396,1,0,0:0:0:0:
319,118,37460,1,0,0:0:0:0:
322,92,37525,1,0,0:0:0:0:
319,67,37589,1,0,0:0:0:0:
309,43,37654,1,0,0:0:0:0:
291,25,37718,1,2,0:0:0:0:
120,116,37912,6,0,L|101:22,2,95
85,306,38493,6,0,P|132:340|209:327,1,113.999996520996,6|8,3:2|0:0,0:0:0:0:
73,208,38783,1,2,0:0:0:0:
73,208,38880,2,0,P|49:192|-12:196,1,47.5,0|0,3:0|0:0,0:0:0:0:
3,301,39073,2,0,L|21:360,1,47.5,8|0,0:0|0:0,0:0:0:0:
152,263,39267,6,0,L|169:137,1,95,2|8,3:2|0:0,0:0:0:0:
125,93,39557,1,2,0:0:0:0:
125,93,39654,2,0,L|53:78,1,47.5,0|0,3:0|0:0,0:0:0:0:
213,38,39847,2,0,L|279:55,1,47.5,8|0,0:0|0:0,0:0:0:0:
293,159,40041,5,2,3:2:0:0:
65,19,40331,1,2,3:2:0:0:
337,0,40622,1,2,3:2:0:0:
59,102,41009,6,0,P|35:149|60:209,2,95
171,285,41589,2,0,P|175:331|160:376,1,95,2|8,3:2|0:0,0:0:0:0:
77,263,41880,1,2,0:0:0:0:
77,263,41976,2,0,P|98:240|135:226,1,47.5,0|0,3:0|0:0,0:0:0:0:
214,216,42170,2,0,P|238:233|284:237,1,47.5,8|0,0:0|0:0,0:0:0:0:
353,376,42364,6,0,P|337:331|342:284,1,95,2|8,3:2|0:0,0:0:0:0:
408,209,42654,1,2,0:0:0:0:
408,209,42751,2,0,P|416:231|416:255,1,47.5,0|0,3:0|0:0,0:0:0:0:
310,149,42944,2,0,L|364:139,1,47.5,8|0,0:0|0:0,0:0:0:0:
457,84,43138,5,2,3:2:0:0:
256,360,43428,1,2,3:2:0:0:
55,84,43718,1,2,3:2:0:0:
55,84,44105,6,0,P|123:60|179:76,2,95,0|0|8,0:0|0:0|0:0,0:0:0:0:
161,230,44686,1,2,3:2:0:0:
205,250,44783,1,0,0:0:0:0:
253,242,44880,1,8,0:0:0:0:
289,210,44976,1,10,0:0:0:0:
305,166,45073,1,0,3:0:0:0:
293,118,45170,1,0,0:0:0:0:
257,86,45267,1,8,0:0:0:0:
215,89,45364,1,0,0:0:0:0:
223,111,45460,5,2,3:2:0:0:
247,107,45557,1,0,0:0:0:0:
267,95,45654,1,8,0:0:0:0:
287,83,45751,1,2,0:0:0:0:
311,79,45847,1,0,3:0:0:0:
335,83,45944,1,0,0:0:0:0:
355,99,46041,1,8,0:0:0:0:
367,119,46138,1,0,0:0:0:0:
371,143,46235,6,0,L|367:211,1,47.5,2|0,3:2|0:0,0:0:0:0:
438,310,46428,2,0,L|442:242,1,47.5,8|0,0:0|0:0,0:0:0:0:
345,164,46622,2,0,L|341:232,1,47.5,2|0,3:2|0:0,0:0:0:0:
455,321,46815,2,0,L|459:253,1,47.5,8|0,0:0|0:0,0:0:0:0:
300,264,47009,5,2,3:2:0:0:
262,269,47105,1,0,0:0:0:0:
224,275,47202,1,8,0:0:0:0:
186,281,47299,1,0,0:0:0:0:
139,302,47396,5,2,3:2:0:0:
161,305,47493,1,0,0:0:0:0:
183,308,47589,1,8,0:0:0:0:
205,311,47686,1,0,0:0:0:0:
255,369,47783,6,0,P|246:317|266:227,1,142.5,2|2,3:2|0:2,0:0:0:0:
336,258,48170,2,0,P|377:271|455:230,1,95,0|8,3:0|0:0,0:0:0:0:
173,179,48557,2,0,P|187:111|159:7,1,142.5,2|2,3:2|0:2,0:0:0:0:
103,57,48944,2,0,P|52:61|-14:18,1,95,0|8,3:0|0:0,0:0:0:0:
0,229,49331,1,2,3:2:0:0:
20,216,49428,1,0,0:0:0:0:
43,210,49525,1,0,0:0:0:0:
66,213,49622,1,2,3:2:0:0:
86,224,49718,5,0,0:0:0:0:
79,266,49815,1,0,0:0:0:0:
96,308,49912,1,2,3:2:0:0:
135,325,50009,2,0,L|192:315,1,47.5
246,244,50202,5,2,0:0:0:0:
365,278,50347,5,2,0:0:0:0:
295,165,50493,5,2,0:0:0:0:
425,140,50638,5,2,0:0:0:0:
304,42,50783,5,10,0:0:0:0:
409,13,50880,6,2,P|457:33|481:110,1,113.999996520996,4|2,0:0|0:0,0:0:0:0:
425,140,51170,1,0,0:0:0:0:
425,140,51267,2,0,P|363:121|313:143,1,95,8|0,0:0|3:0,0:0:0:0:
189,190,51654,2,0,P|167:136|184:50,1,142.5,0|2,1:0|0:0,0:0:0:0:
181,55,52041,1,8,0:0:0:0:
285,240,52235,1,10,3:2:0:0:
173,298,52428,6,0,P|125:262|45:258,2,142.5,10|8|10,3:2|3:2|3:2,0:2:0:0:
233,380,53202,1,2,1:2:0:0:
91,337,53396,1,8,3:2:0:0:
207,228,53589,1,10,0:0:0:0:
102,177,53783,1,8,3:2:0:0:
102,177,53880,1,8,3:2:0:0:
102,177,53976,6,0,P|166:133|242:141,1,142.5,10|8,3:2|3:2,0:2:0:0:
247,145,54364,2,0,P|279:200|330:213,1,95,8|8,0:0|3:2,0:0:0:0:
463,338,54751,2,0,B|506:278|478:198|478:198|474:222|430:265,1,190,0|8,1:0|0:0,0:0:0:0:
365,288,55331,1,8,3:2:0:0:
295,77,55525,6,0,P|351:29|429:29,1,132.999995941162,10|0,3:2|0:0,0:0:0:0:
255,171,55815,2,0,P|192:154|142:94,1,132.999995941162,10|0,3:2|0:0,0:0:0:0:
67,34,56105,2,0,B|2:126|117:135|54:236,1,190,10|0,3:2|0:0,0:0:0:0:
199,320,56686,1,0,0:0:0:0:
231,354,56783,1,0,3:2:0:0:
275,370,56880,1,0,3:2:0:0:
321,362,56976,1,8,3:2:0:0:
363,339,57073,6,0,P|418:323|479:347,1,95,4|0,0:0|0:0,0:0:0:0:
512,202,57364,2,0,P|458:239|354:213,1,142.5,2|8,0:0|3:2,0:0:0:0:
231,74,57847,2,0,P|137:69|82:120,1,142.5,0|2,1:0|0:0,0:0:0:0:
100,94,58235,1,8,0:0:0:0:
256,190,58428,1,8,0:0:0:0:
162,341,58622,6,0,P|120:305|99:207,1,142.5,8|10,3:2|3:2,0:0:0:0:
338,381,59202,1,8,3:2:0:0:
338,381,59299,1,8,3:2:0:0:
338,381,59396,2,0,P|386:353|425:248,1,142.5,0|2,1:2|0:0,0:0:0:0:
213,59,59976,1,8,3:2:0:0:
325,210,60170,6,0,P|318:162|337:93,1,95,8|0,3:2|0:0,0:0:0:0:
348,95,60460,2,0,P|399:87|482:170,1,142.5,2|8,0:0|3:2,0:0:0:0:
502,277,60944,2,0,L|400:301,1,95,0|0,1:0|0:0,0:0:0:0:
274,357,61235,1,2,0:0:0:0:
274,357,61331,2,0,P|321:385|378:369,1,95,8|0,0:0|0:0,0:0:0:0:
245,226,61718,6,0,P|199:267|158:275,1,95,4|0,3:2|0:0,0:0:0:0:
96,264,62009,2,0,P|79:173|116:77,1,190,0|0,3:2|0:0,0:0:0:0:
138,67,62493,6,0,L|209:53,1,47.5,0|0,3:0|0:0,0:0:0:0:
367,135,62686,2,0,L|302:117,1,47.5,0|0,0:0|3:0,0:0:0:0:
155,187,62880,6,0,L|175:254,1,47.5
338,241,63073,2,0,L|320:293,1,47.5,0|0,3:0|0:0,0:0:0:0:
268,359,63267,6,0,B|233:312|233:312|260:197,1,152,4|10,3:1|0:0,0:0:0:0:
254,221,63557,1,2,0:0:0:0:
254,221,63654,1,8,0:3:0:0:
486,145,63847,1,8,0:0:0:0:
448,31,64041,2,0,P|380:51|328:125,1,152,0|8,3:0|0:0,0:0:0:0:
269,157,64331,1,2,0:0:0:0:
269,157,64428,2,0,P|222:138|195:114,1,76,8|0,0:3|0:0,0:0:0:0:
169,31,64622,2,0,P|136:68|89:88,1,76,8|0,0:0|0:0,0:0:0:0:
21,66,64815,6,0,P|34:141|9:242,1,152,0|8,3:0|0:0,0:0:0:0:
65,316,65105,1,2,0:0:0:0:
65,316,65202,2,0,L|148:303,1,76,8|0,0:3|0:0,0:0:0:0:
232,219,65396,2,0,L|158:206,1,76,8|0,0:0|0:0,0:0:0:0:
209,374,65589,2,0,B|283:380|283:380|336:338|336:338|440:361,1,228,2|0,3:2|0:0,0:0:0:0:
507,208,65976,2,0,P|432:168|328:271,1,228,10|0,0:3|0:0,0:0:0:0:
156,283,66364,6,0,P|130:209|154:129,1,152,2|8,3:2|0:0,0:0:0:0:
228,138,66654,1,2,0:0:0:0:
228,138,66751,2,0,B|250:164|250:164|253:227,1,76,8|0,0:3|0:0,0:0:0:0:
84,91,66944,2,0,B|72:52|72:52|95:-8,1,76,8|0,0:0|0:0,0:0:0:0:
161,11,67138,2,0,P|223:23|333:22,1,152,0|8,3:2|0:0,0:0:0:0:
396,28,67428,1,2,0:0:0:0:
396,28,67525,1,8,0:3:0:0:
293,259,67718,6,0,P|372:197|340:330,1,304,8|8,0:0|0:0,0:0:0:0:
281,369,68202,1,0,0:0:0:0:
281,369,68299,2,0,L|192:355,1,76,10|0,0:3|1:0,1:0:0:0:
3,323,68493,2,0,P|6:291|51:251,1,76,8|0,0:0|0:0,0:0:0:0:
98,102,68686,2,0,P|107:142|95:197,1,76,6|0,1:2|0:0,0:0:0:0:
225,266,68880,2,0,P|213:233|213:179,1,76,8|0,0:0|0:0,0:0:0:0:
269,55,69073,5,4,1:2:0:0:
338,22,69170,1,0,1:2:0:0:
414,27,69267,1,8,1:2:0:0:
473,75,69364,1,0,1:2:0:0:
502,144,69460,6,0,P|511:204|472:296,1,152,4|8,3:2|0:0,0:0:0:0:
403,332,69751,1,2,0:0:0:0:
403,332,69847,2,0,P|367:320|308:341,1,76,8|0,0:3|0:0,0:0:0:0:
189,294,70041,2,0,P|175:320|183:365,1,76,8|0,0:0|0:0,0:0:0:0:
268,246,70235,2,0,B|283:183|283:183|240:95,1,152,0|8,3:0|0:0,0:0:0:0:
168,20,70525,1,2,0:0:0:0:
168,20,70622,2,0,P|129:15|78:48,1,76,8|0,0:3|0:0,0:0:0:0:
245,105,70815,2,0,P|277:112|334:79,1,76,8|0,0:0|0:0,0:0:0:0:
372,11,71009,6,0,B|443:23|493:77|493:77|436:67|395:102,1,228,2|0,3:0|0:0,0:0:0:0:
343,294,71396,2,0,B|272:282|236:225|236:225|281:230|327:194,1,228,10|0,0:3|0:0,0:0:0:0:
448,153,71783,6,0,P|498:245|402:202,1,228,2|0,3:0|0:0,0:0:0:0:
253,141,72170,2,0,P|216:98|318:100,1,228,10|0,0:3|0:0,0:0:0:0:
236,225,72557,6,0,P|184:219|138:194,1,76,0|0,3:0|0:0,0:0:0:0:
124,59,72751,2,0,P|134:125|125:156,1,76,8|0,3:2|0:0,0:0:0:0:
100,266,72944,2,0,P|75:233|52:125,1,152,8|0,3:0|3:0,0:0:0:0:
459,241,73331,6,0,P|422:234|350:244,1,76,0|0,3:0|0:0,0:0:0:0:
305,302,73525,2,0,L|311:385,1,76,8|0,3:2|0:0,0:0:0:0:
206,240,73718,2,0,L|195:153,1,76,8|0,3:0|0:0,0:0:0:0:
313,87,73912,2,0,L|327:192,1,76,8|0,3:2|0:0,0:0:0:0:
235,338,74105,6,0,P|188:366|34:315,2,199.499993911743
295,274,74783,1,0,0:0:0:0:
295,274,74880,2,0,L|305:148,1,113.999996520996
22,127,75267,5,4,0:0:0:0:
12,153,75364,1,0,0:0:0:0:
29,174,75460,1,0,0:0:0:0:
55,162,75557,1,0,0:0:0:0:
52,131,75654,2,0,B|75:89|23:69|53:15,2,113.999996520996,2|0|0,0:0|0:0|0:0,0:0:0:0:
307,288,76415,5,2,0:0:0:0:
387,238,76668,1,2,0:0:0:0:
371,150,76922,1,0,0:0:0:0:
441,85,77112,1,2,0:0:0:0:
441,85,77176,2,0,P|463:133|454:202,2,113.999996520996,2|2|0,0:0|0:0|0:0,0:0:0:0:
274,20,77937,6,0,P|213:21|186:30,1,71.25,2|0,0:0|0:0,0:0:0:0:
177,41,78190,2,0,P|165:82|174:137,1,85.4999973907472,2|0,0:0|0:0,0:0:0:0:
188,140,78444,2,0,P|217:153|282:141,1,85.4999973907472,2|0,0:0|0:0,0:0:0:0:
350,121,78698,5,2,0:0:0:0:
431,167,78952,1,0,0:0:0:0:
437,255,79205,1,0,0:0:0:0:
163,342,79459,5,2,0:0:0:0:
125,258,79713,1,0,0:0:0:0:
167,193,79840,2,0,L|232:176,2,56.9999982604981
101,146,80220,5,2,0:0:0:0:
122,25,80474,1,2,0:0:0:0:
279,50,80727,2,0,P|284:86|271:51,1,106.875004076958,2|0,0:0|0:0,0:0:0:0:
292,25,80981,2,0,P|317:76|286:122,1,95,2|0,0:0|0:0,0:0:0:0:
101,250,81489,2,0,L|72:261,2,31.6666666666667
135,264,81742,6,0,L|99:125,1,142.5,6|2,0:2|0:0,0:0:0:0:
157,34,82123,1,0,0:0:0:0:
292,25,82250,2,0,P|314:32|341:27,3,35.625001358986
360,39,82503,6,0,L|373:134,1,71.2500027179719,2|0,0:0|0:0,0:0:0:0:
348,191,82758,1,2,0:0:0:0:
267,227,82884,1,0,0:0:0:0:
187,186,83011,1,0,0:0:0:0:
102,211,83138,1,0,0:0:0:0:
93,303,83264,6,0,P|138:343|241:334,1,142.500005435944,2|2,0:0|0:0,0:0:0:0:
217,346,83772,2,0,P|156:349|133:339,1,71.2500027179719
100,208,84026,5,2,0:0:0:0:
198,167,84152,1,0,0:0:0:0:
184,274,84279,1,2,0:0:0:0:
88,225,84406,5,0,0:0:0:0:
185,178,84533,1,2,0:0:0:0:
176,284,84660,1,0,0:0:0:0:
80,241,84787,6,0,P|64:149|92:84,2,142.500005435944,2|2|0,0:0|0:0|0:0,0:0:0:0:
172,323,85421,1,0,0:0:0:0:
172,323,85548,2,0,L|329:294,1,142.500005435944,2|2,0:0|0:0,0:0:0:0:
312,297,86055,5,0,0:0:0:0:
420,202,86181,1,0,0:0:0:0:
350,84,86309,2,0,P|299:73|219:119,1,142.500005435944,2|2,0:0|0:0,0:0:0:0:
223,115,86816,2,0,P|256:85|289:74,1,71.2500027179719,2|0,0:0|0:0,0:0:0:0:
404,198,87070,5,2,0:0:0:0:
237,243,87241,5,2,0:0:0:0:
420,299,87412,5,2,0:0:0:0:
309,169,87584,5,0,0:0:0:0:
315,203,87712,1,0,0:0:0:0:
322,233,87841,6,0,P|270:241|244:277,1,95,4|0,3:2|0:0,0:0:0:0:
198,359,88131,2,0,P|156:301|187:212,1,142.5,0|0,0:0|3:0,0:0:0:0:
43,37,88615,2,0,P|120:47|152:84,1,95,0|0,1:2|0:0,0:0:0:0:
178,128,88905,2,0,P|236:149|301:122,1,95,2|0,0:0|0:0,0:0:0:0:
255,26,89195,2,0,L|207:54,1,47.5,2|0,3:2|0:0,0:0:0:0:
106,162,89389,6,0,P|112:222|150:261,1,95,2|0,3:2|0:0,0:0:0:0:
298,303,89679,2,0,P|245:315|199:299,1,95,0|0,3:0|0:0,0:0:0:0:
126,340,89970,1,0,3:0:0:0:
227,169,90163,1,2,1:2:0:0:
207,303,90357,1,0,3:0:0:0:
68,223,90550,5,2,0:0:0:0:
286,260,90744,1,0,3:0:0:0:
286,260,90841,1,0,3:0:0:0:
286,260,90937,6,0,P|338:239|392:270,1,95,2|0,3:2|0:0,0:0:0:0:
392,268,91228,2,0,P|369:216|360:113,1,142.5,0|0,3:0|3:0,0:0:0:0:
146,174,91711,2,0,P|176:107|177:34,1,142.5,0|0,1:0|0:0,0:0:0:0:
176,14,92099,2,0,P|134:52|77:60,1,95,0|0,0:0|3:0,0:0:0:0:
31,185,92486,6,0,P|81:179|147:220,1,123.499994346619,2|0,3:2|0:0,0:0:0:0:
282,264,92776,2,0,P|208:272|168:321,1,123.499994346619,2|0,3:2|0:0,0:0:0:0:
149,384,93066,1,2,3:2:0:0:
205,135,93260,6,0,B|276:97|298:174|378:96,2,142.5,0|0|0,0:0|0:0|3:0,0:0:0:0:
186,169,93937,1,0,3:0:0:0:
186,169,94034,2,0,P|198:221|196:275,1,95,4|0,3:1|0:0,0:0:0:0:
223,383,94324,2,0,P|224:310|289:263,1,142.5,2|0,0:2|3:0,0:0:0:0:
464,308,94808,6,0,P|414:347|319:349,1,142.5,0|2,1:0|0:0,0:0:0:0:
329,97,95389,1,0,3:0:0:0:
382,220,95582,2,0,L|273:242,1,95,0|0,3:0|0:0,0:0:0:0:
160,199,95873,2,0,P|98:206|55:244,1,95,2|0,3:2|0:0,0:0:0:0:
59,269,96163,1,0,3:0:0:0:
91,303,96260,1,0,3:0:0:0:
138,297,96357,6,0,P|160:233|128:126,1,142.5,0|2,1:0|0:0,0:0:0:0:
345,71,96937,2,0,L|431:51,1,47.5,0|0,3:0|0:0,0:0:0:0:
486,25,97131,6,0,P|467:94|474:137,1,95,0|0,3:0|0:0,0:0:0:0:
404,272,97421,2,0,P|360:231|379:158,1,142.5,2|0,0:0|3:0,0:0:0:0:
457,332,97905,2,0,P|410:350|321:356,1,95,0|0,1:0|0:0,0:0:0:0:
247,195,98292,1,2,0:0:0:0:
145,373,98486,1,0,0:0:0:0:
14,209,98679,6,0,P|56:181|140:184,1,113.999996520996,4|0,3:2|0:0,0:0:0:0:
247,195,98970,2,0,B|208:230|157:240|157:240|180:224|192:194,1,142.5,0|0,3:2|0:2,0:0:0:0:
198,50,99453,6,0,P|215:97|208:137,1,56.9999982604981,0|0,3:0|0:0,0:0:0:0:
335,274,99647,2,0,P|318:227|325:187,1,56.9999982604981,0|0,0:0|3:0,0:0:0:0:
350,72,99840,6,0,L|413:50,1,56.9999982604981
136,112,100034,2,0,L|62:98,1,56.9999982604981,0|8,3:0|0:2,0:0:0:0:
255,275,100228,6,0,B|277:341|252:385|252:385|243:354|227:332,1,152,4|8,3:2|0:0,0:0:0:0:
133,323,100518,1,2,0:0:0:0:
133,323,100615,2,0,P|85:345|56:392,1,76,8|0,0:3|0:0,0:0:0:0:
181,259,100808,2,0,L|160:186,1,76,8|0,0:0|0:0,0:0:0:0:
1,89,101002,2,0,P|79:130|157:90,1,152,0|8,3:0|0:0,0:0:0:0:
236,39,101292,1,2,0:0:0:0:
236,39,101389,2,0,L|214:161,1,76,8|0,0:3|0:0,0:0:0:0:
250,214,101582,2,0,L|352:233,1,76,8|0,0:0|0:0,0:0:0:0:
485,105,101776,6,0,P|406:108|367:184,1,152,0|8,3:0|0:0,0:0:0:0:
337,306,102066,2,0,L|163:271,1,152,2|0,0:0|0:0,0:0:0:0:
29,274,102357,2,0,L|101:333,1,76,8|0,0:0|0:0,0:0:0:0:
112,206,102550,2,0,B|148:140|127:59|127:59|111:117|67:137,1,228,2|0,3:2|0:0,0:0:0:0:
234,5,102937,2,0,B|222:79|270:148|270:148|265:88|299:54,1,228,10|0,3:3|0:0,0:0:0:0:
372,27,103324,6,0,P|437:15|508:103,1,152,0|8,3:0|0:0,0:0:0:0:
376,196,103615,1,2,0:0:0:0:
376,196,103711,2,0,L|349:90,1,76,8|0,0:3|0:0,0:0:0:0:
499,228,103905,2,0,L|464:327,1,76,8|0,0:0|0:0,0:0:0:0:
375,369,104099,2,0,P|297:383|218:345,1,152,0|8,3:0|0:0,0:0:0:0:
150,288,104389,1,2,0:0:0:0:
150,288,104486,1,8,0:3:0:0:
271,76,104679,6,0,B|311:58|328:9|328:9|334:91|263:142|170:124,1,304,8|8,0:0|0:0,0:0:0:0:
20,245,105260,2,0,L|49:351,1,76,0|0,1:0|0:0,0:0:0:0:
193,218,105453,2,0,L|169:108,1,76,8|0,0:0|0:0,0:0:0:0:
56,52,105647,1,6,1:2:0:0:
181,343,105840,5,8,0:0:0:0:
235,359,105937,1,0,0:0:0:0:
291,349,106034,1,6,1:2:0:0:
331,308,106131,1,0,1:2:0:0:
385,290,106228,1,8,1:2:0:0:
436,312,106324,1,0,1:2:0:0:
467,344,106421,6,0,B|472:173,1,152,4|8,3:1|0:0,0:0:0:0:
390,135,106711,1,2,0:0:0:0:
390,135,106808,2,0,P|362:200|383:226,1,76,8|0,0:3|0:0,0:0:0:0:
305,265,107002,2,0,P|313:281|368:311,1,76,8|0,0:0|0:0,0:0:0:0:
259,368,107195,2,0,P|181:378|114:350,1,152,0|8,3:0|0:0,0:0:0:0:
83,245,107486,1,2,0:0:0:0:
83,245,107582,2,0,P|130:243|179:278,1,76,8|0,0:3|0:0,0:0:0:0:
246,208,107776,2,0,P|251:183|239:123,1,76,8|0,0:0|0:0,0:0:0:0:
149,18,107970,6,0,P|130:75|182:181,1,170.999994781494,2|0,3:2|0:0,0:0:0:0:
340,172,108357,2,0,P|381:99|363:18,1,170.999994781494,10|0,3:3|0:0,0:0:0:0:
123,15,108744,2,0,P|104:96|159:191,1,170.999994781494,2|0,3:2|0:0,0:0:0:0:
373,173,109131,2,0,P|407:96|389:15,1,170.999994781494,10|0,3:3|0:0,0:0:0:0:
247,81,109518,6,0,P|276:114|333:118,1,76,0|0,3:0|0:0,0:0:0:0:
384,252,109711,2,0,P|419:239|442:210,1,76,0|0,3:0|0:0,0:0:0:0:
480,99,109905,2,0,P|449:83|398:90,1,76,8|0,3:0|0:0,0:0:0:0:
298,217,110099,2,0,P|292:249|313:294,1,76,0|0,3:0|0:0,0:0:0:0:
498,370,110292,5,0,3:0:0:0:
498,370,110389,1,0,0:0:0:0:
498,370,110486,2,0,L|477:284,1,76,0|0,3:0|0:0,0:0:0:0:
361,165,110679,2,0,L|381:254,1,76,8|0,0:3|0:0,0:0:0:0:
279,356,110873,2,0,L|266:276,1,76,0|0,3:0|0:0,0:0:0:0:
166,55,111066,6,0,P|147:122|195:205,1,152,0|0,3:0|0:0,0:0:0:0:
198,209,111357,1,0,0:0:0:0:
198,209,111453,2,0,P|237:206|275:192,1,76,8|0,0:3|0:0,0:0:0:0:
414,263,111647,2,0,P|427:240|424:183,1,76
479,23,111840,6,0,P|462:10|421:6,1,50.6666666666667,2|0,0:0|0:0,0:0:0:0:
414,30,111970,6,0,P|388:29|357:37,1,50.6666666666667,2|0,0:0|0:0,0:0:0:0:
354,68,112099,6,0,P|333:79|315:114,1,50.6666666666667,2|0,0:0|0:0,0:0:0:0:
338,132,112228,6,0,P|336:160|362:210,3,76,2|0|2|0,0:0|0:0|0:0|0:0,0:0:0:0:
337,274,112615,6,0,P|270:331|144:301,1,161.500003080368,4|8,3:2|0:0,0:0:0:0:
72,256,112905,1,2,0:0:0:0:
72,256,113002,2,0,P|68:210|103:168,1,80.750001540184,8|0,0:3|0:0,0:0:0:0:
51,103,113195,2,0,P|116:101|156:147,1,80.750001540184,8|0,0:0|0:0,0:0:0:0:
172,191,113389,2,0,B|233:217|233:217|339:171,1,161.500003080368,0|8,3:0|0:0,0:0:0:0:
358,31,113679,1,2,0:0:0:0:
358,31,113776,2,0,B|384:64|384:64|377:137,1,80.750001540184,8|0,0:3|0:0,0:0:0:0:
419,289,113970,2,0,B|398:261|398:261|396:216,1,80.750001540184,8|0,0:0|0:0,0:0:0:0:
466,127,114163,5,0,3:0:0:0:
402,360,114357,2,0,P|322:387|234:354,1,161.500003080368,2|8,0:0|0:3,0:0:0:0:
180,321,114647,2,0,B|199:250|199:250|163:152,1,161.500003080368
332,63,114937,2,0,B|313:134|313:134|349:232,1,161.500003080368,2|0,3:2|0:0,0:0:0:0:
217,101,115228,2,0,P|121:98|88:193,1,161.500003080368,2|0,0:0|0:0,0:0:0:0:
69,274,115518,1,0,0:0:0:0:
45,292,115615,1,0,0:0:0:0:
20,298,115711,5,2,3:0:0:0:
47,229,115808,1,0,0:0:0:0:
120,221,115905,1,0,0:0:0:0:
171,276,116002,2,0,P|249:308|343:276,1,161.500003080368,2|0,0:0|0:0,0:0:0:0:
409,161,116292,1,10,0:0:0:0:
187,58,116486,2,0,P|111:38|9:114,2,213.750008153916,2|0|0,3:2|0:0|0:0,0:0:0:0:
257,280,117260,1,6,3:2:0:0:
325,58,117453,6,0,L|310:137,1,56.9999982604981
178,160,117647,2,0,L|189:219,1,56.9999982604981
330,260,117840,2,0,L|318:315,1,56.9999982604981
164,347,118034,5,6,0:0:0:0:
124,342,118131,1,0,0:0:0:0:
66,286,118228,5,2,0:0:0:0:
71,246,118324,1,0,0:0:0:0:
127,189,118421,5,6,3:2:0:0:
166,193,118518,1,0,0:0:0:0:
221,250,118615,5,0,0:0:0:0:
218,289,118711,1,0,0:0:0:0:
143,265,118808,6,0,L|158:62,1,161.500003080368,4|8,3:1|0:0,0:1:0:0:
231,68,119099,2,0,P|331:78|392:135,1,161.500003080368,2|0,0:0|0:0,0:0:0:0:
467,224,119389,2,0,P|491:192|473:137,1,80.750001540184,0|0,0:3|0:0,0:0:0:0:
419,60,119582,2,0,P|391:140|405:240,1,161.500003080368,0|8,3:0|0:0,0:0:0:0:
502,287,119873,2,0,P|445:260|298:289,1,161.500003080368,2|0,0:0|0:0,0:0:0:0:
163,285,120163,2,0,P|201:294|249:329,1,80.750001540184,8|0,0:0|0:0,0:0:0:0:
281,384,120357,6,0,B|212:284|322:241|265:145,1,242.250004620552,2|0,3:0|0:0,0:0:0:0:
163,109,120744,2,0,P|94:159|205:162,1,242.250004620552,8|0,3:0|0:0,0:0:0:0:
317,72,121131,2,0,P|308:-12|250:81,1,242.250004620552,2|0,3:0|0:0,0:0:0:0:
352,170,121518,2,0,P|412:191|456:174,2,107.666668720245,8|0|0,3:0|0:0|0:0,0:0:0:0:
169,210,121905,6,0,P|130:221|101:262,1,71.2500027179719,2|0,3:3|0:3,0:3:0:0:
0,212,122099,2,0,P|9:246|33:271,1,71.2500027179719,0|0,3:3|0:3,0:3:0:0:
179,305,122292,2,0,P|217:293|246:252,1,71.2500027179719,8|0,3:3|0:3,0:3:0:0:
78,109,122486,2,0,P|69:144|77:177,1,71.2500027179719,0|0,3:3|0:3,0:3:0:0:
0,322,122679,6,0,P|45:316|78:283,1,80.750001540184,2|0,3:0|0:0,0:0:0:0:
175,382,122873,2,0,P|185:344|179:304,1,80.750001540184,0|0,3:0|0:0,0:0:0:0:
147,153,123066,2,0,P|125:186|121:226,1,80.750001540184,8|0,3:0|0:0,0:0:0:0:
304,313,123260,2,0,P|293:279|248:233,1,80.750001540184,0|0,3:0|0:0,0:0:0:0:
202,92,123453,6,0,P|203:59|222:35,5,53.8333343601227,2|0|0|0|0|0,0:0|0:0|0:0|0:0|0:0|0:0,0:0:0:0:
286,17,123840,1,0,0:0:0:0:
302,32,123905,1,0,0:0:0:0:
312,52,123970,1,0,0:0:0:0:
321,72,124034,1,0,0:0:0:0:
322,95,124099,1,0,0:0:0:0:
321,117,124163,1,0,0:0:0:0:
314,142,124228,1,4,0:0:0:0:
306,168,125147,5,0,0:0:0:0:
306,168,125195,1,2,0:0:0:0:
443,280,125562,6,0,B|386:315|386:315|275:293,1,142.5,2|0,0:0|0:0,0:0:0:0:
312,301,125882,1,0,0:0:0:0:
252,367,126051,1,0,0:0:0:0:
185,265,126220,1,2,0:0:0:0:
74,304,126390,1,0,0:0:0:0:
74,304,126475,1,0,0:0:0:0:
74,304,126559,6,0,P|56:232|71:181,1,106.875004076958,2|0,0:0|0:0,0:0:0:0:
62,201,126906,1,0,0:0:0:0:
144,251,127080,1,0,0:0:0:0:
216,205,127254,1,2,0:0:0:0:
191,123,127428,1,0,0:0:0:0:
280,50,127602,6,0,P|322:93|401:110,1,142.500005435944,2|0,0:0|0:0,0:0:0:0:
400,110,128124,1,0,0:0:0:0:
473,222,128298,1,2,0:0:0:0:
350,231,128472,1,0,0:0:0:0:
350,231,128559,1,0,0:0:0:0:
350,231,128645,6,0,P|288:212|247:287,1,142.500005435944,2|0,0:0|0:0,0:0:0:0:
268,338,129167,2,0,P|337:351|378:293,1,142.500005435944,2|0,0:0|0:0,0:0:0:0:
327,208,129689,6,0,P|300:183|282:141,1,71.2500027179719,2|0,0:0|0:0,0:0:0:0:
369,21,130037,2,0,P|362:61|333:91,1,71.2500027179719
202,111,130416,1,0,0:0:0:0:
134,58,130630,1,0,0:0:0:0:
75,126,130844,6,0,P|75:191|114:269,1,142.500005435944,2|0,0:0|0:0,0:0:0:0:
183,285,131988,1,0,0:0:0:0:
256,261,132662,1,2,0:0:0:0:
324,107,133253,5,0,0:0:0:0:
188,107,133980,1,0,0:0:0:0:
184,216,134790,2,0,B|184:284|208:320|208:320|232:332|256:352|256:352|280:332|304:320|304:320|328:284|328:216,1,332.5
